osu file format v14

[General]
AudioFilename: audio.mp3
AudioLeadIn: 0
PreviewTime: 74869
Countdown: 0
SampleSet: Soft
StackLeniency: 0.2
Mode: 0
LetterboxInBreaks: 0
EpilepsyWarning: 1
WidescreenStoryboard: 1

[Editor]
Bookmarks: 20041,31075,42110,47627,50386,53144,54524,56248,57282,59007,60041,61765,64179,65407,67282,75213,81765,86248,89696,108316,119351,127627,130731,152452,153831,155555,156590,158314,159348,161073,163486,174004,185554,191071,196589,204693,211073,218659,240728,244866,251762,254521,260038
DistanceSpacing: 1.6
BeatDivisor: 4
GridSize: 16
TimelineZoom: 3

[Metadata]
Title:crystallized
TitleUnicode:crystallized
Artist:Camellia
ArtistUnicode:Camellia
Creator:-ckopoctb-
Version:Livstvichka's SiO2
Source:
Tags:dnb chillout dubstep mlg sourpls relax slider Emilia Adore Livstvichka wajinshu
BeatmapID:1263211
BeatmapSetID:539221

[Difficulty]
HPDrainRate:4
CircleSize:4
OverallDifficulty:7.5
ApproachRate:9.2
SliderMultiplier:2.1
SliderTickRate:2

[Events]
//Background and Video events
0,0,"thumb-1920-712346.jpg",0,0
//Break Periods
2,130586,140849
//Storyboard Layer 0 (Background)
//Storyboard Layer 1 (Fail)
//Storyboard Layer 2 (Pass)
//Storyboard Layer 3 (Foreground)
//Storyboard Sound Samples

[TimingPoints]
9005,689.655172413793,4,2,1,5,1,0
9005,-200,4,2,1,5,0,0
17280,-133.333333333333,4,2,1,5,0,0
20041,344.827586206897,4,2,1,5,1,0
20041,-133.333333333333,4,2,1,5,0,0
25558,-133.333333333333,4,2,1,10,0,0
26938,-100,4,2,1,5,0,0
28317,-100,4,2,1,15,0,0
29696,-100,4,2,1,25,0,0
30213,-80,4,2,1,25,0,0
31075,-100,4,2,1,25,0,0
47627,-133.333333333333,4,2,1,25,0,0
50386,-200,4,2,1,25,0,0
50731,-133.333333333333,4,2,1,25,0,0
51075,-100,4,2,1,25,0,0
53144,-200,4,2,1,25,0,0
53834,-100,4,2,1,25,0,0
54524,-200,4,2,1,25,0,0
56248,-133.333333333333,4,2,1,25,0,0
57282,-200,4,2,1,25,0,0
59007,-133.333333333333,4,2,1,25,0,0
59351,-100,4,2,1,25,0,0
60041,-200,4,2,1,25,0,0
61765,-100,4,2,1,25,0,0
62455,-133.333333333333,4,2,1,25,0,0
64179,-200,4,2,1,25,0,0
64869,-133.333333333333,4,2,1,25,0,0
65213,-100,4,2,1,25,0,0
65558,-200,4,2,1,25,0,0
67282,-133.333333333333,4,2,1,25,0,0
67972,-100,4,2,1,25,0,0
68317,-200,4,2,1,25,0,0
70041,-133.333333333333,4,2,1,25,0,0
71075,-200,4,2,1,25,0,0
73144,-133.333333333333,4,2,1,25,0,0
80731,-133.333333333333,4,2,1,50,0,0
83834,-100,4,2,1,50,0,0
86248,-80,4,2,1,50,0,0
90731,-133.333333333333,4,2,1,50,0,0
91420,-100,4,2,1,50,0,0
91765,-80,4,2,1,50,0,0
101765,-133.333333333333,4,2,1,50,0,0
102110,-100,4,2,1,50,0,0
102455,-133.333333333333,4,2,1,50,0,0
103144,-80,4,2,1,50,0,0
105213,-133.333333333333,4,2,1,50,0,0
105903,-80,4,2,1,50,0,0
108316,-200,4,2,1,50,0,1
109007,-80,4,2,1,60,0,1
110558,-100,4,2,1,60,0,1
111075,-66.6666666666667,4,2,1,60,0,1
111765,-100,4,2,1,60,0,1
112800,-80,4,2,1,60,0,1
113834,-200,4,2,1,60,0,1
114524,-80,4,2,1,60,0,1
115903,-133.333333333333,4,2,1,60,0,1
116593,-100,4,2,1,60,0,1
120041,-80,4,2,1,60,0,1
123489,-100,4,2,1,60,0,1
124179,-80,4,2,1,60,0,1
124869,-200,4,2,1,60,0,1
125558,-80,4,2,1,60,0,1
126938,-100,4,2,1,60,0,1
127282,-133.333333333333,4,2,1,60,0,1
130385,-133.333333333333,4,2,1,60,0,0
141419,689.655172413793,4,2,1,60,1,0
141419,-133.333333333333,4,2,1,25,0,0
146934,344.827586206897,4,2,1,20,1,0
146935,-181.818181818182,4,2,1,20,0,0
147624,-153.846153846154,4,2,1,20,0,0
148314,-133.333333333333,4,2,1,20,0,0
150210,-100,4,2,1,25,0,0
150555,-80,4,2,1,30,0,0
152452,-200,4,2,1,25,0,0
153141,-100,4,2,1,25,0,0
153831,-200,4,2,1,25,0,0
155555,-133.333333333333,4,2,1,25,0,0
156590,-200,4,2,1,25,0,0
158314,-133.333333333333,4,2,1,25,0,0
158659,-100,4,2,1,25,0,0
159348,-200,4,2,1,25,0,0
161417,-100,4,2,1,25,0,0
163140,-100,4,2,1,25,0,0
163485,-133.333333333333,4,2,1,25,0,0
169002,-133.333333333333,4,2,1,50,0,0
174520,-80,4,2,1,60,0,1
195899,-80,4,2,1,60,0,0
196589,-80,4,2,1,60,0,1
201071,-133.333333333333,4,2,1,60,0,1
201416,-100,4,2,1,60,0,1
201761,-100,4,2,1,60,0,1
202106,-80,4,2,1,60,0,1
207882,-133.333333333333,4,2,1,60,0,1
208658,-80,4,2,1,60,0,1
212106,-100,4,2,1,60,0,1
212451,-133.333333333333,4,2,1,60,0,1
212796,-80,4,2,1,60,0,1
215554,-100,4,2,1,60,0,1
217968,-80,4,2,1,60,0,1
218658,-100,4,2,1,60,0,0
231071,-125,4,2,1,60,0,0
233830,-153.846153846154,4,2,1,60,0,0
235554,-200,4,2,1,60,0,0
240554,-200,4,2,1,5,0,0
251761,689.655172413793,4,2,1,5,1,0
251761,-200,4,2,1,5,0,0
262623,4000,4,2,1,20,1,0

[Colours]
Combo1 : 243,152,39
Combo2 : 163,78,203
Combo3 : 130,132,217
Combo4 : 103,192,226
Combo5 : 204,233,105
SliderBorder : 170,166,227
SliderTrackOverride : 5,0,9

[HitObjects]
131,273,9005,6,0,B|193:237|248:272|263:317|263:317|266:225|386:190|434:268,1,393.75,2|0,0:0|0:0,0:0:0:0:
355,309,11763,6,0,P|332:247|401:158,1,183.75,2|0,0:0|0:0,0:0:0:0:
451,251,13142,2,0,P|426:271|436:227,1,105,2|0,0:0|0:0,0:0:0:0:
245,180,14522,2,0,P|217:208|242:99,1,393.75,2|0,0:0|0:0,0:0:0:0:
308,216,17280,6,0,P|235:282|65:239,1,275.62501051426,2|0,0:0|0:0,0:0:0:0:
46,169,18660,6,0,P|142:201|108:309,1,236.250009012223,2|0,0:0|0:0,0:0:0:0:
336,216,20041,5,2,0:0:0:0:
396,311,20213,2,0,L|389:351,2,39.3750015020371,0|0|0,0:0|0:0|0:0,0:0:0:0:
343,198,20558,2,0,L|336:148,2,39.3750015020371,0|0|0,0:0|0:0|0:0,0:0:0:0:
458,130,20903,6,0,L|468:77,2,39.3750015020371,0|0|0,0:0|0:0|0:0,0:0:0:0:
361,11,21248,2,0,L|371:64,2,39.3750015020371,0|0|0,0:0|0:0|0:0,0:0:0:0:
154,110,21593,1,0,0:0:0:0:
262,63,21765,5,0,0:0:0:0:
248,180,21938,1,0,0:0:0:0:
143,125,22110,1,0,0:0:0:0:
41,64,22282,1,0,0:0:0:0:
142,2,22455,5,0,0:0:0:0:
165,117,22627,1,0,0:0:0:0:
188,233,22800,1,2,0:0:0:0:
97,312,22972,6,0,L|43:302,2,39.3750015020371,0|0|0,0:0|0:0|0:0,0:0:0:0:
212,231,23317,2,0,L|266:221,2,39.3750015020371,0|0|0,0:0|0:0|0:0,0:0:0:0:
109,140,23662,6,0,L|55:137,2,39.3750015020371,0|0|0,0:0|0:0|0:0,0:0:0:0:
249,92,24007,2,0,L|310:89,1,39.3750015020371,0|0,0:0|0:0,0:0:0:0:
372,82,24179,1,2,0:0:0:0:
359,199,24351,1,0,0:0:0:0:
345,316,24524,1,8,0:0:0:0:
385,205,24696,6,0,L|439:203,1,39.3750015020371,0|0,0:0|0:0,0:0:0:0:
317,303,24869,2,0,L|273:304,2,39.3750015020371,2|0|0,0:0|0:0|0:0,0:0:0:0:
99,260,25213,6,0,B|101:202|101:202|124:164|124:164|123:93,1,157.500006008148,8|2,0:0|0:0,0:0:0:0:
41,137,25731,5,0,0:0:0:0:
182,228,25903,2,0,L|269:229,1,78.7500030040742,8|0,0:0|0:0,0:0:0:0:
387,92,26162,1,0,0:0:0:0:
385,79,26248,2,0,L|400:30,2,39.3750015020371,0|0|0,0:0|0:0|0:0,0:0:0:0:
380,220,26593,6,0,B|383:266|408:309|408:309|424:264,1,118.125004506111,8|0,0:0|0:0,0:0:0:0:
363,221,26938,6,0,L|303:217,1,52.5,2|0,0:0|0:0,0:0:0:0:
196,299,27110,2,0,L|272:288,1,52.5,0|0,0:0|0:0,0:0:0:0:
110,251,27282,2,0,P|98:309|118:367,1,105,0|8,0:0|0:0,0:0:0:0:
189,207,27627,5,0,0:0:0:0:
192,190,27713,1,0,0:0:0:0:
195,172,27800,2,0,L|174:57,1,105,2|8,0:0|0:0,0:0:0:0:
53,105,28144,1,0,0:0:0:0:
80,255,28317,5,2,0:0:0:0:
159,199,28489,1,0,0:0:0:0:
241,134,28662,1,8,0:0:0:0:
172,213,28834,6,0,L|173:273,1,52.5,0|0,0:0|0:0,0:0:0:0:
272,140,29007,2,0,L|273:80,2,52.5,0|0|2,0:0|0:0|0:0,0:0:0:0:
76,168,29351,1,8,0:0:0:0:
156,236,29524,1,0,0:0:0:0:
134,48,29696,5,10,0:0:0:0:
114,151,29869,1,0,0:0:0:0:
91,253,30041,1,0,0:0:0:0:
259,151,30213,6,0,B|309:141|345:172|345:172|337:121,1,131.25,8|0,0:0|0:0,0:0:0:0:
377,252,30472,2,0,B|327:262|290:230|290:230|299:282,1,131.25,8|0,0:0|0:0,0:0:0:0:
316,347,30731,1,8,0:0:0:0:
243,164,30903,5,0,0:0:0:0:
227,175,30989,1,8,0:0:0:0:
214,184,31075,2,0,L|90:173,1,105,2|0,0:0|0:0,0:0:0:0:
67,78,31420,1,8,0:0:0:0:
120,259,31593,5,0,0:0:0:0:
115,274,31679,1,0,0:0:0:0:
108,288,31765,1,0,0:0:0:0:
101,302,31851,1,0,0:0:0:0:
92,315,31938,2,0,P|159:306|218:314,1,105,2|8,0:0|0:0,0:0:0:0:
295,340,32282,1,0,0:0:0:0:
364,163,32455,5,2,0:0:0:0:
262,190,32627,1,2,0:0:0:0:
160,217,32800,1,0,0:0:0:0:
254,170,32972,5,8,0:0:0:0:
247,155,33058,1,0,0:0:0:0:
238,141,33144,1,0,0:0:0:0:
228,128,33231,1,0,0:0:0:0:
216,117,33317,2,0,L|108:111,1,105,2|8,0:0|0:0,0:0:0:0:
110,300,33662,1,0,0:0:0:0:
195,238,33834,5,2,0:0:0:0:
98,195,34007,1,2,0:0:0:0:
2,150,34179,1,8,0:0:0:0:
88,91,34351,5,0,0:0:0:0:
103,86,34438,1,0,0:0:0:0:
118,82,34524,1,0,0:0:0:0:
133,77,34610,1,0,0:0:0:0:
148,73,34696,2,0,P|213:78|269:68,1,105,2|8,0:0|0:0,0:0:0:0:
349,32,35041,1,0,0:0:0:0:
290,211,35213,6,0,L|303:328,1,105,2|2,0:0|0:0,0:0:0:0:
327,127,35558,2,0,B|277:117|229:141|229:141|277:89,1,157.5,8|2,0:0|0:0,0:0:0:0:
348,134,36075,1,2,0:0:0:0:
208,152,36248,5,8,0:0:0:0:
132,225,36420,1,2,0:0:0:0:
55,295,36593,1,2,0:0:0:0:
31,193,36765,5,0,0:0:0:0:
135,207,36938,1,8,0:0:0:0:
238,219,37110,5,0,0:0:0:0:
257,226,37196,1,0,0:0:0:0:
276,234,37282,1,0,0:0:0:0:
295,242,37369,1,0,0:0:0:0:
314,249,37455,2,0,L|418:248,1,105,2|8,0:0|0:0,0:0:0:0:
369,340,37800,1,0,0:0:0:0:
317,158,37972,6,0,P|303:100|315:51,1,105,2|2,0:0|0:0,0:0:0:0:
406,103,38317,1,0,0:0:0:0:
220,138,38489,2,0,L|159:137,1,52.5,8|0,0:0|0:0,0:0:0:0:
58,48,38662,2,0,L|123:54,2,52.5,0|0|2,0:0|0:0|0:0,0:0:0:0:
258,114,39007,2,0,L|138:118,1,105,8|0,0:0|0:0,0:0:0:0:
17,243,39351,5,2,0:0:0:0:
121,259,39524,1,2,0:0:0:0:
223,278,39696,1,8,0:0:0:0:
190,177,39869,5,0,0:0:0:0:
190,156,39955,1,0,0:0:0:0:
191,135,40041,1,0,0:0:0:0:
191,114,40127,1,0,0:0:0:0:
191,93,40213,2,0,P|255:81|314:93,1,105,2|8,0:0|0:0,0:0:0:0:
396,111,40558,1,0,0:0:0:0:
300,275,40731,5,8,0:0:0:0:
396,235,40903,1,2,0:0:0:0:
490,190,41075,1,2,0:0:0:0:
401,133,41248,5,8,0:0:0:0:
381,124,41334,1,0,0:0:0:0:
361,116,41420,1,2,0:0:0:0:
328,122,41507,1,8,0:0:0:0:
307,116,41593,2,0,P|252:135|191:125,1,105,0|8,0:0|0:0,0:0:0:0:
103,279,41938,5,0,0:0:0:0:
111,259,42024,1,8,0:0:0:0:
119,240,42110,2,0,L|127:123,1,105,2|0,0:0|0:0,0:0:0:0:
196,57,42455,1,8,0:0:0:0:
287,221,42627,5,0,0:0:0:0:
283,241,42713,1,0,0:0:0:0:
279,261,42800,1,0,0:0:0:0:
276,281,42886,1,0,0:0:0:0:
271,301,42972,2,0,L|390:305,1,105,2|8,0:0|0:0,0:0:0:0:
430,214,43317,1,0,0:0:0:0:
338,49,43489,5,2,0:0:0:0:
323,153,43662,1,2,0:0:0:0:
306,256,43834,1,0,0:0:0:0:
225,188,44007,5,8,0:0:0:0:
206,178,44093,1,0,0:0:0:0:
190,163,44179,1,0,0:0:0:0:
177,145,44265,1,0,0:0:0:0:
168,125,44351,2,0,P|157:70|183:20,1,105,2|8,0:0|0:0,0:0:0:0:
263,86,44696,1,0,0:0:0:0:
81,139,44869,5,2,0:0:0:0:
112,238,45041,1,2,0:0:0:0:
143,337,45213,1,8,0:0:0:0:
215,260,45386,5,0,0:0:0:0:
228,251,45472,1,0,0:0:0:0:
242,244,45558,1,0,0:0:0:0:
257,241,45644,1,0,0:0:0:0:
272,240,45731,2,0,P|331:248|368:286,1,105,2|8,0:0|0:0,0:0:0:0:
277,338,46075,1,0,0:0:0:0:
368,171,46248,5,2,0:0:0:0:
394,272,46420,1,0,0:0:0:0:
422,373,46593,1,8,0:0:0:0:
244,310,46765,5,2,0:0:0:0:
230,318,46851,2,0,L|96:303,1,105,2|0,0:0|0:0,0:0:0:0:
0,189,47110,2,0,L|123:180,1,105,2|8,0:0|0:0,0:0:0:0:
183,111,47455,1,2,0:0:0:0:
282,173,47627,6,0,L|380:175,1,78.7500030040742,2|0,0:0|0:0,0:0:0:0:
422,125,47972,1,8,0:0:0:0:
444,200,48144,1,0,0:0:0:0:
444,207,48231,1,0,0:0:0:0:
444,214,48317,1,0,0:0:0:0:
443,221,48403,1,0,0:0:0:0:
442,228,48489,2,0,L|428:317,1,78.7500030040742,2|8,0:0|0:0,0:0:0:0:
355,332,48834,5,0,0:0:0:0:
306,269,49007,2,0,P|254:253|212:260,1,78.7500030040742,2|2,0:0|0:0,0:0:0:0:
163,295,49351,1,0,0:0:0:0:
157,216,49524,1,8,0:0:0:0:
157,208,49610,1,0,0:0:0:0:
157,200,49696,1,0,0:0:0:0:
157,192,49782,1,0,0:0:0:0:
158,184,49869,2,0,L|179:103,1,78.7500030040742,2|8,0:0|0:0,0:0:0:0:
239,59,50213,1,0,0:0:0:0:
259,135,50386,5,2,0:0:0:0:
282,145,50472,1,2,0:0:0:0:
308,149,50558,1,2,0:0:0:0:
334,144,50644,1,2,0:0:0:0:
358,133,50731,5,2,0:0:0:0:
346,171,50817,1,2,0:0:0:0:
343,210,50903,1,2,0:0:0:0:
348,249,50989,1,2,0:0:0:0:
362,286,51075,6,0,L|428:292,1,52.5,2|2,0:0|0:0,0:0:0:0:
301,360,51248,2,0,L|235:365,1,52.5,2|2,0:0|0:0,0:0:0:0:
172,257,51420,2,0,L|237:262,1,52.5,2|2,0:0|0:0,0:0:0:0:
133,357,51593,2,0,L|67:362,1,52.5,2|2,0:0|0:0,0:0:0:0:
12,281,51765,6,0,L|8:246,6,26.25,2|2|2|2|2|2|2,0:0|0:0|0:0|0:0|0:0|0:0|0:0,0:0:0:0:
82,201,52110,6,0,L|79:166,8,26.25,2|2|2|2|2|2|2|2|4,0:0|0:0|0:0|0:0|0:0|0:0|0:0|0:0|0:1,0:0:0:0:
420,116,53144,6,0,B|389:118|371:132|371:132|315:120|315:120|288:145|242:129,1,183.75,6|0,0:2|0:0,0:0:0:0:
233,122,53834,6,0,P|328:128|234:285,1,367.5,8|0,2:0|2:0,2:2:0:0:
223,282,54524,6,0,L|117:304,1,105,2|0,0:0|0:0,0:0:0:0:
226,190,55041,2,0,L|120:212,1,105,2|0,0:0|0:0,0:0:0:0:
230,103,55558,2,0,B|108:129|108:129|137:113|153:89,1,183.75,2|0,0:0|0:0,0:0:0:0:
163,72,56248,6,0,L|161:111,1,39.3750015020371,0|0,0:0|0:0,0:0:0:0:
240,198,56420,2,0,L|240:152,1,39.3750015020371,0|0,0:0|0:0,0:0:0:0:
324,74,56593,2,0,L|322:127,1,39.3750015020371,0|0,0:0|0:0,0:0:0:0:
396,204,56765,2,0,L|398:153,1,39.3750015020371,0|0,0:0|0:0,0:0:0:0:
484,83,56938,2,0,L|479:219,1,118.125004506111,0|0,0:0|0:0,0:0:0:0:
479,233,57282,6,0,P|448:273|394:292,1,105,2|0,0:0|0:0,0:0:0:0:
337,123,57800,2,0,P|377:154|396:208,1,105,2|0,0:0|0:0,0:0:0:0:
176,198,58317,2,0,P|240:170|317:210,1,157.5,2|0,0:0|0:0,0:0:0:0:
235,298,59007,6,0,L|243:244,1,39.3750015020371,0|0,0:0|0:0,0:0:0:0:
233,94,59179,1,0,0:0:0:0:
353,94,59351,2,0,B|291:111|300:81|229:99,1,105,0|0,0:0|0:0,0:0:0:0:
130,164,59696,2,0,L|122:189,6,26.25,0|0|0|0|0|0|0,0:0|0:0|0:0|0:0|0:0|0:0|0:0,0:0:0:0:
194,210,60041,6,0,L|162:313,1,105,2|0,0:0|0:0,0:0:0:0:
287,176,60558,2,0,L|255:279,1,105,2|0,0:0|0:0,0:0:0:0:
378,149,61075,2,0,B|343:261|343:261|363:224|403:215,1,183.75,2|0,0:0|0:0,0:0:0:0:
411,211,61765,6,0,P|369:219|345:86,1,210,2|0,0:0|0:0,0:0:0:0:
378,149,62282,1,2,0:0:0:0:
233,260,62455,2,0,L|149:259,1,78.7500030040742,8|0,0:0|0:0,0:0:0:0:
284,196,62800,6,0,P|307:231|265:337,1,157.500006008148,2|8,0:0|0:0,0:0:0:0:
224,262,63317,1,2,0:0:0:0:
202,146,63489,1,2,0:0:0:0:
176,30,63662,1,2,0:0:0:0:
248,75,63834,2,0,P|215:106|134:108,1,118.125004506111,8|0,0:0|0:0,0:0:0:0:
310,24,64179,6,0,P|400:18|441:98,1,183.75,2|0,0:0|0:0,0:0:0:0:
341,166,64869,2,0,L|362:85,1,78.7500030040742,0|0,0:0|0:0,0:0:0:0:
384,271,65213,2,0,L|331:273,1,52.5,0|0,0:0|0:0,0:0:0:0:
366,351,65386,2,0,L|307:354,1,52.5,0|0,0:0|0:0,0:0:0:0:
172,255,65558,6,0,P|200:253|259:302,1,105,2|0,0:0|0:0,0:0:0:0:
94,269,66075,2,0,P|92:241|141:182,1,105,2|0,0:0|0:0,0:0:0:0:
113,350,66593,2,0,P|50:334|22:226,1,183.75,2|0,0:0|0:0,0:0:0:0:
35,209,67282,6,0,B|40:158|40:158|37:123|37:123|45:87,1,118.125004506111,0|0,0:0|0:0,0:0:0:0:
121,13,67627,2,0,B|115:63|115:63|119:99|119:99|111:135,1,118.125004506111,0|0,0:0|0:0,0:0:0:0:
111,153,67972,2,0,L|169:147,1,52.5,0|0,0:0|0:0,0:0:0:0:
310,104,68144,2,0,L|252:98,1,52.5,0|0,0:0|0:0,0:0:0:0:
380,54,68317,6,0,P|396:111|377:157,1,105,2|0,0:0|0:0,0:0:0:0:
211,104,68834,2,0,P|268:88|314:107,1,105,2|0,0:0|0:0,0:0:0:0:
256,268,69351,2,0,B|231:209|261:167|261:167|270:207|295:238,1,183.75,2|0,0:0|0:0,0:0:0:0:
312,230,70041,6,0,B|343:223|343:223|366:235|366:235|403:224|432:235,1,118.125004506111,0|0,0:0|0:0,0:0:0:0:
398,311,70386,2,0,L|394:352,1,39.3750015020371,0|0,0:0|0:0,0:0:0:0:
317,317,70558,2,0,L|313:360,1,39.3750015020371,0|0,0:0|0:0,0:0:0:0:
230,300,70731,2,0,L|228:259,1,39.3750015020371,0|0,0:0|0:0,0:0:0:0:
148,294,70903,2,0,L|146:251,1,39.3750015020371,0|0,0:0|0:0,0:0:0:0:
67,291,71075,6,0,L|60:179,1,105,2|0,0:0|0:0,0:0:0:0:
146,254,71593,2,0,L|139:142,1,105,2|0,0:0|0:0,0:0:0:0:
224,224,72110,2,0,L|214:57,1,157.5,2|2,0:0|0:0,0:0:0:0:
141,37,72800,1,8,0:0:0:0:
363,64,73058,5,0,0:0:0:0:
365,80,73144,2,0,L|360:166,1,78.7500030040742,0|2,0:0|0:0,0:0:0:0:
327,272,73489,2,0,P|357:257|441:269,1,118.125004506111,8|0,0:0|0:0,0:0:0:0:
454,279,73834,1,0,0:0:0:0:
385,375,74007,5,2,0:0:0:0:
241,311,74179,2,0,P|232:265|266:193,1,118.125004506111,8|0,0:0|0:0,0:0:0:0:
275,190,74524,1,0,0:0:0:0:
288,176,74610,1,0,0:0:0:0:
298,159,74696,1,2,0:0:0:0:
305,140,74782,1,0,0:0:0:0:
307,120,74869,1,8,0:0:0:0:
47,72,75213,6,0,L|56:153,1,78.7500030040742,0|0,0:0|0:0,0:0:0:0:
99,223,75558,1,8,0:0:0:0:
130,71,75731,2,0,L|139:152,1,78.7500030040742,0|2,0:0|0:0,0:0:0:0:
182,222,76076,1,0,0:0:0:0:
217,65,76248,2,0,L|226:146,1,78.7500030040742,8|0,0:0|0:0,0:0:0:0:
269,216,76593,5,2,0:0:0:0:
337,176,76765,1,0,0:0:0:0:
403,133,76938,1,8,0:0:0:0:
411,226,77110,1,0,0:0:0:0:
419,319,77282,5,2,0:0:0:0:
322,283,77455,1,0,0:0:0:0:
227,244,77627,1,8,0:0:0:0:
349,172,77800,1,8,0:0:0:0:
316,309,77972,6,0,L|221:326,1,78.7500030040742,2|0,0:0|0:0,0:0:0:0:
158,289,78317,1,8,0:0:0:0:
304,230,78489,2,0,L|209:247,1,78.7500030040742,0|2,0:0|0:0,0:0:0:0:
146,210,78834,1,0,0:0:0:0:
292,150,79007,2,0,L|197:167,1,78.7500030040742,8|0,0:0|0:0,0:0:0:0:
134,130,79352,5,2,0:0:0:0:
209,88,79524,1,0,0:0:0:0:
283,45,79696,1,8,0:0:0:0:
302,137,79869,1,0,0:0:0:0:
323,228,80041,5,2,0:0:0:0:
326,125,80213,1,0,0:0:0:0:
326,22,80386,1,8,0:0:0:0:
453,83,80558,1,8,0:0:0:0:
324,144,80731,5,8,0:0:0:0:
360,312,80903,1,2,0:0:0:0:
247,181,81075,5,8,0:0:0:0:
281,335,81248,1,2,0:0:0:0:
176,215,81420,5,8,0:0:0:0:
204,354,81593,1,2,0:0:0:0:
105,252,81765,5,8,0:0:0:0:
129,376,81938,1,2,0:0:0:0:
76,261,82110,5,8,0:0:0:0:
88,135,82282,1,2,0:0:0:0:
162,255,82455,5,8,0:0:0:0:
170,113,82627,1,2,0:0:0:0:
246,251,82800,5,8,0:0:0:0:
254,94,82972,1,2,0:0:0:0:
331,248,83144,5,8,0:0:0:0:
339,74,83317,1,2,0:0:0:0:
417,245,83489,5,2,0:0:0:0:
396,278,83575,1,2,0:0:0:0:
398,316,83661,1,2,0:0:0:0:
420,348,83747,1,2,0:0:0:0:
457,361,83834,5,2,0:0:0:0:
404,357,83920,1,2,0:0:0:0:
352,353,84006,1,2,0:0:0:0:
300,349,84092,1,2,0:0:0:0:
247,344,84179,6,0,L|245:311,6,26.25,2|2|2|2|2|2|2,0:0|0:0|0:0|0:0|0:0|0:0|0:0,0:0:0:0:
154,315,84524,6,0,L|151:275,8,26.25,10|2|2|2|2|2|2|2|10,0:0|0:0|0:0|0:0|0:0|0:0|0:0|0:0|0:0,0:0:0:0:
201,233,85731,5,2,0:0:0:0:
201,212,85817,1,0,0:0:0:0:
237,154,85903,5,8,0:3:0:0:
240,133,85989,1,8,0:3:0:0:
188,88,86075,5,4,0:3:0:0:
186,66,86162,1,4,0:3:0:0:
250,10,86248,6,0,P|305:24|383:7,1,131.25,6|0,1:0|0:0,0:0:0:0:
374,194,86593,2,0,L|372:263,1,65.625,8|0,0:0|0:0,0:0:0:0:
440,128,86765,2,0,P|387:99|315:122,1,131.25,0|0,0:0|0:0,0:0:0:0:
226,290,87110,6,0,P|229:246|224:218,1,65.625,2|0,0:0|0:0,0:0:0:0:
161,344,87282,2,0,P|212:371|286:353,1,131.25,8|0,0:0|0:0,0:0:0:0:
109,258,87627,2,0,P|76:282|61:318,1,65.625,0|0,0:0|0:0,0:0:0:0:
145,172,87800,2,0,P|94:173|20:217,1,131.25,2|8,0:0|0:0,0:0:0:0:
246,191,88144,6,0,P|279:215|294:251,1,65.625,0|0,0:0|0:0,0:0:0:0:
210,105,88317,2,0,P|261:106|335:150,1,131.25,0|2,0:0|0:0,0:0:0:0:
243,350,88662,1,8,0:0:0:0:
360,291,88834,1,2,0:0:0:0:
262,252,89007,5,2,0:0:0:0:
162,217,89179,1,0,0:0:0:0:
241,148,89351,1,8,0:0:0:0:
281,245,89524,1,0,0:0:0:0:
326,339,89696,5,0,0:0:0:0:
195,323,89869,1,2,0:0:0:0:
65,302,90041,2,0,L|60:223,1,65.625,8|0,0:0|0:0,0:0:0:0:
134,179,90213,2,0,L|139:258,1,65.625,0|0,0:0|0:0,0:0:0:0:
54,146,90386,6,0,P|77:115|172:101,1,131.25,0|2,0:0|0:0,0:0:0:0:
314,169,90731,1,8,0:0:0:0:
348,187,90817,1,0,0:0:0:0:
387,192,90903,1,0,0:0:0:0:
425,183,90989,1,0,0:0:0:0:
457,161,91075,5,0,0:0:0:0:
447,199,91161,1,0,0:0:0:0:
436,237,91247,1,2,0:0:0:0:
425,275,91333,1,0,0:0:0:0:
414,313,91420,2,0,B|379:315|379:315|360:322|360:322|313:295|264:323,1,157.5,8|0,0:0|0:0,0:0:0:0:
240,342,91765,6,0,P|259:305|237:198,1,131.25,2|0,0:0|0:0,0:0:0:0:
71,262,92110,2,0,L|132:295,1,65.625,8|0,0:0|0:0,0:0:0:0:
81,173,92282,2,0,P|34:177|-20:255,1,131.25,0|0,0:0|0:0,0:0:0:0:
159,182,92627,6,0,P|151:136|125:108,1,65.625,2|0,0:0|0:0,0:0:0:0:
248,184,92800,2,0,P|244:144|184:42,1,131.25,8|0,0:0|0:0,0:0:0:0:
200,246,93144,2,0,P|258:266|289:257,1,65.625,0|0,0:0|0:0,0:0:0:0:
131,197,93317,2,0,P|116:247|148:315,1,131.25,2|8,0:0|0:0,0:0:0:0:
331,294,93662,6,0,L|340:216,1,65.625,0|0,0:0|0:0,0:0:0:0:
265,350,93834,2,0,P|315:378|390:362,1,131.25,0|0,0:0|0:0,0:0:0:0:
351,130,94179,1,8,0:0:0:0:
450,234,94351,1,2,0:0:0:0:
349,264,94524,5,2,0:0:0:0:
248,294,94696,1,0,0:0:0:0:
163,230,94869,2,0,B|166:174|166:174|150:116|150:116|155:33,1,196.875,8|0,0:0|0:0,0:0:0:0:
181,43,95213,6,0,P|219:46|247:42,1,65.625,0|0,0:0|0:0,0:0:0:0:
330,22,95386,2,0,P|368:19|396:23,1,65.625,2|0,0:0|0:0,0:0:0:0:
353,201,95558,1,8,0:0:0:0:
361,109,95731,1,0,0:0:0:0:
434,163,95903,1,0,0:0:0:0:
248,189,96075,5,2,0:0:0:0:
335,96,96248,2,0,B|322:151|322:151|333:188|333:188|318:250,1,131.25,8|0,0:0|0:0,0:0:0:0:
116,332,96593,2,0,L|141:188,1,131.25,0|2,0:0|0:0,0:0:0:0:
159,187,96851,1,2,0:0:0:0:
178,168,96938,2,0,L|190:91,1,65.625,8|0,0:0|0:0,0:0:0:0:
269,88,97110,2,0,L|257:165,1,65.625,2|0,0:0|0:0,0:0:0:0:
266,334,97282,6,0,P|309:319|399:330,1,131.25,2|0,0:0|0:0,0:0:0:0:
429,146,97627,2,0,L|425:75,1,65.625,8|0,0:0|0:0,0:0:0:0:
502,194,97800,2,0,P|460:228|370:210,1,131.25,0|0,0:0|0:0,0:0:0:0:
244,106,98144,6,0,P|198:95|156:103,1,65.625,2|0,0:0|0:0,0:0:0:0:
303,164,98317,2,0,P|325:114|299:44,1,131.25,8|0,0:0|0:0,0:0:0:0:
227,214,98662,2,0,P|222:261|235:286,1,65.625,0|0,0:0|0:0,0:0:0:0:
176,148,98834,2,0,P|145:196|136:288,1,131.25,2|8,0:0|0:0,0:0:0:0:
367,246,99179,6,0,P|320:251|295:238,1,65.625,0|0,0:0|0:0,0:0:0:0:
433,297,99351,2,0,P|385:328|293:337,1,131.25,0|2,0:0|0:0,0:0:0:0:
346,158,99696,1,8,0:0:0:0:
468,108,99869,1,2,0:0:0:0:
383,72,100041,5,2,0:0:0:0:
297,38,100213,1,0,0:0:0:0:
261,137,100386,1,8,0:0:0:0:
224,235,100558,1,0,0:0:0:0:
328,222,100731,5,0,0:0:0:0:
196,212,100903,1,2,0:0:0:0:
66,206,101075,2,0,L|50:280,1,65.625,8|0,0:0|0:0,0:0:0:0:
116,327,101248,2,0,L|132:252,1,65.625,0|0,0:0|0:0,0:0:0:0:
165,95,101420,2,0,B|234:69|290:125,1,131.25,0|2,0:0|0:0,0:0:0:0:
388,251,101765,5,8,0:0:0:0:
387,211,101851,1,0,0:0:0:0:
386,172,101937,1,0,0:0:0:0:
385,132,102023,1,0,0:0:0:0:
385,93,102110,5,0,0:0:0:0:
389,145,102196,1,0,0:0:0:0:
367,192,102282,1,2,0:0:0:0:
325,223,102368,1,0,0:0:0:0:
274,229,102455,6,0,B|204:187|204:251|121:207,1,157.500006008148,8|2,0:0|0:0,0:0:0:0:
168,146,103144,6,0,L|155:297,1,131.25,8|0,0:0|0:0,0:0:0:0:
165,302,103403,1,0,0:0:0:0:
181,322,103489,1,0,0:0:0:0:
205,332,103575,1,0,0:0:0:0:
231,335,103662,2,0,L|310:326,1,65.625,2|0,0:0|0:0,0:0:0:0:
439,239,103834,2,0,L|297:254,1,131.25,8|0,0:0|0:0,0:0:0:0:
165,136,104179,6,0,P|205:146|225:165,1,65.625,0|0,0:0|0:0,0:0:0:0:
76,141,104351,2,0,P|89:87|163:50,1,131.25,2|8,0:0|0:0,0:0:0:0:
114,229,104696,2,0,P|90:271|66:282,1,65.625,0|0,0:0|0:0,0:0:0:0:
205,217,104869,2,0,P|195:262|139:338,1,131.25,0|2,0:0|0:0,0:0:0:0:
119,351,105213,6,0,B|162:327|214:353|214:353|249:337|287:351,1,157.500006008148,8|0,0:0|0:0,0:0:0:0:
380,364,105731,1,2,0:0:0:0:
302,258,105903,2,0,B|298:198|298:198|317:129|317:129|312:58,1,196.875,8|0,0:0|0:0,0:0:0:0:
311,40,106248,6,0,P|276:37|228:46,1,65.625,2|0,0:0|0:0,0:0:0:0:
157,69,106420,2,0,P|122:72|74:63,1,65.625,2|0,0:0|0:0,0:0:0:0:
177,209,106593,1,8,0:0:0:0:
105,152,106765,1,2,0:0:0:0:
90,243,106938,5,2,0:0:0:0:
260,174,107110,1,2,0:0:0:0:
127,319,107282,5,8,0:0:0:0:
301,244,107455,1,2,0:0:0:0:
156,90,107627,5,8,3:0:0:0:
121,162,108317,6,0,B|124:208|112:228|112:228|120:255|120:255|108:292|122:324,1,157.5,2|0,0:0|0:0,0:0:0:0:
320,304,109007,5,8,0:0:0:0:
305,298,109093,1,0,2:0:0:0:
290,291,109179,2,0,P|250:283|214:288,1,65.625,0|0,2:0|2:0,0:0:0:0:
103,233,109351,2,0,P|143:225|179:230,1,65.625,0|0,2:0|2:0,0:0:0:0:
254,193,109524,5,2,0:0:0:0:
265,186,109610,1,0,2:0:0:0:
274,176,109696,2,0,P|297:129|296:96,1,65.625,0|0,2:0|2:0,0:0:0:0:
224,16,109869,2,0,P|201:63|202:96,1,65.625,0|0,2:0|2:0,0:0:0:0:
296,78,110041,5,2,0:0:0:0:
320,87,110127,1,0,2:0:0:0:
344,96,110213,1,0,2:0:0:0:
368,106,110300,1,0,2:0:0:0:
390,118,110386,2,0,L|384:213,1,65.625,8|0,2:0|0:0,0:0:0:0:
311,180,110558,6,0,P|348:248|459:155,1,262.5,2|0,0:0|0:0,0:0:0:0:
472,147,111075,2,0,B|466:196|466:196|478:227|478:227|468:269|468:269|476:307,1,157.500006008148,2|0,0:0|0:0,0:0:0:0:
396,234,111420,1,0,0:0:0:0:
383,250,111765,6,0,B|336:265|302:232|302:232|262:224|229:244|229:244|198:185|116:183|81:243,1,341.25,8|0,0:0|0:0,0:0:0:0:
155,282,112455,2,0,L|145:147,1,131.25,2|0,0:0|0:0,0:0:0:0:
185,66,112800,6,0,P|216:74|257:71,1,65.625,0|0,0:0|0:0,0:0:0:0:
184,80,112972,2,0,P|153:72|112:75,1,65.625,2|2,0:0|0:0,0:0:0:0:
283,146,113144,2,0,P|311:123|306:16,1,131.25,8|2,0:0|0:0,0:0:0:0:
190,183,113489,5,8,0:0:0:0:
321,182,113662,1,0,0:0:0:0:
451,177,113834,2,0,B|457:220|457:220|447:244|447:244|473:286|450:331,1,157.5,2|0,0:0|0:0,0:0:0:0:
266,300,114524,5,8,0:0:0:0:
284,292,114610,1,0,2:0:0:0:
302,285,114696,2,0,L|375:291,1,65.625,0|0,2:0|2:0,0:0:0:0:
474,213,114869,2,0,L|401:219,1,65.625,0|0,2:0|2:0,0:0:0:0:
326,192,115041,5,2,0:0:0:0:
309,181,115127,1,0,2:0:0:0:
292,169,115213,2,0,L|272:93,1,65.625,0|0,2:0|2:0,0:0:0:0:
351,30,115386,2,0,L|371:106,1,65.625,0|0,2:0|2:0,0:0:0:0:
281,84,115558,5,2,0:0:0:0:
255,89,115644,1,0,2:0:0:0:
229,95,115731,1,0,2:0:0:0:
203,100,115817,1,0,2:0:0:0:
180,107,115903,2,0,B|128:93|110:33|110:33|129:144|79:193,1,275.62501051426,8|0,2:0|0:0,0:0:0:0:
56,214,116593,6,0,L|185:222,1,105,2|0,0:0|0:0,0:0:0:0:
323,282,116938,2,0,L|194:290,1,105,0|0,0:0|0:0,0:0:0:0:
321,128,117282,1,8,0:2:0:0:
237,192,117455,1,0,0:2:0:0:
218,88,117627,1,0,0:2:0:0:
322,104,117800,1,0,0:2:0:0:
425,117,117972,5,8,0:0:0:0:
373,320,118144,1,2,0:0:0:0:
317,230,118317,1,2,0:0:0:0:
421,228,118489,5,8,0:0:0:0:
210,233,118662,1,2,0:0:0:0:
260,141,118834,1,2,0:0:0:0:
332,217,119007,5,8,0:0:0:0:
324,236,119093,1,2,0:0:0:0:
318,256,119179,1,2,0:0:0:0:
314,276,119265,1,2,0:0:0:0:
313,296,119351,1,2,0:0:0:0:
124,162,120041,6,0,P|93:162|52:193,1,65.625,8|0,0:0|2:0,0:0:0:0:
200,175,120213,2,0,P|200:144|169:103,1,65.625,0|0,2:0|2:0,0:0:0:0:
192,250,120386,2,0,P|223:250|264:219,1,65.625,2|0,0:0|2:0,0:0:0:0:
345,158,120558,6,0,L|258:161,1,65.625,8|0,0:0|2:0,0:0:0:0:
353,240,120731,2,0,L|440:243,1,65.625,0|0,2:0|2:0,0:0:0:0:
512,307,120903,2,0,L|425:310,1,65.625,2|0,0:0|2:0,0:0:0:0:
318,344,121075,5,8,0:0:0:0:
291,344,121162,1,0,2:0:0:0:
264,344,121248,1,2,0:0:0:0:
237,343,121334,1,0,2:0:0:0:
210,342,121420,2,0,L|118:333,1,65.625,2|0,0:0|2:0,0:0:0:0:
88,208,121593,6,0,B|159:211|159:211|125:197|114:169,1,131.25,2|0,0:0|0:0,0:0:0:0:
263,141,121851,2,0,B|192:138|192:138|226:152|237:180,1,131.25,2|0,0:0|0:0,0:0:0:0:
341,107,122110,6,0,L|320:75,6,32.8125,2|0|0|0|0|0|0,0:0|0:0|0:0|0:0|0:0|0:0|0:0,0:0:0:0:
358,134,122455,2,0,B|333:252|388:209|355:331,1,196.875,0|0,0:0|0:0,0:0:0:0:
346,348,122800,6,0,P|304:342|259:349,1,65.625,8|0,0:0|0:0,0:0:0:0:
279,265,122972,2,0,P|238:277|200:302,1,65.625,0|0,0:0|0:0,0:0:0:0:
184,216,123144,2,0,P|152:244|128:283,1,65.625,0|0,0:0|0:0,0:0:0:0:
78,210,123317,2,0,P|61:249|56:294,1,65.625,0|0,0:0|0:0,0:0:0:0:
134,144,123489,6,0,B|88:113|48:130|32:140|32:140|87:106|164:98|233:132,1,315,2|2,0:0|0:0,0:0:0:0:
257,144,124093,1,2,0:0:0:0:
287,157,124179,2,0,B|283:208|283:208|294:248|294:248|289:301,1,131.25,8|2,0:0|0:0,0:0:0:0:
138,305,124524,5,8,0:0:0:0:
135,200,124696,1,0,0:0:0:0:
131,94,124869,2,0,B|163:102|195:89|195:89|226:99|226:99|257:78|287:90,1,157.5,2|0,0:0|0:0,0:0:0:0:
281,239,125558,6,0,L|272:162,1,65.625,8|0,0:0|2:0,0:0:0:0:
367,236,125731,2,0,L|358:313,1,65.625,0|0,2:0|2:0,0:0:0:0:
447,366,125903,2,0,L|438:289,1,65.625,2|0,0:0|2:0,0:0:0:0:
459,122,126075,6,0,L|446:204,1,65.625,8|0,0:0|2:0,0:0:0:0:
376,99,126247,2,0,L|363:17,1,65.625,0|0,2:0|2:0,0:0:0:0:
290,86,126420,2,0,L|277:168,1,65.625,2|0,0:0|2:0,0:0:0:0:
124,105,126593,5,8,0:0:0:0:
126,131,126679,1,0,2:0:0:0:
128,157,126765,1,2,0:0:0:0:
130,183,126851,1,0,2:0:0:0:
133,209,126938,2,0,P|156:265|86:338,1,157.5,2|0,0:0|0:0,0:0:0:0:
78,264,127282,2,0,B|128:279|128:279|163:275|163:275|205:292,1,118.125004506111,0|0,0:0|0:0,0:0:0:0:
223,298,127627,5,2,0:0:0:0:
364,311,127800,1,2,0:0:0:0:
238,215,127972,5,2,0:0:0:0:
393,236,128144,1,2,0:0:0:0:
253,131,128317,5,2,0:0:0:0:
424,155,128489,1,2,0:0:0:0:
270,43,128662,5,2,0:0:0:0:
456,70,128834,1,2,0:0:0:0:
349,103,129007,5,2,0:0:0:0:
337,119,129093,1,2,0:0:0:0:
329,137,129179,1,2,0:0:0:0:
325,156,129265,1,2,0:0:0:0:
324,175,129351,5,2,0:0:0:0:
336,204,129438,1,2,0:0:0:0:
346,233,129524,1,2,0:0:0:0:
347,264,129610,1,2,0:0:0:0:
340,294,129696,5,2,0:0:0:0:
301,284,129782,1,2,0:0:0:0:
261,281,129869,1,2,0:0:0:0:
222,288,129955,1,2,0:0:0:0:
185,302,130041,5,8,0:3:0:0:
180,255,130127,1,8,0:3:0:0:
178,207,130213,1,4,0:3:0:0:
174,159,130300,1,4,0:3:0:0:
171,111,130386,1,6,0:0:0:0:
157,204,141419,6,0,B|206:271|339:216|294:84|202:86|202:86|323:101|323:101|392:55|455:102,1,551.25002102852,2|0,0:0|0:0,0:0:0:0:
432,324,144177,2,0,B|425:250|456:194|485:173|485:173|435:190|392:157|392:157|354:213|349:278,1,393.750015020371,2|0,0:0|0:0,0:0:0:0:
226,307,146074,2,0,P|183:297|143:303,1,78.7500030040742,0|0,0:0|0:0,0:0:0:0:
303,341,146591,1,2,0:0:0:0:
102,172,146935,6,0,L|101:107,1,57.7500017623902,2|2,0:0|0:0,0:0:0:0:
180,188,147279,2,0,L|178:117,1,57.7500017623902,2|2,0:0|0:0,0:0:0:0:
261,201,147624,2,0,L|259:271,1,68.2499968757631,2|2,0:0|0:0,0:0:0:0:
339,185,147968,2,0,L|338:261,1,68.2499968757631,2|2,0:0|0:0,0:0:0:0:
403,128,148314,6,0,P|386:115|328:105,1,78.7500030040742,2|2,0:0|0:0,0:0:0:0:
315,257,148659,2,0,P|328:240|338:182,1,78.7500030040742,2|2,0:0|0:0,0:0:0:0:
185,173,149002,2,0,P|202:186|260:196,1,78.7500030040742,2|2,0:0|0:0,0:0:0:0:
265,46,149348,2,0,P|252:63|242:121,1,78.7500030040742,2|2,0:0|0:0,0:0:0:0:
330,109,149693,5,2,0:0:0:0:
334,128,149779,1,2,0:0:0:0:
336,147,149866,2,0,L|336:202,1,39.3750015020371,2|2,0:0|0:0,0:0:0:0:
408,226,150038,5,2,0:0:0:0:
405,245,150124,1,2,0:0:0:0:
402,264,150210,2,0,L|400:320,1,52.5,2|2,0:0|0:0,0:0:0:0:
323,329,150383,5,2,0:0:0:0:
314,311,150469,1,2,0:0:0:0:
304,293,150555,2,0,L|228:287,1,65.625,2|2,0:0|0:0,0:0:0:0:
154,282,150728,5,2,0:0:0:0:
143,298,150814,1,2,0:0:0:0:
131,313,150900,2,0,L|50:302,1,65.625,2|2,0:0|0:0,0:0:0:0:
43,215,151071,6,0,L|42:175,14,32.8125,2|2|0|0|0|0|0|0|0|0|0|0|0|0|0,0:0|0:0|0:0|0:0|0:0|0:0|0:0|0:0|0:0|0:0|0:0|0:0|0:0|0:0|0:0,0:0:0:0:
127,184,151762,6,0,L|125:148,2,32.8125,2|0|0,0:0|0:0|0:0,0:0:0:0:
146,186,151935,1,0,0:0:0:0:
165,188,152021,1,0,0:0:0:0:
184,188,152107,2,0,L|316:180,1,131.25,0|0,0:0|0:0,0:0:0:0:
479,204,152452,6,0,B|437:203|415:231|415:231|380:229|380:229|356:263|309:260,1,183.75,2|0,0:0|0:0,0:0:0:0:
296,262,153141,6,0,B|445:269|445:269|406:355|406:355|273:349,1,367.5,8|0,0:2|0:0,0:0:0:0:
264,348,153831,6,0,P|235:340|161:351,1,105,2|0,0:0|0:0,0:0:0:0:
190,261,154348,2,0,P|160:266|97:307,1,105,2|0,0:0|0:0,0:0:0:0:
81,219,154866,2,0,B|19:259|12:301|12:301|12:222,1,183.75,2|0,0:0|0:0,0:0:0:0:
12,203,155555,6,0,L|11:145,1,39.3750015020371,0|0,0:0|0:0,0:0:0:0:
119,114,155728,2,0,L|120:172,1,39.3750015020371,0|0,0:0|0:0,0:0:0:0:
217,219,155900,2,0,L|216:161,1,39.3750015020371,0|0,0:0|0:0,0:0:0:0:
309,105,156071,2,0,L|310:163,1,39.3750015020371,0|0,0:0|0:0,0:0:0:0:
387,55,156245,2,0,P|347:16|272:11,1,118.125004506111,0|0,0:0|0:0,0:0:0:0:
269,18,156590,6,0,L|165:55,1,105,2|0,0:0|0:0,0:0:0:0:
285,99,157107,2,0,L|181:136,1,105,2|0,0:0|0:0,0:0:0:0:
301,181,157624,2,0,B|205:216|205:216|251:208|284:239,1,183.75,2|0,0:0|0:0,0:0:0:0:
219,337,158314,6,0,P|219:309|222:292,1,39.3750015020371,0|0,0:0|0:0,0:0:0:0:
246,112,158486,1,0,0:0:0:0:
120,117,158659,2,0,B|166:120|166:120|197:109|197:109|235:112,1,105,0|0,0:0|0:0,0:0:0:0:
338,195,159002,2,0,L|343:227,6,26.25,0|0|0|0|0|0|0,0:0|0:0|0:0|0:0|0:0|0:0|0:0,0:0:0:0:
415,255,159348,6,0,P|393:286|320:301,1,105,2|0,0:0|0:0,0:0:0:0:
303,377,159866,2,0,P|272:355|257:282,1,105,2|0,0:0|0:0,0:0:0:0:
175,260,160383,2,0,B|216:191|312:204|334:277|334:277|344:243,1,236.25,2|0,0:0|0:0,0:0:0:0:
370,171,161245,5,0,0:0:0:0:
371,150,161331,1,0,0:0:0:0:
373,129,161417,2,0,L|373:68,1,52.5,0|0,0:0|0:0,0:0:0:0:
223,41,161590,5,2,0:0:0:0:
224,61,161676,1,0,0:0:0:0:
225,81,161762,2,0,L|235:155,1,52.5,8|0,0:0|0:0,0:0:0:0:
136,233,161935,2,0,L|146:159,1,52.5,0|0,0:0|0:0,0:0:0:0:
209,267,162107,6,0,P|182:302|109:308,1,105,2|0,0:0|0:0,0:0:0:0:
258,185,162451,2,0,P|297:228|454:230,1,210,8|0,0:0|0:0,0:0:0:0:
374,105,162968,1,2,0:0:0:0:
276,98,163140,2,0,P|227:100|174:144,1,105,8|0,0:0|0:0,0:0:0:0:
206,329,163485,6,0,L|212:243,1,78.7500030040742,0|0,0:0|0:0,0:0:0:0:
255,178,163830,1,8,0:0:0:0:
289,333,164002,2,0,L|295:247,1,78.7500030040742,0|0,0:0|0:0,0:0:0:0:
338,182,164347,1,0,0:0:0:0:
374,333,164520,2,0,L|380:247,1,78.7500030040742,8|0,0:0|0:0,0:0:0:0:
423,182,164865,5,2,0:0:0:0:
450,255,165037,1,0,0:0:0:0:
478,328,165209,1,8,0:0:0:0:
383,322,165382,1,0,0:0:0:0:
289,312,165554,5,2,0:0:0:0:
301,202,165727,1,0,0:0:0:0:
312,92,165899,1,8,0:0:0:0:
434,162,166071,1,0,0:0:0:0:
293,182,166244,6,0,L|208:180,1,78.7500030040742,2|0,0:0|0:0,0:0:0:0:
139,129,166589,1,8,0:0:0:0:
266,262,166761,2,0,L|181:260,1,78.7500030040742,0|0,0:0|0:0,0:0:0:0:
112,209,167106,1,0,0:0:0:0:
241,344,167278,2,0,L|156:342,1,78.7500030040742,0|0,0:0|0:0,0:0:0:0:
87,291,167623,5,2,0:0:0:0:
159,259,167796,1,0,0:0:0:0:
229,224,167968,1,8,0:0:0:0:
303,282,168140,1,0,0:0:0:0:
374,343,168313,5,2,0:0:0:0:
370,233,168485,1,0,0:0:0:0:
364,122,168658,1,8,1:1:0:0:
251,193,168830,1,2,1:0:0:0:
290,289,169002,5,0,0:0:0:0:
408,289,169175,1,2,0:0:0:0:
287,201,169347,5,8,0:0:0:0:
437,205,169520,1,2,0:0:0:0:
281,113,169692,5,0,0:0:0:0:
462,123,169865,1,2,0:0:0:0:
272,28,170037,5,8,0:0:0:0:
483,44,170209,1,2,0:0:0:0:
369,154,170382,5,8,0:0:0:0:
344,293,170554,1,2,0:0:0:0:
276,149,170727,5,8,0:0:0:0:
251,304,170899,1,2,0:0:0:0:
189,142,171071,5,0,0:0:0:0:
163,313,171244,1,2,0:0:0:0:
104,133,171416,5,8,0:0:0:0:
76,320,171589,1,2,0:0:0:0:
23,122,171761,5,8,0:0:0:0:
38,86,171847,1,2,0:0:0:0:
69,62,171933,1,2,0:0:0:0:
107,54,172019,1,0,0:0:0:0:
145,64,172106,5,8,0:0:0:0:
175,90,172192,1,2,0:0:0:0:
212,102,172278,1,2,0:0:0:0:
251,101,172364,1,0,0:0:0:0:
287,86,172451,6,0,L|305:62,6,19.6875007510186,2|2|2|2|2|2|2,0:0|0:0|0:0|0:0|0:0|0:0|0:0,0:0:0:0:
343,166,172796,6,0,L|358:147,8,19.6875007510186,2|2|2|2|2|2|2|2|0,0:0|0:0|0:0|0:0|0:0|0:0|0:0|0:0|0:0,0:0:0:0:
47,212,174002,5,0,0:0:0:0:
74,207,174089,1,0,0:0:0:0:
123,257,174175,5,8,0:3:0:0:
150,259,174261,1,8,0:3:0:0:
206,216,174347,5,4,0:3:0:0:
233,211,174434,1,4,0:3:0:0:
295,246,174520,5,6,0:0:0:0:
314,262,174606,1,0,0:0:0:0:
330,282,174692,2,0,P|290:336|223:342,1,131.25,0|0,0:0|0:0,0:0:0:0:
144,281,174951,5,0,0:0:0:0:
118,276,175037,2,0,P|79:275|49:284,1,65.625,0|0,0:0|0:0,0:0:0:0:
148,179,175209,1,0,0:0:0:0:
174,183,175296,2,0,P|213:184|243:175,1,65.625,0|0,0:0|0:0,0:0:0:0:
373,75,175554,5,2,0:0:0:0:
348,66,175640,1,0,0:0:0:0:
322,59,175727,2,0,P|302:104|303:142,1,65.625,0|0,0:0|0:0,0:0:0:0:
365,260,175899,1,0,0:0:0:0:
382,240,175985,2,0,P|389:194|379:160,1,65.625,0|0,0:0|0:0,0:0:0:0:
223,264,176244,1,2,0:0:0:0:
222,290,176330,1,0,0:0:0:0:
225,315,176416,1,0,0:0:0:0:
233,339,176502,1,0,0:0:0:0:
245,362,176589,6,0,L|320:364,1,65.625,2|0,0:0|0:0,0:0:0:0:
223,264,176761,2,0,L|148:266,1,65.625,0|0,0:0|0:0,0:0:0:0:
259,160,176934,2,0,L|334:162,1,65.625,2|0,0:0|0:0,0:0:0:0:
234,47,177106,2,0,L|159:49,1,65.625,0|0,0:0|0:0,0:0:0:0:
39,150,177278,5,2,0:0:0:0:
47,175,177365,1,0,0:0:0:0:
55,199,177451,2,0,L|186:196,1,131.25,0|2,0:0|0:0,0:0:0:0:
212,196,177709,5,0,0:0:0:0:
237,202,177796,2,0,P|248:238|244:279,1,65.625,0|0,0:0|0:0,0:0:0:0:
136,355,177968,1,0,0:0:0:0:
122,332,178054,2,0,P|111:296|115:255,1,65.625,0|0,0:0|0:0,0:0:0:0:
162,122,178313,5,2,0:0:0:0:
186,112,178399,1,0,0:0:0:0:
210,103,178485,2,0,P|245:101|281:113,1,65.625,0|0,0:0|0:0,0:0:0:0:
446,119,178658,1,0,0:0:0:0:
428,138,178744,2,0,P|393:136|357:148,1,65.625,0|0,0:0|0:0,0:0:0:0:
306,275,179002,5,0,0:0:0:0:
330,285,179089,1,0,0:0:0:0:
355,289,179175,1,0,0:0:0:0:
381,288,179261,1,0,0:0:0:0:
406,282,179347,2,0,L|404:209,1,65.625,2|0,0:0|0:0,0:0:0:0:
310,102,179520,6,0,L|308:175,1,65.625,0|0,0:0|0:0,0:0:0:0:
370,45,179692,2,0,B|338:10|278:11|245:49|245:49|212:33|212:33|175:46,1,196.875,2|0,0:0|0:0,0:0:0:0:
79,149,180037,5,2,0:0:0:0:
105,146,180123,1,0,0:0:0:0:
131,145,180209,2,0,P|186:158|208:242,1,131.25,0|0,0:0|0:0,0:0:0:0:
142,322,180468,5,0,0:0:0:0:
168,322,180554,2,0,P|207:322|245:336,1,65.625,0|0,0:0|0:0,0:0:0:0:
373,244,180727,1,0,0:0:0:0:
361,266,180813,2,0,P|322:266|284:280,1,65.625,0|0,0:0|0:0,0:0:0:0:
455,311,181071,5,2,0:0:0:0:
460,285,181158,1,0,0:0:0:0:
463,259,181244,2,0,P|463:217|444:177,1,65.625,0|0,0:0|0:0,0:0:0:0:
372,70,181416,1,0,0:0:0:0:
365,95,181502,2,0,P|365:137|384:177,1,65.625,0|0,0:0|0:0,0:0:0:0:
215,88,181761,5,2,0:0:0:0:
202,64,181847,1,0,0:0:0:0:
190,39,181934,2,0,L|119:37,1,65.625,0|0,0:0|0:0,0:0:0:0:
48,160,182106,1,2,0:0:0:0:
74,162,182192,2,0,L|145:160,1,65.625,0|0,0:0|0:0,0:0:0:0:
281,230,182451,5,2,0:0:0:0:
262,248,182537,1,0,0:0:0:0:
246,268,182623,1,0,0:0:0:0:
231,289,182709,1,0,0:0:0:0:
221,313,182796,2,0,P|274:338|302:335,1,65.625,2|0,0:0|0:0,0:0:0:0:
419,299,182968,6,0,P|366:274|338:277,1,65.625,0|0,0:0|0:0,0:0:0:0:
447,376,183140,2,0,B|517:351|507:278|490:255|490:255|510:228|510:228|490:188,1,196.875,2|0,0:0|0:0,0:0:0:0:
477,135,183485,6,0,L|456:62,1,65.625,2|0,0:0|0:0,0:0:0:0:
401,165,183658,2,0,L|380:92,1,65.625,0|0,0:0|0:0,0:0:0:0:
255,55,183830,5,2,0:0:0:0:
262,80,183916,1,0,0:0:0:0:
266,105,184002,2,0,P|272:146|266:182,1,65.625,0|0,0:0|0:0,0:0:0:0:
137,236,184175,1,0,0:0:0:0:
132,210,184261,2,0,P|126:169|132:133,1,65.625,0|0,0:0|0:0,0:0:0:0:
227,257,184520,5,2,0:0:0:0:
223,282,184606,1,0,0:0:0:0:
218,307,184692,2,0,L|144:323,1,65.625,0|2,0:0|0:0,0:0:0:0:
314,262,184865,2,0,P|376:255|434:308,1,131.25,2|0,0:0|0:0,0:0:0:0:
342,355,185123,1,0,0:0:0:0:
356,333,185209,2,0,B|379:282|379:282|405:256|405:256|422:208,1,131.25,0|0,0:0|0:0,0:0:0:0:
353,46,185554,5,6,0:0:0:0:
342,69,185640,1,0,0:0:0:0:
331,93,185727,2,0,L|192:88,1,131.25,0|8,0:0|0:0,0:0:0:0:
183,108,185985,5,0,0:0:0:0:
173,132,186071,2,0,P|161:181|165:212,1,65.625,0|0,0:0|0:0,0:0:0:0:
230,329,186244,1,0,0:0:0:0:
241,305,186330,2,0,P|253:256|249:225,1,65.625,0|0,0:0|0:0,0:0:0:0:
92,262,186589,5,8,0:0:0:0:
96,287,186675,1,0,0:0:0:0:
102,312,186761,2,0,P|126:363|146:375,1,65.625,0|0,0:0|0:0,0:0:0:0:
299,378,186934,1,0,0:0:0:0:
323,368,187020,2,0,P|344:343|353:312,1,65.625,0|0,0:0|0:0,0:0:0:0:
299,193,187279,1,8,0:0:0:0:
325,195,187365,1,0,0:0:0:0:
350,189,187451,1,0,0:0:0:0:
373,178,187537,1,0,0:0:0:0:
387,156,187623,6,0,L|383:74,1,65.625,2|0,0:0|0:0,0:0:0:0:
299,193,187796,2,0,L|295:275,1,65.625,0|0,0:0|0:0,0:0:0:0:
213,129,187968,2,0,L|209:47,1,65.625,8|0,0:0|0:0,0:0:0:0:
116,181,188140,2,0,L|112:263,1,65.625,0|0,0:0|0:0,0:0:0:0:
246,333,188313,5,2,0:0:0:0:
271,338,188399,1,0,0:0:0:0:
296,344,188485,2,0,L|434:315,1,131.25,0|0,0:0|0:0,0:0:0:0:
440,295,188744,5,0,0:0:0:0:
451,271,188830,2,0,P|457:221|446:192,1,65.625,0|0,0:0|0:0,0:0:0:0:
346,104,189002,1,0,0:0:0:0:
338,129,189089,2,0,P|333:173|343:206,1,65.625,0|0,0:0|0:0,0:0:0:0:
420,49,189347,5,8,0:0:0:0:
398,33,189434,1,0,0:0:0:0:
376,18,189520,2,0,P|338:12|293:31,1,65.625,0|0,0:0|0:0,0:0:0:0:
195,97,189692,1,0,0:0:0:0:
173,111,189778,2,0,P|135:117|90:98,1,65.625,0|0,0:0|0:0,0:0:0:0:
214,216,190037,5,8,0:0:0:0:
215,242,190123,1,0,0:0:0:0:
214,268,190209,1,0,0:0:0:0:
212,294,190296,1,0,0:0:0:0:
209,320,190382,2,0,L|122:315,1,65.625,2|0,0:0|0:0,0:0:0:0:
18,228,190554,6,0,L|105:223,1,65.625,2|0,0:0|0:0,0:0:0:0:
272,157,190727,2,0,B|235:126|192:128|159:155|159:155|131:142|131:142|97:154|84:146,1,196.875,8|0,0:0|0:0,0:0:0:0:
64,141,191071,5,8,0:0:0:0:
174,69,191244,1,2,0:0:0:0:
163,251,191416,5,8,0:0:0:0:
40,173,191589,1,2,0:0:0:0:
223,168,191761,5,8,0:0:0:0:
139,302,191934,1,2,0:0:0:0:
129,118,192106,5,8,0:0:0:0:
181,279,192278,1,0,0:0:0:0:
369,220,192451,5,8,0:0:0:0:
302,347,192623,1,2,0:0:0:0:
269,165,192796,5,8,0:0:0:0:
385,269,192968,1,2,0:0:0:0:
280,118,193140,5,0,0:0:0:0:
226,280,193313,1,2,0:0:0:0:
373,171,193485,5,0,0:0:0:0:
182,118,193658,1,2,0:0:0:0:
109,286,193830,5,8,0:0:0:0:
109,286,194002,1,0,0:0:0:0:
282,224,194175,5,8,0:0:0:0:
282,224,194347,1,8,0:0:0:0:
88,186,194520,5,8,0:0:0:0:
88,186,194692,1,8,0:0:0:0:
263,130,194865,5,8,0:0:0:0:
263,130,195037,1,8,0:0:0:0:
92,63,195209,1,2,0:0:0:0:
123,74,195296,1,2,0:0:0:0:
155,71,195382,1,2,0:0:0:0:
185,59,195468,1,2,0:0:0:0:
214,44,195554,5,2,0:0:0:0:
246,37,195640,1,2,0:0:0:0:
279,37,195727,1,2,0:0:0:0:
311,43,195813,1,2,0:0:0:0:
338,60,195899,6,0,L|342:146,1,65.625,2|0,0:1|0:0,0:0:0:0:
354,291,196071,1,0,0:0:0:0:
268,268,196244,2,0,P|286:237|317:215,1,65.625,8|0,0:1|0:0,0:0:0:0:
391,216,196416,2,0,P|421:235|442:266,1,65.625,2|0,0:1|0:0,0:0:0:0:
320,198,196589,6,0,L|179:196,1,131.25,6|0,0:0|0:0,0:0:0:0:
118,25,196934,2,0,P|158:48|177:71,1,65.625,8|0,0:0|0:0,0:0:0:0:
12,90,197106,2,0,P|59:83|128:132,1,131.25,0|2,0:0|0:0,0:0:0:0:
90,308,197451,6,0,L|77:236,1,65.625,0|0,0:0|0:0,0:0:0:0:
168,333,197623,2,0,P|147:365|53:381,1,131.25,8|0,0:0|0:0,0:0:0:0:
169,235,197968,2,0,P|211:216|245:223,1,65.625,2|0,0:0|0:0,0:0:0:0:
100,188,198140,2,0,P|141:155|237:138,1,131.25,0|0,0:0|0:0,0:0:0:0:
396,174,198485,6,0,P|362:159|326:154,1,65.625,0|0,0:0|0:0,0:0:0:0:
155,67,198658,2,0,P|205:58|297:73,1,131.25,2|0,0:0|0:0,0:0:0:0:
222,241,199002,2,0,L|218:157,1,65.625,0|0,0:0|0:0,0:0:0:0:
305,246,199175,2,0,L|303:316,1,65.625,0|0,0:0|0:0,0:0:0:0:
229,338,199347,5,2,0:0:0:0:
117,175,199520,1,0,0:0:0:0:
124,328,199692,5,8,0:0:0:0:
181,240,199865,1,0,0:0:0:0:
239,153,200037,1,2,0:0:0:0:
46,116,200209,5,0,0:0:0:0:
166,137,200382,1,8,0:0:0:0:
302,156,200554,1,0,0:0:0:0:
250,346,200727,1,2,0:0:0:0:
325,239,200899,1,0,0:0:0:0:
367,362,201071,5,8,0:0:0:0:
397,337,201157,1,0,0:0:0:0:
419,305,201243,1,0,0:0:0:0:
432,268,201329,1,0,0:0:0:0:
434,228,201416,5,2,0:0:0:0:
399,190,201502,1,0,0:0:0:0:
387,139,201588,1,0,0:0:0:0:
401,89,201674,1,0,0:0:0:0:
437,52,201761,2,0,B|397:47|364:63|364:63|337:52|337:52|303:64|263:56,1,157.5,8|0,0:0|0:0,0:0:0:0:
258,52,202106,6,0,P|217:41|112:63,1,131.25,2|0,0:0|0:0,0:0:0:0:
194,241,202451,2,0,L|198:162,1,65.625,8|0,0:0|0:0,0:0:0:0:
119,280,202623,2,0,P|165:322|249:310,1,131.25,0|0,0:0|0:0,0:0:0:0:
408,225,202968,6,0,P|367:229|332:250,1,65.625,0|0,0:0|0:0,0:0:0:0:
435,143,203140,2,0,P|379:141|291:169,1,131.25,8|0,0:0|0:0,0:0:0:0:
113,114,203485,2,0,P|151:118|188:137,1,65.625,2|0,0:0|0:0,0:0:0:0:
72,32,203658,2,0,P|129:29|207:50,1,131.25,0|8,0:0|0:0,0:0:0:0:
116,224,204002,6,0,L|98:296,1,65.625,0|0,0:0|0:0,0:0:0:0:
203,200,204175,2,0,L|165:342,1,131.25,2|0,0:0|0:0,0:0:0:0:
154,129,204520,2,0,P|193:117|227:119,1,65.625,8|0,0:0|0:0,0:0:0:0:
300,150,204692,2,0,P|320:185|326:218,1,65.625,0|0,0:0|0:0,0:0:0:0:
222,219,204865,5,2,0:0:0:0:
407,154,205037,1,0,0:0:0:0:
390,310,205209,2,0,B|323:318|323:318|290:308|290:308|250:317|250:317|208:308|175:317,1,196.875,8|0,0:0|0:0,0:0:0:0:
167,315,205554,6,0,P|126:322|90:337,1,65.625,2|0,0:0|0:0,0:0:0:0:
118,240,205727,2,0,P|80:257|49:281,1,65.625,0|0,0:0|0:0,0:0:0:0:
118,151,205899,6,0,P|150:155|181:166,1,65.625,8|0,0:0|0:0,0:0:0:0:
167,76,206072,2,0,P|197:88|224:107,1,65.625,0|0,0:0|0:0,0:0:0:0:
291,146,206244,2,0,P|357:169|430:136,1,131.25,2|0,0:0|0:0,0:0:0:0:
216,116,206589,6,0,B|205:164|205:164|218:211|218:211|205:268,1,131.25,8|0,0:0|0:0,0:0:0:0:
25,261,206934,2,0,P|47:236|161:220,1,131.25,2|0,0:0|0:0,0:0:0:0:
141,372,207192,1,2,0:0:0:0:
136,354,207278,2,0,L|107:287,1,65.625,0|0,0:0|0:0,0:0:0:0:
207,270,207451,6,0,L|236:337,1,65.625,0|0,0:0|0:0,0:0:0:0:
148,204,207623,2,0,P|189:186|284:220,1,131.25,2|0,0:0|0:0,0:0:0:0:
293,229,207882,1,2,0:0:0:0:
311,263,207968,1,8,0:3:0:0:
340,289,208054,1,8,0:3:0:0:
377,302,208140,1,4,0:3:0:0:
416,301,208226,1,4,0:3:0:0:
453,286,208313,5,6,0:0:0:0:
405,119,208485,1,0,0:0:0:0:
293,229,208658,2,0,P|231:238|162:211,1,131.25,8|0,0:0|0:0,0:0:0:0:
255,39,209002,2,0,P|255:93|243:119,1,65.625,0|0,0:0|0:0,0:0:0:0:
333,4,209175,2,0,P|339:57|323:144,1,131.25,0|8,0:0|0:0,0:0:0:0:
129,147,209520,6,0,P|98:191|94:226,1,65.625,0|0,0:0|0:0,0:0:0:0:
207,117,209692,2,0,P|158:71|85:77,1,131.25,2|0,0:0|0:0,0:0:0:0:
48,262,210037,2,0,L|57:329,1,65.625,8|0,0:0|0:0,0:0:0:0:
141,275,210209,2,0,L|132:208,1,65.625,0|0,0:0|0:0,0:0:0:0:
234,292,210382,5,2,0:0:0:0:
332,144,210554,1,0,0:0:0:0:
341,289,210727,5,8,0:0:0:0:
263,218,210899,1,0,0:0:0:0:
183,149,211071,1,2,0:0:0:0:
326,52,211244,5,0,0:0:0:0:
345,168,211416,1,8,0:0:0:0:
363,285,211589,1,0,0:0:0:0:
148,267,211761,5,2,0:0:0:0:
259,231,211934,1,0,0:0:0:0:
217,331,212106,1,8,0:0:0:0:
170,354,212192,1,0,0:0:0:0:
118,350,212278,1,0,0:0:0:0:
76,320,212364,1,0,0:0:0:0:
55,272,212451,5,2,0:0:0:0:
71,237,212537,1,0,0:0:0:0:
79,198,212623,1,0,0:0:0:0:
77,159,212709,1,0,0:0:0:0:
65,121,212796,2,0,B|127:128|127:128|160:117|160:117|214:136|259:115,1,196.875,8|0,0:0|0:0,0:0:0:0:
210,47,213140,5,12,0:0:0:0:
197,230,213313,1,2,0:0:0:0:
200,253,213485,1,2,0:0:0:0:
222,70,213658,5,8,0:0:0:0:
292,253,213830,1,0,0:0:0:0:
288,278,214002,1,0,0:0:0:0:
134,153,214175,5,8,0:0:0:0:
325,107,214347,1,2,0:0:0:0:
151,170,214520,5,12,0:0:0:0:
121,350,214692,1,0,0:0:0:0:
101,364,214865,1,2,0:0:0:0:
160,190,215037,5,0,0:0:0:0:
219,377,215209,1,2,0:0:0:0:
239,362,215382,1,0,0:0:0:0:
174,172,215554,5,8,0:0:0:0:
218,145,215640,1,2,0:0:0:0:
270,137,215726,1,2,0:0:0:0:
320,149,215812,1,2,0:0:0:0:
362,180,215898,1,0,0:0:0:0:
257,297,216071,5,2,0:0:0:0:
249,266,216158,1,2,0:0:0:0:
248,234,216244,1,8,0:0:0:0:
114,312,216416,5,2,0:0:0:0:
130,284,216503,1,2,0:0:0:0:
152,261,216589,1,8,0:0:0:0:
15,220,216761,5,2,0:0:0:0:
46,211,216848,1,2,0:0:0:0:
77,210,216934,1,8,0:0:0:0:
10,71,217106,5,2,0:0:0:0:
38,86,217193,1,2,0:0:0:0:
60,107,217278,5,8,0:0:0:0:
104,134,217364,1,2,0:0:0:0:
155,144,217450,1,2,0:0:0:0:
207,136,217536,1,2,0:0:0:0:
253,111,217623,5,8,0:0:0:0:
296,81,217709,1,2,0:0:0:0:
347,68,217795,1,2,0:0:0:0:
399,71,217881,1,2,0:0:0:0:
447,91,217968,6,0,P|447:151|439:175,1,65.625,8|0,0:0|0:0,0:0:0:0:
467,240,218140,2,0,P|407:239|383:231,1,65.625,0|0,0:0|0:0,0:0:0:0:
326,204,218313,5,0,0:0:0:0:
72,243,218658,6,0,P|119:240|177:263,1,105,6|0,0:3|0:0,0:0:0:0:
104,353,219002,1,0,0:0:0:0:
122,357,219520,1,2,0:0:0:0:
292,294,219692,1,8,0:0:0:0:
293,275,220037,6,0,L|290:159,1,105,0|2,0:0|0:0,0:0:0:0:
210,72,220382,1,8,0:0:0:0:
132,159,220554,5,0,0:0:0:0:
135,179,220640,1,0,0:0:0:0:
138,199,220727,1,0,0:0:0:0:
141,219,220813,1,0,0:0:0:0:
144,239,220899,1,2,0:0:0:0:
213,93,221071,1,8,0:0:0:0:
308,251,221416,5,2,0:0:0:0:
317,226,221589,1,2,0:0:0:0:
195,71,221761,1,8,0:0:0:0:
218,78,222279,5,2,0:0:0:0:
426,87,222451,1,8,0:0:0:0:
422,114,222796,6,0,P|417:157|434:228,1,105,0|2,0:0|0:0,0:0:0:0:
508,312,223140,1,8,0:0:0:0:
404,332,223313,5,0,0:0:0:0:
383,328,223399,1,0,0:0:0:0:
362,326,223485,1,0,0:0:0:0:
341,328,223571,1,0,0:0:0:0:
320,333,223658,1,2,0:0:0:0:
249,162,223830,1,8,0:0:0:0:
99,246,224002,1,2,0:0:0:0:
270,174,224175,1,2,0:0:0:0:
66,97,224520,5,8,0:0:0:0:
157,44,224692,1,0,0:0:0:0:
177,47,224778,1,0,0:0:0:0:
198,49,224865,1,0,0:0:0:0:
218,48,224951,1,0,0:0:0:0:
238,45,225037,1,2,0:0:0:0:
410,128,225209,1,8,0:0:0:0:
397,149,225554,6,0,L|374:258,1,105,0|0,0:0|0:0,0:0:0:0:
259,322,225899,1,8,0:0:0:0:
246,300,226416,5,2,0:0:0:0:
68,327,226589,1,8,0:0:0:0:
77,301,226934,6,0,P|92:268|91:185,1,105,2|0,0:0|0:0,0:0:0:0:
24,92,227278,1,8,0:0:0:0:
136,111,227451,5,0,0:0:0:0:
154,121,227537,1,0,0:0:0:0:
173,127,227623,1,0,0:0:0:0:
193,129,227709,1,0,0:0:0:0:
214,130,227796,1,2,0:0:0:0:
357,57,227968,1,8,0:0:0:0:
355,157,228140,5,0,0:0:0:0:
353,178,228227,1,0,0:0:0:0:
351,198,228313,2,0,L|352:308,1,105,0|2,0:0|0:0,0:0:0:0:
186,272,228658,1,8,0:0:0:0:
341,338,228830,5,0,0:0:0:0:
239,349,229002,1,0,0:0:0:0:
217,351,229089,1,0,0:0:0:0:
196,353,229175,1,2,0:0:0:0:
175,356,229261,1,2,0:0:0:0:
154,357,229347,1,8,0:0:0:0:
77,245,229520,5,2,0:0:0:0:
86,226,229606,1,2,0:0:0:0:
96,207,229692,2,0,P|107:169|99:96,1,105,2|0,0:0|0:0,0:0:0:0:
34,5,230037,1,8,0:0:0:0:
54,24,230554,5,2,0:0:0:0:
243,53,230727,1,8,0:0:0:0:
242,75,231071,6,0,L|237:158,1,84,0|2,0:0|0:0,0:0:0:0:
276,248,231416,1,8,0:0:0:0:
148,197,231589,1,0,0:0:0:0:
149,213,231934,5,2,0:0:0:0:
167,323,232106,1,0,0:0:0:0:
181,334,232451,6,0,L|274:338,1,84,2|2,0:0|0:0,0:0:0:0:
355,286,232796,1,8,0:0:0:0:
358,265,233313,5,2,0:0:0:0:
326,154,233485,1,8,0:0:0:0:
328,138,233830,6,0,L|325:66,1,68.2499968757631,0|0,0:0|0:0,0:0:0:0:
396,24,234175,1,8,0:0:0:0:
253,84,234347,1,0,0:0:0:0:
238,88,234434,2,0,P|194:93|158:83,1,68.2499968757631,0|0,0:0|0:0,0:0:0:0:
158,83,234692,2,0,P|124:76|87:82,1,68.2499968757631,2|0,0:0|0:0,0:0:0:0:
129,178,235037,1,0,0:0:0:0:
158,271,235209,5,2,0:0:0:0:
163,283,235554,2,0,P|260:258|317:280,1,157.5,8|2,0:0|0:0,0:0:0:0:
370,331,236244,1,8,0:0:0:0:
370,316,236589,5,0,0:0:0:0:
374,232,236761,1,2,0:0:0:0:
377,151,236934,1,8,0:0:0:0:
302,188,237106,2,0,P|265:174|226:117,1,105,0|0,0:0|0:0,0:0:0:0:
251,38,237623,5,8,0:0:0:0:
311,98,237796,1,0,0:0:0:0:
218,120,237968,2,0,L|161:112,1,52.5,2|2,0:0|0:0,0:0:0:0:
85,97,238313,1,8,0:0:0:0:
256,192,238399,12,2,240554,0:0:0:0:
152,290,240727,6,0,L|148:231,1,52.5,8|0,0:0|0:0,0:0:0:0:
182,166,241071,2,0,P|214:157|243:159,1,52.5,0|0,0:0|0:0,0:0:0:0:
299,200,241416,1,2,0:0:0:0:
298,216,241761,6,0,L|316:269,1,52.5,0|0,0:0|0:0,0:0:0:0:
378,312,242106,2,0,P|410:313|437:306,1,52.5,0|2,0:0|0:0,0:0:0:0:
462,236,242451,1,0,0:0:0:0:
411,175,242623,1,0,0:0:0:0:
469,122,242796,1,0,0:0:0:0:
417,63,242968,1,0,0:0:0:0:
357,114,243140,6,0,P|325:120|257:80,1,105,0|0,0:0|0:0,0:0:0:0:
326,41,243658,1,0,0:0:0:0:
251,67,243830,2,0,L|205:102,1,52.5,0|0,0:0|0:0,0:0:0:0:
134,123,244175,2,0,P|99:127|43:79,1,105,2|0,0:0|0:0,0:0:0:0:
115,49,244692,5,0,0:0:0:0:
153,118,244865,2,0,L|159:180,1,52.5,2|2,0:0|0:0,0:0:0:0:
146,247,245209,2,0,L|137:302,1,52.5,0|0,0:0|0:0,0:0:0:0:
216,307,245554,2,0,L|224:252,1,52.5,0|0,0:0|0:0,0:0:0:0:
250,180,245899,2,0,P|277:169|309:169,1,52.5,0|0,0:0|0:0,0:0:0:0:
375,190,246244,6,0,L|374:130,1,52.5,2|0,0:0|0:0,0:0:0:0:
351,61,246589,1,0,0:0:0:0:
429,66,246761,1,0,0:0:0:0:
455,140,246934,2,0,L|455:198,1,52.5,2|0,0:0|0:0,0:0:0:0:
423,264,247278,5,0,0:0:0:0:
459,334,247451,1,0,0:0:0:0:
380,328,247623,1,0,0:0:0:0:
301,318,247796,2,0,L|244:325,1,52.5,2|0,0:0|0:0,0:0:0:0:
170,315,248140,5,0,0:0:0:0:
217,252,248313,1,0,0:0:0:0:
138,244,248485,1,0,0:0:0:0:
185,180,248658,2,0,P|218:174|245:178,1,52.5,0|0,0:0|0:0,0:0:0:0:
311,199,249002,6,0,P|354:204|374:202,1,52.5,0|0,0:0|0:0,0:0:0:0:
440,170,249347,1,0,0:0:0:0:
367,127,249520,1,0,0:0:0:0:
440,87,249692,5,2,0:0:0:0:
358,39,249865,1,0,0:0:0:0:
283,97,250037,1,0,0:0:0:0:
299,179,250209,5,0,0:0:0:0:
215,169,250382,1,2,0:0:0:0:
131,158,250554,5,2,0:0:0:0:
149,251,250727,1,0,0:0:0:0:
65,295,250899,1,0,0:0:0:0:
138,334,251071,5,2,0:0:0:0:
215,300,251244,1,0,0:0:0:0:
292,331,251416,1,2,0:0:0:0:
367,293,251589,1,0,0:0:0:0:
297,246,251761,6,0,B|332:189|439:195|451:288|451:288|464:222|423:169|423:169|456:139|439:91,2,420,2|0|2,0:0|0:0|0:0,0:0:0:0:
368,287,260036,1,0,0:0:0:0:
277,302,261416,1,2,0:0:0:0:
