osu file format v14

[General]
AudioFilename: audio.mp3
AudioLeadIn: 0
PreviewTime: 85685
Countdown: 1
SampleSet: Soft
StackLeniency: 0.5
Mode: 2
LetterboxInBreaks: 0
WidescreenStoryboard: 0

[Editor]
Bookmarks: 11116,52409
DistanceSpacing: 0.8
BeatDivisor: 8
GridSize: 16
TimelineZoom: 3.099999

[Metadata]
Title:crystallized
TitleUnicode:crystallized
Artist:Camellia
ArtistUnicode:Camellia
Creator:[224]Hyperw7
Version:crystallism
Source:Camellia
Tags:Godmellia Camellia [224]Hyperw7 superw7
BeatmapID:948177
BeatmapSetID:440722

[Difficulty]
HPDrainRate:6
CircleSize:4
OverallDifficulty:9.4
ApproachRate:9.6
SliderMultiplier:2
SliderTickRate:2

[Events]
//Background and Video events
0,0,"CTG4IARUcAAZXUi.jpg",0,0
//Break Periods
//Storyboard Layer 0 (Background)
//Storyboard Layer 1 (Fail)
//Storyboard Layer 2 (Pass)
//Storyboard Layer 3 (Foreground)
//Storyboard Sound Samples

[TimingPoints]
8961,344.827586206897,4,2,0,35,1,0
52409,-66.6666666666667,4,2,0,35,0,0
53098,-83.3333333333333,4,2,0,35,0,0
53788,-66.6666666666667,4,2,0,35,0,0
54478,-90.9090909090909,4,2,0,35,0,0
57236,-90.9090909090909,4,2,0,35,0,0
58271,-58.8235294117647,4,2,0,35,0,0
59995,-100,4,2,0,35,0,0
60512,-76.9230769230769,4,2,0,35,0,0
61029,-62.5,4,2,0,35,0,0
62409,-100,4,2,0,35,0,0
64133,-142.857142857143,4,2,0,35,0,0
65167,-76.9230769230769,4,2,0,35,0,0
65857,-76.9230769230769,4,2,0,35,0,0
66029,-76.9230769230769,4,2,0,35,0,0
66374,-76.9230769230769,4,2,0,35,0,0
66547,-62.5,4,2,0,35,0,0
68271,-83.3333333333333,4,2,0,35,0,0
68788,-66.6666666666667,4,2,0,35,0,0
69305,-55.5555555555556,4,2,0,35,0,0
71029,-100,4,2,0,35,0,0
75167,-100,4,2,0,35,0,0
86202,-100,4,2,0,35,0,0
89823,-66.6666666666667,4,2,0,35,0,0
91374,-100,4,2,0,35,0,0
91719,-83.3333333333333,4,2,0,35,0,0
94478,-100,4,2,0,35,0,0
97236,-71.4285714285714,4,2,0,35,0,0
104133,-62.5,4,2,0,35,0,0
105512,-100,4,2,0,35,0,0
106892,-66.6666666666667,4,2,0,35,0,0
108271,-100,4,2,0,35,0,0
126892,-66.6666666666667,4,2,0,35,0,0
127236,-55.5555555555556,4,2,0,35,0,0
127581,-100,4,2,0,35,0,0
127926,-90.9090909090909,4,2,0,35,0,0
128271,-71.4285714285714,4,2,0,35,0,0
128616,-58.8235294117647,4,2,0,35,0,0
128961,-66.6666666666667,4,2,0,35,0,0
130340,689.655172413793,4,2,0,35,1,0
130340,-100,4,2,0,35,0,0
146905,344.827586206897,4,2,0,35,1,0
146905,-83.3333333333333,4,2,0,35,0,0
147594,-66.6666666666667,4,2,0,35,0,0
152422,-83.3333333333333,4,2,0,35,0,0
153111,-66.6666666666667,4,2,0,35,0,0
153801,-90.9090909090909,4,2,0,35,0,0
157594,-58.8235294117647,4,2,0,35,0,0
159318,-100,4,2,0,35,0,0
159836,-76.9230769230769,4,2,0,35,0,0
160353,-62.5,4,2,0,35,0,0
162077,-83.3333333333333,4,2,0,35,0,0
173973,-62.5,4,2,0,35,0,0
174491,-83.3333333333333,4,2,0,35,0,0
201042,-71.4285714285714,4,2,0,35,0,0
211732,-62.5,4,2,0,35,0,0
212077,-71.4285714285714,4,2,0,35,0,0
240698,689.655172413793,4,2,0,35,1,0
246215,-66.6666666666667,4,2,0,35,0,0

[HitObjects]
144,272,8960,6,0,L|32:272,1,100
224,224,9305,2,0,L|112:224,1,100
272,224,9650,5,0,0:0:0:0:
336,224,9822,1,0,0:0:0:0:
368,224,9995,1,0,0:0:0:0:
208,224,10167,1,0,0:0:0:0:
448,224,10340,6,0,L|496:128,1,100
336,224,10685,2,0,L|368:112,1,100
112,192,11029,5,0,0:0:0:0:
160,176,11202,1,0,0:0:0:0:
240,160,11374,1,0,0:0:0:0:
384,160,11547,1,0,0:0:0:0:
176,160,11719,6,0,L|224:48,1,100
64,48,12064,2,0,L|16:176,1,100
336,176,12409,5,0,0:0:0:0:
464,176,12581,1,0,0:0:0:0:
416,224,12754,1,0,0:0:0:0:
464,224,12926,1,0,0:0:0:0:
208,288,13098,6,0,L|144:192,1,100
32,176,13443,2,0,L|4:63,1,100
240,96,13788,6,0,L|304:192,1,100
416,208,14133,2,0,L|443:320,1,100
160,272,14478,5,0,0:0:0:0:
16,224,14650,1,0,0:0:0:0:
64,160,14823,1,0,0:0:0:0:
144,128,14995,1,0,0:0:0:0:
448,240,15167,6,0,L|512:160,1,100
368,160,15512,2,0,L|448:64,1,100
256,192,15857,5,0,0:0:0:0:
64,192,16029,1,0,0:0:0:0:
256,144,16202,1,0,0:0:0:0:
144,144,16374,1,0,0:0:0:0:
256,144,16547,5,0,0:0:0:0:
368,144,16719,1,0,0:0:0:0:
256,192,16892,1,0,0:0:0:0:
448,192,17064,1,0,0:0:0:0:
128,304,17236,6,0,L|192:208,1,100
48,192,17581,2,0,L|80:96,1,100
464,224,17926,2,0,L|336:224,1,100
512,160,18271,2,0,L|384:160,1,100
240,160,18616,2,0,L|140:160,1,100
0,160,18961,2,0,L|128:160,1,100
352,160,19305,6,0,L|464:160,1,100
112,96,19650,2,0,L|0:96,1,100
336,240,19995,6,0,L|464:240,1,100
480,240,20254,1,0,0:0:0:0:
400,192,20340,2,0,L|288:192,1,100
256,192,20598,1,0,0:0:0:0:
176,192,20685,6,0,L|64:192,1,100
32,192,20943,1,0,0:0:0:0:
144,144,21029,6,0,L|256:144,1,100
288,144,21287,1,0,0:0:0:0:
400,112,21374,6,0,L|288:112,1,100
256,112,21632,1,0,0:0:0:0:
160,64,21719,6,0,L|272:64,1,100
304,64,21977,1,0,0:0:0:0:
480,64,22064,6,0,L|368:64,1,100
336,64,22322,1,0,0:0:0:0:
240,112,22409,6,0,L|352:112,1,100
384,112,22667,1,0,0:0:0:0:
80,304,22754,6,0,L|16:224,1,100
16,176,23012,1,0,0:0:0:0:
160,176,23098,6,0,L|224:96,1,100
224,48,23356,1,0,0:0:0:0:
304,304,23443,6,0,L|368:224,1,100
368,176,23701,1,0,0:0:0:0:
448,160,23788,6,0,L|512:80,1,100
512,32,24046,1,0,0:0:0:0:
160,272,24133,6,0,L|192:128,1,100
208,144,24392,1,0,0:0:0:0:
352,272,24478,6,0,L|320:128,1,100
304,144,24737,1,0,0:0:0:0:
128,272,24823,6,0,L|64:160,1,100
96,128,25081,1,0,0:0:0:0:
384,272,25167,2,0,L|448:160,1,100
416,128,25425,1,0,0:0:0:0:
144,336,25512,6,0,L|0:288,1,150
160,224,25857,2,0,L|192:176,3,50
272,144,26202,6,0,L|128:96,1,150
48,64,26547,2,0,L|16:16,3,50
112,224,26892,6,0,L|192:208,1,50
288,192,27064,2,0,L|352:176,1,50
480,160,27236,2,0,L|511:142,2,33.3333333333333
288,256,27409,5,0,0:0:0:0:
224,208,27495,1,0,0:0:0:0:
240,144,27581,1,0,0:0:0:0:
288,96,27667,1,0,0:0:0:0:
496,96,27754,6,0,L|448:80,1,50
192,192,27926,1,0,0:0:0:0:
128,160,28012,1,0,0:0:0:0:
80,112,28098,1,0,0:0:0:0:
48,48,28185,1,0,0:0:0:0:
464,240,28271,6,0,L|496:176,1,50
320,176,28443,2,0,L|304:128,1,50
464,144,28616,5,0,0:0:0:0:
480,96,28702,1,0,0:0:0:0:
464,32,28788,1,0,0:0:0:0:
400,16,28874,1,0,0:0:0:0:
256,208,28961,6,0,L|224:144,1,50
48,192,29133,2,0,L|32:144,1,50
192,192,29305,5,0,0:0:0:0:
256,160,29392,1,0,0:0:0:0:
304,112,29478,1,0,0:0:0:0:
352,64,29564,1,0,0:0:0:0:
496,208,29650,6,0,L|512:144,1,50
224,240,29823,6,0,L|176:224,1,50
320,192,29995,2,0,L|336:128,1,50
32,192,30167,2,0,L|16:112,1,50
304,240,30340,6,0,L|336:176,1,50
176,160,30512,6,0,L|208:96,1,50
496,128,30685,6,0,L|512:64,1,50
0,128,30857,6,0,L|16:64,1,50
256,192,31029,6,0,L|368:192,1,100
112,192,31374,5,0,0:0:0:0:
48,192,31461,1,0,0:0:0:0:
48,128,31547,1,0,0:0:0:0:
112,128,31633,1,0,0:0:0:0:
256,192,31719,2,0,L|256:112,1,50
336,128,31892,2,0,L|448:128,1,100
496,128,32150,1,0,0:0:0:0:
496,64,32236,1,0,0:0:0:0:
432,64,32323,1,0,0:0:0:0:
13,192,32409,5,0,0:0:0:0:
160,192,32581,1,0,0:0:0:0:
16,128,32754,2,0,L|128:128,1,100
176,128,33012,1,0,0:0:0:0:
176,64,33098,1,0,0:0:0:0:
112,64,33184,1,0,0:0:0:0:
16,64,33271,1,0,0:0:0:0:
256,112,33443,1,0,0:0:0:0:
368,160,33616,1,0,0:0:0:0:
256,192,33788,6,0,L|144:192,1,100
400,192,34133,5,0,0:0:0:0:
464,192,34220,1,0,0:0:0:0:
464,128,34306,1,0,0:0:0:0:
400,128,34392,1,0,0:0:0:0:
256,192,34478,2,0,L|256:112,1,50
176,128,34651,2,0,L|64:128,1,100
16,128,34909,1,0,0:0:0:0:
16,64,34995,1,0,0:0:0:0:
80,64,35082,1,0,0:0:0:0:
499,192,35167,5,0,0:0:0:0:
352,192,35339,1,0,0:0:0:0:
496,128,35512,2,0,L|384:128,1,100
336,128,35771,1,0,0:0:0:0:
336,64,35857,1,0,0:0:0:0:
400,64,35943,1,0,0:0:0:0:
496,64,36029,1,0,0:0:0:0:
256,112,36201,1,0,0:0:0:0:
144,160,36374,1,0,0:0:0:0:
64,176,36547,6,0,L|176:176,1,100
400,176,36892,1,0,0:0:0:0:
352,176,36978,1,0,0:0:0:0:
304,176,37064,1,0,0:0:0:0:
448,176,37236,6,0,L|336:176,1,100
112,176,37581,1,0,0:0:0:0:
160,176,37667,1,0,0:0:0:0:
208,176,37753,1,0,0:0:0:0:
0,192,37926,5,0,0:0:0:0:
128,192,38098,1,0,0:0:0:0:
0,192,38271,1,0,0:0:0:0:
304,192,38443,1,0,0:0:0:0:
256,192,38529,1,0,0:0:0:0:
208,192,38616,1,0,0:0:0:0:
384,192,38788,5,0,0:0:0:0:
256,192,38961,1,0,0:0:0:0:
128,192,39133,1,0,0:0:0:0:
416,192,39305,6,0,L|448:96,1,100
192,112,39650,1,0,0:0:0:0:
256,112,39736,1,0,0:0:0:0:
320,112,39823,1,0,0:0:0:0:
96,192,39995,6,0,L|64:96,1,100
320,112,40340,1,0,0:0:0:0:
256,112,40426,1,0,0:0:0:0:
192,112,40513,1,0,0:0:0:0:
448,192,40685,6,0,L|512:192,2,50
272,192,40943,2,0,L|272:112,1,50
448,128,41116,2,0,L|512:128,1,50
272,128,41288,2,0,L|208:128,1,50
496,128,41461,2,0,L|496:48,1,50
128,192,41633,5,0,0:0:0:0:
32,192,41719,2,0,L|0:80,1,100
96,96,41978,1,0,0:0:0:0:
256,96,42064,5,0,0:0:0:0:
352,96,42236,1,0,0:0:0:0:
176,96,42409,6,0,L|112:96,1,50
352,96,42581,1,0,0:0:0:0:
368,144,42667,1,0,0:0:0:0:
432,144,42754,1,0,0:0:0:0:
448,208,42840,1,0,0:0:0:0:
512,208,42926,1,0,0:0:0:0:
0,192,43098,6,0,L|128:192,2,100
304,192,43616,6,0,L|176:192,2,100
352,192,44047,1,0,0:0:0:0:
160,192,44133,5,0,0:0:0:0:
192,128,44219,1,0,0:0:0:0:
128,112,44305,1,0,0:0:0:0:
160,48,44392,1,0,0:0:0:0:
96,16,44478,1,0,0:0:0:0:
256,16,44650,5,0,0:0:0:0:
0,192,44823,6,0,L|64:192,1,50
208,192,44995,2,0,L|256:176,1,50
48,192,45167,2,0,B|16:128|16:128|16:64|48:48,1,150
272,192,45512,6,0,L|352:176,1,50
128,192,45685,6,0,L|48:176,1,50
352,192,45857,6,0,L|320:80,1,100
512,192,46202,6,0,L|448:192,1,50
304,192,46374,2,0,L|256:176,1,50
432,192,46547,6,0,L|480:64,1,100
416,80,46805,1,0,0:0:0:0:
240,192,46891,6,0,L|160:176,1,50
384,192,47064,6,0,L|464:176,1,50
80,192,47236,6,0,L|192:64,1,150
0,192,47581,6,0,L|48:48,1,150
208,192,47926,6,0,L|176:80,1,100
240,64,48185,1,0,0:0:0:0:
512,192,48271,6,0,L|464:176,1,50
320,160,48443,2,0,L|288:96,1,50
512,192,48616,2,0,L|432:16,1,150
512,192,48961,6,0,L|464:48,1,150
384,96,49305,2,0,L|368:48,1,50
208,160,49478,2,0,L|160:144,1,50
48,192,49651,6,0,L|0:176,1,50
192,160,49823,2,0,L|224:96,1,50
64,192,49996,2,0,L|-16:16,1,150
320,192,50340,6,0,L|352:144,1,50
496,144,50512,5,0,0:0:0:0:
512,128,50555,1,0,0:0:0:0:
512,112,50598,1,0,0:0:0:0:
192,192,50685,2,0,L|160:128,1,50
16,144,50857,5,0,0:0:0:0:
0,128,50900,1,0,0:0:0:0:
0,112,50943,1,0,0:0:0:0:
352,192,51029,6,0,L|352:128,1,50
160,192,51202,1,0,0:0:0:0:
160,176,51245,1,0,0:0:0:0:
160,160,51288,1,0,0:0:0:0:
512,144,51374,2,0,L|512:80,1,50
0,144,51547,1,0,0:0:0:0:
0,128,51590,1,0,0:0:0:0:
0,112,51633,1,0,0:0:0:0:
352,256,51719,5,0,0:0:0:0:
384,240,51762,1,0,0:0:0:0:
416,224,51805,1,0,0:0:0:0:
400,192,51848,1,0,0:0:0:0:
128,224,51892,5,0,0:0:0:0:
0,192,51935,1,0,0:0:0:0:
16,160,51978,1,0,0:0:0:0:
32,128,52021,1,0,0:0:0:0:
384,224,52064,5,0,0:0:0:0:
512,192,52107,1,0,0:0:0:0:
496,160,52150,1,0,0:0:0:0:
480,128,52193,1,0,0:0:0:0:
0,192,52236,5,0,0:0:0:0:
32,160,52279,1,0,0:0:0:0:
144,160,52323,1,0,0:0:0:0:
288,160,52366,1,0,0:0:0:0:
448,256,52409,6,0,B|464:224|464:224|368:192|368:192|496:144|496:144|496:144|496:144|496:144,1,225.000008583069
224,256,52754,6,0,L|16:128,1,225.000008583069
368,304,53098,6,0,B|560:256|460:134|407:48|272:64,1,419.999987182618
128,240,53788,6,0,B|0:160|0:160|160:176|160:176|32:80|32:80|144:48,1,525.000020027161
432,320,54478,6,0,L|480:128,1,165.000005035401
320,192,54823,6,0,L|288:128,1,55.0000016784668
144,192,54995,6,0,L|272:32,1,165.000005035401
96,320,55340,6,0,L|112:240,1,55.0000016784668
496,336,55512,6,0,B|368:256|368:144|512:96,1,330.000010070801
336,256,56116,6,0,L|304:192,1,55.0000016784668
352,176,56288,1,0,0:0:0:0:
272,160,56374,2,0,L|320:128,1,55.0000016784668
240,112,56547,2,0,L|288:80,1,55.0000016784668
208,64,56719,2,0,L|256:32,1,55.0000016784668
512,64,56892,2,0,L|448:16,1,55.0000016784668
256,64,57064,2,0,L|176:64,1,55.0000016784668
0,288,57236,6,0,L|144:144,1,165.000005035401
272,176,57581,2,0,L|352:160,1,55.0000016784668
512,288,57754,6,0,L|368:144,1,165.000005035401
144,192,58099,2,0,L|64:176,1,55.0000016784668
0,192,58271,2,0,B|240:80|240:80|240:80|240:80|112:128|112:128|112:128|256:80|352:16,1,595.000011348725
464,320,58961,5,0,0:0:0:0:
480,304,59004,1,0,0:0:0:0:
480,288,59047,1,0,0:0:0:0:
480,272,59090,1,0,0:0:0:0:
368,272,59133,1,0,0:0:0:0:
352,256,59176,1,0,0:0:0:0:
368,240,59219,1,0,0:0:0:0:
352,224,59262,1,0,0:0:0:0:
496,192,59305,1,0,0:0:0:0:
480,176,59348,1,0,0:0:0:0:
464,160,59392,1,0,0:0:0:0:
448,144,59435,1,0,0:0:0:0:
256,192,59478,1,0,0:0:0:0:
240,176,59521,1,0,0:0:0:0:
224,160,59564,1,0,0:0:0:0:
208,144,59607,1,0,0:0:0:0:
512,16,59650,5,0,0:0:0:0:
512,64,59693,1,0,0:0:0:0:
496,112,59736,1,0,0:0:0:0:
464,144,59779,1,0,0:0:0:0:
432,176,59823,1,0,0:0:0:0:
384,192,59866,1,0,0:0:0:0:
336,192,59909,1,0,0:0:0:0:
112,64,59995,6,0,B|32:160|32:208|32:256|80:320,1,250
304,304,60512,6,0,B|384:272|528:224|416:80|352:64,1,324.999985122681
224,80,61029,6,0,B|80:80|0:192|0:272|64:336|288:320,1,480
368,320,61633,1,0,0:0:0:0:
512,320,61719,5,0,0:0:0:0:
496,304,61762,1,0,0:0:0:0:
480,288,61805,1,0,0:0:0:0:
464,272,61848,1,0,0:0:0:0:
416,256,61892,1,0,0:0:0:0:
432,240,61935,1,0,0:0:0:0:
448,224,61978,1,0,0:0:0:0:
464,208,62021,1,0,0:0:0:0:
512,192,62064,6,0,P|400:160|384:176,1,120
304,192,62236,2,0,P|336:112|368:80,1,120
512,96,62409,6,0,L|320:96,1,150
0,192,62754,6,0,L|192:192,1,150
512,192,63098,6,0,L|352:192,1,150
0,192,63443,6,0,L|0:128,1,50
256,192,63616,2,0,L|256:128,1,50
512,192,63788,6,0,L|320:192,1,150
0,192,64133,6,0,L|272:192,1,244.999992523194
512,192,64823,6,0,L|496:144,1,34.9999989318848
432,144,64995,2,0,L|416:96,1,34.9999989318848
288,144,65167,2,0,L|368:112,1,64.9999970245363
256,80,65340,2,0,L|352:32,1,64.9999970245363
512,192,65512,6,0,L|272:192,1,194.999991073609
0,192,65857,2,0,L|112:192,1,64.9999970245363
0,192,66029,6,0,L|224:192,1,194.999991073609
512,192,66374,2,0,L|432:192,1,64.9999970245363
512,192,66547,6,0,L|144:192,2,320
480,192,67279,1,0,0:0:0:0:
496,160,67323,1,0,0:0:0:0:
352,160,67409,5,0,0:0:0:0:
336,144,67452,1,0,0:0:0:0:
336,128,67495,1,0,0:0:0:0:
192,128,67581,5,0,0:0:0:0:
176,112,67624,1,0,0:0:0:0:
192,96,67667,1,0,0:0:0:0:
48,144,67754,5,0,0:0:0:0:
16,144,67797,1,0,0:0:0:0:
32,112,67840,1,0,0:0:0:0:
192,272,67926,5,0,0:0:0:0:
224,256,67969,1,0,0:0:0:0:
192,240,68012,1,0,0:0:0:0:
32,224,68098,5,0,0:0:0:0:
0,208,68141,1,0,0:0:0:0:
32,192,68184,1,0,0:0:0:0:
256,320,68271,6,0,B|283:244|213:202|144:208|130:103|128:64,1,299.999990844727
304,320,68788,6,0,B|276:244|346:202|480:288|496:112|400:32,1,375.000014305115
208,320,69305,6,0,B|235:244|165:202|32:336|-48:176|56:47|160:48,1,449.99998626709
512,336,69823,5,0,0:0:0:0:
496,320,69866,1,0,0:0:0:0:
480,304,69909,1,0,0:0:0:0:
320,272,69995,1,0,0:0:0:0:
304,256,70038,1,0,0:0:0:0:
288,240,70081,1,0,0:0:0:0:
464,208,70167,1,0,0:0:0:0:
480,192,70211,1,0,0:0:0:0:
496,176,70254,1,0,0:0:0:0:
32,192,70340,5,0,0:0:0:0:
16,176,70383,1,0,0:0:0:0:
16,160,70426,1,0,0:0:0:0:
176,128,70512,1,0,0:0:0:0:
192,128,70555,1,0,0:0:0:0:
208,128,70598,1,0,0:0:0:0:
384,128,70685,1,0,0:0:0:0:
400,128,70729,1,0,0:0:0:0:
416,128,70772,1,0,0:0:0:0:
0,128,70857,1,0,0:0:0:0:
16,128,70901,1,0,0:0:0:0:
32,128,70944,1,0,0:0:0:0:
512,320,71029,6,0,L|384:80,1,250
0,320,71547,6,0,L|128:80,1,250
336,304,72064,6,0,B|448:240|464:160|352:112|256:112,1,300
416,112,72754,1,0,0:0:0:0:
256,112,72926,1,0,0:0:0:0:
512,112,73098,1,0,0:0:0:0:
256,112,73271,1,0,0:0:0:0:
96,112,73443,1,0,0:0:0:0:
256,112,73616,1,0,0:0:0:0:
0,112,73788,1,0,0:0:0:0:
512,192,73961,5,0,0:0:0:0:
256,192,74133,1,0,0:0:0:0:
0,192,74305,1,0,0:0:0:0:
512,192,74478,1,0,0:0:0:0:
0,192,74650,5,0,0:0:0:0:
256,192,74823,1,0,0:0:0:0:
512,192,74995,1,0,0:0:0:0:
0,192,75167,2,0,L|80:80,1,100
208,192,75512,2,0,L|128:304,1,100
512,192,75857,2,0,L|432:80,1,100
304,192,76202,2,0,L|384:304,1,100
48,240,76547,6,0,L|32:128,1,100
464,240,76892,6,0,L|480:128,1,100
96,128,77236,5,0,0:0:0:0:
416,128,77409,1,0,0:0:0:0:
176,192,77581,1,0,0:0:0:0:
336,192,77754,1,0,0:0:0:0:
80,240,77926,6,0,L|0:128,1,100
288,240,78271,6,0,L|368:128,1,100
432,240,78616,6,0,L|512:128,1,100
224,240,78961,6,0,L|144:128,1,100
0,240,79305,6,0,L|64:144,1,100
512,240,79650,6,0,L|448:144,1,100
192,192,79995,5,0,0:0:0:0:
320,192,80167,1,0,0:0:0:0:
80,144,80340,1,0,0:0:0:0:
432,144,80512,1,0,0:0:0:0:
256,192,80685,5,0,0:0:0:0:
0,192,80857,1,0,0:0:0:0:
256,192,81029,1,0,0:0:0:0:
16,192,81202,1,0,0:0:0:0:
256,192,81374,1,0,0:0:0:0:
96,192,81547,1,0,0:0:0:0:
256,192,81719,1,0,0:0:0:0:
176,192,81892,1,0,0:0:0:0:
256,192,82064,1,0,0:0:0:0:
336,192,82237,1,0,0:0:0:0:
256,192,82408,1,0,0:0:0:0:
416,192,82581,1,0,0:0:0:0:
256,192,82754,1,0,0:0:0:0:
496,192,82927,1,0,0:0:0:0:
256,192,83098,1,0,0:0:0:0:
512,192,83270,1,0,0:0:0:0:
128,240,83443,6,0,L|64:192,1,50
112,176,83616,2,0,L|96:96,1,50
384,240,83788,6,0,L|448:192,1,50
400,176,83961,2,0,L|416:96,1,50
192,192,84133,5,0,0:0:0:0:
144,192,84176,1,0,0:0:0:0:
192,192,84219,1,0,0:0:0:0:
320,192,84262,5,0,0:0:0:0:
368,192,84305,1,0,0:0:0:0:
320,192,84348,1,0,0:0:0:0:
96,192,84392,5,0,0:0:0:0:
48,192,84435,1,0,0:0:0:0:
96,192,84478,1,0,0:0:0:0:
416,192,84521,5,0,0:0:0:0:
464,192,84564,1,0,0:0:0:0:
416,192,84607,1,0,0:0:0:0:
48,192,84650,5,0,0:0:0:0:
0,192,84693,1,0,0:0:0:0:
464,192,84736,5,0,0:0:0:0:
512,192,84779,1,0,0:0:0:0:
256,192,84823,12,0,85642,0:0:0:0:
272,224,85685,6,0,L|304:160,1,50
128,144,85857,2,0,L|176:96,1,50
0,32,86029,2,0,L|64:32,1,50
320,192,86202,6,0,L|480:192,1,150
320,144,86547,2,0,L|256:144,1,50
0,192,86719,2,0,L|0:32,1,150
192,48,87064,2,0,L|288:48,1,50
512,192,87236,2,0,L|352:192,1,150
192,192,87581,2,0,L|256:192,1,50
0,192,87754,2,0,L|160:192,1,150
320,192,88098,2,0,L|256:192,1,50
464,192,88271,6,0,L|512:64,1,100
48,192,88616,6,0,L|0:64,1,100
176,192,88961,1,0,0:0:0:0:
352,192,89133,1,0,0:0:0:0:
96,112,89305,2,0,L|240:112,1,100
352,112,89650,1,0,0:0:0:0:
0,112,89823,2,0,L|160:112,2,150.000005722046
432,96,90340,6,0,L|512:96,1,75.0000028610231
336,96,90512,2,0,L|256:96,1,75.0000028610231
80,112,90685,6,0,L|160:112,1,75.0000028610231
320,96,90857,2,0,L|240:96,1,75.0000028610231
32,80,91029,2,0,L|112:80,1,75.0000028610231
272,64,91202,2,0,L|176:64,1,75.0000028610231
0,192,91374,6,0,B|48:240|48:240|0:272|0:272|0:304|0:304|0:304,1,150
512,192,91719,6,0,L|320:192,1,179.999994506836
128,192,92064,2,0,L|224:192,1,59.9999981689454
416,192,92236,6,0,L|224:192,1,179.999994506836
32,192,92581,2,0,L|128:192,1,59.9999981689454
336,192,92754,2,0,L|544:192,1,179.999994506836
96,192,93098,2,0,L|32:192,1,59.9999981689454
336,192,93271,2,0,L|544:192,1,179.999994506836
256,192,93616,2,0,L|192:192,1,59.9999981689454
0,192,93788,2,0,L|80:96,1,119.999996337891
512,192,94133,2,0,L|432:96,1,119.999996337891
288,192,94478,6,0,B|256:256|160:288|272:288|304:352,1,200
144,352,94866,1,0,0:0:0:0:
112,336,94909,1,0,0:0:0:0:
80,320,94952,1,0,0:0:0:0:
32,288,94995,1,0,0:0:0:0:
48,240,95038,1,0,0:0:0:0:
64,208,95081,1,0,0:0:0:0:
96,176,95124,1,0,0:0:0:0:
272,176,95167,5,0,0:0:0:0:
288,144,95211,1,0,0:0:0:0:
304,112,95254,1,0,0:0:0:0:
288,80,95297,1,0,0:0:0:0:
64,112,95340,5,0,0:0:0:0:
48,80,95384,1,0,0:0:0:0:
32,48,95427,1,0,0:0:0:0:
48,16,95470,1,0,0:0:0:0:
240,240,95512,6,0,P|288:192|288:176,1,75
400,176,95685,2,0,P|480:128|480:128,1,75
304,288,95857,6,0,P|256:272|240:176,1,150
144,192,96202,6,0,L|48:192,1,75
192,128,96374,6,0,L|288:128,1,75
368,192,96547,6,0,L|464:192,1,75
320,128,96719,6,0,L|224:128,1,75
75,192,96892,6,0,L|0:192,1,75
432,192,97064,6,0,L|528:192,1,75
80,288,97236,2,0,B|16:256|16:192|16:128|80:96,1,209.999993591309
320,192,97581,2,0,L|400:192,1,69.9999978637696
192,288,97754,2,0,B|128:256|128:192|128:128|192:96,1,209.999993591309
432,192,98099,2,0,L|512:192,1,69.9999978637696
288,288,98271,2,0,B|224:256|224:192|224:128|288:96,1,209.999993591309
80,192,98616,2,0,L|0:192,1,69.9999978637696
224,288,98788,2,0,B|288:256|288:192|288:128|224:96,1,209.999993591309
432,192,99133,2,0,L|512:192,1,69.9999978637696
288,288,99305,2,0,B|224:256|224:192|224:128|288:96,1,209.999993591309
448,192,99650,2,0,B|512:160|512:96|512:32|448:0,1,209.999993591309
0,192,99995,6,0,L|96:192,1,69.9999978637696
256,192,100167,2,0,L|352:192,1,69.9999978637696
112,192,100340,2,0,L|32:192,1,69.9999978637696
288,192,100512,2,0,L|400:192,1,69.9999978637696
464,192,100685,2,0,L|496:112,1,69.9999978637696
320,48,100857,2,0,L|289:111,1,69.9999978637696
112,192,101029,2,0,L|32:192,1,69.9999978637696
256,192,101202,2,0,L|368:192,1,69.9999978637696
0,192,101374,6,0,L|128:192,1,69.9999978637696
256,192,101547,1,0,0:0:0:0:
432,224,101719,5,0,0:0:0:0:
368,208,101805,1,0,0:0:0:0:
448,176,101892,1,0,0:0:0:0:
400,160,101978,1,0,0:0:0:0:
464,128,102064,1,0,0:0:0:0:
432,112,102150,1,0,0:0:0:0:
480,96,102236,1,0,0:0:0:0:
464,80,102323,1,0,0:0:0:0:
0,192,102409,6,0,L|240:192,1,209.999993591309
512,304,102754,2,0,L|512:64,1,209.999993591309
288,192,103098,6,0,L|160:192,1,69.9999978637696
0,256,103271,6,0,L|80:48,1,209.999993591309
224,192,103616,6,0,L|352:192,1,69.9999978637696
512,256,103789,6,0,L|432:48,1,209.999993591309
144,240,104133,6,0,L|32:240,1,80
272,192,104305,2,0,L|528:192,1,240
80,192,104650,6,0,L|-32:192,1,80
272,128,104823,2,0,L|480:128,2,160
0,192,105340,5,0,0:0:0:0:
468,175,105512,2,0,L|480:224,1,50
256,192,105685,2,0,L|272:240,1,50
44,175,105857,2,0,L|32:224,1,50
256,192,106030,2,0,L|240:240,1,50
32,192,106202,6,0,L|16:240,1,50
480,192,106374,6,0,L|496:240,1,50
176,192,106547,6,0,L|160:240,1,50
336,192,106719,6,0,L|352:240,1,50
160,240,106892,6,0,L|0:240,1,150.000005722046
192,192,107121,6,0,L|352:192,1,150.000005722046
512,192,107351,2,0,B|512:112|384:32|336:160|384:240|448:144,1,300.000011444092
256,192,107754,12,0,108156,0:0:0:0:
144,304,108271,6,0,B|96:256|0:256|-32:208|272:160,1,350
480,256,108961,5,0,0:0:0:0:
400,224,109047,1,0,0:0:0:0:
480,208,109133,1,0,0:0:0:0:
416,176,109219,1,0,0:0:0:0:
480,144,109305,1,0,0:0:0:0:
432,128,109392,1,0,0:0:0:0:
288,224,109478,5,0,0:0:0:0:
208,192,109564,1,0,0:0:0:0:
288,176,109650,1,0,0:0:0:0:
224,144,109736,1,0,0:0:0:0:
288,112,109822,1,0,0:0:0:0:
240,96,109909,1,0,0:0:0:0:
96,224,109995,5,0,0:0:0:0:
16,192,110081,1,0,0:0:0:0:
96,176,110167,1,0,0:0:0:0:
32,144,110253,1,0,0:0:0:0:
96,128,110340,6,0,L|48:96,1,50
448,192,110512,6,0,L|480:112,1,50
320,112,110685,2,0,L|320:32,1,50
176,192,110857,2,0,L|112:160,1,50
368,272,111029,6,0,B|496:224|496:224|432:208|432:208|432:144|432:48,1,350
160,272,111719,5,0,0:0:0:0:
128,224,111805,1,0,0:0:0:0:
0,208,111892,1,0,0:0:0:0:
32,160,111978,1,0,0:0:0:0:
208,144,112064,1,0,0:0:0:0:
176,96,112150,1,0,0:0:0:0:
16,80,112236,2,0,L|0:16,1,50
320,192,112409,6,0,L|496:192,1,150
384,144,112754,2,0,L|256:144,1,100
128,144,113012,1,0,0:0:0:0:
464,256,113098,2,0,L|464:128,1,100
48,256,113443,2,0,L|48:128,1,100
352,272,113788,6,0,B|464:192|480:96|176:64,1,400
128,64,114564,1,0,0:0:0:0:
64,192,114650,1,0,0:0:0:0:
0,192,114736,1,0,0:0:0:0:
192,224,114822,1,0,0:0:0:0:
256,224,114909,1,0,0:0:0:0:
320,224,114995,1,0,0:0:0:0:
384,224,115081,1,0,0:0:0:0:
448,224,115167,1,0,0:0:0:0:
512,224,115254,1,0,0:0:0:0:
256,176,115340,1,0,0:0:0:0:
192,176,115426,1,0,0:0:0:0:
0,128,115512,1,0,0:0:0:0:
64,128,115598,1,0,0:0:0:0:
128,128,115685,1,0,0:0:0:0:
192,128,115771,1,0,0:0:0:0:
448,128,115857,5,0,0:0:0:0:
512,128,115943,1,0,0:0:0:0:
64,128,116029,5,0,0:0:0:0:
0,128,116115,1,0,0:0:0:0:
336,192,116202,5,0,0:0:0:0:
400,192,116288,1,0,0:0:0:0:
176,192,116374,5,0,0:0:0:0:
112,192,116460,1,0,0:0:0:0:
0,192,116547,6,0,B|0:112|64:48|96:48,1,150
304,192,116892,6,0,B|304:112|240:48|208:48,1,150
0,192,117236,6,0,L|0:128,1,50
160,192,117409,2,0,L|160:112,1,50
320,192,117581,2,0,L|320:112,1,50
480,192,117754,2,0,L|480:112,1,50
64,272,117926,5,0,0:0:0:0:
320,192,118098,1,0,0:0:0:0:
0,128,118271,1,0,0:0:0:0:
448,272,118443,5,0,0:0:0:0:
192,192,118615,1,0,0:0:0:0:
512,128,118788,1,0,0:0:0:0:
224,192,118961,5,0,0:0:0:0:
160,192,119047,1,0,0:0:0:0:
224,192,119133,1,0,0:0:0:0:
160,192,119219,1,0,0:0:0:0:
512,256,119305,6,0,B|400:256|272:192|464:32,1,350
144,304,119995,5,0,0:0:0:0:
96,288,120081,1,0,0:0:0:0:
48,256,120167,1,0,0:0:0:0:
0,208,120254,1,0,0:0:0:0:
16,160,120340,1,0,0:0:0:0:
48,112,120426,1,0,0:0:0:0:
352,288,120512,1,0,0:0:0:0:
400,256,120598,1,0,0:0:0:0:
448,208,120685,1,0,0:0:0:0:
464,144,120771,1,0,0:0:0:0:
240,176,120857,1,0,0:0:0:0:
288,128,120943,1,0,0:0:0:0:
0,192,121029,1,0,0:0:0:0:
32,160,121116,1,0,0:0:0:0:
80,128,121202,1,0,0:0:0:0:
144,112,121288,1,0,0:0:0:0:
512,192,121374,6,0,L|416:192,1,50
256,192,121547,2,0,L|128:192,1,100
352,192,121805,2,0,L|464:192,1,100
256,192,122064,2,0,L|160:176,1,50
240,144,122236,2,0,L|304:112,1,50
448,192,122409,6,0,B|512:192|512:192|512:32,1,200
448,48,122840,1,0,0:0:0:0:
0,64,122926,1,0,0:0:0:0:
64,64,123012,1,0,0:0:0:0:
400,112,123098,1,0,0:0:0:0:
336,112,123184,1,0,0:0:0:0:
112,112,123271,1,0,0:0:0:0:
176,112,123357,1,0,0:0:0:0:
432,320,123443,6,0,P|448:256|304:144,1,250
208,144,123961,1,0,0:0:0:0:
96,144,124047,1,0,0:0:0:0:
0,192,124133,6,0,P|-16:128|96:16,1,200
112,64,124564,1,0,0:0:0:0:
384,144,124650,2,0,L|432:224,1,50
16,192,124823,2,0,L|0:224,1,25
32,240,124909,2,0,L|32:272,1,25
64,288,124995,2,0,L|80:320,1,25
96,320,125081,2,0,L|128:336,1,25
128,304,125167,2,0,L|160:272,1,25
176,256,125254,2,0,L|192:224,1,25
176,192,125340,2,0,L|176:160,1,25
144,160,125426,2,0,L|112:160,1,25
416,256,125512,5,0,0:0:0:0:
480,224,125598,1,0,0:0:0:0:
416,192,125685,1,0,0:0:0:0:
464,160,125771,1,0,0:0:0:0:
176,192,125857,1,0,0:0:0:0:
128,160,125943,1,0,0:0:0:0:
288,256,126029,5,0,0:0:0:0:
336,224,126115,1,0,0:0:0:0:
288,192,126202,1,0,0:0:0:0:
352,160,126288,1,0,0:0:0:0:
48,192,126374,1,0,0:0:0:0:
0,160,126460,1,0,0:0:0:0:
496,256,126547,5,0,0:0:0:0:
448,224,126633,1,0,0:0:0:0:
512,192,126719,1,0,0:0:0:0:
448,160,126805,1,0,0:0:0:0:
0,256,126892,6,0,P|196:189|214:143,1,225.000008583069
0,160,127236,2,0,L|272:160,1,269.999991760254
448,192,127581,2,0,L|512:192,1,50
240,192,127754,2,0,L|176:192,1,50
384,160,127926,2,0,L|448:160,1,55.0000016784668
176,160,128098,2,0,L|96:160,1,55.0000016784668
336,112,128271,2,0,L|432:112,1,69.9999978637696
144,112,128443,2,0,L|64:112,1,69.9999978637696
304,64,128616,2,0,L|400:64,1,85.0000016212464
112,64,128788,2,0,L|16:64,1,85.0000016212464
512,192,128961,5,0,0:0:0:0:
512,128,129004,1,0,0:0:0:0:
384,96,129047,1,0,0:0:0:0:
256,96,129090,1,0,0:0:0:0:
0,192,129133,5,0,0:0:0:0:
0,128,129176,1,0,0:0:0:0:
128,96,129219,1,0,0:0:0:0:
256,96,129262,1,0,0:0:0:0:
512,272,129305,5,0,0:0:0:0:
480,208,129348,1,0,0:0:0:0:
336,176,129391,1,0,0:0:0:0:
192,176,129434,1,0,0:0:0:0:
0,272,129478,5,0,0:0:0:0:
32,208,129521,1,0,0:0:0:0:
176,176,129564,1,0,0:0:0:0:
320,176,129607,1,0,0:0:0:0:
512,192,129650,2,0,L|512:96,1,75.0000028610231
32,208,129823,2,0,L|16:112,1,75.0000028610231
192,144,129995,2,0,L|160:64,1,75.0000028610231
352,64,130167,2,0,L|272:0,1,75.0000028610231
512,0,130340,2,0,L|32:368,1,600
224,368,132754,5,0,0:0:0:0:
96,192,133098,2,0,B|-16:192|-16:192|432:192,1,550
256,192,135511,1,0,0:0:0:0:
448,192,135856,2,0,L|80:192,2,350
256,192,138615,2,0,L|128:192,2,100
432,192,139649,1,0,0:0:0:0:
256,192,139994,2,0,L|496:192,1,200
256,192,141374,6,0,B|0:192|0:192|464:192,1,700
256,192,144132,6,0,B|512:192|512:192|208:192,1,550
80,192,146546,1,0,0:0:0:0:
384,192,146905,6,0,L|504:192,3,119.999996337891
288,192,147594,6,0,L|96:192,3,150.000005722046
48,192,148284,1,0,0:0:0:0:
304,192,148456,1,0,0:0:0:0:
48,192,148629,1,0,0:0:0:0:
304,192,148801,1,0,0:0:0:0:
416,192,148973,1,0,0:0:0:0:
48,192,149146,1,0,0:0:0:0:
416,192,149318,1,0,0:0:0:0:
48,192,149491,1,0,0:0:0:0:
304,256,149663,5,0,0:0:0:0:
368,208,149749,1,0,0:0:0:0:
320,144,149836,1,0,0:0:0:0:
240,112,149922,1,0,0:0:0:0:
400,128,150008,1,0,0:0:0:0:
480,96,150094,1,0,0:0:0:0:
208,240,150180,1,0,0:0:0:0:
128,192,150267,1,0,0:0:0:0:
208,144,150353,1,0,0:0:0:0:
432,176,150439,1,0,0:0:0:0:
512,128,150525,1,0,0:0:0:0:
432,80,150611,1,0,0:0:0:0:
96,240,150698,1,0,0:0:0:0:
48,160,150784,1,0,0:0:0:0:
416,240,150870,1,0,0:0:0:0:
464,160,150956,1,0,0:0:0:0:
272,304,151042,5,0,0:0:0:0:
240,304,151086,1,0,0:0:0:0:
208,304,151129,1,0,0:0:0:0:
176,304,151172,1,0,0:0:0:0:
128,304,151215,1,0,0:0:0:0:
80,304,151258,1,0,0:0:0:0:
32,288,151301,1,0,0:0:0:0:
16,224,151344,1,0,0:0:0:0:
240,304,151387,5,0,0:0:0:0:
272,304,151431,1,0,0:0:0:0:
304,304,151474,1,0,0:0:0:0:
336,304,151517,1,0,0:0:0:0:
384,304,151560,1,0,0:0:0:0:
432,304,151603,1,0,0:0:0:0:
480,288,151646,1,0,0:0:0:0:
496,224,151689,1,0,0:0:0:0:
336,224,151732,5,0,0:0:0:0:
320,176,151775,1,0,0:0:0:0:
304,128,151818,1,0,0:0:0:0:
192,176,151861,1,0,0:0:0:0:
96,112,151948,1,0,0:0:0:0:
304,64,152077,1,0,0:0:0:0:
480,16,152249,1,0,0:0:0:0:
144,304,152422,6,0,B|-48:256|52:134|105:48|240:64,1,419.999987182618
384,240,153112,6,0,B|512:160|512:160|352:176|352:176|480:80|480:80|368:48,1,525.000020027161
80,320,153802,6,0,L|32:128,1,165.000005035401
192,192,154147,6,0,L|224:128,1,55.0000016784668
368,192,154319,6,0,L|240:32,1,165.000005035401
416,320,154664,6,0,L|400:240,1,55.0000016784668
16,336,154836,6,0,B|144:256|144:144|0:96,1,330.000010070801
176,256,155440,6,0,L|208:192,1,55.0000016784668
160,176,155612,1,0,0:0:0:0:
240,160,155698,2,0,L|192:128,1,55.0000016784668
272,112,155871,2,0,L|224:80,1,55.0000016784668
304,64,156043,2,0,L|256:32,1,55.0000016784668
0,64,156216,2,0,L|64:16,1,55.0000016784668
256,64,156388,2,0,L|336:64,1,55.0000016784668
512,288,156560,6,0,L|368:144,1,165.000005035401
240,176,156905,2,0,L|160:160,1,55.0000016784668
0,288,157078,6,0,L|144:144,1,165.000005035401
368,192,157423,2,0,L|448:176,1,55.0000016784668
512,192,157595,2,0,B|272:80|272:80|272:80|272:80|400:128|400:128|400:128|256:80|160:16,1,595.000011348725
48,320,158285,5,0,0:0:0:0:
32,304,158328,1,0,0:0:0:0:
32,288,158371,1,0,0:0:0:0:
32,272,158414,1,0,0:0:0:0:
144,272,158457,1,0,0:0:0:0:
160,256,158500,1,0,0:0:0:0:
144,240,158543,1,0,0:0:0:0:
160,224,158586,1,0,0:0:0:0:
16,192,158629,1,0,0:0:0:0:
32,176,158672,1,0,0:0:0:0:
48,160,158716,1,0,0:0:0:0:
64,144,158759,1,0,0:0:0:0:
256,192,158802,1,0,0:0:0:0:
272,176,158845,1,0,0:0:0:0:
288,160,158888,1,0,0:0:0:0:
304,144,158931,1,0,0:0:0:0:
0,16,158974,5,0,0:0:0:0:
0,64,159017,1,0,0:0:0:0:
16,112,159060,1,0,0:0:0:0:
48,144,159103,1,0,0:0:0:0:
80,176,159147,1,0,0:0:0:0:
128,192,159190,1,0,0:0:0:0:
176,192,159233,1,0,0:0:0:0:
400,64,159318,6,0,B|480:160|480:208|480:256|432:320,1,250
208,304,159836,6,0,B|128:272|-16:224|96:80|160:64,1,324.999985122681
288,80,160353,6,0,B|432:80|512:192|512:272|448:336|224:320,1,480
144,320,160956,1,0,0:0:0:0:
320,272,161042,6,0,L|464:240,1,80
144,240,161215,5,0,0:0:0:0:
80,192,161301,1,0,0:0:0:0:
32,112,161387,1,0,0:0:0:0:
192,160,161473,1,0,0:0:0:0:
256,96,161560,1,0,0:0:0:0:
304,32,161646,1,0,0:0:0:0:
0,192,161732,1,0,0:0:0:0:
48,128,161818,1,0,0:0:0:0:
128,96,161905,1,0,0:0:0:0:
208,80,161991,1,0,0:0:0:0:
384,304,162077,6,0,P|480:240|480:160,1,179.999994506836
240,208,162422,2,0,L|48:192,1,179.999994506836
416,256,162767,2,0,L|464:160,1,59.9999981689454
288,208,162939,2,0,L|208:160,1,59.9999981689454
32,224,163111,2,0,L|0:32,1,179.999994506836
368,272,163456,6,0,L|464:160,1,119.999996337891
160,192,163801,2,0,P|176:64|224:80,1,179.999994506836
448,176,164146,2,0,L|496:128,1,59.9999981689454
448,96,164318,2,0,L|496:32,1,59.9999981689454
80,272,164491,2,0,L|16:96,1,179.999994506836
272,208,164836,2,0,L|448:128,1,179.999994506836
96,192,165180,2,0,L|32:176,1,59.9999981689454
400,208,165353,2,0,P|420:107|346:44,1,179.999994506836,0|0,0:3|0:3,0:3:0:0:
96,192,165698,2,0,L|16:176,1,59.9999981689454
256,192,165870,2,0,L|256:-16,1,179.999994506836
144,272,166215,6,0,L|48:160,1,119.999996337891
352,192,166560,2,0,P|336:64|288:80,1,179.999994506836
64,176,166905,2,0,L|16:128,1,59.9999981689454
64,96,167077,2,0,L|16:32,1,59.9999981689454
432,272,167250,2,0,L|496:96,1,179.999994506836
240,208,167595,2,0,L|64:128,1,179.999994506836
416,192,167939,2,0,L|480:176,1,59.9999981689454
112,208,168112,2,0,P|92:107|166:44,1,179.999994506836,0|0,0:3|0:3,0:3:0:0:
416,192,168457,2,0,L|496:176,1,59.9999981689454
256,192,168629,2,0,L|256:-16,1,179.999994506836
336,256,168973,5,0,0:0:0:0:
496,224,169146,1,0,0:0:0:0:
272,192,169318,5,0,0:0:0:0:
448,160,169491,1,0,0:0:0:0:
144,128,169663,5,0,0:0:0:0:
400,96,169836,1,0,0:0:0:0:
0,64,170008,5,0,0:0:0:0:
352,32,170181,1,0,0:0:0:0:
176,256,170353,5,0,0:0:0:0:
16,224,170526,1,0,0:0:0:0:
240,192,170698,5,0,0:0:0:0:
64,160,170871,1,0,0:0:0:0:
368,128,171043,5,0,0:0:0:0:
112,96,171216,1,0,0:0:0:0:
512,64,171388,5,0,0:0:0:0:
160,32,171561,1,0,0:0:0:0:
0,272,171732,6,0,L|0:192,1,59.9999981689454
160,208,171905,2,0,L|160:288,1,59.9999981689454
336,272,172077,2,0,L|336:192,1,59.9999981689454
512,208,172249,2,0,L|512:288,1,59.9999981689454
256,288,172465,5,0,0:0:0:0:
128,256,172508,1,0,0:0:0:0:
96,208,172551,1,0,0:0:0:0:
256,192,172594,1,0,0:0:0:0:
416,192,172637,1,0,0:0:0:0:
464,144,172680,1,0,0:0:0:0:
256,128,172723,1,0,0:0:0:0:
64,128,172767,1,0,0:0:0:0:
16,96,172810,1,0,0:0:0:0:
256,80,172853,1,0,0:0:0:0:
480,80,172896,1,0,0:0:0:0:
512,32,172939,1,0,0:0:0:0:
32,80,172982,1,0,0:0:0:0:
0,32,173025,1,0,0:0:0:0:
400,320,173111,6,0,P|460:257|432:128,1,179.999994506836
112,320,173456,6,0,P|51:257|80:128,1,179.999994506836
240,256,173801,6,0,L|336:256,1,59.9999981689454
416,272,173973,2,0,L|464:192,1,80
288,176,174146,2,0,L|368:96,1,80
160,80,174318,2,0,L|240:48,1,80
0,192,174491,6,0,L|64:192,1,59.9999981689454
256,192,174663,2,0,L|320:192,1,59.9999981689454
96,192,174836,2,0,L|32:192,2,59.9999981689454
256,192,175094,1,0,0:0:0:0:
512,192,175180,6,0,L|512:112,1,59.9999981689454
336,128,175353,2,0,L|400:64,1,59.9999981689454
96,192,175525,2,0,L|32:192,1,59.9999981689454
256,192,175698,2,0,L|320:192,2,59.9999981689454
512,192,175956,2,0,L|432:192,1,59.9999981689454
256,192,176129,1,0,0:0:0:0:
448,192,176215,2,0,L|512:192,1,59.9999981689454
256,192,176387,2,0,L|320:192,1,59.9999981689454
64,192,176560,2,0,L|-16:192,1,59.9999981689454
64,192,176732,2,0,L|128:192,1,59.9999981689454
392,192,176905,2,0,L|472:192,1,59.9999981689454
512,192,177077,2,0,L|448:192,1,59.9999981689454
288,192,177249,2,0,L|208:192,1,59.9999981689454
448,192,177422,2,0,L|512:192,1,59.9999981689454
160,192,177594,2,0,L|96:192,1,59.9999981689454
160,192,177767,2,0,L|224:192,1,59.9999981689454
512,192,177939,6,0,L|448:192,1,59.9999981689454
240,192,178111,2,0,L|144:192,1,59.9999981689454
448,192,178284,2,0,L|352:192,1,59.9999981689454
176,192,178456,2,0,L|80:160,1,59.9999981689454
0,192,178629,2,0,L|48:112,1,59.9999981689454
256,192,178801,2,0,L|320:192,1,59.9999981689454
112,192,178973,2,0,L|144:128,1,59.9999981689454
400,192,179146,2,0,L|464:192,1,59.9999981689454
256,192,179318,2,0,L|144:192,1,59.9999981689454
400,192,179491,2,0,L|464:192,1,59.9999981689454
192,192,179663,2,0,L|96:192,1,59.9999981689454
336,192,179836,2,0,L|400:192,1,59.9999981689454
0,192,180008,2,0,L|0:96,1,59.9999981689454
128,192,180180,2,0,L|224:192,3,59.9999981689454
336,192,180525,2,0,L|400:192,1,59.9999981689454
512,128,180698,6,0,L|448:128,1,59.9999981689454
176,256,180870,2,0,L|272:256,1,59.9999981689454
396,192,181042,2,0,L|316:192,1,59.9999981689454
96,192,181215,2,0,L|96:112,1,59.9999981689454
416,288,181387,2,0,L|512:240,1,59.9999981689454
304,192,181560,2,0,L|400:144,1,59.9999981689454
96,288,181732,2,0,L|0:240,1,59.9999981689454
208,192,181905,2,0,L|112:144,1,59.9999981689454
464,272,182077,6,0,L|496:176,1,59.9999981689454
240,192,182249,2,0,L|144:160,1,59.9999981689454
400,208,182422,2,0,L|448:128,1,59.9999981689454
144,128,182594,2,0,L|64:112,1,59.9999981689454
0,192,182767,2,0,L|96:192,1,59.9999981689454
448,192,182939,2,0,L|544:192,1,59.9999981689454
96,192,183111,1,0,0:0:0:0:
128,192,183155,1,0,0:0:0:0:
160,192,183198,1,0,0:0:0:0:
352,192,183284,1,0,0:0:0:0:
384,192,183328,1,0,0:0:0:0:
416,192,183371,1,0,0:0:0:0:
512,192,183456,6,0,L|448:192,1,59.9999981689454
0,192,183629,2,0,L|64:192,1,59.9999981689454
512,192,183801,2,0,L|432:192,1,59.9999981689454
0,192,183973,2,0,L|64:192,1,59.9999981689454
256,192,184146,2,0,L|304:128,1,59.9999981689454
480,80,184318,2,0,L|416:80,1,59.9999981689454
192,144,184491,2,0,L|240:80,1,59.9999981689454
416,32,184663,2,0,L|352:32,1,59.9999981689454
80,256,184836,6,0,L|16:256,3,59.9999981689454
448,256,185180,6,0,L|512:256,3,59.9999981689454
256,256,185525,5,0,0:0:0:0:
112,208,185611,1,0,0:0:0:0:
160,160,185698,1,0,0:0:0:0:
208,128,185784,1,0,0:0:0:0:
368,192,185870,1,0,0:0:0:0:
432,160,185956,1,0,0:0:0:0:
496,128,186042,1,0,0:0:0:0:
432,80,186129,1,0,0:0:0:0:
0,256,186215,1,0,0:0:0:0:
64,224,186301,1,0,0:0:0:0:
272,208,186387,1,0,0:0:0:0:
208,208,186473,1,0,0:0:0:0:
0,128,186560,1,0,0:0:0:0:
64,96,186646,1,0,0:0:0:0:
208,96,186732,1,0,0:0:0:0:
272,64,186818,1,0,0:0:0:0:
512,192,186905,5,0,0:0:0:0:
368,192,186991,1,0,0:0:0:0:
224,192,187077,1,0,0:0:0:0:
80,192,187163,1,0,0:0:0:0:
352,320,187249,1,0,0:0:0:0:
512,320,187336,1,0,0:0:0:0:
512,320,187422,1,0,0:0:0:0:
352,320,187508,1,0,0:0:0:0:
256,320,187594,1,0,0:0:0:0:
192,272,187680,1,0,0:0:0:0:
384,208,187767,1,0,0:0:0:0:
464,160,187853,1,0,0:0:0:0:
128,192,187939,1,0,0:0:0:0:
32,128,188025,1,0,0:0:0:0:
400,96,188111,1,0,0:0:0:0:
512,48,188198,1,0,0:0:0:0:
288,304,188284,5,0,0:0:0:0:
112,272,188370,1,0,0:0:0:0:
32,224,188456,1,0,0:0:0:0:
288,224,188542,1,0,0:0:0:0:
320,144,188629,1,0,0:0:0:0:
112,112,188715,1,0,0:0:0:0:
32,64,188801,1,0,0:0:0:0:
512,80,188887,1,0,0:0:0:0:
352,192,188973,1,0,0:0:0:0:
352,112,189060,1,0,0:0:0:0:
208,192,189146,1,0,0:0:0:0:
208,112,189232,1,0,0:0:0:0:
384,192,189318,5,0,0:0:0:0:
480,160,189405,1,0,0:0:0:0:
256,144,189491,5,0,0:0:0:0:
160,112,189578,1,0,0:0:0:0:
0,272,189663,5,0,0:0:0:0:
32,224,189749,1,0,0:0:0:0:
80,176,189836,1,0,0:0:0:0:
48,128,189922,1,0,0:0:0:0:
288,224,190008,5,0,0:0:0:0:
256,176,190094,1,0,0:0:0:0:
208,128,190181,1,0,0:0:0:0:
256,80,190267,1,0,0:0:0:0:
416,160,190353,5,0,0:0:0:0:
448,112,190439,1,0,0:0:0:0:
416,64,190526,1,0,0:0:0:0:
448,16,190612,1,0,0:0:0:0:
96,160,190698,5,0,0:0:0:0:
64,112,190784,1,0,0:0:0:0:
96,64,190871,1,0,0:0:0:0:
64,16,190957,1,0,0:0:0:0:
512,256,191042,5,0,0:0:0:0:
368,240,191129,1,0,0:0:0:0:
288,192,191215,1,0,0:0:0:0:
256,112,191301,1,0,0:0:0:0:
512,256,191387,1,0,0:0:0:0:
288,240,191473,1,0,0:0:0:0:
224,192,191560,1,0,0:0:0:0:
208,112,191646,1,0,0:0:0:0:
512,256,191732,1,0,0:0:0:0:
272,240,191818,1,0,0:0:0:0:
240,176,191905,1,0,0:0:0:0:
272,112,191991,1,0,0:0:0:0:
512,256,192077,1,0,0:0:0:0:
224,240,192163,1,0,0:0:0:0:
256,176,192249,1,0,0:0:0:0:
288,112,192336,1,0,0:0:0:0:
512,192,192422,5,0,0:0:0:0:
448,192,192508,1,0,0:0:0:0:
384,192,192594,1,0,0:0:0:0:
0,192,192680,1,0,0:0:0:0:
384,192,192767,1,0,0:0:0:0:
448,192,192853,1,0,0:0:0:0:
512,192,192939,1,0,0:0:0:0:
0,192,193025,1,0,0:0:0:0:
448,208,193111,1,0,0:0:0:0:
512,208,193198,1,0,0:0:0:0:
448,208,193284,1,0,0:0:0:0:
0,192,193370,1,0,0:0:0:0:
512,192,193456,1,0,0:0:0:0:
336,192,193542,1,0,0:0:0:0:
176,192,193629,1,0,0:0:0:0:
0,192,193715,1,0,0:0:0:0:
368,304,193801,5,0,0:0:0:0:
480,256,193887,1,0,0:0:0:0:
304,240,193973,1,0,0:0:0:0:
144,224,194060,1,0,0:0:0:0:
64,304,194146,1,0,0:0:0:0:
16,240,194232,1,0,0:0:0:0:
192,192,194318,1,0,0:0:0:0:
336,160,194405,1,0,0:0:0:0:
512,192,194491,1,0,0:0:0:0:
336,160,194577,1,0,0:0:0:0:
272,112,194663,1,0,0:0:0:0:
256,48,194749,1,0,0:0:0:0:
0,192,194836,1,0,0:0:0:0:
176,160,194922,1,0,0:0:0:0:
240,112,195008,1,0,0:0:0:0:
256,48,195094,1,0,0:0:0:0:
432,320,195180,5,0,0:0:0:0:
512,288,195267,1,0,0:0:0:0:
432,272,195353,1,0,0:0:0:0:
496,240,195439,1,0,0:0:0:0:
432,224,195525,1,0,0:0:0:0:
480,192,195611,1,0,0:0:0:0:
416,176,195698,1,0,0:0:0:0:
448,144,195784,1,0,0:0:0:0:
368,160,195870,5,0,0:0:0:0:
400,112,195956,1,0,0:0:0:0:
256,128,196042,1,0,0:0:0:0:
304,96,196129,1,0,0:0:0:0:
144,80,196215,1,0,0:0:0:0:
208,64,196301,1,0,0:0:0:0:
0,48,196387,1,0,0:0:0:0:
80,48,196473,1,0,0:0:0:0:
304,288,196560,6,0,L|496:288,1,179.999994506836
160,288,196905,2,0,L|80:288,1,59.9999981689454
480,192,197077,2,0,L|288:192,1,179.999994506836
96,192,197422,2,0,L|32:192,1,59.9999981689454
256,192,197594,2,0,L|448:192,1,179.999994506836
112,144,197939,2,0,L|176:144,1,59.9999981689454
512,192,198111,2,0,L|400:192,1,59.9999981689454
192,192,198284,2,0,L|-16:192,1,179.999994506836
208,144,198629,2,0,L|416:144,1,179.999994506836
512,112,198973,2,0,L|448:112,1,59.9999981689454
256,128,199146,2,0,L|192:128,1,59.9999981689454
0,192,199318,6,0,L|112:192,1,59.9999981689454
512,192,199491,2,0,L|400:192,1,59.9999981689454
160,192,199663,2,0,L|96:192,1,59.9999981689454
448,192,199836,2,0,L|512:192,1,59.9999981689454
256,192,200008,2,0,L|160:192,1,59.9999981689454
16,160,200180,2,0,L|96:160,1,59.9999981689454
256,192,200353,2,0,L|368:192,1,59.9999981689454
496,160,200525,2,0,L|416:160,1,59.9999981689454
192,192,200698,6,0,L|0:192,1,179.999994506836
480,272,201042,6,0,L|512:192,1,69.9999978637696
336,208,201215,2,0,L|384:144,1,69.9999978637696
192,128,201387,2,0,L|256:80,1,69.9999978637696
16,48,201560,2,0,L|96:16,1,69.9999978637696
512,288,201732,6,0,L|464:64,1,209.999993591309
144,288,202077,6,0,L|64:288,1,69.9999978637696
336,288,202249,2,0,L|416:288,1,69.9999978637696
240,192,202422,2,0,L|112:192,1,69.9999978637696
0,192,202594,2,0,L|208:96,1,209.999993591309
432,192,202939,2,0,L|512:192,1,69.9999978637696
336,192,203111,2,0,L|256:192,1,69.9999978637696
112,192,203284,2,0,L|32:192,1,69.9999978637696
256,192,203456,2,0,L|336:192,1,69.9999978637696
496,192,203629,2,0,L|272:192,1,209.999993591309
0,192,203973,2,0,L|96:192,1,69.9999978637696
256,192,204146,2,0,L|16:192,1,209.999993591309
512,192,204491,2,0,L|432:96,1,69.9999978637696
192,128,204663,2,0,L|112:128,1,69.9999978637696
0,304,204836,6,0,L|0:224,1,69.9999978637696
208,224,205008,2,0,L|208:128,1,69.9999978637696
480,192,205180,5,0,0:0:0:0:
496,160,205223,1,0,0:0:0:0:
512,128,205267,1,0,0:0:0:0:
464,112,205310,1,0,0:0:0:0:
336,128,205353,5,0,0:0:0:0:
320,96,205396,1,0,0:0:0:0:
304,64,205440,1,0,0:0:0:0:
352,48,205483,1,0,0:0:0:0:
496,272,205525,5,0,0:0:0:0:
512,224,205568,1,0,0:0:0:0:
496,192,205611,1,0,0:0:0:0:
304,272,205698,5,0,0:0:0:0:
288,224,205741,1,0,0:0:0:0:
304,192,205784,1,0,0:0:0:0:
496,192,205870,2,0,L|368:160,1,93.3333304850261
256,192,206042,2,0,L|144:176,1,93.3333304850261
0,192,206215,2,0,P|96:80|240:80,1,279.999991455078
96,64,206732,1,0,0:0:0:0:
512,192,206905,1,0,0:0:0:0:
496,192,206948,1,0,0:0:0:0:
464,192,206991,1,0,0:0:0:0:
416,192,207034,1,0,0:0:0:0:
224,272,207077,1,0,0:0:0:0:
192,272,207120,1,0,0:0:0:0:
144,256,207163,1,0,0:0:0:0:
128,224,207206,1,0,0:0:0:0:
128,176,207249,5,0,0:0:0:0:
144,144,207292,1,0,0:0:0:0:
192,128,207335,1,0,0:0:0:0:
224,128,207378,1,0,0:0:0:0:
416,96,207422,1,0,0:0:0:0:
448,96,207465,1,0,0:0:0:0:
496,96,207508,1,0,0:0:0:0:
512,96,207551,1,0,0:0:0:0:
224,256,207594,6,0,B|192:208|160:192|128:192,1,93.3333304850261
320,176,207767,6,0,B|352:128|384:112|416:112,1,93.3333304850261
240,96,207939,6,0,B|234:91|202:107|170:155,1,93.3333304850261
0,16,208111,6,0,B|5:11|37:27|69:75,1,93.3333304850261
176,192,208284,6,0,L|288:208,1,93.3333304850261
416,192,208456,2,0,L|304:160,1,93.3333304850261
128,144,208629,2,0,L|368:112,1,233.333326212565
512,96,208973,2,0,L|400:128,1,93.3333304850261
272,192,209146,2,0,L|144:160,1,93.3333304850261
0,160,209318,2,0,L|48:80,1,93.3333304850261
272,192,209491,2,0,L|384:192,1,93.3333304850261
512,192,209663,6,0,L|432:96,1,93.3333304850261
192,192,209836,2,0,L|256:80,1,93.3333304850261
432,80,210008,2,0,L|336:48,1,93.3333304850261
80,64,210180,2,0,L|192:32,1,93.3333304850261
512,192,210353,6,0,L|480:80,1,93.3333304850261
0,192,210525,2,0,L|25:102,1,93.3333304850261
384,208,210698,2,0,L|352:96,1,93.3333304850261
128,208,210870,2,0,L|160:96,1,93.3333304850261
304,256,211042,6,0,L|352:160,1,93.3333304850261
480,144,211215,6,0,L|512:48,1,93.3333304850261
208,256,211387,6,0,L|160:160,1,93.3333304850261
32,144,211560,6,0,L|0:48,1,93.3333304850261
512,224,211732,6,0,L|240:224,1,266.666666666667
80,224,212077,6,0,L|-16:208,1,69.9999978637696
256,176,212249,2,0,L|160:176,1,69.9999978637696
416,128,212422,2,0,L|304:128,1,69.9999978637696
512,64,212594,2,0,L|432:64,1,69.9999978637696
16,288,212767,1,0,0:0:0:0:
0,272,212810,1,0,0:0:0:0:
16,256,212853,1,0,0:0:0:0:
192,256,212939,1,0,0:0:0:0:
208,240,212982,1,0,0:0:0:0:
188,220,213025,1,0,0:0:0:0:
0,320,213111,6,0,L|128:272,1,69.9999978637696
256,240,213284,2,0,L|144:208,1,69.9999978637696
384,176,213456,2,0,L|288:144,1,69.9999978637696
512,112,213629,2,0,L|384:64,1,69.9999978637696
240,240,213801,2,0,L|336:208,1,69.9999978637696
112,176,213973,2,0,L|208:144,1,69.9999978637696
16,96,214146,2,0,L|128:80,1,69.9999978637696
0,32,214318,2,0,L|96:32,1,69.9999978637696
272,240,214491,2,0,L|176:208,1,69.9999978637696
400,176,214663,2,0,L|304:144,1,69.9999978637696
496,96,214836,2,0,L|384:80,1,69.9999978637696
512,32,215008,2,0,L|416:32,1,69.9999978637696
160,288,215180,6,0,L|240:208,1,93.3333304850261
0,192,215353,2,0,L|96:160,1,93.3333304850261
352,288,215525,6,0,L|272:208,1,93.3333304850261
512,192,215698,2,0,L|416:160,1,93.3333304850261
96,288,215870,6,0,L|-32:240,1,93.3333304850261
240,208,216042,2,0,L|288:192,2,46.6666652425131
416,288,216215,6,0,L|544:240,1,93.3333304850261
272,208,216387,2,0,L|224:192,2,46.6666652425131
0,272,216560,6,0,L|0:144,1,93.3333304850261
227,193,216732,2,0,L|288:192,2,46.6666652425131
512,272,216905,6,0,L|512:144,1,93.3333304850261
284,193,217077,2,0,L|224:192,2,46.6666652425131
512,176,217249,2,0,L|464:176,1,34.9999989318848
320,176,217336,2,0,L|272:176,1,34.9999989318848
144,176,217422,2,0,L|96:176,1,34.9999989318848
0,176,217508,2,0,L|48:176,1,34.9999989318848
192,176,217595,2,0,L|240:176,1,34.9999989318848
368,176,217681,2,0,L|416:176,1,34.9999989318848
0,192,217767,6,0,L|32:176,1,34.9999989318848
480,192,217853,2,0,L|512:160,1,34.9999989318848
0,192,217939,2,0,L|32:176,1,34.9999989318848
480,192,218025,2,0,L|512:160,1,34.9999989318848
0,192,218111,2,0,L|32:176,1,34.9999989318848
480,192,218197,2,0,L|512:160,1,34.9999989318848
256,192,218284,12,0,218542,0:0:0:0:
288,272,218629,6,0,L|448:128,1,209.999993591309
224,192,218973,2,0,L|96:128,1,139.999995727539
400,288,219318,2,0,L|512:80,1,209.999993591309
240,192,219663,2,0,L|112:112,1,139.999995727539
0,256,220008,2,0,L|208:192,1,209.999993591309
368,192,220353,2,0,L|432:32,1,139.999995727539
224,304,220698,2,0,L|48:160,1,209.999993591309
288,176,221042,2,0,L|448:112,1,139.999995727539
0,288,221387,6,0,L|0:48,1,209.999993591309
208,80,221732,2,0,L|208:240,1,139.999995727539
512,272,222077,2,0,L|512:32,1,209.999993591309
304,80,222422,2,0,L|304:240,1,139.999995727539
0,192,222767,6,0,L|224:192,1,209.999993591309
368,192,223111,2,0,L|512:192,1,139.999995727539
0,192,223456,6,0,L|224:192,1,209.999993591309
368,192,223800,2,0,L|512:192,1,139.999995727539
96,320,224146,2,0,L|96:80,1,209.999993591309
256,112,224491,2,0,L|400:112,1,139.999995727539
32,320,224836,2,0,L|32:80,1,209.999993591309
320,112,225181,2,0,L|464:112,1,139.999995727539
512,224,225525,2,0,L|272:224,1,209.999993591309
128,224,225870,2,0,L|-16:224,1,139.999995727539
512,224,226215,2,0,L|272:224,1,209.999993591309
128,224,226560,2,0,L|-16:224,1,139.999995727539
512,192,226905,6,0,L|512:112,1,69.9999978637696
256,192,227077,2,0,L|256:80,1,69.9999978637696
0,192,227249,2,0,L|0:80,1,69.9999978637696
0,192,227594,6,0,L|0:112,1,69.9999978637696
256,192,227766,2,0,L|256:80,1,69.9999978637696
512,192,227938,2,0,L|512:80,1,69.9999978637696
192,320,228284,6,0,L|352:240,1,139.999995727539
0,192,228629,2,0,L|176:192,1,139.999995727539
256,192,228887,1,0,0:0:0:0:
512,192,229060,1,0,0:0:0:0:
432,160,229146,1,0,0:0:0:0:
512,128,229232,1,0,0:0:0:0:
256,192,229318,2,0,L|32:192,1,209.999993591309
512,192,229663,2,0,L|256:192,1,209.999993591309
0,192,230008,2,0,L|160:192,1,139.999995727539
512,192,230353,2,0,L|256:192,1,209.999993591309
0,192,230698,2,0,L|160:192,1,139.999995727539
0,192,231042,6,0,L|256:192,1,209.999993591309
512,192,231387,2,0,L|352:192,1,139.999995727539
0,192,231732,6,0,L|256:192,1,209.999993591309
512,192,232077,2,0,L|352:192,1,139.999995727539
0,304,232422,6,0,L|0:64,1,209.999993591309
256,192,232767,2,0,L|256:32,1,139.999995727539
512,304,233111,6,0,L|512:64,1,209.999993591309
256,192,233456,2,0,L|256:32,1,139.999995727539
512,192,233801,6,0,L|288:192,1,209.999993591309
144,192,234146,2,0,L|0:192,1,139.999995727539
0,192,234405,1,0,0:0:0:0:
0,192,234491,6,0,L|224:192,1,209.999993591309
368,192,234836,2,0,L|512:192,1,139.999995727539
256,192,235180,12,0,240611,0:0:0:0:
256,192,240698,6,0,B|0:192|0:192|464:192,1,700
256,192,243456,6,0,B|512:192|512:192|208:192,1,550
0,192,245870,1,0,0:0:0:0:
256,368,246215,6,0,B|64:160|64:160|256:-16|256:-16|448:176|448:176|448:176|256:352,1,1050.00004005432
256,192,248973,1,0,0:0:0:0:
224,192,250008,2,0,L|336:192,2,69.9999978637696
256,192,251042,1,0,0:0:0:0:
0,192,251732,2,0,B|272:0|272:0|512:208|512:208|256:384|256:384|32:208,1,1200.00004577637
0,192,255870,2,0,L|304:192,1,300.000011444092
512,192,257249,2,0,B|-16:192|-16:192|416:192|416:192|96:192|96:192|384:192|384:192|144:192,1,1800.00006866455
