osu file format v14

[General]
AudioFilename: chrono diver -fragment-.mp3
AudioLeadIn: 0
PreviewTime: 121942
Countdown: 0
SampleSet: Normal
StackLeniency: 0.7
Mode: 1
LetterboxInBreaks: 0
WidescreenStoryboard: 0

[Editor]
DistanceSpacing: 1.5
BeatDivisor: 6
GridSize: 32
TimelineZoom: 4.700003

[Metadata]
Title:chrono diver -fragment- (Camellia's "crossroads of chrono" remix)
TitleUnicode:chrono diver -fragment- (かめりあ's “crossroads of chrono” remix)
Artist:Camellia
ArtistUnicode:かめりあ
Creator:_MMMMMM_MMMMMM_
Version:Khronos
Source:beatmania IIDX 22 PENDUAL
Tags:コナミ konami ビーマニ bemani 佐藤直之 sato naoyuki 猫叉master nekomata master 三澤秋 misawa aki kamelcamellia ost vol.2 volume disc 2 original soundtrack healing dnb drum and bass electronic japanese videogame un-plugged unplugged anpu _m6
BeatmapID:1481534
BeatmapSetID:699696

[Difficulty]
HPDrainRate:5
CircleSize:2
OverallDifficulty:6
ApproachRate:5
SliderMultiplier:1.39559983568194
SliderTickRate:4

[Events]
//Background and Video events
0,0,"BG.jpg",0,0
//Break Periods
//Storyboard Layer 0 (Background)
//Storyboard Layer 1 (Fail)
//Storyboard Layer 2 (Pass)
//Storyboard Layer 3 (Foreground)
//Storyboard Layer 4 (Overlay)
//Storyboard Sound Samples

[TimingPoints]
1118,402.684563758389,4,1,0,5,1,8
1118,-149.253731343284,4,1,0,5,0,8
7972,387.096774193548,4,1,0,20,1,8
7972,-153.846153846154,4,1,0,20,0,8
8359,491.803278688525,4,1,0,20,1,8
8359,-121.951219512195,4,1,0,20,0,8
8850,403.361344537815,4,1,0,20,1,0
8850,-149.253731343284,4,1,0,20,0,0
10060,372.670807453416,4,1,0,20,1,8
10060,-161.290322580645,4,1,0,20,0,8
10432,372.670807453416,4,1,0,20,1,0
10432,-161.290322580645,4,1,0,20,0,0
10805,392.156862745098,4,1,0,20,1,8
10805,-153.846153846154,4,1,0,20,0,8
11197,416.666666666667,4,1,0,20,1,8
11197,-144.927536231884,4,1,0,20,0,8
11613,508.474576271186,4,1,0,20,1,8
11613,-117.647058823529,4,1,0,20,0,8
12121,409.556313993174,4,1,0,20,1,0
12121,-147.058823529412,4,1,0,20,0,0
12940,390.879478827362,4,1,0,20,1,8
12940,-153.846153846154,4,1,0,20,0,8
13721,397.350993377483,4,1,0,20,1,0
13721,-151.515151515152,4,1,0,20,0,0
14113,418.118466898955,4,1,0,20,1,8
14113,-142.857142857143,4,1,0,20,0,8
14531,444.444444444444,4,1,0,20,1,8
14531,-135.135135135135,4,1,0,20,0,8
14975,415.22491349481,4,1,0,20,1,8
14975,-144.927536231884,4,1,0,20,0,8
15390,376.175548589342,4,1,0,20,1,0
15390,-158.730158730159,4,1,0,20,0,0
15766,394.736842105263,4,1,0,20,1,8
15766,-151.515151515152,4,1,0,20,0,8
16555,453.686200378072,4,1,0,20,1,8
16555,-131.578947368421,4,1,0,20,0,8
17008,453.686200378072,4,1,0,20,1,0
17008,-131.578947368421,4,1,0,20,0,0
17462,418.118466898955,4,1,0,20,1,8
17462,-142.857142857143,4,1,0,20,0,8
17880,437.956204379562,4,1,0,20,1,8
17880,-136.986301369863,4,1,0,20,0,8
18317,475.247524752475,4,1,0,20,1,8
18317,-126.582278481013,4,1,0,20,0,8
18792,384.615384615385,4,1,0,20,1,0
18792,-156.25,4,1,0,20,0,0
19561,375,4,1,0,30,1,8
19561,-158.730158730159,4,1,0,30,0,8
20311,372.670807453416,4,1,0,30,1,0
20311,-161.290322580645,4,1,0,30,0,0
20683,393.44262295082,4,1,0,30,1,8
20683,-151.515151515152,4,1,0,30,0,8
21076,397.350993377483,4,1,0,30,1,8
21076,-151.515151515152,4,1,0,30,0,8
21473,422.535211267606,4,1,0,30,1,8
21473,-142.857142857143,4,1,0,30,0,8
21895,434.782608695652,4,1,0,30,1,0
21895,-138.888888888889,4,1,0,30,0,0
23199,397.350993377483,4,1,0,30,1,8
23199,-151.515151515152,4,1,0,30,0,8
23596,437.956204379562,4,1,0,30,1,0
23596,-136.986301369863,4,1,0,30,0,0
24033,461.538461538462,4,1,0,30,1,8
24033,-129.87012987013,4,1,0,30,0,8
24494,454.545454545455,4,1,0,30,1,8
24494,-131.578947368421,4,1,0,30,0,8
24948,446.096654275093,4,1,0,30,1,8
24948,-135.135135135135,4,1,0,30,0,8
25394,409.556313993174,4,1,0,30,1,0
25394,-147.058823529412,4,1,0,30,0,0
26213,404.040404040404,4,1,0,30,1,8
26213,-149.253731343284,4,1,0,30,0,8
26617,402.684563758389,4,1,0,30,1,8
26617,-149.253731343284,4,1,0,30,0,8
27019,402.684563758389,4,1,0,30,1,0
27019,-149.253731343284,4,1,0,30,0,0
27422,405.405405405405,4,1,0,30,1,8
27422,-147.058823529412,4,1,0,30,0,8
27827,499.375780274657,4,1,0,30,1,8
27827,-120.481927710843,4,1,0,30,0,8
28326,722.89156626506,4,1,0,30,1,8
28326,-83.3333333333333,4,1,0,30,0,8
29048,384.615384615385,4,1,0,30,1,0
29048,-156.25,4,1,0,30,0,0
30201,501.043841336117,4,1,0,15,1,8
30201,-119.047619047619,4,1,0,15,0,8
30702,444.444444444444,4,1,0,15,1,0
30702,-135.135135135135,4,1,0,15,0,0
31146,466.926070038911,4,1,0,15,1,8
31146,-128.205128205128,4,1,0,15,0,8
31612,474.308300395257,4,1,0,15,1,8
31612,-126.582278481013,4,1,0,15,0,8
32560,827.586206896552,4,1,0,10,1,0
32560,-72.463768115942,4,1,0,10,0,0
35870,827.586206896552,4,1,0,10,1,8
35870,-72.463768115942,4,1,0,10,0,8
36077,295.566502463054,4,1,0,15,1,8
36077,-204.081632653061,4,1,0,15,0,8
36398,314.13612565445,4,1,0,50,1,0
36398,-71.4285714285714,4,1,0,40,0,0
36708,-76.9230769230769,4,1,0,40,0,0
37026,-83.3333333333333,4,1,0,40,0,0
37183,-90.9090909090909,4,1,0,40,0,0
37337,-100,4,1,0,40,0,0
37497,-111.111111111111,4,1,0,40,0,0
37654,-125,4,1,0,35,0,0
67497,-124.413145539906,4,1,0,50,0,0
67602,-123.831775700935,4,1,0,50,0,0
67706,-123.255813953488,4,1,0,50,0,0
67811,-122.685185185185,4,1,0,50,0,0
68125,-122.119815668203,4,1,0,50,0,0
68282,-121.559633027523,4,1,0,50,0,0
68439,-121.004566210046,4,1,0,50,0,0
68596,-120.454545454545,4,1,0,50,0,0
68911,-119.909502262443,4,1,0,50,0,0
69068,-119.369369369369,4,1,0,50,0,0
69225,-118.834080717489,4,1,0,50,0,0
69382,-118.303571428571,4,1,0,50,0,0
69539,-117.777777777778,4,1,0,50,0,0
69696,-117.256637168142,4,1,0,50,0,0
69853,-116.740088105727,4,1,0,50,0,0
70010,-116.228070175439,4,1,0,50,0,0
70324,-115.720524017467,4,1,0,50,0,0
70481,-115.217391304348,4,1,0,50,0,0
70638,-114.718614718615,4,1,0,50,0,0
70795,-114.224137931034,4,1,0,50,0,0
70952,-113.733905579399,4,1,0,50,0,0
71110,-113.247863247863,4,1,0,50,0,0
71424,-112.765957446809,4,1,0,50,0,0
71581,-112.28813559322,4,1,0,50,0,0
71738,-111.814345991561,4,1,0,50,0,0
71895,-111.344537815126,4,1,0,50,0,0
72052,-110.878661087866,4,1,0,50,0,0
72209,-110.416666666667,4,1,0,50,0,0
72366,-109.958506224066,4,1,0,50,0,0
72523,-109.504132231405,4,1,0,50,0,0
72602,-109.053497942387,4,1,0,50,0,0
72680,-108.606557377049,4,1,0,50,0,0
72759,-108.163265306122,4,1,0,50,0,0
72837,-107.723577235772,4,1,0,50,0,0
73151,-107.287449392713,4,1,0,50,0,0
73308,-106.854838709677,4,1,0,50,0,0
73466,-106.425702811245,4,1,0,50,0,0
73623,-106,4,1,0,50,0,0
73937,-105.577689243028,4,1,0,50,0,0
74094,-105.15873015873,4,1,0,50,0,0
74251,-104.743083003953,4,1,0,50,0,0
74408,-104.330708661417,4,1,0,50,0,0
74565,-103.921568627451,4,1,0,50,0,0
74879,-103.515625,4,1,0,50,0,0
75036,-103.112840466926,4,1,0,50,0,0
75350,-102.713178294574,4,1,0,50,0,0
75507,-102.316602316602,4,1,0,50,0,0
75665,-101.923076923077,4,1,0,50,0,0
75822,-101.532567049808,4,1,0,50,0,0
75979,-101.145038167939,4,1,0,50,0,0
76136,-100.760456273764,4,1,0,50,0,0
76293,-100.378787878788,4,1,0,50,0,0
76450,-100,4,1,0,50,0,0
76921,-71.4285714285714,4,1,0,50,0,0
77235,-76.9230769230769,4,1,0,50,0,0
77392,-83.3333333333333,4,1,0,50,0,0
77549,-90.9090909090909,4,1,0,50,0,0
77863,-100,4,1,0,50,0,0
108013,-111.111111111111,4,1,0,30,0,0
115552,-108.695652173913,4,1,0,32,0,0
116023,-106.382978723404,4,1,0,34,0,0
116494,-104.166666666667,4,1,0,35,0,0
116809,-102.040816326531,4,1,0,37,0,0
117280,-100,4,1,0,39,0,0
117751,-98.0392156862745,4,1,0,41,0,0
118065,-96.1538461538461,4,1,0,43,0,0
118536,-94.3396226415094,4,1,0,45,0,0
119008,-92.5925925925926,4,1,0,46,0,0
119322,-90.9090909090909,4,1,0,48,0,0
119950,-89.2857142857143,4,1,0,50,0,0
120578,-87.719298245614,4,1,0,52,0,0
120735,-86.2068965517241,4,1,0,54,0,0
120892,-84.7457627118644,4,1,0,55,0,0
121049,-83.3333333333333,4,1,0,57,0,0
121206,-81.9672131147541,4,1,0,59,0,0
121364,-80.6451612903226,4,1,0,61,0,0
121521,-79.3650793650794,4,1,0,63,0,0
121678,-78.125,4,1,0,65,0,0
121835,-76.9230769230769,4,1,0,66,0,0
122149,-125,4,1,0,68,0,0
123099,-100,4,1,0,70,0,1
158282,-102.941176470588,4,1,0,70,0,1
158439,-106.060606060606,4,1,0,70,0,1
158754,-109.375,4,1,0,70,0,1
158905,-112.903225806452,4,1,0,70,0,1
159114,-116.666666666667,4,1,0,70,0,1
159324,-120.689655172414,4,1,0,60,0,1
159539,-125,4,1,0,40,0,0
160795,-125,4,1,0,30,0,0
170848,-125,4,1,0,35,0,0
178578,-66.6666666666667,4,1,0,60,0,0
179167,-68.9655172413793,4,1,0,60,0,0
179324,-71.4285714285714,4,1,0,60,0,0
179533,-76.9230769230769,4,1,0,60,0,0
179638,-80,4,1,0,60,0,0
179743,-83.3333333333333,4,1,0,60,0,0
179952,-90.9090909090909,4,1,0,60,0,0
180894,-100,4,1,0,60,0,0
201005,-100,4,1,0,45,0,0
203512,-90.9090909090909,4,1,0,30,0,0
206025,-83.3333333333333,4,1,0,30,0,0
208538,-76.9230769230769,4,1,0,30,0,0
208852,-74.0740740740741,4,1,0,30,0,0
209167,-71.4285714285714,4,1,0,30,0,0
209481,-66.6666666666667,4,1,0,30,0,0
209795,-62.5,4,1,0,30,0,0
210109,-58.8235294117647,4,1,0,30,0,0
210737,-125,4,1,0,30,0,0
218591,-111.111111111111,4,1,0,60,0,0
219533,-108.695652173913,4,1,0,60,0,0
220476,-106.382978723404,4,1,0,60,0,0
221418,-104.166666666667,4,1,0,60,0,0
222360,-102.040816326531,4,1,0,60,0,0
223617,-100,4,1,0,60,0,0
223695,-98.0392156862745,4,1,0,60,0,0
223774,-96.1538461538461,4,1,0,60,0,0
223852,-94.3396226415094,4,1,0,60,0,0
223931,-92.5925925925926,4,1,0,60,0,0
224010,-90.9090909090909,4,1,0,60,0,0
224088,-89.2857142857143,4,1,0,60,0,0
224167,-87.719298245614,4,1,0,60,0,0
224245,-86.2068965517241,4,1,0,60,0,0
224324,-84.7457627118644,4,1,0,60,0,0
224402,-83.3333333333333,4,1,0,60,0,0
224481,-81.9672131147541,4,1,0,60,0,0
224559,-80.6451612903226,4,1,0,60,0,0
224638,-79.3650793650794,4,1,0,60,0,0
224716,-78.125,4,1,0,60,0,0
224795,-76.9230769230769,4,1,0,60,0,0
224873,-75.7575757575758,4,1,0,60,0,0
225659,-66.6666666666667,4,1,0,60,0,0
226136,-90.9090909090909,4,1,0,80,0,1
244036,-66.6666666666667,4,1,0,80,0,1
244193,-90.9090909090909,4,1,0,80,0,1
248748,-86.9565217391304,4,1,0,80,0,1
248905,-83.3333333333333,4,1,0,80,0,1
249062,-80,4,1,0,80,0,1
249219,-76.9230769230769,4,1,0,80,0,1
249376,-74.0740740740741,4,1,0,80,0,1
249455,-76.9230769230769,4,1,0,80,0,1
249533,-80,4,1,0,80,0,1
249612,-83.3333333333333,4,1,0,80,0,1
249690,-86.9565217391304,4,1,0,80,0,1
249847,-90.9090909090909,4,1,0,80,0,1
258643,-90.4522613065327,4,1,0,80,0,1
258722,-90,4,1,0,80,0,1
258800,-89.5522388059701,4,1,0,80,0,1
258957,-89.1089108910891,4,1,0,80,0,1
259114,-88.6699507389163,4,1,0,80,0,1
259271,-88.2352941176471,4,1,0,80,0,1
259428,-87.8048780487805,4,1,0,80,0,1
259585,-87.378640776699,4,1,0,80,0,1
259743,-86.9565217391304,4,1,0,80,0,1
259900,-86.5384615384615,4,1,0,80,0,1
259978,-86.1244019138756,4,1,0,80,0,1
260057,-85.7142857142857,4,1,0,80,0,1
260214,-85.3080568720379,4,1,0,80,0,1
260371,-84.9056603773585,4,1,0,80,0,1
260528,-84.5070422535211,4,1,0,80,0,1
260685,-84.1121495327103,4,1,0,80,0,1
260842,-83.7209302325581,4,1,0,80,0,1
260999,-83.3333333333333,4,1,0,80,0,1
261156,-82.9493087557604,4,1,0,80,0,1
261313,-82.5688073394495,4,1,0,80,0,1
261392,-82.1917808219178,4,1,0,80,0,1
261470,-81.8181818181818,4,1,0,80,0,1
261549,-81.447963800905,4,1,0,80,0,1
261627,-81.0810810810811,4,1,0,80,0,1
261706,-80.7174887892377,4,1,0,80,0,1
261784,-80.3571428571429,4,1,0,80,0,1
261863,-80,4,1,0,80,0,1
261941,-79.646017699115,4,1,0,80,0,1
262020,-79.295154185022,4,1,0,80,0,1
262099,-78.9473684210526,4,1,0,80,0,1
262177,-78.6026200873362,4,1,0,80,0,1
262256,-78.2608695652174,4,1,0,80,0,1
262334,-77.9220779220779,4,1,0,80,0,1
262413,-77.5862068965517,4,1,0,80,0,1
262493,-77.2532188841202,4,1,0,80,0,1
262576,-76.9230769230769,4,1,0,80,0,0
263832,-100,4,1,0,75,0,0
278905,-100,4,1,0,75,0,0
279062,-99.5145631067961,4,1,0,75,0,0
279219,-99.0338164251208,4,1,0,75,0,0
279376,-98.5576923076923,4,1,0,75,0,0
279533,-98.0861244019139,4,1,0,75,0,0
279690,-97.6190476190476,4,1,0,75,0,0
279847,-97.1563981042654,4,1,0,75,0,0
280004,-96.6981132075472,4,1,0,75,0,0
280083,-96.2441314553991,4,1,0,75,0,0
280161,-95.7943925233645,4,1,0,75,0,0
280318,-95.3488372093023,4,1,0,75,0,0
280476,-94.9074074074074,4,1,0,75,0,0
280633,-94.4700460829493,4,1,0,75,0,0
280790,-94.0366972477064,4,1,0,75,0,0
280947,-93.6073059360731,4,1,0,75,0,0
281104,-93.1818181818182,4,1,0,75,0,0
281261,-92.7601809954751,4,1,0,75,0,0
281418,-92.3423423423423,4,1,0,75,0,0
281496,-91.9282511210762,4,1,0,75,0,0
281575,-91.5178571428571,4,1,0,75,0,0
281654,-91.1111111111111,4,1,0,75,0,0
281732,-90.7079646017699,4,1,0,75,0,0
281811,-90.3083700440529,4,1,0,75,0,0
281889,-89.9122807017544,4,1,0,75,0,0
281968,-89.5196506550218,4,1,0,75,0,0
282046,-89.1304347826087,4,1,0,75,0,0
282125,-88.7445887445888,4,1,0,75,0,0
282203,-88.3620689655173,4,1,0,75,0,0
282282,-87.9828326180258,4,1,0,75,0,0
282360,-87.6068376068376,4,1,0,75,0,0
282439,-87.2340425531915,4,1,0,75,0,0
282517,-86.864406779661,4,1,0,75,0,0
282596,-86.4978902953587,4,1,0,75,0,0
282674,-86.1344537815126,4,1,0,75,0,0
282753,-85.7740585774059,4,1,0,75,0,0
282832,-85.4166666666667,4,1,0,75,0,0
282910,-85.0622406639004,4,1,0,75,0,0
282989,-84.7107438016529,4,1,0,75,0,0
283067,-84.3621399176955,4,1,0,75,0,0
283146,-84.016393442623,4,1,0,75,0,0
283224,-83.6734693877551,4,1,0,75,0,0
283303,-83.3333333333333,4,1,0,75,0,0
283407,-87.5,4,1,0,75,0,0
283512,-92.1052631578947,4,1,0,75,0,0
283617,-97.2222222222222,4,1,0,75,0,0
283776,-102.941176470588,4,1,0,75,0,0
283937,-109.375,4,1,0,40,0,0
284251,-111.111111111111,4,1,0,40,0,0
293669,-116.666666666667,4,1,0,40,0,0
293983,-125,4,1,0,20,0,0

[HitObjects]
256,192,7560,5,8,0:0:0:0:
256,192,7972,1,0,0:0:0:0:
256,192,8165,1,0,0:0:0:0:
256,192,8359,1,8,0:0:0:0:
256,192,8850,1,0,0:0:0:0:
256,192,8950,1,0,0:0:0:0:
256,192,9051,1,0,0:0:0:0:
256,192,10060,1,8,0:0:0:0:
256,192,10432,1,8,0:0:0:0:
256,192,10805,1,0,0:0:0:0:
256,192,11197,1,0,0:0:0:0:
256,192,11613,1,0,0:0:0:0:
256,192,12121,1,8,0:0:0:0:
256,192,12223,1,8,0:0:0:0:
256,192,12325,1,8,0:0:0:0:
256,192,12735,1,0,0:0:0:0:
256,192,12940,1,8,0:0:0:0:
256,192,13526,1,0,0:0:0:0:
256,192,13721,1,8,0:0:0:0:
256,192,14113,1,0,0:0:0:0:
256,192,14531,1,8,0:0:0:0:
256,192,14568,1,8,0:0:0:0:
256,192,14975,1,0,0:0:0:0:
256,192,15390,1,8,0:0:0:0:
256,192,15766,1,8,0:0:0:0:
256,192,16160,1,0,0:0:0:0:
256,192,16555,1,8,0:0:0:0:
256,192,17234,1,0,0:0:0:0:
256,192,17310,1,0,0:0:0:0:
256,192,17386,1,0,0:0:0:0:
256,192,17462,1,8,0:0:0:0:
256,192,17880,1,8,0:0:0:0:
256,192,18317,1,0,0:0:0:0:
256,192,18792,1,8,0:0:0:0:
256,192,19176,1,0,0:0:0:0:
256,192,19368,1,8,0:0:0:0:
256,192,19561,1,8,0:0:0:0:
256,192,19592,1,8,0:0:0:0:
256,192,19936,1,8,0:0:0:0:
256,192,20123,1,0,0:0:0:0:
256,192,20311,1,8,0:0:0:0:
256,192,20342,1,8,0:0:0:0:
256,192,20497,1,8,0:0:0:0:
256,192,20683,1,0,0:0:0:0:
256,192,20879,1,0,0:0:0:0:
256,192,21076,1,8,0:0:0:0:
256,192,21109,1,8,0:0:0:0:
256,192,21274,1,0,0:0:0:0:
256,192,21473,1,0,0:0:0:0:
256,192,21895,1,8,0:0:0:0:
256,192,22329,1,0,0:0:0:0:
256,192,22764,1,0,0:0:0:0:
256,192,22800,1,0,0:0:0:0:
256,192,22837,1,8,0:0:0:0:
256,192,23199,1,0,0:0:0:0:
256,192,23497,1,8,0:0:0:0:
256,192,23546,1,8,0:0:0:0:
256,192,23596,1,8,0:0:0:0:
256,192,24033,1,8,0:0:0:0:
256,192,24494,1,0,0:0:0:0:
256,192,24948,1,0,0:0:0:0:
256,192,25394,1,8,0:0:0:0:
256,192,25803,1,0,0:0:0:0:
288,192,26008,1,8,0:0:0:0:
256,192,26110,1,0,0:0:0:0:
256,192,26161,1,0,0:0:0:0:
256,192,26213,1,8,0:0:0:0:
256,192,26617,1,8,0:0:0:0:
256,192,26818,1,0,0:0:0:0:
256,192,27019,1,8,0:0:0:0:
256,192,27069,1,8,0:0:0:0:
256,192,27119,1,8,0:0:0:0:
256,192,27422,1,8,0:0:0:0:
256,192,27827,1,0,0:0:0:0:
256,192,27868,1,0,0:0:0:0:
256,192,28326,1,0,0:0:0:0:
256,192,28868,1,0,0:0:0:0:
256,192,28928,1,0,0:0:0:0:
256,192,28988,1,0,0:0:0:0:
256,192,29048,1,8,0:0:0:0:
256,192,30201,1,0,0:0:0:0:
256,192,30702,1,0,0:0:0:0:
256,192,31146,1,8,0:0:0:0:
256,192,31612,1,8,0:0:0:0:
256,192,31849,1,0,0:0:0:0:
256,192,32086,1,8,0:0:0:0:
256,192,32560,1,0,0:0:0:0:
256,192,32628,1,0,0:0:0:0:
256,192,32697,1,0,0:0:0:0:
256,192,32766,1,0,0:0:0:0:
256,192,32835,1,8,0:0:0:0:
180,196,36077,5,0,0:0:0:0:
256,192,36398,5,8,0:0:0:0:
256,192,36712,1,8,0:0:0:0:
256,192,37026,1,8,0:0:0:0:
256,192,37183,1,0,0:0:0:0:
256,192,37340,1,8,0:0:0:0:
256,192,37497,1,8,0:0:0:0:
256,192,37654,1,0,0:0:0:0:
256,192,37968,1,0,0:0:0:0:
256,192,38125,1,8,0:0:0:0:
256,192,38282,1,8,0:0:0:0:
256,192,38439,1,0,0:0:0:0:
256,192,38754,1,0,0:0:0:0:
256,192,39068,1,8,0:0:0:0:
256,192,39382,1,0,0:0:0:0:
256,192,39539,1,8,0:0:0:0:
256,192,39696,1,0,0:0:0:0:
256,192,39853,1,0,0:0:0:0:
256,192,40167,1,0,0:0:0:0:
256,192,40324,1,0,0:0:0:0:
256,192,40481,1,8,0:0:0:0:
256,192,40638,1,0,0:0:0:0:
256,192,40952,1,8,0:0:0:0:
256,192,41267,1,8,0:0:0:0:
256,192,41581,1,8,0:0:0:0:
256,192,41895,1,0,0:0:0:0:
256,192,42209,1,0,0:0:0:0:
256,192,42366,1,8,0:0:0:0:
256,192,42445,1,8,0:0:0:0:
256,192,42523,1,8,0:0:0:0:
256,192,42602,1,8,0:0:0:0:
256,192,42680,1,0,0:0:0:0:
256,224,42994,1,8,0:0:0:0:
256,192,43151,1,0,0:0:0:0:
256,192,43308,1,0,0:0:0:0:
256,192,43466,1,8,0:0:0:0:
256,192,43780,1,8,0:0:0:0:
256,192,44094,1,8,0:0:0:0:
256,192,44408,1,0,0:0:0:0:
256,192,44565,1,8,0:0:0:0:
256,192,44722,1,0,0:0:0:0:
256,192,44879,1,0,0:0:0:0:
256,192,45193,1,0,0:0:0:0:
256,192,45350,1,0,0:0:0:0:
256,192,45507,1,8,0:0:0:0:
256,192,45665,1,8,0:0:0:0:
256,192,45979,1,8,0:0:0:0:
256,192,46293,1,8,0:0:0:0:
256,192,46607,1,0,0:0:0:0:
256,192,46921,1,0,0:0:0:0:
256,192,47078,1,8,0:0:0:0:
256,192,47235,1,0,0:0:0:0:
256,192,47392,1,0,0:0:0:0:
256,192,47706,1,8,0:0:0:0:
256,192,47863,1,0,0:0:0:0:
256,192,48021,1,8,0:0:0:0:
256,192,48178,1,8,0:0:0:0:
256,192,48492,1,8,0:0:0:0:
256,192,48806,1,8,0:0:0:0:
256,192,49120,1,8,0:0:0:0:
256,192,49434,1,0,0:0:0:0:
256,192,49748,1,8,0:0:0:0:
256,192,49905,1,0,0:0:0:0:
256,192,50219,1,8,0:0:0:0:
256,192,50377,1,0,0:0:0:0:
256,192,50534,1,0,0:0:0:0:
256,192,50691,1,8,0:0:0:0:
256,192,51005,1,8,0:0:0:0:
256,192,51319,1,8,0:0:0:0:
256,224,51633,1,0,0:0:0:0:
256,192,51947,1,0,0:0:0:0:
256,224,52261,1,8,0:0:0:0:
256,192,52418,1,8,0:0:0:0:
256,192,52497,1,8,0:0:0:0:
256,192,52576,1,8,0:0:0:0:
256,192,52654,1,8,0:0:0:0:
256,192,52733,1,0,0:0:0:0:
256,192,53047,1,0,0:0:0:0:
256,192,53204,1,8,0:0:0:0:
256,192,53361,1,8,0:0:0:0:
256,192,53518,1,0,0:0:0:0:
256,192,53832,1,0,0:0:0:0:
256,192,54146,1,0,0:0:0:0:
256,192,54460,1,8,0:0:0:0:
256,192,54617,1,8,0:0:0:0:
256,192,54774,1,0,0:0:0:0:
256,192,54932,1,8,0:0:0:0:
256,192,55246,1,0,0:0:0:0:
96,128,55403,1,8,0:0:0:0:
256,192,55560,1,8,0:0:0:0:
256,192,55717,1,0,0:0:0:0:
96,128,56031,1,0,0:0:0:0:
256,192,56345,1,8,0:0:0:0:
256,192,56502,1,0,0:0:0:0:
256,192,56659,1,12,0:0:0:0:
256,192,56973,1,0,0:0:0:0:
256,192,57052,1,0,0:0:0:0:
256,192,57130,1,8,0:0:0:0:
256,192,57288,1,8,0:0:0:0:
256,192,57445,1,0,0:0:0:0:
96,128,57602,1,8,0:0:0:0:
96,128,57759,1,4,0:0:0:0:
256,224,58073,1,8,0:0:0:0:
256,192,58230,1,0,0:0:0:0:
256,192,58387,1,0,0:0:0:0:
256,192,58544,1,8,0:0:0:0:
256,192,58701,1,8,0:0:0:0:
256,224,58858,1,0,0:0:0:0:
256,192,59172,1,0,0:0:0:0:
256,192,59329,1,8,0:0:0:0:
256,192,59487,1,8,0:0:0:0:
256,192,59644,1,0,0:0:0:0:
256,192,59801,1,0,0:0:0:0:
256,192,59958,1,8,0:0:0:0:
256,192,60272,1,0,0:0:0:0:
256,192,60429,1,0,0:0:0:0:
256,192,60586,1,8,0:0:0:0:
256,192,60743,1,0,0:0:0:0:
256,192,60900,1,8,0:0:0:0:
256,192,61057,1,8,0:0:0:0:
256,192,61371,1,0,0:0:0:0:
256,192,61528,1,8,0:0:0:0:
288,128,61685,1,8,0:0:0:0:
288,128,62000,1,8,0:0:0:0:
288,128,62157,1,0,0:0:0:0:
288,128,62314,1,0,0:0:0:0:
288,128,62471,1,8,0:0:0:0:
288,128,62549,1,8,0:0:0:0:
288,128,62628,1,8,0:0:0:0:
288,128,62706,1,8,0:0:0:0:
288,128,62785,1,0,0:0:0:0:
288,128,63099,1,8,0:0:0:0:
288,128,63256,1,8,0:0:0:0:
288,128,63413,1,0,0:0:0:0:
288,128,63570,1,8,0:0:0:0:
96,128,63884,1,0,0:0:0:0:
288,128,64041,1,8,0:0:0:0:
288,128,64199,1,0,0:0:0:0:
288,128,64513,1,8,0:0:0:0:
288,128,64670,1,8,0:0:0:0:
288,128,64827,1,0,0:0:0:0:
288,128,64984,1,8,0:0:0:0:
288,128,65298,1,0,0:0:0:0:
288,128,65455,1,0,0:0:0:0:
288,128,65612,1,8,0:0:0:0:
96,128,65769,1,0,0:0:0:0:
288,128,65926,1,0,0:0:0:0:
288,128,66083,1,8,0:0:0:0:
288,128,66397,1,0,0:0:0:0:
288,128,66555,1,8,0:0:0:0:
288,128,66712,1,0,0:0:0:0:
96,128,66869,1,0,0:0:0:0:
96,128,67026,1,8,0:0:0:0:
288,128,67183,1,0,0:0:0:0:
288,128,67340,1,8,0:0:0:0:
288,128,67497,1,8,0:0:0:0:
288,128,67602,1,0,0:0:0:0:
288,128,67706,1,0,0:0:0:0:
288,128,67811,1,12,0:0:0:0:
288,128,68125,1,8,0:0:0:0:
256,192,68282,1,0,0:0:0:0:
256,192,68439,1,0,0:0:0:0:
256,192,68596,1,8,0:0:0:0:
256,192,68911,1,0,0:0:0:0:
256,192,69068,1,8,0:0:0:0:
96,128,69225,1,0,0:0:0:0:
256,192,69382,1,0,0:0:0:0:
256,192,69539,1,8,0:0:0:0:
256,192,69696,1,8,0:0:0:0:
256,192,69853,1,0,0:0:0:0:
256,192,70010,1,8,0:0:0:0:
256,192,70324,1,0,0:0:0:0:
96,128,70481,1,0,0:0:0:0:
256,192,70638,1,8,0:0:0:0:
256,192,70795,1,8,0:0:0:0:
256,192,70952,1,0,0:0:0:0:
256,384,71110,1,8,0:0:0:0:
256,384,71424,1,0,0:0:0:0:
256,384,71581,1,8,0:0:0:0:
256,384,71738,1,0,0:0:0:0:
256,384,71895,1,0,0:0:0:0:
256,384,72052,1,8,0:0:0:0:
256,384,72209,1,0,0:0:0:0:
256,384,72366,1,0,0:0:0:0:
256,384,72523,1,8,0:0:0:0:
256,128,72602,1,0,0:0:0:0:
256,128,72680,1,0,0:0:0:0:
256,128,72759,1,0,0:0:0:0:
256,384,72837,1,8,0:0:0:0:
256,384,73151,1,8,0:0:0:0:
256,384,73308,1,0,0:0:0:0:
256,384,73466,1,0,0:0:0:0:
256,384,73623,1,8,0:0:0:0:
256,384,73937,1,8,0:0:0:0:
256,384,74094,1,8,0:0:0:0:
256,384,74251,1,0,0:0:0:0:
256,384,74408,1,0,0:0:0:0:
256,384,74565,1,8,0:0:0:0:
256,384,74879,1,0,0:0:0:0:
256,384,75036,1,8,0:0:0:0:
256,384,75350,1,8,0:0:0:0:
256,384,75507,1,0,0:0:0:0:
256,384,75665,1,8,0:0:0:0:
256,384,75822,1,0,0:0:0:0:
256,384,75979,1,0,0:0:0:0:
256,384,76136,1,8,0:0:0:0:
256,384,76293,1,0,0:0:0:0:
256,384,76450,1,8,0:0:0:0:
256,384,76921,1,8,0:0:0:0:
256,384,77235,1,0,0:0:0:0:
256,384,77392,1,0,0:0:0:0:
256,384,77549,1,8,0:0:0:0:
256,384,77863,1,12,0:0:0:0:
256,384,78178,1,8,0:0:0:0:
256,384,78335,1,8,0:0:0:0:
256,384,78492,1,0,0:0:0:0:
256,192,78649,1,8,0:0:0:0:
256,192,78806,1,8,0:0:0:0:
256,192,78963,1,8,0:0:0:0:
256,192,79041,1,8,0:0:0:0:
256,192,79120,1,0,0:0:0:0:
256,192,79434,1,8,0:0:0:0:
160,320,79591,1,8,0:0:0:0:
256,192,79748,1,0,0:0:0:0:
256,192,80062,1,8,0:0:0:0:
256,192,80219,1,0,0:0:0:0:
256,192,80377,1,0,0:0:0:0:
256,192,80534,1,8,0:0:0:0:
256,192,80691,1,8,0:0:0:0:
256,192,80848,1,8,0:0:0:0:
256,192,80926,1,0,0:0:0:0:
256,192,81005,1,8,0:0:0:0:
256,192,81319,1,8,0:0:0:0:
256,192,81476,1,0,0:0:0:0:
256,192,81555,1,0,0:0:0:0:
256,192,81633,1,8,0:0:0:0:
256,192,81790,1,0,0:0:0:0:
256,192,81947,1,0,0:0:0:0:
256,192,82104,1,8,0:0:0:0:
256,192,82183,1,0,0:0:0:0:
256,192,82261,1,8,0:0:0:0:
256,192,82418,1,0,0:0:0:0:
256,192,82576,1,8,0:0:0:0:
256,192,82890,1,0,0:0:0:0:
256,192,83047,1,8,0:0:0:0:
256,192,83204,1,8,0:0:0:0:
256,192,83361,1,0,0:0:0:0:
256,192,83439,1,0,0:0:0:0:
256,192,83518,1,8,0:0:0:0:
256,192,83675,1,8,0:0:0:0:
256,192,83832,1,8,0:0:0:0:
256,192,83989,1,8,0:0:0:0:
256,192,84068,5,0,0:0:0:0:
256,192,84146,1,8,0:0:0:0:
256,192,84303,1,0,0:0:0:0:
256,192,84460,1,0,0:0:0:0:
160,320,84617,1,8,0:0:0:0:
256,192,84774,1,0,0:0:0:0:
256,192,85089,1,8,0:0:0:0:
256,192,85246,1,0,0:0:0:0:
256,192,85403,1,0,0:0:0:0:
256,192,85560,1,8,0:0:0:0:
256,192,85717,1,8,0:0:0:0:
256,192,85874,1,8,0:0:0:0:
256,192,85952,1,8,0:0:0:0:
256,192,86031,1,0,0:0:0:0:
256,192,86188,1,8,0:0:0:0:
256,192,86345,1,0,0:0:0:0:
256,192,86502,1,0,0:0:0:0:
256,192,86581,1,0,0:0:0:0:
256,192,86659,1,8,0:0:0:0:
256,192,86816,1,0,0:0:0:0:
256,192,86973,1,8,0:0:0:0:
256,192,87052,1,0,0:0:0:0:
256,192,87130,1,8,0:0:0:0:
256,192,87288,1,0,0:0:0:0:
256,192,87445,1,0,0:0:0:0:
256,192,87523,1,0,0:0:0:0:
256,192,87602,1,8,0:0:0:0:
256,192,87916,1,12,0:0:0:0:
256,192,88230,1,8,0:0:0:0:
256,192,88387,1,0,0:0:0:0:
256,192,88544,1,0,0:0:0:0:
256,192,88701,1,8,0:0:0:0:
256,192,88858,1,8,0:0:0:0:
256,192,89015,1,0,0:0:0:0:
256,192,89094,1,0,0:0:0:0:
256,192,89172,1,8,0:0:0:0:
256,192,89329,1,0,0:0:0:0:
256,192,89487,1,0,0:0:0:0:
256,192,89644,1,8,0:0:0:0:
256,192,89722,1,0,0:0:0:0:
256,192,89801,1,8,0:0:0:0:
256,192,89958,1,0,0:0:0:0:
256,192,90115,1,8,0:0:0:0:
256,192,90429,1,8,0:0:0:0:
256,192,90586,1,0,0:0:0:0:
256,192,90743,1,8,0:0:0:0:
256,192,90900,1,8,0:0:0:0:
256,192,90979,1,8,0:0:0:0:
256,192,91057,1,0,0:0:0:0:
256,192,91214,1,8,0:0:0:0:
256,192,91371,1,8,0:0:0:0:
256,192,91528,1,8,0:0:0:0:
256,192,91607,1,0,0:0:0:0:
256,192,91685,1,8,0:0:0:0:
256,192,92000,1,8,0:0:0:0:
256,192,92157,1,8,0:0:0:0:
256,192,92314,1,0,0:0:0:0:
256,192,92471,1,0,0:0:0:0:
256,192,92628,1,8,0:0:0:0:
256,192,92942,1,0,0:0:0:0:
256,192,93099,1,0,0:0:0:0:
256,192,93256,1,8,0:0:0:0:
256,192,93413,1,8,0:0:0:0:
256,192,93570,1,0,0:0:0:0:
256,192,93727,1,8,0:0:0:0:
256,192,94041,1,0,0:0:0:0:
256,192,94199,1,8,0:0:0:0:
256,192,94356,1,0,0:0:0:0:
256,192,94513,1,8,0:0:0:0:
256,192,94670,1,8,0:0:0:0:
256,192,94827,1,0,0:0:0:0:
256,192,94984,1,0,0:0:0:0:
256,192,95141,1,8,0:0:0:0:
256,192,95219,1,8,0:0:0:0:
256,192,95298,1,8,0:0:0:0:
256,192,95377,1,8,0:0:0:0:
256,192,95455,1,0,0:0:0:0:
256,192,95612,1,0,0:0:0:0:
256,192,95769,1,8,0:0:0:0:
256,192,95926,1,0,0:0:0:0:
256,192,96240,1,8,0:0:0:0:
256,192,96397,1,8,0:0:0:0:
256,192,96555,1,0,0:0:0:0:
160,320,96712,1,8,0:0:0:0:
160,320,96869,1,0,0:0:0:0:
160,320,97026,1,0,0:0:0:0:
160,320,97183,1,8,0:0:0:0:
256,192,97340,1,0,0:0:0:0:
256,192,97418,1,0,0:0:0:0:
256,192,97497,1,8,0:0:0:0:
256,192,97576,1,8,0:0:0:0:
256,192,97654,1,8,0:0:0:0:
256,192,97968,1,12,0:0:0:0:
256,192,98282,1,8,0:0:0:0:
256,192,98439,1,8,0:0:0:0:
256,192,98596,1,0,0:0:0:0:
256,192,98754,1,8,0:0:0:0:
256,192,98911,1,8,0:0:0:0:
256,192,99068,1,0,0:0:0:0:
256,192,99225,1,8,0:0:0:0:
256,192,99382,1,0,0:0:0:0:
256,192,99539,1,0,0:0:0:0:
256,192,99696,1,8,0:0:0:0:
256,192,99853,1,0,0:0:0:0:
256,192,100010,1,0,0:0:0:0:
256,192,100167,1,8,0:0:0:0:
256,192,100481,1,0,0:0:0:0:
256,192,100638,1,0,0:0:0:0:
256,192,100795,1,12,0:0:0:0:
256,192,101110,1,0,0:0:0:0:
256,192,101267,1,8,0:0:0:0:
256,192,101424,1,8,0:0:0:0:
256,192,101581,1,0,0:0:0:0:
256,192,101738,1,0,0:0:0:0:
256,192,101895,1,8,0:0:0:0:
256,192,102209,1,8,0:0:0:0:
256,192,102366,1,0,0:0:0:0:
256,192,102523,1,8,0:0:0:0:
256,192,102680,1,0,0:0:0:0:
256,192,102837,1,8,0:0:0:0:
256,192,102916,1,8,0:0:0:0:
256,192,102994,1,4,0:0:0:0:
256,192,103308,1,8,0:0:0:0:
256,192,103466,1,0,0:0:0:0:
256,192,103623,1,0,0:0:0:0:
256,192,103780,1,8,0:0:0:0:
256,224,103937,1,8,0:0:0:0:
256,192,104015,1,8,0:0:0:0:
256,192,104094,1,8,0:0:0:0:
256,192,104172,1,0,0:0:0:0:
256,192,104251,1,0,0:0:0:0:
256,192,104408,1,12,0:0:0:0:
256,192,104722,1,8,0:0:0:0:
256,192,104879,1,0,0:0:0:0:
256,192,105036,1,0,0:0:0:0:
256,192,105193,1,8,0:0:0:0:
256,192,105507,1,4,0:0:0:0:
256,192,105822,1,0,0:0:0:0:
256,192,105979,1,8,0:0:0:0:
256,192,106136,1,0,0:0:0:0:
256,192,106214,1,0,0:0:0:0:
256,192,106293,1,8,0:0:0:0:
256,192,106371,1,8,0:0:0:0:
256,192,106450,1,8,0:0:0:0:
256,192,106528,1,8,0:0:0:0:
256,192,106607,1,0,0:0:0:0:
256,192,106685,1,8,0:0:0:0:
256,192,106764,1,0,0:0:0:0:
256,192,106921,1,8,0:0:0:0:
256,192,107235,1,8,0:0:0:0:
256,192,107392,1,0,0:0:0:0:
256,192,107549,1,0,0:0:0:0:
256,192,107706,1,8,0:0:0:0:
256,192,108021,1,0,0:0:0:0:
160,320,108335,1,8,0:0:0:0:
256,192,108649,1,0,0:0:0:0:
256,192,108806,5,0,0:0:0:0:
256,192,108963,1,8,0:0:0:0:
256,192,109120,1,0,0:0:0:0:
256,192,109434,1,0,0:0:0:0:
256,192,109591,1,8,0:0:0:0:
256,192,109748,1,0,0:0:0:0:
256,192,109905,1,0,0:0:0:0:
256,192,110062,1,8,0:0:0:0:
256,192,110219,1,8,0:0:0:0:
256,192,110534,1,8,0:0:0:0:
256,192,110691,1,0,0:0:0:0:
256,192,110848,1,0,0:0:0:0:
256,192,111005,1,8,0:0:0:0:
256,192,111162,1,8,0:0:0:0:
256,192,111476,1,8,0:0:0:0:
160,320,111633,1,0,0:0:0:0:
320,160,111790,1,0,0:0:0:0:
320,160,111947,1,8,0:0:0:0:
256,192,112261,1,8,0:0:0:0:
256,192,112418,1,0,0:0:0:0:
160,224,112576,1,0,0:0:0:0:
256,192,112733,1,8,0:0:0:0:
256,192,112890,1,0,0:0:0:0:
256,192,113047,1,8,0:0:0:0:
256,192,113361,1,8,0:0:0:0:
256,192,113675,1,0,0:0:0:0:
256,192,113832,1,0,0:0:0:0:
256,192,113989,1,8,0:0:0:0:
256,192,114146,1,0,0:0:0:0:
256,192,114460,1,0,0:0:0:0:
256,192,114617,1,8,0:0:0:0:
256,192,114774,1,0,0:0:0:0:
256,192,114932,1,8,0:0:0:0:
256,192,115246,1,0,0:0:0:0:
256,192,115560,1,8,0:0:0:0:
256,192,115717,1,0,0:0:0:0:
160,224,115874,1,0,0:0:0:0:
160,224,116031,1,8,0:0:0:0:
160,224,116345,1,0,0:0:0:0:
160,224,116502,1,8,0:0:0:0:
256,192,116659,1,0,0:0:0:0:
256,192,116816,1,8,0:0:0:0:
256,192,116973,1,8,0:0:0:0:
256,192,117130,1,0,0:0:0:0:
256,192,117288,1,8,0:0:0:0:
160,224,117602,1,8,0:0:0:0:
256,192,117759,1,8,0:0:0:0:
256,192,117916,1,0,0:0:0:0:
256,192,118073,1,8,0:0:0:0:
256,192,118230,1,0,0:0:0:0:
256,192,118387,1,0,0:0:0:0:
256,192,118544,1,8,0:0:0:0:
256,192,118858,1,8,0:0:0:0:
256,192,119015,1,0,0:0:0:0:
256,192,119172,1,0,0:0:0:0:
256,192,119329,1,8,0:0:0:0:
256,192,119487,1,8,0:0:0:0:
320,256,119644,1,0,0:0:0:0:
320,256,119801,1,8,0:0:0:0:
256,192,119958,1,8,0:0:0:0:
256,192,120115,1,0,0:0:0:0:
256,192,120272,1,8,0:0:0:0:
256,192,120586,1,8,0:0:0:0:
256,192,120743,1,0,0:0:0:0:
256,192,120900,1,8,0:0:0:0:
256,192,121057,1,8,0:0:0:0:
256,192,121214,1,0,0:0:0:0:
256,192,121371,1,0,0:0:0:0:
256,192,121528,1,8,0:0:0:0:
256,192,121685,1,0,0:0:0:0:
256,192,121843,1,8,0:0:0:0:
256,192,123099,1,12,0:0:0:0:
256,192,123413,1,8,0:0:0:0:
256,192,123570,1,8,0:0:0:0:
256,192,123649,1,8,0:0:0:0:
256,192,123727,1,0,0:0:0:0:
160,160,123884,1,8,0:0:0:0:
256,192,124041,1,8,0:0:0:0:
256,192,124199,1,0,0:0:0:0:
256,192,124277,1,0,0:0:0:0:
256,192,124356,1,8,0:0:0:0:
96,320,124670,1,8,0:0:0:0:
256,192,124827,1,8,0:0:0:0:
96,320,124984,1,0,0:0:0:0:
256,192,125062,1,8,0:0:0:0:
256,192,125141,5,0,0:0:0:0:
96,320,125298,1,8,0:0:0:0:
256,192,125455,1,8,0:0:0:0:
256,192,125534,1,8,0:0:0:0:
256,192,125612,1,0,0:0:0:0:
256,192,125926,1,8,0:0:0:0:
96,320,126083,1,0,0:0:0:0:
256,192,126162,1,0,0:0:0:0:
128,288,126240,1,8,0:0:0:0:
96,320,126397,1,0,0:0:0:0:
96,320,126555,1,8,0:0:0:0:
256,192,126712,1,8,0:0:0:0:
256,192,126790,1,0,0:0:0:0:
256,192,126869,1,8,0:0:0:0:
96,320,127026,1,0,0:0:0:0:
96,320,127183,1,8,0:0:0:0:
160,160,127340,1,8,0:0:0:0:
96,320,127497,1,0,0:0:0:0:
96,320,127811,1,8,0:0:0:0:
96,320,127968,1,0,0:0:0:0:
96,320,128125,1,8,0:0:0:0:
96,320,128282,1,8,0:0:0:0:
96,320,128439,1,0,0:0:0:0:
96,320,128596,1,0,0:0:0:0:
96,320,128754,1,8,0:0:0:0:
96,320,129068,1,12,0:0:0:0:
96,320,129696,1,0,0:0:0:0:
96,320,129853,1,8,0:0:0:0:
256,192,130010,1,8,0:0:0:0:
256,256,130089,1,0,0:0:0:0:
256,192,130167,1,8,0:0:0:0:
256,256,130324,1,8,0:0:0:0:
256,256,130481,1,0,0:0:0:0:
256,256,130638,1,0,0:0:0:0:
256,256,130952,1,0,0:0:0:0:
192,160,131110,1,8,0:0:0:0:
256,256,131267,1,0,0:0:0:0:
256,256,131581,1,8,0:0:0:0:
192,160,131738,1,0,0:0:0:0:
256,256,131895,1,0,0:0:0:0:
224,256,131973,1,0,0:0:0:0:
256,256,132052,1,8,0:0:0:0:
256,256,132209,1,0,0:0:0:0:
256,256,132366,1,8,0:0:0:0:
256,256,132445,1,8,0:0:0:0:
256,256,132523,1,0,0:0:0:0:
256,256,132680,1,8,0:0:0:0:
256,256,132837,1,0,0:0:0:0:
256,256,133151,1,4,0:0:0:0:
256,256,133308,1,8,0:0:0:0:
256,256,133466,1,8,0:0:0:0:
256,256,133623,1,0,0:0:0:0:
256,256,133780,1,0,0:0:0:0:
256,256,133937,1,0,0:0:0:0:
256,256,134015,1,0,0:0:0:0:
256,256,134094,1,8,0:0:0:0:
256,256,134251,1,8,0:0:0:0:
256,256,134408,1,8,0:0:0:0:
256,256,134565,1,0,0:0:0:0:
256,256,134722,1,0,0:0:0:0:
256,256,134879,1,8,0:0:0:0:
256,256,134958,1,8,0:0:0:0:
256,256,135036,1,0,0:0:0:0:
256,256,135193,1,8,0:0:0:0:
256,256,135350,1,0,0:0:0:0:
256,256,135665,1,0,0:0:0:0:
256,256,135822,1,8,0:0:0:0:
256,256,135979,1,8,0:0:0:0:
256,256,136136,1,0,0:0:0:0:
256,256,136214,1,8,0:0:0:0:
256,256,136293,1,0,0:0:0:0:
256,256,136450,1,8,0:0:0:0:
256,256,136607,1,0,0:0:0:0:
160,352,136764,1,0,0:0:0:0:
160,352,136921,1,8,0:0:0:0:
256,256,137078,1,0,0:0:0:0:
160,352,137235,1,0,0:0:0:0:
160,352,137392,1,8,0:0:0:0:
160,352,137549,1,0,0:0:0:0:
256,256,137628,1,8,0:0:0:0:
160,352,137706,1,0,0:0:0:0:
160,352,137863,1,8,0:0:0:0:
160,352,138178,1,0,0:0:0:0:
160,352,138492,1,8,0:0:0:0:
160,224,138649,1,0,0:0:0:0:
160,224,138806,1,0,0:0:0:0:
160,224,138963,1,8,0:0:0:0:
160,224,139120,1,0,0:0:0:0:
160,224,139434,1,8,0:0:0:0:
160,224,139591,1,0,0:0:0:0:
160,224,139644,1,8,0:0:0:0:
160,224,139853,1,8,0:0:0:0:
160,224,139905,1,0,0:0:0:0:
160,224,140062,1,0,0:0:0:0:
160,224,140219,1,8,0:0:0:0:
160,224,140272,1,0,0:0:0:0:
160,224,140429,1,8,0:0:0:0:
160,224,140481,1,0,0:0:0:0:
160,224,140691,1,12,0:0:0:0:
160,224,141005,1,8,0:0:0:0:
160,224,141162,1,8,0:0:0:0:
160,224,141319,1,0,0:0:0:0:
256,256,141397,1,0,0:0:0:0:
160,224,141476,1,8,0:0:0:0:
160,224,141633,1,8,0:0:0:0:
256,256,141790,1,8,0:0:0:0:
256,256,141869,1,8,0:0:0:0:
160,224,141947,1,0,0:0:0:0:
160,224,142104,1,0,0:0:0:0:
160,224,142261,1,8,0:0:0:0:
160,224,142418,1,8,0:0:0:0:
160,224,142576,1,0,0:0:0:0:
160,224,142890,1,8,0:0:0:0:
160,160,143047,1,0,0:0:0:0:
160,224,143204,1,0,0:0:0:0:
160,224,143361,1,8,0:0:0:0:
160,224,143518,1,8,0:0:0:0:
256,256,143675,1,0,0:0:0:0:
160,224,143754,1,8,0:0:0:0:
160,224,143832,1,0,0:0:0:0:
160,224,144146,1,8,0:0:0:0:
253,265,144303,1,0,0:0:0:0:
160,224,144382,1,0,0:0:0:0:
160,224,144460,1,8,0:0:0:0:
160,224,144617,1,8,0:0:0:0:
160,224,144774,1,0,0:0:0:0:
160,224,144932,1,8,0:0:0:0:
160,224,145089,1,0,0:0:0:0:
160,224,145403,1,8,0:0:0:0:
160,224,145717,1,8,0:0:0:0:
160,224,145822,1,0,0:0:0:0:
160,224,145926,1,0,0:0:0:0:
160,224,146031,1,8,0:0:0:0:
160,224,146136,1,0,0:0:0:0:
160,224,146240,1,0,0:0:0:0:
160,224,146345,1,8,0:0:0:0:
160,224,146450,1,0,0:0:0:0:
160,224,146555,1,0,0:0:0:0:
160,224,146659,1,12,0:0:0:0:
160,224,146973,1,8,0:0:0:0:
160,224,147130,1,0,0:0:0:0:
160,224,147288,1,8,0:0:0:0:
160,160,147366,1,0,0:0:0:0:
160,224,147445,1,8,0:0:0:0:
160,224,147602,1,8,0:0:0:0:
160,224,147759,1,8,0:0:0:0:
256,256,147837,1,8,0:0:0:0:
160,224,147916,1,0,0:0:0:0:
160,224,148073,1,8,0:0:0:0:
160,224,148230,1,4,0:0:0:0:
160,224,148544,1,8,0:0:0:0:
160,224,148701,1,8,0:0:0:0:
160,224,148858,1,0,0:0:0:0:
160,224,149015,1,8,0:0:0:0:
160,224,149172,1,8,0:0:0:0:
160,224,149329,1,8,0:0:0:0:
160,224,149487,1,0,0:0:0:0:
160,224,149644,1,12,0:0:0:0:
160,224,149958,1,8,0:0:0:0:
160,224,150036,1,0,0:0:0:0:
160,224,150115,1,8,0:0:0:0:
160,224,150272,1,8,0:0:0:0:
160,224,150429,1,0,0:0:0:0:
160,224,150743,1,12,0:0:0:0:
160,224,151057,1,8,0:0:0:0:
160,224,151371,1,0,0:0:0:0:
160,224,151528,1,8,0:0:0:0:
160,224,151685,1,8,0:0:0:0:
192,128,151843,1,8,0:0:0:0:
253,265,151921,1,8,0:0:0:0:
192,128,152000,1,0,0:0:0:0:
160,224,152157,1,0,0:0:0:0:
192,128,152314,1,8,0:0:0:0:
253,265,152471,1,0,0:0:0:0:
253,265,152549,1,0,0:0:0:0:
253,265,152628,1,8,0:0:0:0:
160,224,152785,1,8,0:0:0:0:
160,224,152942,1,8,0:0:0:0:
160,224,153256,1,0,0:0:0:0:
160,224,153413,1,0,0:0:0:0:
160,224,153570,1,8,0:0:0:0:
160,224,153727,1,8,0:0:0:0:
160,224,153884,1,0,0:0:0:0:
192,224,154199,1,8,0:0:0:0:
192,224,154356,1,0,0:0:0:0:
192,224,154513,1,8,0:0:0:0:
192,224,154670,1,0,0:0:0:0:
192,224,154827,1,0,0:0:0:0:
192,224,154984,1,8,0:0:0:0:
253,265,155141,1,8,0:0:0:0:
253,265,155219,1,8,0:0:0:0:
192,224,155298,1,0,0:0:0:0:
192,224,155455,1,8,0:0:0:0:
192,224,155612,1,8,0:0:0:0:
192,224,155769,1,0,0:0:0:0:
192,224,156083,1,8,0:0:0:0:
192,224,156240,1,0,0:0:0:0:
253,265,156397,1,0,0:0:0:0:
253,265,156555,1,8,0:0:0:0:
192,224,156712,1,0,0:0:0:0:
192,224,156869,1,8,0:0:0:0:
192,224,157026,1,8,0:0:0:0:
192,224,157183,1,0,0:0:0:0:
192,224,157340,1,8,0:0:0:0:
192,224,157497,1,0,0:0:0:0:
192,224,157654,1,0,0:0:0:0:
192,224,157811,1,8,0:0:0:0:
192,224,157968,1,8,0:0:0:0:
192,224,158282,1,4,0:0:0:0:
192,224,158439,1,8,0:0:0:0:
192,224,158754,1,8,0:0:0:0:
192,224,158911,1,0,0:0:0:0:
192,224,159120,1,4,0:0:0:0:
192,224,159329,1,12,0:0:0:0:
192,224,159539,1,4,0:0:0:0:
256,192,160795,12,0,168335,0:0:0:0:
256,192,170848,5,8,0:0:0:0:
256,192,171162,1,0,0:0:0:0:
256,192,171476,1,8,0:0:0:0:
256,192,171633,1,0,0:0:0:0:
256,192,172104,1,8,0:0:0:0:
256,192,172261,1,0,0:0:0:0:
256,192,172418,1,0,0:0:0:0:
256,192,172576,1,8,0:0:0:0:
256,192,172733,1,0,0:0:0:0:
256,192,173047,1,8,0:0:0:0:
256,192,173361,1,0,0:0:0:0:
256,192,173518,1,8,0:0:0:0:
256,192,173675,1,0,0:0:0:0:
256,192,173989,1,8,0:0:0:0:
256,192,174146,1,0,0:0:0:0:
256,192,174617,1,8,0:0:0:0:
256,192,174774,1,0,0:0:0:0:
256,192,174932,1,0,0:0:0:0:
256,192,175089,1,8,0:0:0:0:
256,192,175246,1,8,0:0:0:0:
256,192,175403,1,0,0:0:0:0:
256,192,175560,1,8,0:0:0:0:
256,192,175874,1,0,0:0:0:0:
256,192,176031,1,8,0:0:0:0:
256,192,176188,1,0,0:0:0:0:
256,192,176345,1,8,0:0:0:0:
256,192,176502,1,8,0:0:0:0:
256,192,176659,1,0,0:0:0:0:
256,192,176816,1,0,0:0:0:0:
256,192,177130,1,8,0:0:0:0:
256,192,177445,1,0,0:0:0:0:
256,192,177602,1,8,0:0:0:0:
256,192,177759,1,8,0:0:0:0:
256,192,177916,1,0,0:0:0:0:
256,192,178073,1,0,0:0:0:0:
256,192,178387,1,0,0:0:0:0:
256,192,178583,1,12,0:0:0:0:
256,192,178780,1,12,0:0:0:0:
256,192,178976,1,12,0:0:0:0:
256,192,179172,1,0,0:0:0:0:
256,192,179369,1,12,0:0:0:0:
256,192,179565,1,12,0:0:0:0:
256,192,179761,1,12,0:0:0:0:
256,192,179958,1,0,0:0:0:0:
256,192,180036,1,0,0:0:0:0:
256,192,180115,1,0,0:0:0:0:
256,192,180193,1,0,0:0:0:0:
256,192,180272,1,8,0:0:0:0:
256,192,180429,1,8,0:0:0:0:
256,192,180900,1,0,0:0:0:0:
256,192,181214,1,8,0:0:0:0:
256,192,181371,1,0,0:0:0:0:
256,192,181528,1,0,0:0:0:0:
256,192,181685,1,8,0:0:0:0:
256,192,181843,1,0,0:0:0:0:
256,192,182000,1,8,0:0:0:0:
256,192,182314,1,8,0:0:0:0:
256,192,182471,1,8,0:0:0:0:
256,192,182628,1,0,0:0:0:0:
256,192,182785,1,0,0:0:0:0:
256,192,182942,1,8,0:0:0:0:
256,192,183099,1,0,0:0:0:0:
256,192,183413,1,0,0:0:0:0:
256,192,183570,1,8,0:0:0:0:
256,192,183884,1,0,0:0:0:0:
256,192,184041,1,0,0:0:0:0:
256,192,184199,1,8,0:0:0:0:
256,192,184356,1,8,0:0:0:0:
256,192,184670,1,8,0:0:0:0:
256,192,184827,1,0,0:0:0:0:
256,192,185141,1,0,0:0:0:0:
256,192,185298,1,0,0:0:0:0:
256,192,185455,1,8,0:0:0:0:
256,192,185612,1,8,0:0:0:0:
256,192,185691,1,8,0:0:0:0:
256,192,185769,1,8,0:0:0:0:
256,192,185848,1,8,0:0:0:0:
256,192,185926,1,0,0:0:0:0:
256,192,186240,1,8,0:0:0:0:
256,192,186397,1,0,0:0:0:0:
256,192,186555,1,0,0:0:0:0:
256,192,186712,1,8,0:0:0:0:
256,192,187026,1,0,0:0:0:0:
256,192,187183,1,8,0:0:0:0:
256,192,187340,1,8,0:0:0:0:
256,192,187418,1,8,0:0:0:0:
256,192,187497,1,8,0:0:0:0:
256,192,187654,1,8,0:0:0:0:
256,192,187811,1,0,0:0:0:0:
256,192,187968,1,0,0:0:0:0:
256,192,188125,1,8,0:0:0:0:
256,192,188439,1,0,0:0:0:0:
256,192,188596,1,0,0:0:0:0:
256,192,188754,1,8,0:0:0:0:
256,192,188911,1,0,0:0:0:0:
256,192,189068,1,0,0:0:0:0:
256,192,189225,1,8,0:0:0:0:
256,192,189382,1,0,0:0:0:0:
320,128,189539,1,8,0:0:0:0:
256,192,189696,1,0,0:0:0:0:
256,192,189853,1,0,0:0:0:0:
256,192,190010,1,8,0:0:0:0:
256,192,190167,1,8,0:0:0:0:
256,192,190324,1,0,0:0:0:0:
256,192,190638,1,8,0:0:0:0:
256,192,190795,1,0,0:0:0:0:
256,192,190952,1,12,0:0:0:0:
256,192,191267,1,0,0:0:0:0:
256,192,191424,1,8,0:0:0:0:
256,192,191738,1,0,0:0:0:0:
256,192,191895,1,8,0:0:0:0:
256,192,192052,1,0,0:0:0:0:
256,192,192209,1,8,0:0:0:0:
256,192,192366,1,0,0:0:0:0:
256,192,192523,1,0,0:0:0:0:
256,192,192680,1,8,0:0:0:0:
256,192,192837,1,0,0:0:0:0:
256,192,192994,1,8,0:0:0:0:
256,192,193151,1,8,0:0:0:0:
256,192,193466,1,0,0:0:0:0:
288,192,193623,1,0,0:0:0:0:
288,192,193780,1,8,0:0:0:0:
288,192,193937,1,0,0:0:0:0:
288,192,194094,1,0,0:0:0:0:
288,192,194251,1,8,0:0:0:0:
288,192,194565,1,8,0:0:0:0:
288,192,194722,1,8,0:0:0:0:
288,192,194879,1,0,0:0:0:0:
288,192,195036,1,0,0:0:0:0:
288,192,195193,1,8,0:0:0:0:
288,192,195350,1,0,0:0:0:0:
288,192,195507,1,0,0:0:0:0:
288,192,195665,1,8,0:0:0:0:
288,192,195979,1,8,0:0:0:0:
288,192,196136,1,0,0:0:0:0:
288,192,196293,1,8,0:0:0:0:
288,192,196450,1,0,0:0:0:0:
288,192,196607,1,0,0:0:0:0:
288,192,196764,1,8,0:0:0:0:
288,192,196921,1,0,0:0:0:0:
288,192,197078,1,0,0:0:0:0:
288,192,197235,1,8,0:0:0:0:
288,192,197392,1,8,0:0:0:0:
288,192,197549,1,0,0:0:0:0:
288,192,197706,1,8,0:0:0:0:
288,192,197863,1,0,0:0:0:0:
288,192,198178,1,8,0:0:0:0:
288,192,198335,1,0,0:0:0:0:
256,192,198492,1,0,0:0:0:0:
288,192,198649,1,0,0:0:0:0:
256,192,198806,1,8,0:0:0:0:
288,192,198963,1,8,0:0:0:0:
288,192,199120,1,0,0:0:0:0:
288,192,199277,1,8,0:0:0:0:
288,192,199434,1,8,0:0:0:0:
288,192,199591,1,0,0:0:0:0:
288,192,199748,1,8,0:0:0:0:
256,192,199905,1,0,0:0:0:0:
288,192,199958,1,8,0:0:0:0:
256,192,200062,1,0,0:0:0:0:
256,192,200167,1,8,0:0:0:0:
288,192,200377,1,0,0:0:0:0:
288,192,200586,1,8,0:0:0:0:
288,192,200691,1,0,0:0:0:0:
288,192,200795,1,8,0:0:0:0:
288,192,200900,1,8,0:0:0:0:
288,192,201005,1,0,0:0:0:0:
288,192,201319,1,0,0:0:0:0:
288,192,201633,1,0,0:0:0:0:
288,192,201947,1,0,0:0:0:0:
288,192,202261,1,0,0:0:0:0:
288,192,202576,1,0,0:0:0:0:
288,192,202890,1,0,0:0:0:0:
288,192,203204,1,0,0:0:0:0:
288,192,203518,1,0,0:0:0:0:
288,192,203832,1,0,0:0:0:0:
288,192,204146,1,0,0:0:0:0:
288,192,204460,1,0,0:0:0:0:
288,192,204774,1,0,0:0:0:0:
288,192,205089,1,0,0:0:0:0:
288,192,205403,1,0,0:0:0:0:
288,192,205717,1,0,0:0:0:0:
288,192,206031,1,8,0:0:0:0:
288,192,206345,1,8,0:0:0:0:
288,192,206659,1,8,0:0:0:0:
288,192,206973,1,8,0:0:0:0:
288,192,207288,1,8,0:0:0:0:
288,192,207602,1,8,0:0:0:0:
288,192,207916,1,8,0:0:0:0:
288,192,208230,1,8,0:0:0:0:
288,192,208544,1,8,0:0:0:0:
288,192,208858,1,8,0:0:0:0:
288,192,209172,1,8,0:0:0:0:
288,192,209487,1,8,0:0:0:0:
288,192,209801,1,8,0:0:0:0:
288,192,210115,1,8,0:0:0:0:
288,192,210743,1,8,0:0:0:0:
288,192,211057,1,0,0:0:0:0:
288,192,211371,1,8,0:0:0:0:
288,192,211685,1,8,0:0:0:0:
288,192,212000,1,8,0:0:0:0:
288,192,212157,1,0,0:0:0:0:
288,192,212785,1,0,0:0:0:0:
288,192,212942,1,8,0:0:0:0:
256,192,213099,1,8,0:0:0:0:
256,192,213256,1,0,0:0:0:0:
288,192,213570,1,8,0:0:0:0:
320,224,213884,1,8,0:0:0:0:
320,224,214199,1,8,0:0:0:0:
288,192,214513,1,8,0:0:0:0:
288,192,214670,1,0,0:0:0:0:
288,192,215298,1,8,0:0:0:0:
288,192,215455,1,0,0:0:0:0:
288,192,215612,1,8,0:0:0:0:
288,192,215769,1,8,0:0:0:0:
288,192,215926,1,0,0:0:0:0:
288,192,216083,1,8,0:0:0:0:
288,192,216397,1,8,0:0:0:0:
288,192,216712,1,8,0:0:0:0:
288,192,217026,1,0,0:0:0:0:
288,192,217183,1,8,0:0:0:0:
288,192,217497,1,8,0:0:0:0:
288,192,217654,1,0,0:0:0:0:
288,192,217811,1,0,0:0:0:0:
288,192,217968,1,8,0:0:0:0:
288,192,218282,1,8,0:0:0:0:
288,192,218596,1,12,0:0:0:0:
288,192,218754,1,0,0:0:0:0:
288,192,218911,1,0,0:0:0:0:
288,192,219068,1,12,0:0:0:0:
288,192,219225,1,0,0:0:0:0:
288,192,219382,1,0,0:0:0:0:
288,192,219539,1,12,0:0:0:0:
288,192,219696,1,0,0:0:0:0:
288,192,219853,1,12,0:0:0:0:
288,192,220010,1,0,0:0:0:0:
288,192,220167,1,0,0:0:0:0:
288,192,220324,1,12,0:0:0:0:
288,192,220481,1,0,0:0:0:0:
288,192,220638,1,0,0:0:0:0:
288,192,220795,1,12,0:0:0:0:
288,192,220952,1,0,0:0:0:0:
288,192,221110,1,12,0:0:0:0:
288,192,221267,1,0,0:0:0:0:
288,192,221424,1,0,0:0:0:0:
288,192,221581,1,12,0:0:0:0:
288,192,221738,1,0,0:0:0:0:
288,192,221895,1,0,0:0:0:0:
288,192,222052,1,12,0:0:0:0:
288,192,222209,1,0,0:0:0:0:
288,192,222366,1,12,0:0:0:0:
288,192,222523,1,0,0:0:0:0:
288,192,222680,1,0,0:0:0:0:
288,192,222837,1,12,0:0:0:0:
288,192,222994,1,0,0:0:0:0:
288,192,223151,1,0,0:0:0:0:
288,192,223308,1,8,0:0:0:0:
288,192,223466,1,0,0:0:0:0:
288,192,223623,1,8,0:0:0:0:
288,192,223701,1,0,0:0:0:0:
288,192,223780,1,0,0:0:0:0:
288,192,223858,1,0,0:0:0:0:
288,192,223937,1,8,0:0:0:0:
288,192,224015,1,0,0:0:0:0:
288,192,224094,1,0,0:0:0:0:
288,192,224172,1,0,0:0:0:0:
288,192,224251,1,8,0:0:0:0:
288,192,224329,1,0,0:0:0:0:
288,192,224408,1,8,0:0:0:0:
288,192,224487,1,8,0:0:0:0:
288,192,224565,1,0,0:0:0:0:
288,192,224644,1,0,0:0:0:0:
288,192,224722,1,0,0:0:0:0:
288,192,224801,1,0,0:0:0:0:
288,192,224879,1,8,0:0:0:0:
288,192,225665,1,0,0:0:0:0:
288,192,225822,1,12,0:0:0:0:
288,192,226136,1,4,0:0:0:0:
320,192,226293,1,8,0:0:0:0:
288,192,226450,1,8,0:0:0:0:
288,192,226528,1,0,0:0:0:0:
256,192,226607,1,0,0:0:0:0:
256,192,226685,1,0,0:0:0:0:
256,192,226764,1,8,0:0:0:0:
288,192,226921,1,0,0:0:0:0:
288,192,227078,1,8,0:0:0:0:
288,192,227235,1,0,0:0:0:0:
256,192,227314,1,0,0:0:0:0:
320,192,227392,1,8,0:0:0:0:
320,192,227549,1,0,0:0:0:0:
288,192,227706,1,8,0:0:0:0:
256,192,227863,1,8,0:0:0:0:
288,192,227942,1,8,0:0:0:0:
256,192,228021,1,0,0:0:0:0:
288,192,228178,1,0,0:0:0:0:
256,192,228256,1,0,0:0:0:0:
288,192,228335,1,8,0:0:0:0:
256,192,228492,1,8,0:0:0:0:
256,192,228570,1,8,0:0:0:0:
256,192,228649,1,8,0:0:0:0:
224,224,228806,1,0,0:0:0:0:
224,224,228963,1,8,0:0:0:0:
256,192,229120,1,0,0:0:0:0:
256,192,229199,1,0,0:0:0:0:
256,192,229277,1,8,0:0:0:0:
256,192,229356,1,0,0:0:0:0:
224,224,229434,1,0,0:0:0:0:
256,192,229513,1,0,0:0:0:0:
224,224,229591,1,8,0:0:0:0:
320,192,229748,1,8,0:0:0:0:
320,192,229827,1,0,0:0:0:0:
320,192,229905,1,8,0:0:0:0:
224,224,230062,1,0,0:0:0:0:
224,224,230219,1,8,0:0:0:0:
224,224,230377,1,8,0:0:0:0:
224,224,230455,1,8,0:0:0:0:
224,224,230534,1,0,0:0:0:0:
256,192,230612,1,0,0:0:0:0:
224,224,230691,1,0,0:0:0:0:
256,192,230769,1,0,0:0:0:0:
224,224,230848,1,8,0:0:0:0:
224,224,231005,1,8,0:0:0:0:
224,224,231162,1,0,0:0:0:0:
256,192,231240,1,0,0:0:0:0:
256,192,231319,1,8,0:0:0:0:
224,224,231397,1,0,0:0:0:0:
224,224,231476,1,0,0:0:0:0:
256,192,231633,1,0,0:0:0:0:
224,224,231712,1,8,0:0:0:0:
256,192,231790,1,8,0:0:0:0:
224,224,231947,1,0,0:0:0:0:
224,224,232104,1,12,0:0:0:0:
256,192,232261,1,0,0:0:0:0:
224,224,232340,1,0,0:0:0:0:
256,192,232418,1,8,0:0:0:0:
320,224,232497,1,0,0:0:0:0:
224,224,232576,1,0,0:0:0:0:
320,192,232654,1,0,0:0:0:0:
224,224,232733,1,8,0:0:0:0:
320,224,232890,1,8,0:0:0:0:
320,192,232968,1,8,0:0:0:0:
320,224,233047,1,0,0:0:0:0:
224,224,233204,1,0,0:0:0:0:
224,224,233361,1,8,0:0:0:0:
320,224,233518,1,0,0:0:0:0:
320,192,233596,1,8,0:0:0:0:
320,224,233675,1,8,0:0:0:0:
224,224,233832,1,0,0:0:0:0:
224,224,233989,1,8,0:0:0:0:
320,192,234146,1,8,0:0:0:0:
224,224,234225,1,0,0:0:0:0:
320,224,234303,1,0,0:0:0:0:
224,224,234382,1,8,0:0:0:0:
320,192,234460,1,0,0:0:0:0:
224,224,234539,1,0,0:0:0:0:
224,224,234617,1,8,0:0:0:0:
224,224,234774,1,8,0:0:0:0:
224,224,234853,1,0,0:0:0:0:
224,224,234932,1,8,0:0:0:0:
224,224,235089,1,0,0:0:0:0:
224,224,235246,1,8,0:0:0:0:
320,192,235403,1,8,0:0:0:0:
224,224,235481,1,0,0:0:0:0:
224,224,235560,1,0,0:0:0:0:
224,224,235638,1,0,0:0:0:0:
224,224,235717,1,8,0:0:0:0:
224,224,235795,1,0,0:0:0:0:
224,224,235874,1,8,0:0:0:0:
224,224,236031,1,8,0:0:0:0:
224,224,236188,1,0,0:0:0:0:
320,224,236345,1,0,0:0:0:0:
224,224,236424,1,0,0:0:0:0:
320,224,236502,1,8,0:0:0:0:
224,224,236659,1,8,0:0:0:0:
320,192,236738,1,0,0:0:0:0:
320,224,236816,1,0,0:0:0:0:
224,224,236895,1,8,0:0:0:0:
224,224,236973,1,8,0:0:0:0:
224,224,237052,1,8,0:0:0:0:
224,224,237130,1,0,0:0:0:0:
320,224,237288,1,8,0:0:0:0:
320,224,237366,1,8,0:0:0:0:
320,224,237445,1,0,0:0:0:0:
224,224,237602,1,0,0:0:0:0:
224,224,237759,1,8,0:0:0:0:
320,224,237916,1,0,0:0:0:0:
224,224,237994,1,8,0:0:0:0:
320,224,238073,1,0,0:0:0:0:
224,224,238230,1,0,0:0:0:0:
224,224,238387,1,8,0:0:0:0:
224,224,238544,1,8,0:0:0:0:
224,224,238623,1,8,0:0:0:0:
224,224,238701,1,8,0:0:0:0:
224,224,238780,1,0,0:0:0:0:
224,224,238858,1,0,0:0:0:0:
320,224,238937,1,0,0:0:0:0:
224,224,239015,1,8,0:0:0:0:
320,224,239172,1,8,0:0:0:0:
224,224,239251,1,8,0:0:0:0:
320,224,239329,1,0,0:0:0:0:
224,224,239487,1,0,0:0:0:0:
224,224,239644,1,8,0:0:0:0:
224,224,239801,1,8,0:0:0:0:
224,224,239879,1,0,0:0:0:0:
224,224,239958,1,8,0:0:0:0:
224,224,240115,1,0,0:0:0:0:
224,224,240272,1,8,0:0:0:0:
224,224,240429,1,8,0:0:0:0:
224,224,240507,1,8,0:0:0:0:
224,224,240586,1,0,0:0:0:0:
224,224,240743,1,0,0:0:0:0:
224,224,240900,1,8,0:0:0:0:
224,224,241057,1,8,0:0:0:0:
224,224,241136,1,8,0:0:0:0:
224,224,241214,1,0,0:0:0:0:
224,224,241293,1,0,0:0:0:0:
224,224,241371,1,8,0:0:0:0:
224,224,241528,1,0,0:0:0:0:
320,224,241685,1,0,0:0:0:0:
224,224,241764,1,0,0:0:0:0:
320,224,241843,1,8,0:0:0:0:
224,224,242000,1,0,0:0:0:0:
224,224,242157,1,8,0:0:0:0:
320,224,242314,1,8,0:0:0:0:
224,224,242392,1,8,0:0:0:0:
320,224,242471,1,0,0:0:0:0:
224,224,242628,1,0,0:0:0:0:
224,224,242785,1,8,0:0:0:0:
320,224,242942,1,0,0:0:0:0:
224,224,243021,1,0,0:0:0:0:
320,192,243099,1,8,0:0:0:0:
224,224,243178,1,0,0:0:0:0:
320,192,243256,1,0,0:0:0:0:
224,224,243335,1,0,0:0:0:0:
224,224,243413,1,8,0:0:0:0:
224,224,243570,1,8,0:0:0:0:
224,224,243727,1,0,0:0:0:0:
224,224,244041,1,12,0:0:0:0:
288,96,244199,1,8,0:0:0:0:
288,96,244277,1,8,0:0:0:0:
288,96,244356,1,0,0:0:0:0:
320,192,244513,1,0,0:0:0:0:
320,192,244591,1,0,0:0:0:0:
224,224,244670,1,8,0:0:0:0:
288,96,244827,1,0,0:0:0:0:
224,224,244905,1,8,0:0:0:0:
288,96,244984,1,8,0:0:0:0:
224,224,245141,1,0,0:0:0:0:
224,224,245298,1,8,0:0:0:0:
288,96,245455,1,8,0:0:0:0:
320,192,245534,1,0,0:0:0:0:
288,96,245612,1,0,0:0:0:0:
288,96,245691,1,0,0:0:0:0:
224,224,245769,1,8,0:0:0:0:
224,224,245926,1,8,0:0:0:0:
288,96,246083,1,0,0:0:0:0:
224,224,246162,1,8,0:0:0:0:
288,96,246240,1,8,0:0:0:0:
224,224,246319,1,8,0:0:0:0:
224,224,246397,1,0,0:0:0:0:
224,224,246476,1,0,0:0:0:0:
224,224,246555,1,8,0:0:0:0:
288,96,246712,1,8,0:0:0:0:
288,96,246790,1,8,0:0:0:0:
288,96,246869,1,0,0:0:0:0:
224,224,247026,1,0,0:0:0:0:
224,224,247183,1,8,0:0:0:0:
224,224,247340,1,8,0:0:0:0:
224,224,247418,1,0,0:0:0:0:
224,224,247497,1,8,0:0:0:0:
224,224,247654,1,0,0:0:0:0:
224,224,247811,1,8,0:0:0:0:
224,224,247968,1,8,0:0:0:0:
320,192,248047,1,8,0:0:0:0:
224,224,248125,1,0,0:0:0:0:
224,224,248204,1,8,0:0:0:0:
224,224,248282,1,0,0:0:0:0:
288,96,248361,1,0,0:0:0:0:
224,224,248439,1,8,0:0:0:0:
224,224,248596,1,8,0:0:0:0:
224,224,248754,1,0,0:0:0:0:
224,224,248911,1,0,0:0:0:0:
224,224,249068,1,0,0:0:0:0:
224,224,249225,1,0,0:0:0:0:
224,224,249382,1,0,0:0:0:0:
224,224,249460,1,0,0:0:0:0:
224,224,249539,1,0,0:0:0:0:
224,224,249617,1,0,0:0:0:0:
224,224,249696,1,8,0:0:0:0:
288,96,249853,1,0,0:0:0:0:
224,224,249932,1,8,0:0:0:0:
288,96,250010,1,8,0:0:0:0:
224,224,250167,1,0,0:0:0:0:
224,224,250324,1,8,0:0:0:0:
288,96,250481,1,0,0:0:0:0:
224,192,250560,1,8,0:0:0:0:
288,96,250638,1,8,0:0:0:0:
224,224,250795,1,0,0:0:0:0:
224,224,250952,1,8,0:0:0:0:
288,96,251110,1,8,0:0:0:0:
224,192,251188,1,8,0:0:0:0:
288,96,251267,1,0,0:0:0:0:
224,224,251424,1,0,0:0:0:0:
224,224,251581,1,8,0:0:0:0:
288,96,251738,1,0,0:0:0:0:
224,192,251816,1,8,0:0:0:0:
288,96,251895,1,8,0:0:0:0:
224,224,252052,1,0,0:0:0:0:
224,224,252209,1,8,0:0:0:0:
224,224,252366,1,8,0:0:0:0:
224,224,252445,1,0,0:0:0:0:
224,224,252523,1,8,0:0:0:0:
224,224,252680,1,0,0:0:0:0:
224,224,252837,1,8,0:0:0:0:
288,96,252994,1,0,0:0:0:0:
224,224,253073,1,0,0:0:0:0:
224,224,253151,1,8,0:0:0:0:
224,224,253230,1,8,0:0:0:0:
224,224,253308,1,0,0:0:0:0:
224,224,253387,1,0,0:0:0:0:
224,224,253466,1,8,0:0:0:0:
224,224,253623,1,0,0:0:0:0:
288,96,253701,1,8,0:0:0:0:
224,224,253780,1,0,0:0:0:0:
288,96,253937,1,0,0:0:0:0:
224,224,254094,1,8,0:0:0:0:
288,96,254251,1,8,0:0:0:0:
224,224,254329,1,8,0:0:0:0:
288,96,254408,1,0,0:0:0:0:
224,224,254565,1,0,0:0:0:0:
224,224,254722,1,8,0:0:0:0:
288,96,254879,1,0,0:0:0:0:
224,224,254958,1,8,0:0:0:0:
288,96,255036,1,8,0:0:0:0:
224,224,255193,1,0,0:0:0:0:
224,224,255350,1,8,0:0:0:0:
224,224,255507,1,8,0:0:0:0:
224,224,255586,1,0,0:0:0:0:
224,224,255665,1,8,0:0:0:0:
224,224,255743,1,8,0:0:0:0:
224,224,255822,1,0,0:0:0:0:
224,224,255900,1,0,0:0:0:0:
224,224,255979,1,8,0:0:0:0:
224,224,256136,1,8,0:0:0:0:
224,224,256293,1,8,0:0:0:0:
288,96,256371,1,8,0:0:0:0:
224,224,256450,1,0,0:0:0:0:
288,96,256528,1,0,0:0:0:0:
288,96,256607,1,8,0:0:0:0:
288,96,256685,1,8,0:0:0:0:
288,96,256764,1,8,0:0:0:0:
288,96,256921,1,8,0:0:0:0:
288,96,257000,1,8,0:0:0:0:
224,224,257078,1,0,0:0:0:0:
224,224,257235,1,8,0:0:0:0:
224,224,257392,1,8,0:0:0:0:
224,224,257471,1,0,0:0:0:0:
224,224,257549,1,8,0:0:0:0:
224,224,257706,1,0,0:0:0:0:
224,224,257785,1,0,0:0:0:0:
224,224,257863,1,8,0:0:0:0:
224,224,258021,1,8,0:0:0:0:
224,224,258099,1,8,0:0:0:0:
224,224,258178,1,0,0:0:0:0:
224,224,258256,1,0,0:0:0:0:
224,224,258335,1,0,0:0:0:0:
224,224,258492,1,8,0:0:0:0:
224,224,258649,1,0,0:0:0:0:
224,224,258727,1,0,0:0:0:0:
224,224,258806,1,8,0:0:0:0:
224,224,258963,1,0,0:0:0:0:
224,224,259120,1,8,0:0:0:0:
224,224,259277,1,0,0:0:0:0:
224,224,259434,1,8,0:0:0:0:
224,224,259591,1,0,0:0:0:0:
224,224,259748,1,8,0:0:0:0:
224,224,259905,1,0,0:0:0:0:
224,224,259984,1,0,0:0:0:0:
224,224,260062,1,8,0:0:0:0:
224,224,260219,1,0,0:0:0:0:
224,224,260377,1,8,0:0:0:0:
224,224,260534,1,0,0:0:0:0:
224,224,260691,1,8,0:0:0:0:
224,224,260848,1,0,0:0:0:0:
224,224,261005,1,8,0:0:0:0:
224,224,261162,1,0,0:0:0:0:
224,224,261319,1,8,0:0:0:0:
224,224,261397,1,0,0:0:0:0:
224,224,261476,1,0,0:0:0:0:
224,224,261555,1,0,0:0:0:0:
224,224,261633,1,8,0:0:0:0:
224,224,261712,1,0,0:0:0:0:
224,224,261790,1,0,0:0:0:0:
288,96,261869,1,0,0:0:0:0:
288,96,261947,1,8,0:0:0:0:
224,224,262026,1,8,0:0:0:0:
224,224,262104,1,0,0:0:0:0:
224,224,262183,1,0,0:0:0:0:
224,224,262261,1,8,0:0:0:0:
224,224,262340,1,0,0:0:0:0:
224,224,262418,1,0,0:0:0:0:
224,224,262497,1,0,0:0:0:0:
224,224,262576,1,8,0:0:0:0:
224,224,263518,1,12,0:0:0:0:
224,224,263832,1,0,0:0:0:0:
224,224,263989,1,8,0:0:0:0:
224,224,264068,1,8,0:0:0:0:
224,224,264146,1,0,0:0:0:0:
224,224,264303,1,8,0:0:0:0:
224,224,264460,1,8,0:0:0:0:
224,224,264617,1,0,0:0:0:0:
224,224,264774,1,8,0:0:0:0:
224,224,264932,1,8,0:0:0:0:
224,224,265089,1,8,0:0:0:0:
224,224,265246,1,0,0:0:0:0:
224,224,265403,1,8,0:0:0:0:
224,224,265560,1,8,0:0:0:0:
224,224,265638,1,8,0:0:0:0:
224,224,265717,1,0,0:0:0:0:
224,224,265795,1,0,0:0:0:0:
224,224,265874,1,8,0:0:0:0:
224,224,266031,1,0,0:0:0:0:
224,224,266188,1,8,0:0:0:0:
224,224,266267,1,0,0:0:0:0:
224,224,266345,1,0,0:0:0:0:
224,224,266502,1,0,0:0:0:0:
224,224,266659,1,8,0:0:0:0:
224,224,266816,1,8,0:0:0:0:
224,224,266895,1,8,0:0:0:0:
224,224,266973,1,0,0:0:0:0:
224,224,267130,1,0,0:0:0:0:
224,224,267288,1,8,0:0:0:0:
224,224,267445,1,8,0:0:0:0:
224,224,267523,1,0,0:0:0:0:
224,224,267602,1,8,0:0:0:0:
224,224,267759,1,0,0:0:0:0:
224,224,267837,1,0,0:0:0:0:
224,224,267916,1,8,0:0:0:0:
224,224,268073,1,8,0:0:0:0:
224,224,268151,1,8,0:0:0:0:
224,224,268230,1,0,0:0:0:0:
224,224,268308,1,0,0:0:0:0:
224,224,268387,1,8,0:0:0:0:
224,224,268466,1,8,0:0:0:0:
224,224,268544,1,0,0:0:0:0:
224,224,268701,1,8,0:0:0:0:
224,224,268858,1,0,0:0:0:0:
224,224,269015,1,8,0:0:0:0:
224,224,269094,1,8,0:0:0:0:
224,224,269172,1,0,0:0:0:0:
224,224,269329,1,0,0:0:0:0:
224,224,269408,1,8,0:0:0:0:
224,224,269487,1,8,0:0:0:0:
224,224,269565,1,8,0:0:0:0:
224,224,269644,1,0,0:0:0:0:
224,224,269801,1,8,0:0:0:0:
224,224,269958,1,8,0:0:0:0:
224,224,270036,1,0,0:0:0:0:
224,224,270115,1,0,0:0:0:0:
224,224,270272,1,0,0:0:0:0:
224,224,270429,1,8,0:0:0:0:
224,224,270586,1,8,0:0:0:0:
224,224,270665,1,8,0:0:0:0:
224,224,270743,1,0,0:0:0:0:
224,224,270822,1,0,0:0:0:0:
224,224,270900,1,8,0:0:0:0:
224,224,270979,1,0,0:0:0:0:
224,224,271057,1,8,0:0:0:0:
224,224,271214,1,8,0:0:0:0:
224,224,271293,1,0,0:0:0:0:
224,224,271371,1,8,0:0:0:0:
224,224,271450,1,8,0:0:0:0:
224,224,271528,1,0,0:0:0:0:
224,224,271685,1,8,0:0:0:0:
224,224,271843,1,8,0:0:0:0:
224,224,271921,1,0,0:0:0:0:
224,224,272000,1,0,0:0:0:0:
224,224,272157,1,0,0:0:0:0:
224,224,272314,1,8,0:0:0:0:
224,224,272471,1,8,0:0:0:0:
224,224,272549,1,0,0:0:0:0:
224,224,272628,1,8,0:0:0:0:
224,224,272785,1,0,0:0:0:0:
224,224,272942,1,8,0:0:0:0:
224,224,273099,1,8,0:0:0:0:
224,224,273178,1,8,0:0:0:0:
224,224,273256,1,0,0:0:0:0:
224,224,273335,1,0,0:0:0:0:
224,224,273413,1,0,0:0:0:0:
288,96,273492,1,0,0:0:0:0:
224,224,273570,1,8,0:0:0:0:
224,224,273727,1,8,0:0:0:0:
224,224,273884,1,0,0:0:0:0:
224,224,274041,1,0,0:0:0:0:
224,224,274120,1,0,0:0:0:0:
224,224,274199,1,8,0:0:0:0:
224,224,274356,1,8,0:0:0:0:
224,224,274434,1,0,0:0:0:0:
224,224,274513,1,8,0:0:0:0:
224,224,274591,1,8,0:0:0:0:
224,224,274670,1,0,0:0:0:0:
224,224,274748,1,0,0:0:0:0:
224,224,274827,1,8,0:0:0:0:
224,224,274984,1,8,0:0:0:0:
224,224,275062,1,0,0:0:0:0:
224,224,275141,1,0,0:0:0:0:
224,224,275298,1,0,0:0:0:0:
224,224,275455,1,8,0:0:0:0:
224,224,275612,1,8,0:0:0:0:
224,224,275691,1,8,0:0:0:0:
224,224,275769,1,0,0:0:0:0:
224,224,275848,1,0,0:0:0:0:
224,224,275926,1,0,0:0:0:0:
224,224,276005,1,0,0:0:0:0:
224,224,276083,1,8,0:0:0:0:
224,224,276240,1,8,0:0:0:0:
224,224,276319,1,0,0:0:0:0:
224,224,276397,1,0,0:0:0:0:
224,224,276555,1,0,0:0:0:0:
224,224,276712,1,8,0:0:0:0:
224,224,276869,1,8,0:0:0:0:
224,224,276947,1,8,0:0:0:0:
224,224,277026,1,0,0:0:0:0:
224,224,277183,1,0,0:0:0:0:
224,224,277340,1,8,0:0:0:0:
224,224,277497,1,8,0:0:0:0:
224,224,277576,1,0,0:0:0:0:
224,224,277654,1,8,0:0:0:0:
224,224,277811,1,0,0:0:0:0:
224,224,277968,1,8,0:0:0:0:
288,96,278047,1,0,0:0:0:0:
288,96,278125,1,8,0:0:0:0:
224,224,278204,1,8,0:0:0:0:
224,224,278282,1,0,0:0:0:0:
224,224,278439,1,0,0:0:0:0:
224,224,278596,1,8,0:0:0:0:
224,224,278675,1,8,0:0:0:0:
224,224,278754,1,0,0:0:0:0:
224,224,278832,1,0,0:0:0:0:
224,224,278911,1,8,0:0:0:0:
224,224,279068,1,0,0:0:0:0:
224,224,279225,1,8,0:0:0:0:
224,224,279382,1,0,0:0:0:0:
224,224,279539,1,8,0:0:0:0:
224,224,279696,1,0,0:0:0:0:
224,224,279853,1,8,0:0:0:0:
224,224,280010,1,0,0:0:0:0:
224,224,280089,1,0,0:0:0:0:
224,224,280167,1,8,0:0:0:0:
224,224,280324,1,0,0:0:0:0:
224,224,280481,1,8,0:0:0:0:
224,224,280638,1,0,0:0:0:0:
224,224,280795,1,8,0:0:0:0:
224,224,280952,1,0,0:0:0:0:
224,224,281110,1,8,0:0:0:0:
224,224,281267,1,0,0:0:0:0:
224,224,281424,1,8,0:0:0:0:
224,224,281502,1,0,0:0:0:0:
224,224,281581,1,0,0:0:0:0:
224,224,281659,1,0,0:0:0:0:
224,224,281738,1,8,0:0:0:0:
224,224,281816,1,0,0:0:0:0:
224,224,281895,1,0,0:0:0:0:
256,96,281973,1,0,0:0:0:0:
224,224,282052,1,8,0:0:0:0:
224,224,282130,1,8,0:0:0:0:
224,224,282209,1,0,0:0:0:0:
224,224,282288,1,0,0:0:0:0:
224,224,282366,1,8,0:0:0:0:
224,224,282445,1,0,0:0:0:0:
224,256,282523,1,0,0:0:0:0:
256,96,282602,1,0,0:0:0:0:
224,224,282680,1,8,0:0:0:0:
224,224,282759,1,8,0:0:0:0:
224,224,282837,1,0,0:0:0:0:
224,224,282916,1,0,0:0:0:0:
224,224,282994,1,8,0:0:0:0:
224,224,283073,1,0,0:0:0:0:
224,224,283151,1,0,0:0:0:0:
224,224,283230,1,0,0:0:0:0:
224,224,283308,1,8,0:0:0:0:
32,128,283413,1,0,0:0:0:0:
160,96,283518,1,0,0:0:0:0:
160,96,283623,1,8,0:0:0:0:
224,224,283780,1,8,0:0:0:0:
256,96,283937,1,0,0:0:0:0:
224,224,284251,1,8,0:0:0:0:
224,224,284408,1,0,0:0:0:0:
224,224,284565,1,0,0:0:0:0:
224,224,284722,1,8,0:0:0:0:
224,224,285036,1,8,0:0:0:0:
224,224,285193,1,0,0:0:0:0:
224,224,285350,1,8,0:0:0:0:
224,224,285665,1,8,0:0:0:0:
224,224,285822,1,0,0:0:0:0:
224,224,285979,1,8,0:0:0:0:
224,224,286136,1,8,0:0:0:0:
224,224,286450,1,0,0:0:0:0:
224,224,286764,1,8,0:0:0:0:
224,224,286921,1,0,0:0:0:0:
224,224,287078,1,0,0:0:0:0:
224,224,287235,1,8,0:0:0:0:
224,224,287549,1,8,0:0:0:0:
224,224,287706,1,0,0:0:0:0:
224,224,287863,1,8,0:0:0:0:
224,224,288178,1,8,0:0:0:0:
224,224,288335,1,0,0:0:0:0:
224,224,288492,1,8,0:0:0:0:
224,224,288649,1,8,0:0:0:0:
352,128,288727,1,8,0:0:0:0:
352,128,288806,1,8,0:0:0:0:
352,128,288884,1,8,0:0:0:0:
352,128,288963,1,0,0:0:0:0:
352,128,289277,1,0,0:0:0:0:
352,128,289434,1,8,0:0:0:0:
352,128,289591,1,8,0:0:0:0:
352,128,289748,1,0,0:0:0:0:
352,128,290062,1,0,0:0:0:0:
224,224,290219,1,8,0:0:0:0:
352,128,290377,1,0,0:0:0:0:
352,128,290691,1,0,0:0:0:0:
352,128,290848,1,8,0:0:0:0:
352,128,291005,1,0,0:0:0:0:
352,128,291162,1,0,0:0:0:0:
352,128,291476,1,0,0:0:0:0:
256,128,291633,1,0,0:0:0:0:
352,128,291790,1,8,0:0:0:0:
352,128,291947,1,8,0:0:0:0:
352,128,292261,1,0,0:0:0:0:
224,224,292418,1,8,0:0:0:0:
352,128,292576,1,0,0:0:0:0:
352,128,292890,1,8,0:0:0:0:
352,128,293047,1,0,0:0:0:0:
256,96,293204,1,8,0:0:0:0:
352,128,293518,1,8,0:0:0:0:
352,128,293675,1,0,0:0:0:0:
352,128,293989,1,8,0:0:0:0:
352,128,294303,1,8,0:0:0:0:
352,128,294460,1,0,0:0:0:0:
352,128,294617,1,0,0:0:0:0:
352,128,294774,1,8,0:0:0:0:
352,128,295089,1,8,0:0:0:0:
224,224,295246,1,0,0:0:0:0:
352,128,295403,1,8,0:0:0:0:
352,128,295717,1,0,0:0:0:0:
352,128,295874,1,8,0:0:0:0:
352,128,296031,1,0,0:0:0:0:
352,128,296188,1,0,0:0:0:0:
352,128,296502,1,0,0:0:0:0:
352,128,296659,1,0,0:0:0:0:
352,128,296816,1,8,0:0:0:0:
352,128,296973,1,8,0:0:0:0:
224,224,297288,1,8,0:0:0:0:
224,224,297445,1,0,0:0:0:0:
224,224,297602,1,8,0:0:0:0:
352,128,297916,1,0,0:0:0:0:
352,128,298073,1,8,0:0:0:0:
352,128,298230,1,0,0:0:0:0:
224,224,298387,1,8,0:0:0:0:
352,128,298544,1,0,0:0:0:0:
352,128,298623,1,8,0:0:0:0:
352,128,298701,1,8,0:0:0:0:
352,128,298780,1,8,0:0:0:0:
352,128,298858,1,0,0:0:0:0:
352,128,298937,1,0,0:0:0:0:
352,128,299015,1,8,0:0:0:0:
352,128,299329,1,8,0:0:0:0:
352,128,299487,1,0,0:0:0:0:
352,128,299644,1,0,0:0:0:0:
352,128,299801,1,8,0:0:0:0:
352,128,300115,1,8,0:0:0:0:
224,224,300272,1,0,0:0:0:0:
352,128,300429,1,8,0:0:0:0:
352,128,300743,1,0,0:0:0:0:
352,128,300900,1,8,0:0:0:0:
352,128,301057,1,0,0:0:0:0:
352,128,301214,1,0,0:0:0:0:
352,128,301293,1,0,0:0:0:0:
352,128,301371,1,0,0:0:0:0:
352,128,301450,1,0,0:0:0:0:
352,128,301528,1,8,0:0:0:0:
352,128,301843,1,8,0:0:0:0:
256,128,302000,1,0,0:0:0:0:
256,128,302157,1,0,0:0:0:0:
256,128,302314,1,8,0:0:0:0:
352,128,302628,1,0,0:0:0:0:
224,224,302785,1,8,0:0:0:0:
352,128,302942,1,8,0:0:0:0:
352,128,303099,1,0,0:0:0:0:
288,192,303256,1,8,0:0:0:0:
288,192,303413,1,0,0:0:0:0:
352,128,303570,1,8,0:0:0:0:
288,192,303727,1,8,0:0:0:0:
256,192,303884,1,0,0:0:0:0:
256,192,304041,12,0,314408,0:0:0:0:
