osu file format v14

[General]
AudioFilename: kairos.mp3
AudioLeadIn: 0
PreviewTime: 122080
Countdown: 0
SampleSet: Soft
StackLeniency: 0.2
Mode: 0
LetterboxInBreaks: 0
EpilepsyWarning: 1
WidescreenStoryboard: 1

[Editor]
Bookmarks: 7563,37636,47688,57741,77845,97950,121825,140673,160777,200987,224861,243709,263814,283919,293971,304023
DistanceSpacing: 0.2
BeatDivisor: 3
GridSize: 32
TimelineZoom: 4.000004

[Metadata]
Title:chrono diver -fragment- (Camellia's "crossroads of chrono" remix)
TitleUnicode:chrono diver -fragment- (かめりあ's "crossroads of chrono" remix)
Artist:Camellia
ArtistUnicode:かめりあ
Creator:Sing
Version:Kairos
Source:beatmania IIDX 22 PENDUAL
Tags:Konami BMS ORIGINAL SOUNDTRACK VOL.2 Naoyuki Sato Master+ folk fantasy dubstep healing drum'n'bass dnb marathon collab toybot ProfessionalBox ProBox byfar -Tochi Kalamitious Storyboarder
BeatmapID:1122874
BeatmapSetID:419600

[Difficulty]
HPDrainRate:5.5
CircleSize:4
OverallDifficulty:8.8
ApproachRate:9.5
SliderMultiplier:1.9
SliderTickRate:1

[Events]
//Background and Video events
0,0,"chrono.jpg",0,0
//Break Periods
2,201301,205385
//Storyboard Layer 0 (Background)
//Storyboard Layer 1 (Fail)
//Storyboard Layer 2 (Pass)
//Storyboard Layer 3 (Foreground)
//Storyboard Sound Samples

[TimingPoints]
7564,402.684563758389,4,2,1,40,1,8
7966,375,4,2,1,40,1,8
8341,491.803278688525,4,2,1,40,1,8
8832,403.361344537815,4,2,1,40,1,8
8832,-200,4,2,1,40,0,8
10042,372.670807453416,4,2,1,40,1,8
10414,-200,4,2,1,40,0,8
10787,392.156862745098,4,2,1,40,1,8
11179,416.666666666667,4,2,1,40,1,8
11179,-200,4,2,1,40,0,8
11595,508.474576271186,4,2,1,40,1,8
12103,409.556313993174,4,2,1,40,1,8
12103,-200,4,2,1,40,0,8
12922,390.879478827362,4,2,1,40,1,8
13703,397.350993377483,4,2,1,40,1,8
13703,-200,4,2,1,40,0,8
14100,418.118466898955,4,2,1,40,1,0
14518,444.444444444444,4,2,1,40,1,8
14518,-200,4,2,1,40,0,8
14962,415.22491349481,4,2,1,40,1,0
15377,376.175548589342,4,2,1,40,1,8
15753,394.736842105263,4,2,1,40,1,0
16542,453.686200378072,4,2,1,40,1,8
17335,-200,4,2,1,40,0,8
17449,418.118466898955,4,2,1,40,1,8
17867,437.956204379562,4,2,1,40,1,0
18304,475.247524752475,4,2,1,40,1,0
18779,384.615384615385,4,2,1,40,1,8
18779,-200,4,2,1,40,0,8
19548,375,4,2,1,40,1,8
19548,-200,4,2,1,40,0,8
20298,372.670807453416,4,2,1,40,1,0
20670,393.44262295082,4,2,1,40,1,0
21063,397.350993377483,4,2,1,40,1,0
21460,422.535211267606,4,2,1,40,1,0
21882,434.782608695652,4,2,1,40,1,0
23186,397.350993377483,4,2,1,40,1,0
23583,437.956204379562,4,2,1,40,1,0
24020,461.538461538462,4,2,1,40,1,0
24481,454.545454545455,4,2,1,40,1,8
24481,-200,4,2,1,40,0,8
24935,446.096654275093,4,2,1,40,1,0
25381,409.556313993174,4,2,1,40,1,0
26200,404.040404040404,4,2,1,40,1,0
26200,-133.333333333333,4,2,1,40,0,0
26604,402.684563758389,4,2,1,40,1,0
27409,405.405405405405,4,2,1,40,1,0
27409,-133.333333333333,4,2,1,40,0,0
27814,499.375780274657,4,2,1,40,1,8
27814,-200,4,2,1,40,0,8
28313,722.89156626506,4,2,1,40,1,0
29035,576.923076923077,4,2,1,40,1,8
29035,-166.666666666667,4,2,1,40,0,8
30188,501.043841336117,4,2,1,40,1,0
30689,444.444444444444,4,2,1,40,1,0
31133,466.926070038911,4,2,1,40,1,0
31599,474.308300395257,4,2,1,40,1,0
32547,462.42774566474,4,2,1,40,1,0
33009,763.844684914068,4,2,1,40,1,0
36064,295.566502463054,4,2,1,40,1,0
36064,-71.4285714285714,4,2,1,40,0,0
36285,-83.3333333333333,4,2,1,40,0,0
36380,314.13612565445,4,2,1,40,1,0
37479,-125,4,2,1,60,0,0
37636,-250,4,2,1,60,0,0
38107,-125,4,2,1,60,0,0
38736,-125,4,2,1,50,0,0
39835,-250,4,2,1,50,0,0
40149,-83.3333333333333,4,2,1,50,0,0
40463,-250,4,2,1,50,0,0
40934,-125,4,2,1,50,0,0
42976,-250,4,2,1,50,0,0
43448,-125,4,2,1,50,0,0
44861,-250,4,2,1,50,0,0
45175,-83.3333333333333,4,2,1,50,0,0
45489,-250,4,2,1,50,0,0
45961,-125,4,2,1,50,0,0
47374,-250,4,2,1,50,0,0
47688,-125,4,2,1,50,0,0
48003,-250,4,2,1,50,0,0
48474,-125,4,2,1,50,0,0
49887,-250,4,2,1,50,0,0
50201,-83.3333333333333,4,2,1,50,0,0
50516,-250,4,2,1,50,0,0
50987,-125,4,2,1,50,0,0
53029,-250,4,2,1,50,0,0
53500,-125,4,2,1,50,0,0
54914,-250,4,2,1,50,0,0
55228,-83.3333333333333,4,2,1,50,0,0
55542,-250,4,2,1,50,0,0
56013,-125,4,2,2,60,0,0
56327,-125,4,2,2,40,0,0
56641,-125,4,2,2,50,0,0
57741,-166.666666666667,4,2,1,100,0,0
58212,-111.111111111111,4,2,1,100,0,0
59940,-83.3333333333333,4,2,1,100,0,0
60254,-166.666666666667,4,2,1,100,0,0
60725,-111.111111111111,4,2,1,100,0,0
63081,-166.666666666666,4,2,1,100,0,0
63552,-111.111111111111,4,2,1,100,0,0
64809,-83.3333333333333,4,2,1,100,0,0
65280,-166.666666666667,4,2,1,100,0,0
65751,-111.111111111111,4,2,1,100,0,0
69992,-83.3333333333333,4,2,1,100,0,0
70306,-166.666666666667,4,2,1,100,0,0
70777,-111.111111111111,4,2,1,100,0,0
72819,-166.666666666666,4,2,1,100,0,0
73290,-111.111111111111,4,2,1,100,0,0
74861,-83.3333333333333,4,2,1,100,0,0
75332,-111.111111111111,4,2,1,100,0,0
75647,-166.666666666667,4,2,1,100,0,0
76118,-111.111111111111,4,2,1,100,0,0
77217,-100,4,2,1,100,0,0
77453,-100,4,2,1,50,0,0
77531,-100,4,2,1,100,0,0
77845,-133.333333333333,4,2,1,100,0,1
77924,-133.333333333333,4,2,1,100,0,0
95751,-111.111111111111,4,2,1,100,0,0
97950,-125,4,2,1,100,0,1
98029,-125,4,2,1,100,0,0
100777,-100,4,2,2,100,0,0
101720,-125,4,2,2,100,0,0
102505,-166.666666666667,4,2,2,100,0,0
102976,-125,4,2,2,100,0,0
107688,-83.3333333333333,4,2,2,100,0,0
108003,-200,4,2,2,70,0,0
114914,-200,4,2,2,80,0,0
115228,-200,4,2,2,90,0,0
115542,-166.666666666667,4,2,2,50,0,0
116798,-166.666666666667,4,2,2,60,0,0
118055,-166.666666666667,4,2,2,70,0,0
119311,-166.666666666667,4,2,2,80,0,0
120568,-133.333333333333,4,2,2,90,0,0
120725,-133.333333333333,4,2,2,30,0,0
120882,-133.333333333333,4,2,2,40,0,0
121039,-133.333333333333,4,2,2,50,0,0
121196,-133.333333333333,4,2,2,55,0,0
121353,-133.333333333333,4,2,2,60,0,0
121510,-133.333333333333,4,2,2,70,0,0
121667,-133.333333333333,4,2,2,80,0,0
122139,-181.818181818181,4,2,2,60,0,0
122610,-133.333333333333,4,2,2,60,0,0
123081,-100,4,2,1,100,0,1
127793,-76.9230769230769,4,2,1,100,0,1
128107,-100,4,2,1,100,0,1
128736,-83.3333333333333,4,2,1,100,0,1
129992,-100,4,2,1,100,0,1
130620,-90.9090909090909,4,2,1,100,0,1
131877,-90.9090909090909,4,2,2,100,0,1
132505,-100,4,2,2,100,0,1
133133,-100,4,2,1,100,0,1
138160,-100,4,2,2,100,0,1
139416,-80,4,2,2,100,0,1
140673,-100,4,2,1,100,0,1
145699,-125,4,2,2,100,0,1
146013,-125,4,2,2,80,0,1
146327,-125,4,2,2,60,0,1
146641,-166.666666666667,4,2,2,100,0,1
147270,-125,4,2,2,100,0,1
147741,-90.9090909090909,4,2,2,100,0,1
148212,-100,4,2,1,100,0,1
149469,-125,4,2,2,100,0,1
150725,-100,4,2,1,100,0,1
157008,-111.111111111111,4,2,1,100,0,1
157950,-200,4,2,1,100,0,1
158264,-200,4,2,2,100,0,1
158421,-133.333333333333,4,2,2,100,0,1
158736,-100,4,2,2,100,0,1
159050,-90.9090909090909,4,2,2,100,0,1
159521,-200,4,2,2,100,0,0
159835,-200,4,2,2,100,0,0
160463,-200,4,2,2,50,0,0
160777,-200,4,2,2,50,0,0
170830,-166.666666666667,4,2,2,50,0,0
178055,-250,4,2,2,50,0,0
178369,-83.3333333333333,4,2,2,80,0,0
179940,-166.666666666667,4,2,2,80,0,0
180411,-250,4,2,2,80,0,0
180882,-133.333333333333,4,2,1,80,0,0
195647,-83.3333333333333,4,2,1,80,0,0
195961,-250,4,2,1,80,0,0
196432,-200,4,2,1,80,0,0
196589,-200,4,2,1,80,0,0
196746,-200,4,2,1,80,0,0
196903,-166.666666666667,4,2,1,80,0,0
197374,-142.857142857143,4,2,1,80,0,0
197845,-142.857142857143,4,2,1,80,0,0
198474,-142.857142857143,4,2,2,80,0,0
199940,-111.111111111111,4,2,2,80,0,0
211039,-200,4,2,2,40,0,0
217322,-200,4,2,2,50,0,0
217636,-200,4,2,2,60,0,0
217950,-100,4,2,2,70,0,0
218578,-90.9090909090909,4,1,1,50,0,0
219207,-90.9090909090909,4,1,1,45,0,0
219835,-90.9090909090909,4,1,1,40,0,0
222348,-90.9090909090909,4,1,1,45,0,0
222976,-90.9090909090909,4,1,1,50,0,0
223605,-90.9090909090909,4,1,1,55,0,0
224233,-90.9090909090909,4,1,1,60,0,0
224861,-500,4,1,1,80,0,0
225175,-500,4,1,1,70,0,0
225647,-50,4,1,1,70,0,0
225804,-50,4,1,1,70,0,1
226039,-50,4,1,1,70,0,0
226118,-66.6666666666667,4,1,1,70,0,1
226432,-58.8235294117647,4,1,1,70,0,1
226589,-66.6666666666667,4,1,1,70,0,1
227060,-58.8235294117647,4,1,1,70,0,1
227374,-66.6666666666667,4,1,1,70,0,1
228945,-62.5,4,1,1,70,0,1
229102,-58.8235294117647,4,1,1,70,0,1
229259,-55.5555555555556,4,1,1,70,0,1
229573,-52.6315789473684,4,1,1,70,0,1
229809,-55.5555555555556,4,1,1,70,0,1
230044,-58.8235294117647,4,1,1,70,0,1
230201,-50,4,1,1,70,0,1
230516,-55.5555555555556,4,1,1,70,0,1
230673,-62.5,4,1,1,70,0,1
230830,-71.4285714285714,4,1,1,70,0,1
231144,-66.6666666666667,4,1,1,70,0,1
231929,-50,4,1,1,70,0,1
232086,-58.8235294117647,4,1,1,70,0,1
232558,-66.6666666666667,4,1,1,70,0,1
232715,-62.5,4,1,1,70,0,1
232872,-58.8235294117647,4,1,1,70,0,1
233029,-55.5555555555556,4,1,1,70,0,1
233343,-66.6666666666667,4,1,1,70,0,1
235071,-58.8235294117647,4,1,1,70,0,1
235228,-66.6666666666667,4,1,1,70,0,1
235542,-58.8235294117647,4,1,1,70,0,1
235856,-66.6666666666667,4,1,1,70,0,1
236484,-58.8235294117647,4,1,1,70,0,1
236641,-66.6666666666667,4,1,1,70,0,1
237112,-58.8235294117647,4,1,1,70,0,1
237427,-66.6666666666667,4,1,1,70,0,1
238997,-62.5,4,1,1,70,0,1
239154,-58.8235294117647,4,1,1,70,0,1
239311,-55.5555555555556,4,1,1,70,0,1
239626,-52.6315789473684,4,1,1,70,0,1
239861,-55.5555555555556,4,1,1,70,0,1
240097,-58.8235294117647,4,1,1,70,0,1
240254,-50,4,1,1,70,0,1
240568,-55.5555555555556,4,1,1,70,0,1
240725,-62.5,4,1,1,70,0,1
240882,-71.4285714285714,4,1,1,70,0,1
241196,-66.6666666666667,4,1,1,70,0,1
242453,-71.4285714285714,4,1,1,70,0,1
242767,-62.5,4,1,1,70,0,1
243081,-55.5555555555556,4,1,1,70,0,1
243709,-500,4,1,1,60,0,0
244023,-66.6666666666667,4,1,1,70,0,1
244966,-58.8235294117647,4,1,1,70,0,1
245280,-66.6666666666667,4,1,1,70,0,1
245751,-58.8235294117647,4,1,1,70,0,1
246851,-55.5555555555556,4,1,1,70,0,1
248107,-66.6666666666667,4,1,1,70,0,1
248421,-55.5555555555556,4,1,1,70,0,1
248736,-76.9230769230769,4,1,1,70,0,1
248893,-50,4,1,1,70,0,1
249050,-66.6666666666667,4,1,1,70,0,1
249207,-50,4,1,1,70,0,1
249364,-62.5,4,1,1,70,0,1
249992,-55.5555555555556,4,1,1,70,0,1
250934,-58.8235294117647,4,1,1,70,0,1
252427,-62.5,4,1,1,70,0,1
253448,-56.1797752808989,4,1,1,70,0,1
255961,-62.5,4,1,1,70,0,1
256275,-58.8235294117647,4,1,1,70,0,1
257217,-55.5555555555556,4,1,1,70,0,1
257453,-52.6315789473684,4,1,1,70,0,1
258160,-57.1428571428571,4,1,1,70,0,1
258474,-50,4,1,1,70,0,1
262558,-500,4,1,1,70,0,0
263500,-76.9230769230769,4,1,1,100,0,0
263814,-50,4,1,1,70,0,1
264128,-52.6315789473684,4,1,1,70,0,1
264442,-71.4285714285714,4,1,1,70,0,1
264756,-58.8235294117647,4,1,1,70,0,1
265699,-55.5555555555556,4,1,1,70,0,1
266484,-55.5555555555556,4,1,1,70,0,1
266563,-55.5555555555556,4,1,1,70,0,1
267112,-55.5555555555556,4,1,1,70,0,1
267191,-55.5555555555556,4,1,1,70,0,1
267270,-50,4,1,1,70,0,1
267898,-58.8235294117647,4,1,1,70,0,1
268526,-58.8235294117647,4,1,1,70,0,1
268840,-50,4,1,1,70,0,1
269154,-62.5,4,1,1,70,0,1
271353,-52.6315789473684,4,1,1,70,0,1
271510,-52.6315789473684,4,1,1,70,0,1
271589,-52.6315789473684,4,1,1,70,0,1
271667,-50,4,1,1,70,0,1
271982,-58.8235294117647,4,1,1,70,0,1
272296,-50,4,1,1,70,0,1
272610,-62.5,4,1,1,70,0,1
272924,-50,4,1,1,70,0,1
273238,-62.5,4,1,1,70,0,1
273866,-52.6315789473684,4,1,1,70,0,1
274181,-55.5555555555556,4,1,1,70,0,1
274652,-55.5555555555556,4,1,1,70,0,1
274730,-55.5555555555556,4,1,1,70,0,1
274809,-62.5,4,1,1,70,0,1
276851,-55.5555555555556,4,1,1,70,0,1
277322,-52.6315789473684,4,1,1,70,0,1
277636,-58.8235294117647,4,1,1,70,0,1
283290,-50,4,1,1,70,0,1
283919,-100,4,2,1,50,0,0
284233,-133.333333333333,4,2,1,50,0,0
284547,-100,4,2,1,50,0,0
286118,-66.6666666666667,4,2,1,50,0,0
286432,-200,4,2,1,50,0,0
286746,-100,4,2,1,50,0,0
289259,-200,4,2,1,50,0,0
289573,-100,4,2,1,50,0,0
291144,-66.6666666666667,4,2,1,50,0,0
291379,-66.6666666666667,4,2,1,10,0,0
291458,-200,4,2,1,50,0,0
291772,-100,4,2,1,50,0,0
293657,-200,4,2,1,50,0,0
294442,-133.333333333333,4,2,1,50,0,0
296406,-133.333333333333,4,2,1,10,0,0
296484,-200,4,2,1,50,0,0
296798,-100,4,2,1,50,0,0
297112,-133.333333333333,4,2,1,50,0,0
302924,-100,4,2,1,50,0,0
303238,-90.9090909090909,4,2,1,50,0,0
303552,-76.9230769230769,4,2,1,50,0,0
303709,-66.6666666666667,4,2,1,50,0,0
303866,-66.6666666666667,4,2,1,10,0,0
303945,-66.6666666666667,4,2,1,50,0,0
304023,-277.777777777778,4,2,3,20,0,0
304102,-277.777777777778,4,2,3,10,0,0
307793,-277.777777777778,4,2,3,9,0,0
310306,-277.777777777778,4,2,3,8,0,0
312819,-277.777777777778,4,2,3,7,0,0
313762,-277.777777777778,4,2,3,5,0,0

[Colours]
Combo1 : 0,0,255
Combo2 : 157,130,253
Combo3 : 174,181,210
Combo4 : 103,167,254
Combo5 : 0,255,255
Combo6 : 255,134,204
Combo7 : 108,117,147
Combo8 : 131,223,254

[HitObjects]
99,266,7563,21,0,0:0:0:0:
195,239,7966,53,0,0:0:0:0:
204,236,8153,1,0,0:0:0:0:
192,245,8341,1,0,0:0:0:0:
172,360,8832,54,0,B|122:245|-6:291|-6:291|40:348,1,285,0|0,0:0|0:0,0:0:0:0:
272,310,10414,54,0,L|377:300,1,95,0|0,0:0|0:0,0:0:0:0:
302,109,11179,2,0,P|301:157|317:202,1,95
141,262,12103,54,0,P|179:233|224:217,1,95
412,213,12717,1,0,0:0:0:0:
444,129,12922,1,0,0:0:0:0:
444,129,13508,1,0,0:0:0:0:
384,62,13703,54,0,P|337:54|296:32,1,95
331,248,14518,2,0,L|346:342,1,95
491,327,15377,53,0,0:0:0:0:
410,230,15753,1,0,0:0:0:0:
258,191,16147,1,0,0:0:0:0:
83,261,16542,1,0,0:0:0:0:
73,267,17335,54,0,L|60:266,2,11.875,0|0|0,0:0|0:0|0:0,0:0:0:0:
198,291,17867,1,0,0:0:0:0:
272,243,18304,1,0,0:0:0:0:
299,172,18779,54,0,P|298:126|267:74,1,95,0|0,0:0|0:0,0:0:0:0:
272,243,19355,1,0,0:0:0:0:
299,172,19548,54,0,P|298:126|267:74,1,95,0|0,0:0|0:0,0:0:0:0:
37,341,20110,1,0,0:0:0:0:
212,209,20298,53,0,0:0:0:0:
132,229,20484,1,0,0:0:0:0:
212,209,20670,53,0,0:0:0:0:
215,224,20866,1,0,0:0:0:0:
135,198,21063,53,0,0:0:0:0:
229,48,21261,1,0,0:0:0:0:
89,130,21460,53,0,0:0:0:0:
375,328,21882,2,0,P|357:241|426:155,1,190,0|0,0:0|0:0,0:0:0:0:
490,118,22697,53,0,0:0:0:0:
490,118,22751,2,0,L|300:91,1,190
117,320,23517,1,0,0:0:0:0:
117,320,23583,2,0,P|50:259|67:170,1,190,0|0,0:0|0:0,0:0:0:0:
167,11,24481,54,0,P|210:24|220:69,1,95
183,151,25381,54,0,P|164:219|196:345,1,190
188,333,25995,2,0,L|246:324,1,47.5
278,240,26200,54,0,L|431:261,1,142.500005435944
492,222,26805,1,0,0:0:0:0:
482,140,27006,54,0,L|468:41,1,95,0|0,0:0|0:0,0:0:0:0:
334,52,27409,2,0,L|391:96,1,71.2500027179719
295,129,27814,1,0,0:0:0:0:
266,134,28313,1,0,0:0:0:0:
320,267,28915,2,0,L|342:263,1,15.8333333333333
416,248,29035,54,0,B|365:269|346:351|388:389|441:387|472:340|446:311,1,227.999993041992,0|0,0:0|0:0,0:0:0:0:
459,318,30689,1,0,0:0:0:0:
453,310,31133,1,0,0:0:0:0:
459,325,31599,53,0,0:0:0:0:
470,243,31836,1,0,0:0:0:0:
481,161,32073,1,0,0:0:0:0:
37,297,32547,54,0,B|-7:266|-17:195|14:140|14:140|65:262|180:231|180:231|159:165|179:82|282:82|356:102|349:197|255:173|207:41|207:41|324:6|393:81|390:145|390:145|414:68|497:68|497:68|537:5|537:5|511:41|451:38,1,1327
474,172,36064,54,0,P|523:229|432:241,1,199
359,221,36380,53,0,0:0:0:0:
278,211,36694,53,0,0:0:0:0:
202,242,37008,53,0,0:0:0:0:
149,301,37165,53,0,0:0:0:0:
138,383,37322,53,0,0:0:0:0:
147,381,37400,1,0,0:0:0:0:
156,379,37479,54,0,L|219:368,1,38,0|0,0:0|0:0,0:0:0:0:
276,192,37636,102,0,L|282:116,1,76,0|0,0:0|0:0,0:0:0:0:
280,38,38107,22,0,P|324:45|356:75,1,76,0|0,0:0|0:0,0:0:0:0:
195,168,38421,2,0,P|194:123|218:86,1,76,0|0,0:0|0:0,0:0:0:0:
361,65,38736,2,0,P|384:103|381:147,1,76,0|0,0:0|0:0,0:0:0:0:
206,82,39050,2,0,P|239:52|283:47,1,76,0|0,0:0|0:0,0:0:0:0:
391,145,39364,2,0,P|376:187|340:213,1,76,0|0,0:0|0:0,0:0:0:0:
202,241,39678,1,0,0:0:0:0:
202,241,39835,22,0,L|133:251,1,57,0|0,0:0|0:0,0:0:0:0:
46,245,40149,22,0,L|216:221,1,170.999994781494,0|0,0:0|0:0,0:0:0:0:
230,201,40463,22,0,L|147:212,1,76,0|0,0:0|0:0,0:0:0:0:
58,140,40934,22,0,P|49:102|63:55,1,76,0|0,0:0|0:0,0:0:0:0:
203,127,41249,2,0,P|241:124|285:146,1,76,0|0,0:0|0:0,0:0:0:0:
128,100,41563,2,0,P|151:68|196:49,1,76,0|0,0:0|0:0,0:0:0:0:
230,201,41877,2,0,P|256:229|268:277,1,76,0|0,2:0|2:0,0:0:0:0:
99,325,42191,1,0,0:0:0:0:
115,196,42348,21,0,0:0:0:0:
115,200,42426,1,0,0:0:0:0:
115,205,42505,1,0,0:0:0:0:
116,210,42583,1,0,0:0:0:0:
116,214,42662,22,0,L|246:198,1,114
333,188,42976,22,0,L|409:179,1,76,0|0,0:0|0:0,0:0:0:0:
471,121,43448,22,0,P|487:80|477:38,1,76,0|0,0:0|0:0,0:0:0:0:
487,204,43762,2,0,P|511:240|509:283,1,76,0|0,0:0|0:0,0:0:0:0:
404,69,44076,2,0,P|383:29|344:10,1,76,0|0,0:0|0:0,0:0:0:0:
427,268,44390,2,0,P|414:310|379:336,1,76,0|0,0:0|0:0,0:0:0:0:
316,176,44704,1,0,0:0:0:0:
316,176,44861,22,0,L|247:186,1,57,0|0,0:0|0:0,0:0:0:0:
160,180,45175,22,0,L|330:156,1,170.999994781494,0|0,0:0|0:0,0:0:0:0:
344,136,45489,22,0,L|261:147,1,76,0|0,0:0|0:0,0:0:0:0:
152,100,45961,22,0,P|146:63|160:23,1,76,0|0,0:0|0:0,0:0:0:0:
257,226,46275,2,0,P|283:252|295:292,1,76,0|0,0:0|0:0,0:0:0:0:
98,182,46589,2,0,P|60:176|27:150,1,76,0|0,0:0|0:0,0:0:0:0:
251,125,46903,2,0,P|284:107|326:108,1,76,0|0,0:0|0:0,0:0:0:0:
162,262,47217,1,0,0:0:0:0:
162,262,47374,22,0,P|147:291|116:313,1,57,0|0,0:0|0:0,0:0:0:0:
97,168,47688,22,0,L|210:157,1,114
296,130,48003,22,0,L|210:136,1,76
328,58,48474,22,0,L|348:14,2,38,0|0|0,0:0|0:0|0:0,0:0:0:0:
342,189,48788,2,0,L|385:259,1,76
221,136,49102,2,0,L|138:138,1,76,0|0,0:0|0:0,0:0:0:0:
267,198,49416,2,0,L|227:270,1,76,0|0,0:0|0:0,0:0:0:0:
252,66,49730,2,0,L|209:-3,1,76
212,1,50201,22,0,P|151:29|171:141,1,170.999994781494,0|0,0:0|0:0,0:0:0:0:
118,103,50516,22,0,P|112:65|126:30,1,76,0|0,0:0|0:0,0:0:0:0:
263,156,50987,22,0,P|289:183|298:219,1,76,0|0,0:0|0:0,0:0:0:0:
210,77,51301,2,0,P|243:60|281:63,1,76,0|0,0:0|0:0,0:0:0:0:
204,230,51615,2,0,P|186:263|154:283,1,76,0|0,0:0|0:0,0:0:0:0:
263,156,51929,2,0,P|289:183|298:219,1,76,0|0,0:0|0:0,0:0:0:0:
116,197,52244,21,0,0:0:0:0:
78,190,52322,1,0,0:0:0:0:
60,156,52401,1,0,0:0:0:0:
75,121,52480,1,0,0:0:0:0:
111,111,52558,1,0,0:0:0:0:
142,133,52637,1,0,0:0:0:0:
144,171,52715,22,0,L|128:40,1,114
228,116,53029,22,0,P|230:75|236:32,1,76,0|0,0:0|0:0,0:0:0:0:
284,224,53500,22,0,P|246:239|199:232,1,76,0|0,0:0|0:0,0:0:0:0:
356,119,53814,2,0,P|393:104|441:111,1,76,0|0,0:0|0:0,0:0:0:0:
270,227,54128,2,0,P|232:212|185:219,1,76,0|0,0:0|0:0,0:0:0:0:
397,280,54442,2,0,P|434:281|469:267,1,76,0|0,0:0|0:0,0:0:0:0:
303,359,54756,1,0,0:0:0:0:
302,358,54914,22,0,P|277:346|249:346,1,57
141,305,55228,22,0,B|185:273|185:273|139:341|171:391,1,170.999994781494
141,305,55542,22,0,P|116:273|114:231,1,76,0|0,0:0|0:0,0:0:0:0:
225,206,56013,22,0,P|219:166|238:128,1,76,0|0,0:0|0:0,0:0:0:0:
347,162,56327,2,0,P|362:124|397:101,1,76,8|0,0:0|0:0,0:0:0:0:
130,100,56641,2,0,P|112:64|75:43,1,76,12|0,0:0|0:0,0:0:0:0:
251,0,56955,21,2,0:0:0:0:
252,7,57034,1,2,0:0:0:0:
253,14,57112,1,8,0:0:0:0:
264,176,57270,1,2,0:0:0:0:
178,171,57427,1,2,0:0:0:0:
258,93,57584,1,2,0:0:0:0:
347,162,57741,22,0,L|339:290,1,113.999996520996,6|8,0:0|0:0,0:0:0:0:
237,341,58212,22,0,P|222:293|247:225,1,85.4999973907472,0|0,0:0|0:0,0:0:0:0:
458,262,58526,2,0,P|462:304|447:344,1,85.4999973907472,8|0,0:0|0:0,0:0:0:0:
334,361,58840,22,0,L|341:242,1,85.4999973907472,0|8,0:0|0:0,0:0:0:0:
356,80,59154,2,0,L|359:47,4,21.3749993476868,0|0|0|0|0,0:0|0:0|0:0|0:0|0:0,0:0:0:0:
348,179,59469,21,8,0:0:0:0:
168,254,59626,2,0,L|69:263,1,85.4999973907472,0|0,0:0|0:0,0:0:0:0:
43,102,59940,22,0,B|81:62|81:62|56:190,1,170.999994781494,8|0,0:0|0:0,0:0:0:0:
59,176,60254,22,0,L|184:165,1,113.999996520996,0|8,0:0|0:0,0:0:0:0:
157,310,60725,22,0,L|258:319,1,85.4999973907472,0|0,0:0|0:0,0:0:0:0:
222,42,61039,2,0,L|323:33,1,85.4999973907472,8|0,0:0|0:0,0:0:0:0:
336,335,61353,22,0,L|437:344,1,85.4999973907472,0|8,0:0|0:0,0:0:0:0:
398,27,61667,2,0,L|499:18,1,85.4999973907472,0|0,0:0|0:0,0:0:0:0:
504,258,61982,22,0,L|381:248,1,85.4999973907472,8|0,0:0|0:0,0:0:0:0:
255,354,62296,1,0,0:0:0:0:
109,274,62453,21,8,0:0:0:0:
156,257,62531,1,0,0:0:0:0:
205,270,62610,1,0,0:0:0:0:
239,306,62688,1,0,0:0:0:0:
255,354,62767,2,0,L|261:238,1,85.4999973907472
266,154,63081,22,0,L|258:289,1,113.999996520996,8|0,0:0|0:0,0:0:0:0:
381,111,63552,22,0,L|390:217,1,85.4999973907472,8|0,0:0|0:0,0:0:0:0:
130,105,63866,2,0,L|121:211,1,85.4999973907472,0|8,0:0|0:0,0:0:0:0:
464,49,64181,22,0,L|473:155,1,85.4999973907472,0|0,0:0|0:0,0:0:0:0:
50,23,64495,2,0,L|41:129,1,85.4999973907472,8|0,0:0|0:0,0:0:0:0:
138,347,64809,22,0,B|193:334|224:267|224:267|264:353|372:351,1,284.999991302491
461,356,65280,22,0,L|449:217,1,113.999996520996,0|8,0:0|0:0,0:0:0:0:
361,34,65751,22,0,L|355:131,1,85.4999973907472,0|0,0:0|0:0,0:0:0:0:
256,353,66065,2,0,L|250:256,1,85.4999973907472,8|0,0:0|0:0,0:0:0:0:
156,0,66379,22,0,L|150:97,1,85.4999973907472,0|8,0:0|0:0,0:0:0:0:
62,375,66693,2,0,L|56:278,1,85.4999973907472,0|0,0:0|0:0,0:0:0:0:
0,109,67008,21,8,0:0:0:0:
144,293,67165,2,0,P|189:298|233:275,1,85.4999973907472,0|0,0:0|0:0,0:0:0:0:
328,260,67479,22,0,L|336:362,2,56.9999982604981,0|0|0,0:0|0:0|0:0,0:0:0:0:
265,178,67793,22,0,P|326:155|423:217,1,170.999994781494,4|8,0:0|0:0,0:0:0:0:
169,209,68264,2,0,P|166:166|162:112,1,85.4999973907472,0|0,0:0|0:0,0:0:0:0:
426,4,68578,2,0,P|423:47|419:101,1,85.4999973907472,8|0,0:0|0:0,0:0:0:0:
299,353,68893,22,0,P|254:366|193:336,1,85.4999973907472,0|8,0:0|0:0,0:0:0:0:
154,40,69207,2,0,L|152:11,4,21.3749993476868,0|0|0|0|0,0:0|0:0|0:0|0:0|0:0,0:0:0:0:
63,142,69521,21,8,0:0:0:0:
151,250,69678,2,0,L|142:340,1,85.4999973907472,0|0,0:0|0:0,0:0:0:0:
276,143,69992,22,0,B|263:22|263:22|310:68,1,170.999994781494,8|0,0:0|0:0,0:0:0:0:
406,66,70306,22,0,P|352:77|288:48,1,113.999996520996,0|8,0:0|0:0,0:0:0:0:
63,142,70777,22,0,P|106:139|175:131,1,85.4999973907472,0|0,0:0|0:0,0:0:0:0:
461,200,71092,2,0,P|418:197|349:189,1,85.4999973907472,8|0,0:0|0:0,0:0:0:0:
59,326,71406,22,0,P|102:323|171:315,1,85.4999973907472,0|8,0:0|0:0,0:0:0:0:
462,368,71720,2,0,P|419:365|350:357,1,85.4999973907472,0|0,0:0|0:0,0:0:0:0:
148,134,72034,21,8,0:0:0:0:
256,366,72191,1,0,0:0:0:0:
373,181,72348,21,0,0:0:0:0:
400,193,72427,1,0,0:0:0:0:
409,221,72505,1,8,0:0:0:0:
402,250,72584,1,0,0:0:0:0:
376,265,72662,1,0,0:0:0:0:
346,260,72741,1,0,0:0:0:0:
330,234,72819,22,0,L|336:107,1,113.999996520996,0|8,0:0|0:0,0:0:0:0:
457,345,73290,22,0,B|472:304|472:304|459:252,1,85.4999973907472,0|0,0:0|0:0,0:0:0:0:
206,332,73605,2,0,B|195:291|195:291|210:250,1,85.4999973907472,8|0,0:0|0:0,0:0:0:0:
335,120,73919,22,0,L|330:230,1,85.4999973907472,0|8,0:0|0:0,0:0:0:0:
80,357,74233,2,0,L|74:247,1,85.4999973907472,0|0,0:0|0:0,0:0:0:0:
453,54,74547,2,0,L|447:163,1,85.4999973907472,8|0,0:0|0:0,0:0:0:0:
13,208,74861,22,0,P|54:152|75:271,1,284.999991302491
75,271,75332,22,0,L|80:357,1,85.4999973907472,0|0,0:0|0:0,0:0:0:0:
382,225,75647,22,0,L|373:355,1,113.999996520996,0|0,0:0|0:0,0:0:0:0:
217,90,76118,22,0,P|258:78|298:92,1,85.4999973907472,8|0,0:0|0:0,0:0:0:0:
298,292,76432,2,0,P|252:305|213:292,1,85.4999973907472,0|0,0:0|0:0,0:0:0:0:
254,192,76903,21,0,0:0:0:0:
40,260,77217,22,0,L|34:298,3,31.6666666666667
33,166,77531,2,0,L|40:260,1,95,0|0,0:0|0:0,0:0:0:0:
52,367,77845,22,0,L|62:286,1,71.2500027179719,6|0,0:0|0:0,0:0:0:0:
129,212,78160,2,0,B|206:198|182:265|276:243,1,142.500005435944,8|2,0:0|0:0,0:0:0:0:
331,196,78631,1,8,0:0:0:0:
154,356,78788,2,0,L|144:275,1,71.2500027179719
245,171,79102,21,10,0:0:0:0:
116,122,79259,1,0,0:0:0:0:
278,58,79416,2,0,P|231:73|195:75,1,71.2500027179719,0|8,0:0|0:0,0:0:0:0:
47,104,79730,2,0,P|82:108|115:121,1,71.2500027179719,2|0,0:0|0:0,0:0:0:0:
245,171,80044,2,0,L|234:293,1,106.875004076958,8|0,0:0|0:0,0:0:0:0:
235,277,80359,22,0,P|296:258|376:296,1,142.500005435944,2|8,0:0|0:0,0:0:0:0:
450,354,80830,1,0,0:0:0:0:
450,354,80987,2,0,L|461:273,1,71.2500027179719,0|8,0:0|0:0,0:0:0:0:
366,286,81301,2,0,L|355:205,1,71.2500027179719
480,172,81615,21,10,0:0:0:0:
459,283,81772,1,0,0:0:0:0:
237,273,81929,1,0,0:0:0:0:
258,384,82086,1,8,0:0:0:0:
237,273,82243,22,0,P|190:264|149:265,1,71.2500027179719,2|0,0:0|0:0,0:0:0:0:
0,184,82558,2,0,P|54:185|120:168,1,106.875004076958,8|0,0:0|0:0,0:0:0:0:
105,173,82872,21,2,0:0:0:0:
209,18,83186,2,0,P|216:61|218:97,1,71.2500027179719,8|0,0:0|0:0,0:0:0:0:
181,214,83500,1,2,0:0:0:0:
126,73,83657,1,8,0:0:0:0:
302,164,83814,2,0,P|304:128|310:93,1,71.2500027179719,0|0,0:0|0:0,0:0:0:0:
365,24,84128,22,0,L|462:37,1,71.2500027179719,10|0,0:0|0:0,0:0:0:0:
217,88,84442,2,0,L|120:101,1,71.2500027179719,0|8,0:0|0:0,0:0:0:0:
346,237,84756,1,2,0:0:0:0:
310,93,84914,1,0,0:0:0:0:
234,286,85071,2,0,P|254:233|248:161,1,106.875004076958,8|0,0:0|0:0,0:0:0:0:
254,184,85385,22,0,P|301:217|390:216,1,142.500005435944,2|8,0:0|0:0,0:0:0:0:
475,168,85856,1,0,0:0:0:0:
475,168,86013,2,0,L|482:249,1,71.2500027179719,0|8,0:0|0:0,0:0:0:0:
322,314,86327,2,0,L|315:395,1,71.2500027179719,0|0,0:0|0:0,0:0:0:0:
421,331,86641,21,10,0:0:0:0:
323,129,86798,2,0,P|374:117|405:118,1,71.2500027179719,0|0,0:0|0:0,0:0:0:0:
195,359,87112,21,8,0:0:0:0:
254,183,87270,2,0,P|203:171|172:172,1,71.2500027179719,2|0,0:0|0:0,0:0:0:0:
0,275,87584,22,0,L|123:257,1,106.875004076958,8|0,0:0|0:0,0:0:0:0:
105,259,87898,22,0,L|98:347,1,71.2500027179719,6|0,0:0|0:0,0:0:0:0:
302,298,88212,2,0,B|259:277|259:277|253:168,1,142.500005435944,8|2,0:0|0:0,0:0:0:0:
246,93,88683,1,8,0:0:0:0:
415,242,88840,2,0,L|402:328,1,71.2500027179719,0|0,0:0|0:0,0:0:0:0:
253,182,89154,22,0,P|304:170|335:171,1,71.2500027179719,10|0,0:0|0:0,0:0:0:0:
390,54,89469,1,0,0:0:0:0:
315,270,89626,1,8,0:0:0:0:
246,93,89783,2,0,P|195:105|164:104,1,71.2500027179719,2|0,0:0|0:0,0:0:0:0:
24,65,90097,2,0,L|12:189,1,106.875004076958,8|0,0:0|0:0,0:0:0:0:
13,171,90411,22,0,P|67:160|142:212,1,142.500005435944,2|8,0:0|0:0,0:0:0:0:
224,357,90882,1,0,0:0:0:0:
224,357,91039,2,0,L|238:271,1,71.2500027179719,0|8,0:0|0:0,0:0:0:0:
73,314,91353,2,0,L|59:228,1,71.2500027179719,0|0,0:0|0:0,0:0:0:0:
154,112,91667,21,10,0:0:0:0:
138,205,91825,1,0,0:0:0:0:
70,148,91982,21,0,0:0:0:0:
224,180,92139,1,8,0:0:0:0:
154,112,92296,22,0,L|168:32,1,71.2500027179719,2|0,0:0|0:0,0:0:0:0:
138,205,92610,2,0,P|193:182|258:198,1,106.875004076958,8|0,0:0|0:0,0:0:0:0:
238,188,92924,22,0,L|252:268,1,71.2500027179719,2|0,0:0|0:0,0:0:0:0:
369,134,93238,1,8,0:0:0:0:
170,280,93395,1,0,0:0:0:0:
343,301,93552,21,2,0:0:0:0:
292,147,93709,2,0,P|244:174|233:205,1,71.2500027179719,8|0,0:0|0:0,0:0:0:0:
369,134,94023,2,0,P|314:123|285:140,1,71.2500027179719,0|10,0:0|0:0,0:0:0:0:
436,174,94338,2,0,P|400:131|368:125,1,71.2500027179719,0|0,0:0|0:0,0:0:0:0:
342,320,94652,1,8,0:0:0:0:
292,147,94809,21,2,0:0:0:0:
437,311,94966,1,0,0:0:0:0:
250,258,95123,1,0,0:0:0:0:
245,258,95201,1,0,0:0:0:0:
241,259,95280,1,0,0:0:0:0:
236,259,95358,1,0,0:0:0:0:
232,260,95437,22,0,L|218:142,1,106.875004076958,2|0,0:0|0:0,0:0:0:0:
219,153,95751,22,0,B|131:149|157:225|44:197,1,170.999994781494,8|2,0:0|0:0,0:0:0:0:
0,130,96222,1,8,0:0:0:0:
71,35,96379,2,0,P|85:91|89:134,1,85.4999973907472,0|0,0:0|0:0,0:0:0:0:
17,285,96694,21,10,0:0:0:0:
62,201,96851,2,0,P|110:213|162:212,1,85.4999973907472,0|0,0:0|0:0,0:0:0:0:
180,355,97165,2,0,P|228:343|280:344,1,85.4999973907472,8|2,0:0|0:0,0:0:0:0:
403,268,97479,1,0,0:0:0:0:
403,268,97636,22,0,L|260:253,1,128.249996086121,8|0,0:0|0:0,0:0:0:0:
296,100,97950,22,0,P|352:152|324:240,1,152,6|8,0:0|0:0,0:0:0:0:
224,112,98421,2,0,P|297:89|359:157,1,152,0|8,0:0|0:0,0:0:0:0:
209,207,98893,1,0,0:0:0:0:
206,200,98972,1,0,0:0:0:0:
204,194,99050,1,0,0:0:0:0:
201,187,99129,1,0,0:0:0:0:
197,179,99207,22,0,P|198:130|231:93,2,101.333333333333,10|0|0,0:0|0:0|0:0,0:0:0:0:
328,256,99835,2,0,B|244:244|276:300|172:284,1,152,2|8,0:0|0:0,0:0:0:0:
183,285,100463,21,2,0:0:0:0:
197,179,100620,1,2,0:0:0:0:
52,260,100777,22,0,P|150:292|167:383,1,190,12|2,0:0|0:0,0:0:0:0:
244,320,101170,1,0,0:0:0:0:
269,337,101248,1,0,0:0:0:0:
300,343,101327,1,0,0:0:0:0:
331,337,101405,1,0,0:0:0:0:
362,350,101484,21,0,0:0:0:0:
371,348,101563,1,0,0:0:0:0:
380,347,101641,1,0,0:0:0:0:
389,346,101720,2,0,P|414:292|400:251,2,101.333333333333,2|0|0,0:0|0:0|0:0,0:0:0:0:
321,242,102348,21,2,0:0:0:0:
470,219,102505,2,0,P|430:183|358:191,1,113.999996520996,8|8,0:0|0:0,0:0:0:0:
321,242,102898,1,8,0:0:0:0:
321,242,102976,22,0,L|336:372,1,114,2|0,0:0|0:0,0:0:0:0:
344,364,103290,1,0,0:0:0:0:
200,260,103448,1,8,0:0:0:0:
258,116,103605,2,0,L|248:192,1,76,2|0,0:0|0:0,0:0:0:0:
120,288,103919,21,8,0:0:0:0:
117,280,103997,1,0,0:0:0:0:
114,272,104076,1,0,0:0:0:0:
111,264,104154,1,0,0:0:0:0:
108,256,104233,2,0,P|58:234|5:252,2,101.333333333333,2|4|0,0:0|0:0|0:0,0:0:0:0:
200,342,104861,2,0,P|254:342|296:257,1,152,2|0,0:0|0:0,0:0:0:0:
176,48,105489,22,0,P|160:112|168:208,1,152,14|0,0:0|0:0,0:0:0:0:
88,72,105961,1,8,0:0:0:0:
240,144,106118,2,0,B|324:156|308:100|404:116,1,152,2|8,0:0|0:0,0:0:0:0:
456,136,106510,1,0,0:0:0:0:
455,143,106589,1,0,0:0:0:0:
454,150,106667,1,0,0:0:0:0:
453,157,106746,22,0,L|436:44,2,101.333333333333,2|0|0,0:0|0:0|0:0,0:0:0:0:
480,328,107374,1,2,0:0:0:0:
368,212,107531,1,0,0:0:0:0:
479,230,107688,22,0,B|521:258|521:258|468:232|417:261|407:301,1,170.999994781494
352,332,108003,22,0,L|288:320,1,47.5,2|0,0:0|0:0,0:0:0:0:
276,316,108317,2,0,L|212:304,1,47.5,0|0,0:0|0:0,0:0:0:0:
200,300,108945,2,0,L|153:291,1,47.5,0|0,0:0|0:0,0:0:0:0:
84,344,109259,22,0,L|68:232,1,95,0|0,0:0|0:0,0:0:0:0:
28,184,109730,1,0,0:0:0:0:
120,84,109887,1,0,0:0:0:0:
112,76,110044,1,0,0:0:0:0:
108,88,110201,2,0,L|172:80,1,47.5,0|0,0:0|0:0,0:0:0:0:
272,36,110516,22,0,P|288:72|288:92,1,47.5,0|0,0:0|0:0,0:0:0:0:
368,68,110830,2,0,P|363:107|353:124,1,47.5,0|0,0:0|0:0,0:0:0:0:
434,142,111458,2,0,P|422:162|405:178,1,47.5,0|0,0:0|0:0,0:0:0:0:
360,114,111772,22,0,B|304:106|324:132|260:122,1,95,0|0,0:0|0:0,0:0:0:0:
192,96,112243,1,0,0:0:0:0:
218,258,112401,1,0,0:0:0:0:
279,207,112558,1,0,0:0:0:0:
124,148,112715,1,0,0:0:0:0:
139,226,112872,1,0,0:0:0:0:
154,304,113029,22,0,L|88:296,1,47.5,0|0,0:0|0:0,0:0:0:0:
236,312,113343,2,0,L|170:304,1,47.5,0|0,0:0|0:0,0:0:0:0:
318,320,113971,2,0,L|270:314,1,47.5,0|0,0:0|0:0,0:0:0:0:
106,298,114285,21,0,0:0:0:0:
84,208,114599,1,0,0:0:0:0:
96,216,114914,21,0,0:0:0:0:
114,290,115228,1,0,0:0:0:0:
40,268,115542,22,0,L|52:136,1,113.999996520996,8|0,0:0|0:0,0:0:0:0:
4,92,116013,2,0,B|44:108|44:108|128:84,1,113.999996520996,8|0,0:0|0:0,0:0:0:0:
184,60,116484,1,8,0:0:0:0:
280,140,116798,22,0,B|300:108|300:108|204:140,1,113.999996520996,8|0,0:0|0:0,0:0:0:0:
192,204,117270,2,0,P|200:248|220:204,1,113.999996520996,8|0,0:0|0:0,0:0:0:0:
132,308,117741,2,0,B|112:340|112:340|208:308,1,113.999996520996,8|8,0:0|0:0,0:0:0:0:
184,315,118369,21,0,0:0:0:0:
256,360,118526,2,0,B|300:356|300:356|320:344|320:344|376:338,1,113.999996520996,8|0,0:0|0:0,0:0:0:0:
438,384,118997,1,8,0:0:0:0:
379,225,119311,22,0,L|365:338,1,113.999996520996,8|0,0:0|0:0,0:0:0:0:
452,272,119783,1,8,0:0:0:0:
306,178,119940,2,0,L|299:234,1,56.9999982604981,0|0,0:0|0:0,0:0:0:0:
397,124,120254,2,0,P|389:82|387:39,1,85.4999973907472,8|0,0:0|0:0,0:0:0:0:
388,40,120568,22,0,B|304:56|332:0|236:16,1,142.500005435944,8|8,0:0|0:0,0:0:0:0:
268,92,121039,1,8,0:0:0:0:
84,88,121196,21,8,0:0:0:0:
176,60,121353,1,8,0:0:0:0:
316,174,121510,21,8,0:0:0:0:
154,153,121667,1,8,0:0:0:0:
298,263,121825,21,0,0:0:0:0:
45,367,122139,22,0,L|35:244,1,104.500003189087,0|0,0:0|0:0,0:0:0:0:
36,262,122610,2,0,L|115:270,1,71.2500027179719,0|0,0:0|0:0,0:0:0:0:
465,64,123081,6,0,P|363:57|304:138,1,190,6|8,0:0|0:0,0:0:0:0:
319,321,123552,1,0,0:0:0:0:
409,160,123709,2,0,P|457:167|542:173,1,95,2|8,0:0|0:0,0:0:0:0:
206,59,124023,2,0,P|158:66|73:72,1,95,0|0,0:0|0:0,0:0:0:0:
19,243,124338,54,0,P|121:236|180:317,1,190,2|0,0:0|0:0,0:0:0:0:
74,335,124809,1,0,0:0:0:0:
16,144,124966,1,2,0:0:0:0:
16,144,125044,1,0,0:0:0:0:
16,144,125123,2,0,L|28:71,1,47.5
87,26,125280,54,0,B|127:60|127:60|107:175,1,142.5
112,149,125594,54,0,P|157:146|241:141,1,95,2|0,0:0|0:0,0:0:0:0:
310,42,125908,1,8,0:0:0:0:
289,267,126065,1,0,0:0:0:0:
504,188,126222,2,0,P|437:199|358:162,1,142.5,2|0,0:0|0:0,0:0:0:0:
370,172,126537,2,0,L|382:296,1,95,0|0,0:0|0:0,0:0:0:0:
447,72,126851,53,2,0:0:0:0:
383,292,127008,1,0,0:0:0:0:
251,29,127165,2,0,L|246:138,1,95,0|0,0:0|0:0,0:0:0:0:
243,158,127400,1,0,0:0:0:0:
243,158,127479,2,0,P|190:158|130:148,1,95,2|0,0:0|0:0,0:0:0:0:
17,270,127793,54,0,B|70:204|149:242|149:242|80:292,1,185.249991519928,0|0,0:0|0:0,0:0:0:0:
114,359,128107,54,0,L|121:235,1,95,2|0,0:0|0:0,0:0:0:0:
378,366,128421,2,0,L|371:242,1,95,0|0,0:0|0:0,0:0:0:0:
12,124,128736,2,0,P|62:104|151:120,1,113.999996520996,2|0,0:0|0:0,0:0:0:0:
416,96,129050,54,0,B|459:44|393:-34|315:45|342:158|421:110|444:195|379:291,1,341.999989562989,6|0,0:0|0:0,0:0:0:0:
495,153,129678,1,2,0:0:0:0:
317,200,129835,1,0,0:0:0:0:
495,153,129992,54,0,P|493:202|492:279,1,95,2|0,0:0|0:0,0:0:0:0:
292,370,130306,2,0,P|289:324|283:244,1,95,0|0,0:0|0:0,0:0:0:0:
358,69,130620,54,0,B|412:25|412:25|396:174,1,209.000006378174,2|0,0:0|0:0,0:0:0:0:
386,309,131092,1,0,0:0:0:0:
162,192,131249,2,0,B|99:201|99:201|69:226|69:226|2:235,1,156.750004783631,2|0,0:0|0:0,0:0:0:0:
33,144,131563,2,0,L|37:89,2,52.2500015945435,0|0|0,0:0|0:0|0:0,0:0:0:0:
142,285,131877,53,2,0:0:0:0:
142,285,132034,1,8,0:0:0:0:
171,60,132191,1,0,0:0:0:0:
33,144,132348,1,2,0:0:0:0:
33,144,132427,1,0,0:0:0:0:
33,144,132505,2,0,L|133:139,1,95,8|0,0:0|0:0,0:0:0:0:
359,128,132819,1,0,0:0:0:0:
242,360,133133,54,0,B|211:305|211:305|251:170,1,190,6|8,0:0|0:0,0:0:0:0:
313,296,133605,1,0,0:0:0:0:
113,312,133762,2,0,L|-7:319,1,95,2|8,0:0|0:0,0:0:0:0:
14,42,134076,2,0,L|134:49,1,95,0|0,0:0|0:0,0:0:0:0:
392,114,134390,54,0,P|299:110|247:208,1,190,2|0,0:0|0:0,0:0:0:0:
342,196,134861,1,0,0:0:0:0:
490,174,135018,2,0,P|498:128|492:64,1,95,2|0,0:0|0:0,0:0:0:0:
215,212,135332,2,0,P|207:261|215:308,1,95
308,371,135568,1,0,0:0:0:0:
329,370,135647,54,0,L|443:363,1,95,2|0,0:0|0:0,0:0:0:0:
392,114,135961,1,8,0:0:0:0:
386,268,136118,1,0,0:0:0:0:
168,116,136275,54,0,L|54:123,1,95,2|8,0:0|0:0,0:0:0:0:
115,226,136589,1,0,0:0:0:0:
134,17,136746,1,0,0:0:0:0:
386,268,136903,54,0,P|435:276|500:241,1,95,2|0,0:0|0:0,0:0:0:0:
192,156,137217,2,0,P|141:151|76:186,1,95
303,371,137531,54,0,L|291:254,1,95
271,21,137845,2,0,L|289:191,1,142.5
287,163,138160,54,0,L|174:155,1,95,2|0,0:0|0:0,0:0:0:0:
78,347,138474,1,8,0:0:0:0:
11,270,138631,2,0,B|76:239|76:239|201:293,1,190,0|8,0:0|0:0,0:0:0:0:
299,350,139102,1,0,0:0:0:0:
299,350,139181,1,0,0:0:0:0:
299,350,139259,2,0,L|294:279,1,47.5,0|0,0:0|0:0,0:0:0:0:
287,163,139416,54,0,B|330:169|330:169|361:189|361:189|396:178|396:178|491:188,2,158.333333333333,8|8|8,0:0|0:0|0:0,0:0:0:0:
168,116,140044,54,0,B|125:122|125:122|94:142|94:142|59:131|59:131|-36:141,2,158.333333333333,8|8|8,0:0|0:0|0:0,0:0:0:0:
298,263,140673,54,0,B|412:288|376:208|504:236,1,190,6|8,0:0|0:0,0:0:0:0:
179,318,141301,1,2,0:0:0:0:
296,180,141458,2,0,P|360:208|348:328,1,190,8|0,0:0|0:0,0:0:0:0:
157,359,141930,54,0,L|181:155,1,190,2|0,0:0|0:0,0:0:0:0:
298,263,142401,1,0,0:0:0:0:
61,309,142558,2,0,L|44:216,1,95,2|0,0:0|0:0,0:0:0:0:
179,170,142872,2,0,L|162:77,1,95,0|0,0:0|0:0,0:0:0:0:
160,69,143108,1,0,0:0:0:0:
159,61,143186,54,0,P|226:35|304:116,1,190,2|8,0:0|0:0,0:0:0:0:
100,124,143657,1,0,0:0:0:0:
166,265,143814,2,0,P|91:213|100:123,1,190,2|0,0:0|0:0,0:0:0:0:
312,160,144285,53,0,0:0:0:0:
312,160,144364,1,0,0:0:0:0:
312,160,144442,1,2,0:0:0:0:
166,265,144599,1,0,0:0:0:0:
202,115,144757,2,0,B|224:104|240:64|240:64|219:188,1,190,0|2,0:0|0:0,0:0:0:0:
452,320,145385,53,0,0:0:0:0:
440,236,145542,1,0,0:0:0:0:
428,152,145699,1,8,0:0:0:0:
432,144,145804,2,0,L|444:72,1,50.6666666666667,8|8,0:0|0:0,0:0:0:0:
208,112,146013,53,8,0:3:0:0:
204,104,146118,2,0,L|192:32,1,50.6666666666667,8|8,0:3|0:3,0:0:0:0:
284,200,146327,53,4,0:3:0:0:
296,128,146432,1,4,0:3:0:0:
365,104,146537,1,4,0:3:0:0:
352,176,146641,54,0,L|204:188,1,113.999996520996,4|0,0:0|0:0,0:0:0:0:
48,280,147270,54,0,B|101:287|101:287|133:315|133:315|205:323,1,152,2|8,0:0|0:0,0:0:0:0:
400,233,147741,54,0,B|348:221|348:221|292:249,1,104.500003189087,2|0,0:0|0:0,0:0:0:0:
188,321,148055,1,8,0:0:0:0:
360,320,148212,54,0,L|373:123,1,190,2|8,0:0|0:0,0:0:0:0:
418,51,148683,1,0,0:0:0:0:
280,222,148840,54,0,P|191:163|103:197,1,190,2|0,0:0|0:0,0:0:0:0:
56,236,149311,1,0,0:0:0:0:
132,97,149469,53,2,0:0:0:0:
118,18,149626,1,12,0:0:0:0:
200,153,149783,53,0,0:0:0:0:
276,180,149940,1,0,0:0:0:0:
118,185,150097,53,2,0:0:0:0:
56,236,150254,1,0,0:0:0:0:
73,114,150411,1,0,0:0:0:0:
73,114,150725,54,0,P|147:105|198:211,1,190,6|8,0:0|0:0,0:0:0:0:
476,96,151353,1,2,0:0:0:0:
420,40,151510,2,0,P|346:31|295:137,1,190,8|0,0:0|0:0,0:0:0:0:
370,291,151982,54,0,B|401:233|401:233|375:111,1,190,2|0,0:0|0:0,0:0:0:0:
288,184,152453,1,0,0:0:0:0:
176,38,152610,2,0,L|197:142,1,95,2|8,0:0|0:0,0:0:0:0:
410,181,152924,2,0,L|391:87,1,95,0|0,0:0|0:0,0:0:0:0:
390,81,153160,1,0,0:0:0:0:
388,73,153238,54,0,P|330:75|298:200,1,190,2|0,0:0|0:0,0:0:0:0:
348,274,153709,1,0,0:0:0:0:
103,138,153866,2,0,P|158:126|221:142,1,95,2|0,0:0|0:0,0:0:0:0:
188,312,154181,2,0,P|140:313|96:297,1,95,0|0,0:0|0:0,0:0:0:0:
156,220,154495,54,0,B|261:198|227:274|355:250,1,190,2|0,0:0|0:0,0:0:0:0:
384,31,154966,1,0,0:0:0:0:
308,76,155123,2,0,P|297:140|313:189,1,95,2|8,0:0|0:0,0:0:0:0:
499,245,155437,2,0,P|510:199|503:152,1,95,0|0,0:0|0:0,0:0:0:0:
463,92,155673,1,0,0:0:0:0:
456,88,155751,53,2,0:0:0:0:
377,79,155908,1,0,0:0:0:0:
316,138,156065,1,0,0:0:0:0:
296,240,156222,53,0,0:0:0:0:
202,312,156379,1,2,0:0:0:0:
86,290,156537,1,0,0:0:0:0:
32,196,156694,53,0,0:0:0:0:
21,121,156851,1,0,0:0:0:0:
163,138,157008,2,0,L|171:48,1,85.4999973907472,2|8,0:0|0:0,0:0:0:0:
316,138,157322,1,0,0:0:0:0:
345,64,157479,1,0,0:0:0:0:
348,56,157558,1,0,0:0:0:0:
352,47,157636,53,2,0:0:0:0:
376,214,157793,1,8,0:0:0:0:
219,151,157950,1,0,0:0:0:0:
316,138,158107,2,0,L|321:183,1,23.75,0|0,0:0|0:0,0:0:0:0:
329,236,158264,53,2,0:0:0:0:
147,80,158421,2,0,L|139:161,1,71.2500027179719,8|0,0:0|0:0,0:0:0:0:
358,7,158736,2,0,B|323:-10|323:-10|344:91,1,142.5,8|0,0:0|0:0,0:0:0:0:
398,170,159050,54,0,P|427:138|439:75,1,104.500003189087
291,10,159285,2,0,P|261:41|249:104,1,104.500003189087,0|0,0:0|0:0,0:0:0:0:
344,92,159521,86,0,L|249:100,1,95,2|0,0:0|0:0,0:0:0:0:
249,99,160777,102,0,B|187:128|141:91|154:50|154:50|183:72|180:147|153:193|82:220|36:195,1,380
42,198,162191,22,0,P|69:241|64:290,1,95
30,365,162662,1,0,0:0:0:0:
77,116,162976,1,0,0:0:0:0:
209,275,163290,22,0,P|207:228|233:189,1,95
457,197,163762,2,0,B|349:187|395:277|271:246,1,190
258,30,164861,22,0,L|249:102,1,71.25
247,114,165175,1,0,0:0:0:0:
328,86,165332,1,0,0:0:0:0:
310,162,165489,1,0,0:0:0:0:
311,165,165568,1,0,0:0:0:0:
312,168,165646,1,0,0:0:0:0:
313,171,165725,1,0,0:0:0:0:
314,174,165804,22,0,B|379:98|470:121|470:121|445:188,1,237.5
437,277,166746,2,0,L|334:265,1,95
209,275,167217,2,0,P|217:306|217:339,1,47.5,0|0,0:0|0:0,0:0:0:0:
43,327,167531,2,0,P|79:277|109:365,1,190,0|0,0:0|0:0,0:0:0:0:
19,215,168317,22,0,P|48:201|80:196,1,47.5
77,116,168631,2,0,L|71:16,1,95,0|0,0:0|0:0,0:0:0:0:
322,180,169102,2,0,L|328:80,1,95,0|0,0:0|0:0,0:0:0:0:
147,173,169573,22,0,B|190:195|190:195|236:182,1,95
246,100,170044,2,0,B|205:76|205:76|158:87,1,95
300,340,170516,1,0,0:0:0:0:
300,340,170830,22,0,L|368:331,2,56.9999982604981
198,355,171301,1,0,0:0:0:0:
198,355,171458,2,0,P|206:302|206:280,1,56.9999982604981,0|0,0:0|0:0,0:0:0:0:
190,210,171772,2,0,P|192:238|198:266,1,56.9999982604981,0|0,0:0|0:0,0:0:0:0:
478,341,172086,22,0,L|491:210,1,113.999996520996
440,77,172558,1,0,0:0:0:0:
440,77,172715,2,0,L|366:86,1,56.9999982604981,0|0,0:0|0:0,0:0:0:0:
304,93,173029,2,0,L|230:102,1,56.9999982604981,0|0,0:0|0:0,0:0:0:0:
75,86,173343,22,0,L|63:199,1,113.999996520996
35,287,173814,2,0,P|72:291|111:278,1,56.9999982604981,0|0,0:0|0:0,0:0:0:0:
156,207,174128,1,0,0:0:0:0:
107,369,174285,1,0,0:0:0:0:
297,75,174599,22,0,P|325:122|316:191,1,113.999996520996
266,263,175071,1,0,0:0:0:0:
266,263,175228,2,0,L|400:272,1,113.999996520996,0|0,0:0|0:0,0:0:0:0:
512,106,175699,1,0,0:0:0:0:
512,106,175856,2,0,L|378:97,1,113.999996520996,0|0,0:0|0:0,0:0:0:0:
242,146,176327,21,0,0:0:0:0:
379,270,176484,2,0,P|433:270|488:228,1,113.999996520996,0|0,0:0|0:0,0:0:0:0:
321,179,176955,21,0,0:0:0:0:
184,303,177112,2,0,P|86:277|205:237,1,313.49999043274,0|0,0:0|0:0,0:0:0:0:
202,229,178055,22,0,L|208:168,1,57
295,31,178369,5,2,0:0:0:0:
31,348,178526,2,0,B|-12:289|-12:289|9:197,2,151.999995361328,8|8|8,0:0|0:0|0:0,0:0:0:0:
217,31,179154,53,2,0:0:0:0:
481,348,179311,2,0,B|524:289|524:289|503:197,2,151.999995361328,8|8|8,0:0|0:0|0:0,0:0:0:0:
184,303,179940,70,0,L|162:296,2,14.2499995651245
148,291,180097,2,0,L|107:279,1,28.4999991302491
75,267,180254,21,0,0:0:0:0:
352,366,180411,2,0,L|343:277,1,76,0|2,0:0|0:0,0:0:0:0:
290,175,180882,38,0,P|347:190|425:131,1,142.500005435944,6|8,0:0|0:0,0:0:0:0:
496,269,181353,2,0,P|461:258|402:271,1,71.2500027179719,0|2,0:0|0:0,0:0:0:0:
184,303,181667,2,0,P|219:305|253:294,1,71.2500027179719,8|0,0:0|0:0,0:0:0:0:
309,167,181982,1,0,0:0:0:0:
309,167,182139,53,10,0:0:0:0:
304,77,182296,2,0,B|320:109|320:109|312:171,1,71.2500027179719,0|0,0:0|0:0,0:0:0:0:
153,69,182610,2,0,B|172:39|172:39|230:15,1,71.2500027179719,8|2,0:0|0:0,0:0:0:0:
222,204,182924,2,0,B|186:201|186:201|136:163,1,71.2500027179719,0|8,0:0|0:0,0:0:0:0:
224,118,183238,1,0,0:0:0:0:
224,118,183395,53,2,0:0:0:0:
83,131,183552,2,0,L|2:139,1,71.2500027179719,0|8,0:0|0:0,0:0:0:0:
295,111,183866,2,0,L|214:119,1,71.2500027179719,0|2,0:0|0:0,0:0:0:0:
189,121,184181,2,0,L|108:129,1,71.2500027179719,8|0,0:0|0:0,0:0:0:0:
436,96,184495,1,0,0:0:0:0:
436,96,184652,53,10,0:0:0:0:
401,220,184809,2,0,P|440:205|463:179,1,71.2500027179719,0|0,0:0|0:0,0:0:0:0:
283,272,185123,2,0,P|319:293|354:293,1,71.2500027179719,8|0,0:0|0:0,0:0:0:0:
436,96,185437,2,0,P|450:56|444:22,1,71.2500027179719,0|8,0:0|0:0,0:0:0:0:
354,22,185673,1,0,0:0:0:0:
354,22,185751,2,0,P|374:46|380:66,1,35.625001358986
290,175,185908,54,0,L|272:24,1,142.500005435944,2|8,0:0|0:0,0:0:0:0:
117,205,186327,2,0,P|128:184|128:137,1,47.5000018119813
33,235,186537,2,0,P|102:238|151:318,1,142.500005435944,2|0,0:0|0:0,0:0:0:0:
370,307,186955,54,0,L|308:294,1,47.5000018119813
418,365,187165,2,0,L|434:230,2,106.875004076958,10|0|8,0:0|0:0|0:0,0:0:0:0:
189,121,187793,2,0,P|138:144|70:132,2,106.875004076958,2|0|0,0:0|0:0|0:0,0:0:0:0:
371,50,188421,54,0,P|433:23|521:52,1,142.500005435944,2|8,0:0|0:0,0:0:0:0:
393,194,188893,1,0,0:0:0:0:
393,194,189050,1,2,0:0:0:0:
185,101,189207,2,0,L|177:252,1,142.500005435944,8|0,0:0|0:0,0:0:0:0:
66,312,189678,53,10,0:0:0:0:
178,244,189835,1,0,0:0:0:0:
204,245,189913,1,0,0:0:0:0:
229,255,189992,1,0,0:0:0:0:
322,364,190149,1,8,0:0:0:0:
330,124,190306,54,0,P|313:166|311:223,1,71.2500027179719,2|0,0:0|0:0,0:0:0:0:
88,139,190620,2,0,P|89:103|83:68,1,71.2500027179719,8|0,0:0|0:0,0:0:0:0:
164,11,190934,53,6,0:0:0:0:
46,217,191092,1,0,0:0:0:0:
413,67,191249,53,8,0:0:0:0:
229,124,191406,1,0,0:0:0:0:
410,183,191563,1,2,0:0:0:0:
298,28,191720,1,8,0:0:0:0:
436,350,191877,53,0,0:0:0:0:
330,124,192034,1,0,0:0:0:0:
182,329,192191,53,10,0:0:0:0:
365,285,192348,1,0,0:0:0:0:
298,219,192505,53,0,0:0:0:0:
246,372,192662,1,8,0:0:0:0:
36,110,192819,53,2,0:0:0:0:
152,207,192976,1,0,0:0:0:0:
46,217,193133,1,8,0:0:0:0:
143,101,193290,1,0,0:0:0:0:
504,191,193448,53,2,0:0:0:0:
402,276,193605,1,0,0:0:0:0:
495,284,193762,1,8,0:0:0:0:
410,183,193919,1,0,0:0:0:0:
247,294,194076,53,2,0:0:0:0:
257,209,194233,1,8,0:0:0:0:
268,124,194390,1,0,0:0:0:0:
80,349,194547,53,0,0:0:0:0:
59,281,194704,1,10,0:0:0:0:
252,280,194861,2,0,L|257:195,1,71.2500027179719
437,273,195175,1,8,0:0:0:0:
465,206,195332,1,2,0:0:0:0:
299,29,195489,53,0,0:0:0:0:
299,29,195568,1,0,0:0:0:0:
299,29,195647,2,0,B|266:87|176:93|175:47|178:18|220:25|229:45,1,170.999994781494,8|0,0:0|0:0,0:0:0:0:
216,33,195961,54,0,P|200:77|163:96,1,76,2|8,0:0|0:0,0:0:0:0:
36,110,196432,54,0,P|83:115|117:150,1,95,0|8,0:0|0:0,0:0:0:0:
66,311,196903,54,0,P|95:255|148:239,1,113.999996520996,0|10,0:0|0:0,0:0:0:0:
302,342,197374,54,0,P|244:316|228:254,1,132.999995941162,0|8,0:0|0:0,0:0:0:0:
512,142,197845,53,2,0:0:0:0:
472,228,198003,1,0,0:0:0:0:
417,150,198160,1,0,0:0:0:0:
417,150,198238,1,0,0:0:0:0:
417,150,198317,2,0,L|409:184,1,33.2499989852906,0|0,0:0|0:0,0:0:0:0:
420,293,198474,54,0,L|339:281,1,66.4999979705811,2|0,0:0|0:0,0:0:0:0:
278,220,198788,2,0,L|134:241,1,132.999995941162,8|2,0:0|0:0,0:0:0:0:
115,147,199259,2,0,L|34:135,1,66.4999979705811,8|0,0:0|0:0,0:0:0:0:
49,137,199573,1,0,0:0:0:0:
82,321,199730,101,8,0:0:0:0:
178,87,199940,2,0,B|205:136|205:136|188:200,1,113.999996520996,8|8,0:0|0:0,0:0:0:0:
430,63,200359,21,8,0:0:0:0:
334,297,200569,2,0,B|307:248|307:248|324:184,1,113.999996520996,8|8,0:0|0:0,0:0:0:0:
512,33,200987,21,0,0:0:0:0:
256,192,206013,12,0,210411,0:0:0:0:
318,283,211039,70,0,B|367:248|380:184|380:184|411:254|476:262,1,237.5,0|0,0:0|0:0,0:0:0:0:
396,323,211982,1,0,0:0:0:0:
380,184,212139,54,0,L|368:23,1,142.5,0|0,0:0|0:0,0:0:0:0:
227,151,212767,1,0,0:0:0:0:
227,151,212924,2,0,L|171:140,2,47.5,0|0|0,0:0|0:0|0:0,0:0:0:0:
479,267,213552,54,0,P|433:210|286:264,1,237.5
258,330,214495,1,0,0:0:0:0:
90,230,214652,54,0,P|189:228|219:265,1,142.5,0|0,0:0|0:0,0:0:0:0:
138,311,215280,1,0,0:0:0:0:
138,311,215437,2,0,L|133:366,1,47.5,0|0,0:0|0:0,0:0:0:0:
297,173,215751,2,0,L|302:228,1,47.5
76,84,216065,54,0,B|129:26|129:26|106:187,1,237.5
16,139,217008,1,0,0:0:0:0:
219,83,217165,2,0,L|377:89,1,142.5,0|0,0:0|0:0,0:0:0:0:
395,337,217950,54,0,P|320:267|460:288,1,332.5,0|0,0:0|0:0,0:0:0:0:
392,265,218578,37,8,0:0:0:0:
361,88,218736,1,2,0:0:0:0:
361,88,218893,1,2,0:0:0:0:
289,269,219050,21,8,0:0:0:0:
361,88,219208,1,2,0:0:0:0:
361,88,219365,1,2,0:0:0:0:
195,222,219521,21,8,0:0:0:0:
361,88,219678,1,2,0:0:0:0:
117,57,219835,21,8,0:0:0:0:
195,222,219992,1,2,0:0:0:0:
195,222,220149,1,2,0:0:0:0:
117,57,220306,21,8,0:0:0:0:
98,277,220463,1,2,0:0:0:0:
98,277,220620,1,2,0:0:0:0:
117,57,220777,21,8,0:0:0:0:
0,246,220934,1,2,0:0:0:0:
255,107,221092,21,8,0:0:0:0:
325,302,221249,1,2,0:0:0:0:
325,302,221406,1,2,0:0:0:0:
255,83,221563,21,8,0:0:0:0:
180,323,221720,1,2,0:0:0:0:
180,323,221877,1,2,0:0:0:0:
254,60,222034,21,8,0:0:0:0:
256,375,222191,1,2,0:0:0:0:
29,244,222348,21,8,0:0:0:0:
170,228,222505,1,2,0:0:0:0:
29,244,222662,1,2,0:0:0:0:
321,339,222819,21,8,0:0:0:0:
180,323,222976,1,2,0:0:0:0:
321,339,223133,1,2,0:0:0:0:
172,120,223290,21,8,0:0:0:0:
353,108,223448,1,2,0:0:0:0:
91,177,223605,21,8,0:0:0:0:
63,139,223683,1,2,0:0:0:0:
63,91,223762,1,2,0:0:0:0:
86,50,223840,1,2,0:0:0:0:
130,21,223919,21,8,0:0:0:0:
181,15,223997,1,2,0:0:0:0:
231,28,224075,1,2,0:0:0:0:
266,66,224154,1,2,0:0:0:0:
289,123,224232,21,8,0:0:0:0:
267,182,224311,1,2,0:0:0:0:
211,210,224390,1,2,0:0:0:0:
188,268,224468,1,2,0:0:0:0:
207,338,224547,21,8,0:0:0:0:
269,383,224625,1,2,0:0:0:0:
342,383,224704,1,2,0:0:0:0:
407,344,224783,1,2,0:0:0:0:
419,316,224861,102,0,L|432:230,1,85.5,2|0,0:0|0:0,0:0:0:0:
466,209,225647,54,0,L|449:321,1,95,2|0,0:0|0:0,0:0:0:0:
198,274,225804,2,0,P|102:237|220:237,1,285,8|0,0:0|0:0,0:0:0:0:
348,151,226118,86,0,B|285:119|285:119|309:307,1,213.750008153916,2|0,0:0|0:0,0:0:0:0:
320,354,226432,2,0,L|336:237,1,80.750001540184,8|0,0:0|0:0,0:0:0:0:
429,107,226589,54,0,B|444:142|444:142|433:200,1,71.2500027179719,4|0,0:0|0:0,0:0:0:0:
198,274,226746,2,0,B|183:239|183:239|194:181,1,71.2500027179719,4|0,0:0|0:0,0:0:0:0:
283,102,226903,1,2,0:0:0:0:
10,136,227060,54,0,B|74:127|74:127|109:186|109:186|158:168|158:168|250:211,1,242.250004620552,8|0,0:0|0:0,0:0:0:0:
219,284,227374,2,0,L|134:246,1,71.2500027179719,4|0,0:0|0:0,0:0:0:0:
145,79,227531,1,2,0:0:0:0:
34,213,227688,54,0,P|25:243|34:285,1,71.2500027179719,8|0,0:0|0:0,0:0:0:0:
139,355,227845,2,0,P|169:347|201:319,1,71.2500027179719,4|0,0:0|0:0,0:0:0:0:
209,192,228003,2,0,P|187:169|146:155,1,71.2500027179719,4|0,0:0|0:0,0:0:0:0:
127,253,228160,1,2,0:0:0:0:
389,275,228317,54,0,L|241:264,1,142.500005435944,8|4,0:0|0:0,0:0:0:0:
301,119,228631,2,0,L|308:212,1,71.2500027179719,4|0,0:0|0:0,0:0:0:0:
320,361,228788,1,2,0:0:0:0:
395,188,228945,54,0,B|419:157|419:157|421:113,1,76,8|0,0:0|0:0,0:0:0:0:
193,163,229102,2,0,B|208:202|208:202|247:226,1,80.750001540184,4|0,0:0|0:0,0:0:0:0:
319,4,229259,2,0,B|277:-3|277:-3|236:19,1,85.4999973907472,4|0,0:0|0:0,0:0:0:0:
298,105,229416,1,2,0:0:0:0:
125,74,229573,54,0,B|5:42|5:42|34:116,1,180.49999518013,8|4,0:0|0:0,0:0:0:0:
217,237,229809,2,0,B|256:133|180:161|228:35,1,170.999994781494,2|0,0:0|0:0,0:0:0:0:
376,97,230044,2,0,P|338:111|298:105,1,80.750001540184,2|0,0:0|0:0,0:0:0:0:
54,193,230201,2,0,P|104:178|159:194,1,95,8|0,0:0|0:0,0:0:0:0:
240,316,230359,53,4,0:0:0:0:
240,316,230437,1,0,0:0:0:0:
240,316,230516,2,0,L|231:207,1,85.4999973907472,2|0,0:0|0:0,0:0:0:0:
427,351,230673,2,0,L|351:343,1,76,2|0,0:0|0:0,0:0:0:0:
502,143,230830,2,0,B|435:159|435:159|398:204|398:204|302:220,1,199.499993911743,12|0,0:0|0:0,0:0:0:0:
100,14,231144,54,0,B|163:42|163:42|141:209,1,213.750008153916,2|0,0:0|0:0,0:0:0:0:
129,295,231458,1,8,0:0:0:0:
46,85,231615,2,0,L|79:175,1,71.2500027179719,4|0,0:0|0:0,0:0:0:0:
264,115,231772,2,0,L|216:187,1,71.2500027179719,4|0,0:0|0:0,0:0:0:0:
129,295,231929,2,0,B|138:259|138:259|133:235|133:235|148:163,1,95,2|0,0:0|0:0,0:0:0:0:
394,19,232086,54,0,P|442:141|317:44,1,403.75000770092,8|0,0:0|0:0,0:0:0:0:
376,97,232558,2,0,P|403:130|404:180,1,71.2500027179719,2|0,0:0|0:0,0:0:0:0:
490,150,232715,2,0,P|484:192|448:227,1,76,8|0,0:0|0:0,0:0:0:0:
250,147,232872,2,0,P|292:142|334:168,1,80.750001540184,4|0,0:0|0:0,0:0:0:0:
375,357,233029,54,0,B|393:316|393:316|377:251,1,85.4999973907472,4|0,0:0|0:0,0:0:0:0:
177,93,233186,2,0,B|159:134|159:134|175:199,1,85.4999973907472,2|0,0:0|0:0,0:0:0:0:
301,303,233343,2,0,B|247:292|217:241|217:241|180:293|108:297,1,213.750008153916,8|0,0:0|0:0,0:0:0:0:
46,356,233657,54,0,L|34:258,1,71.2500027179719,4|0,0:0|0:0,0:0:0:0:
26,205,233814,1,2,0:0:0:0:
152,315,233971,2,0,L|171:153,1,142.500005435944,8|4,0:0|0:0,0:0:0:0:
240,364,234285,2,0,L|281:274,1,71.2500027179719,4|0,0:0|0:0,0:0:0:0:
305,225,234442,1,2,0:0:0:0:
111,100,234599,54,0,B|180:79|180:79|252:124,1,142.500005435944,8|4,0:0|0:0,0:0:0:0:
225,246,234835,2,0,B|156:267|156:267|84:222,1,142.500005435944,2|0,0:0|0:0,0:0:0:0:
20,130,235071,2,0,L|127:120,1,80.750001540184,2|0,0:0|0:0,0:0:0:0:
188,10,235228,2,0,L|177:100,1,71.2500027179719,8|0,0:0|0:0,0:0:0:0:
168,173,235385,1,4,0:0:0:0:
334,127,235542,54,0,L|323:48,1,80.750001540184,2|0,0:0|0:0,0:0:0:0:
466,15,235699,2,0,L|453:105,1,80.750001540184,2|0,0:0|0:0,0:0:0:0:
512,219,235856,2,0,P|427:195|333:296,1,213.750008153916,12|0,0:0|0:0,0:0:0:0:
240,364,236170,54,0,B|179:321|179:321|204:141,1,213.750008153916,2|0,0:0|0:0,0:0:0:0:
221,25,236484,2,0,B|215:55|215:55|222:81|222:81|210:134,1,80.750001540184,8|0,0:0|0:0,0:0:0:0:
344,246,236641,54,0,L|253:226,1,71.2500027179719,4|0,0:0|0:0,0:0:0:0:
35,266,236798,2,0,L|104:250,1,71.2500027179719,4|0,0:0|0:0,0:0:0:0:
135,86,236955,1,2,0:0:0:0:
471,107,237112,54,0,B|398:110|316:55|316:55|342:94|332:150,1,242.250004620552,8|0,0:0|0:0,0:0:0:0:
423,287,237427,2,0,P|431:249|419:207,1,71.2500027179719,4|0,0:0|0:0,0:0:0:0:
245,113,237584,1,2,0:0:0:0:
112,252,237741,54,0,P|117:290|143:325,1,71.2500027179719,8|0,0:0|0:0,0:0:0:0:
298,298,237898,2,0,P|328:274|346:234,1,71.2500027179719,4|0,0:0|0:0,0:0:0:0:
245,113,238055,2,0,P|208:98|165:103,1,71.2500027179719,4|0,0:0|0:0,0:0:0:0:
219,220,238212,1,2,0:0:0:0:
322,13,238369,54,0,L|345:154,1,142.500005435944,8|4,0:0|0:0,0:0:0:0:
298,298,238683,2,0,L|387:286,1,71.2500027179719,4|0,0:0|0:0,0:0:0:0:
457,276,238840,1,2,0:0:0:0:
399,17,238997,54,0,B|407:56|407:56|445:90,1,76,8|0,0:0|0:0,0:0:0:0:
297,195,239154,2,0,B|326:168|326:168|337:118,1,80.750001540184,4|0,0:0|0:0,0:0:0:0:
502,194,239311,2,0,B|461:181|461:181|415:197,1,85.4999973907472,4|0,0:0|0:0,0:0:0:0:
245,113,239469,1,2,0:0:0:0:
298,298,239626,54,0,B|239:309|239:309|203:354|203:354|134:368,1,180.49999518013,8|4,0:0|0:0,0:0:0:0:
0,168,239861,2,0,B|67:117|67:117|163:155,1,170.999994781494,2|0,0:0|0:0,0:0:0:0:
96,293,240097,2,0,L|84:214,1,80.750001540184,2|0,0:0|0:0,0:0:0:0:
84,20,240254,54,0,L|188:61,1,95,8|0,0:0|0:0,0:0:0:0:
335,128,240411,1,4,0:0:0:0:
335,128,240489,1,0,0:0:0:0:
335,128,240568,2,0,P|342:85|360:33,1,85.4999973907472,2|0,0:0|0:0,0:0:0:0:
159,141,240725,2,0,P|171:181|178:223,1,76,2|0,0:0|0:0,0:0:0:0:
305,364,240882,2,0,L|292:255,1,66.4999979705811,12|0,0:0|0:0,0:0:0:0:
262,165,241039,1,0,0:0:0:0:
262,165,241118,1,0,0:0:0:0:
262,165,241196,54,0,B|377:143|335:253|495:202,1,213.750008153916,2|0,0:0|0:0,0:0:0:0:
501,198,241510,1,8,0:0:0:0:
294,252,241667,2,0,L|302:342,1,71.2500027179719,4|0,0:0|0:0,0:0:0:0:
430,133,241825,2,0,L|438:43,1,71.2500027179719,4|0,0:0|0:0,0:0:0:0:
206,239,241982,53,2,0:0:0:0:
432,292,242139,1,8,0:0:0:0:
189,366,242296,1,4,0:0:0:0:
335,128,242453,54,0,L|326:223,1,66.4999979705811,4|0,0:0|0:0,0:0:0:0:
312,297,242610,1,2,0:0:0:0:
28,168,242767,54,0,P|76:160|113:180,1,76,8|0,0:0|0:0,0:0:0:0:
351,369,242924,2,0,P|315:379|278:370,1,76,6|0,0:0|0:0,0:0:0:0:
0,286,243081,54,0,P|28:246|69:235,1,85.4999973907472,12|0,0:0|0:0,0:0:0:0:
374,246,243238,2,0,P|345:285|304:296,1,85.4999973907472,2|0,0:0|0:0,0:0:0:0:
189,366,243395,53,8,0:0:0:0:
168,98,243552,1,12,0:0:0:0:
480,280,243709,86,0,L|452:277,1,28.5,2|0,0:0|0:0,0:0:0:0:
374,246,244023,86,0,B|350:98|350:98|440:164,1,213.750008153916,8|0,0:0|0:0,0:0:0:0:
484,120,244338,2,0,P|485:155|467:185,1,71.2500027179719,4|0,0:0|0:0,0:0:0:0:
276,212,244495,2,0,P|248:189|238:156,1,71.2500027179719,2|0,0:0|0:0,0:0:0:0:
488,328,244652,54,0,L|408:320,1,71.2500027179719,8|0,0:0|0:0,0:0:0:0:
296,312,244809,2,0,L|216:304,1,71.2500027179719,4|0,0:0|0:0,0:0:0:0:
54,232,244966,54,0,B|38:220|18:220|18:220|78:180|150:224,1,161.500003080368,4|2,0:0|0:0,0:0:0:0:
142,220,245201,1,0,0:0:0:0:
150,224,245280,2,0,L|138:145,1,71.2500027179719,8|0,0:0|0:0,0:0:0:0:
2,64,245437,54,0,P|37:63|68:79,1,71.2500027179719,4|0,0:0|0:0,0:0:0:0:
235,25,245594,2,0,P|201:35|176:60,1,71.2500027179719,4|0,0:0|0:0,0:0:0:0:
44,352,245751,54,0,P|82:343|112:316,1,80.750001540184,2|0,0:0|0:0,0:0:0:0:
296,312,245908,2,0,P|256:313|219:296,1,80.750001540184,8|0,0:0|0:0,0:0:0:0:
139,153,246065,2,0,L|151:232,1,80.750001540184,4|0,0:0|0:0,0:0:0:0:
178,372,246222,53,4,0:0:0:0:
279,112,246379,2,0,P|319:104|371:132,1,80.750001540184,2|0,0:0|0:0,0:0:0:0:
512,154,246537,2,0,P|498:192|448:223,1,80.750001540184,8|0,0:0|0:0,0:0:0:0:
359,335,246694,2,0,P|332:304|330:245,1,80.750001540184,4|0,0:0|0:0,0:0:0:0:
383,200,246851,54,0,B|320:190|320:190|276:202|276:202|208:190,1,170.999994781494,4|2,0:0|0:0,0:0:0:0:
139,143,247086,1,0,0:0:0:0:
137,158,247165,2,0,B|121:282|121:282|177:242,1,170.999994781494,8|4,0:0|0:0,0:0:0:0:
192,74,247400,54,0,P|111:60|56:121,1,170.999994781494,2|0,0:0|0:0,0:0:0:0:
248,258,247636,2,0,P|280:230|288:190,1,85.4999973907472,2|0,0:0|0:0,0:0:0:0:
0,209,247793,2,0,B|100:193|60:269|180:253,1,170.999994781494,8|4,0:0|0:0,0:0:0:0:
164,262,248029,1,0,0:0:0:0:
170,268,248107,54,0,L|158:372,1,71.2500027179719,2|0,0:0|0:0,0:0:0:0:
400,255,248264,2,0,P|364:258|331:247,1,71.2500027179719,2|0,0:0|0:0,0:0:0:0:
214,142,248421,54,0,B|274:94|274:94|290:170|290:170|230:210|254:298,1,256.499992172241,12|0,0:0|0:0,0:0:0:0:
44,126,248736,22,0,P|76:110|140:126,1,61.7499971733095,2|0,0:0|0:0,0:0:0:0:
114,111,248893,54,0,P|62:95|2:135,1,95,2|0,0:0|0:0,0:0:0:0:
147,346,249050,54,0,P|147:310|161:278,1,71.2500027179719,2|0,0:0|0:0,0:0:0:0:
170,268,249207,54,0,P|130:305|134:376,1,95,2|0,0:0|0:0,0:0:0:0:
389,355,249364,53,2,0:0:0:0:
406,303,249442,1,2,0:0:0:0:
368,264,249521,1,2,0:0:0:0:
316,280,249599,1,2,0:0:0:0:
306,333,249678,22,0,P|368:264|389:355,1,228,8|0,0:0|0:0,0:0:0:0:
300,200,249992,54,0,B|280:92|280:92|304:132|348:128,1,170.999994781494,4|2,0:0|0:0,0:0:0:0:
432,112,250228,1,0,0:0:0:0:
432,112,250306,54,0,P|448:56|412:-8,1,85.4999973907472,8|0,0:0|0:0,0:0:0:0:
192,4,250463,2,0,P|185:61|232:118,1,85.4999973907472,4|0,0:0|0:0,0:0:0:0:
423,312,250620,54,0,P|432:270|420:230,1,85.4999973907472,4|0,0:0|0:0,0:0:0:0:
184,203,250777,2,0,P|168:243|173:285,1,85.4999973907472,2|0,0:0|0:0,0:0:0:0:
492,56,250934,54,0,B|457:10|389:30|389:30|340:104|257:66,1,242.250004620552,8|0,0:0|0:0,0:0:0:0:
15,87,251249,54,0,B|23:63|59:7|147:55|147:55|139:111|51:107,1,242.250004620552,4|0,0:0|0:0,0:0:0:0:
89,106,251563,2,0,P|120:156|104:212,1,80.750001540184,8|0,0:0|0:0,0:0:0:0:
60,344,251720,1,4,0:0:0:0:
8,276,251877,54,0,P|68:256|144:352,1,161.500003080368,4|2,0:0|0:0,0:0:0:0:
208,372,252112,1,0,0:0:0:0:
216,360,252191,54,0,P|228:320|196:248,1,80.750001540184,8|0,0:0|0:0,0:0:0:0:
336,192,252348,1,4,0:0:0:0:
348,200,252427,2,0,P|296:220|228:136,1,152,2|0,0:0|0:0,0:0:0:0:
356,44,252662,54,0,L|368:136,1,76,2|0,0:0|0:0,0:0:0:0:
396,352,252819,2,0,L|384:260,1,76,8|0,0:0|0:0,0:0:0:0:
432,188,252976,1,4,0:0:0:0:
151,296,253133,53,8,0:0:0:0:
144,292,253212,1,8,0:0:0:0:
137,288,253290,2,0,L|239:300,1,76,2|2,0:0|0:0,0:0:0:0:
365,119,253448,54,0,P|323:113|281:135,1,85.4999973907472,12|0,0:0|0:0,0:0:0:0:
444,340,253605,2,0,P|470:306|472:259,1,85.4999973907472,2|0,0:0|0:0,0:0:0:0:
213,297,253762,54,0,B|224:349|273:360|273:360|328:289|284:220|212:204,1,253.65000019352,2|0,0:0|0:0,0:0:0:0:
253,220,254076,2,0,P|298:233|357:219,1,84.5500000645065,8|0,0:0|0:0,0:0:0:0:
83,360,254233,2,0,P|41:355|0:367,1,84.5500000645065,4|0,0:0|0:0,0:0:0:0:
196,156,254390,54,0,B|132:100|132:100|77:183,1,169.100000129013,4|2,0:0|0:0,0:0:0:0:
159,316,254626,1,0,0:0:0:0:
157,303,254704,2,0,L|143:185,1,84.5500000645065,8|0,0:0|0:0,0:0:0:0:
133,101,254861,2,0,L|123:17,1,84.5500000645065,4|0,0:0|0:0,0:0:0:0:
460,40,255018,54,0,P|390:113|315:72,1,169.100000129013,4|2,0:0|0:0,0:0:0:0:
329,91,255254,1,0,0:0:0:0:
323,86,255332,2,0,L|340:192,1,84.5500000645065,8|0,0:0|0:0,0:0:0:0:
233,299,255489,54,0,P|254:259|242:195,1,84.5500000645065,4|0,0:0|0:0,0:0:0:0:
476,256,255647,2,0,P|444:227|431:188,1,84.5500000645065,4|0,0:0|0:0,0:0:0:0:
356,284,255804,54,0,L|373:390,1,84.5500000645065,2|0,0:0|0:0,0:0:0:0:
336,169,255961,2,0,B|312:20|312:20|240:108,1,228,8|0,0:0|0:0,0:0:0:0:
0,152,256275,54,0,B|96:140|52:208|148:196,1,161.500003080368,4|2,0:0|0:0,0:0:0:0:
220,152,256510,1,0,0:0:0:0:
220,152,256589,2,0,B|232:192|232:192|220:240,1,80.750001540184,8|0,0:0|0:0,0:0:0:0:
20,312,256746,2,0,B|8:272|8:272|20:224,1,80.750001540184,4|0,0:0|0:0,0:0:0:0:
128,36,256903,54,0,L|136:132,1,80.750001540184,4|0,0:0|0:0,0:0:0:0:
164,356,257060,1,2,0:0:0:0:
164,356,257139,1,0,0:0:0:0:
164,356,257217,2,0,P|124:312|216:316,1,170.999994781494,8|4,0:0|0:0,0:0:0:0:
440,324,257453,54,0,B|392:300|392:300|260:328,1,180.49999518013,2|0,0:0|0:0,0:0:0:0:
267,326,257688,2,0,P|283:283|251:211,1,90.2499975900651,2|0,0:0|0:0,0:0:0:0:
452,178,257846,2,0,P|407:185|360:248,1,90.2499975900651,8|0,0:0|0:0,0:0:0:0:
232,92,258003,2,0,P|260:127|338:135,1,90.2499975900651,4|0,0:0|0:0,0:0:0:0:
404,28,258160,54,0,L|284:48,1,83.1250007927418,2|0,0:0|0:0,0:0:0:0:
0,153,258317,2,0,L|120:173,1,83.1250007927418,2|0,0:0|0:0,0:0:0:0:
331,254,258474,2,0,B|343:222|370:211|370:211|283:186|243:270,1,190,12|2,0:0|0:0,0:0:0:0:
190,330,258709,1,2,0:0:0:0:
190,330,258788,53,8,0:0:0:0:
81,166,258945,1,2,0:0:0:0:
256,248,259102,53,8,0:0:0:0:
103,154,259259,1,6,0:0:0:0:
276,152,259416,53,8,0:0:0:0:
119,138,259573,1,6,0:0:0:0:
254,68,259730,53,8,0:0:0:0:
130,119,259887,1,6,0:0:0:0:
205,11,260044,53,12,0:0:0:0:
134,97,260201,1,2,0:0:0:0:
254,68,260359,53,8,0:0:0:0:
207,225,260516,1,6,0:0:0:0:
328,75,260673,53,12,0:0:0:0:
357,266,260830,1,6,0:0:0:0:
390,35,260987,53,8,0:0:0:0:
512,203,261144,1,6,0:0:0:0:
395,336,261301,53,12,0:0:0:0:
358,344,261379,1,2,0:0:0:0:
321,335,261458,1,2,0:0:0:0:
292,311,261536,1,2,0:0:0:0:
269,384,261615,53,8,0:0:0:0:
242,369,261693,1,2,0:0:0:0:
223,345,261772,1,6,0:0:0:0:
218,316,261850,1,2,0:0:0:0:
152,353,261929,53,12,0:0:0:0:
144,335,262007,1,2,0:0:0:0:
141,316,262086,1,2,0:0:0:0:
143,298,262164,1,2,0:0:0:0:
69,296,262243,53,8,0:0:0:0:
70,283,262322,1,2,0:0:0:0:
74,271,262400,1,6,0:0:0:0:
80,260,262479,1,2,0:0:0:0:
47,196,262558,22,0,P|83:188|139:220,1,104.5,12|0,0:0|0:0,0:0:0:0:
139,220,263500,22,0,B|128:200|106:194|106:194|179:232|259:195,1,185.249991519928,2|0,0:3|0:0,0:0:0:0:
347,79,263814,54,0,B|373:42|316:6|316:6|265:41|254:100|285:148|339:155,1,285,2|0,0:0|0:0,0:0:0:0:
492,191,264128,54,0,B|510:65|510:65|446:127,1,180.49999518013,8|4,0:0|0:0,0:0:0:0:
431,263,264364,1,0,0:0:0:0:
450,280,264442,54,0,P|473:291|525:281,1,66.4999979705811,4|0,0:0|0:0,0:0:0:0:
413,152,264599,1,2,0:0:0:0:
324,347,264756,54,0,B|281:342|281:342|242:358|242:358|208:334|208:334|132:323,1,161.500003080368,8|4,0:0|0:0,0:0:0:0:
92,371,264992,1,0,0:0:0:0:
92,371,265071,2,0,B|76:328|76:328|100:259,1,80.750001540184,4|0,0:0|0:0,0:0:0:0:
247,180,265228,2,0,B|263:223|263:223|239:292,1,80.750001540184,2|0,0:0|0:0,0:0:0:0:
173,329,265385,53,8,0:0:0:0:
406,356,265542,1,4,0:0:0:0:
290,109,265699,53,4,0:0:0:0:
292,363,265856,1,2,0:0:0:0:
457,73,266013,54,0,P|416:68|368:89,1,85.4999973907472,8|0,0:0|0:0,0:0:0:0:
293,192,266170,2,0,P|283:246|312:302,1,85.4999973907472,4|0,0:0|0:0,0:0:0:0:
444,296,266327,54,0,P|456:183|383:235,1,256.499992172241,4|0,0:0|0:0,0:0:0:0:
229,336,266641,54,0,P|206:297|202:241,1,85.4999973907472,8|0,0:0|0:0,0:0:0:0:
206,100,266798,2,0,P|241:62|310:52,1,85.4999973907472,4|0,0:0|0:0,0:0:0:0:
384,227,266955,54,0,B|322:221|295:163|295:163|276:245|178:264,1,256.499992172241,4|0,0:0|0:0,0:0:0:0:
4,261,267270,54,0,B|-29:216|-29:216|145:244,1,190,8|4,0:0|0:0,0:0:0:0:
200,258,267505,1,2,0:0:0:0:
200,258,267584,53,4,0:0:0:0:
89,63,267741,1,2,0:0:0:0:
13,356,267898,2,0,B|56:366|90:328|90:328|127:317|183:376,1,161.500003080368,8|4,0:0|0:0,0:0:0:0:
284,361,268133,1,0,0:0:0:0:
284,361,268212,2,0,L|278:245,1,80.750001540184,2|0,0:0|0:0,0:0:0:0:
309,113,268369,1,2,0:0:0:0:
506,245,268526,54,0,B|380:199|410:327|267:276,1,242.250004620552,12|0,0:0|0:0,0:0:0:0:
123,123,268840,54,0,B|170:107|199:46|199:46|156:121|175:246,1,285,2|0,0:0|0:0,0:0:0:0:
110,287,269154,54,0,P|151:307|193:300,1,76,8|0,0:0|0:0,0:0:0:0:
309,113,269311,2,0,P|347:97|393:106,1,76,4|0,0:0|0:0,0:0:0:0:
506,245,269469,1,4,0:0:0:0:
284,361,269626,1,2,0:0:0:0:
278,349,269704,1,0,0:0:0:0:
272,336,269783,54,0,B|259:297|259:297|282:220,1,76,8|0,0:0|0:0,0:0:0:0:
269,49,269940,2,0,B|282:88|282:88|259:165,1,76,4|0,0:0|0:0,0:0:0:0:
110,287,270097,54,0,L|-19:278,2,76,4|0|2,0:0|0:0|0:0,0:0:0:0:
500,347,270411,2,0,P|491:273|482:163,1,152,8|4,0:0|0:0,0:0:0:0:
486,103,270647,1,0,0:0:0:0:
486,103,270725,54,0,P|448:106|407:155,1,76,4|0,0:0|0:0,0:0:0:0:
333,104,270882,2,0,P|324:141|359:194,1,76,2|0,0:0|0:0,0:0:0:0:
500,347,271039,54,0,P|462:344|421:295,1,76,8|0,0:0|0:0,0:0:0:0:
347,346,271196,2,0,P|338:308|373:255,1,76,4|0,0:0|0:0,0:0:0:0:
486,103,271353,54,0,B|544:65|524:-24|395:46|475:197,1,270.749992770195,4|0,0:0|0:0,0:0:0:0:
500,347,271667,2,0,B|435:335|435:335|382:357|382:357|291:340,1,190,8|4,0:0|0:0,0:0:0:0:
200,278,271903,53,0,0:0:0:0:
193,260,271982,2,0,B|184:216|184:216|210:156,1,80.750001540184,4|0,0:0|0:0,0:0:0:0:
377,187,272139,2,0,B|386:231|386:231|360:291,1,80.750001540184,2|0,0:0|0:0,0:0:0:0:
284,338,272296,54,0,L|291:91,1,190,8|4,0:0|0:0,0:0:0:0:
289,62,272531,1,2,0:0:0:0:
289,62,272610,54,0,L|182:75,1,76,4|0,0:0|0:0,0:0:0:0:
83,89,272767,2,0,L|-24:102,1,76,2|0,0:0|0:0,0:0:0:0:
135,160,272924,54,0,B|192:119|181:49|134:14|134:14|96:22|76:43|76:43|69:78|91:100,1,285,8|0,0:0|0:0,0:0:0:0:
42,274,273238,53,2,0:0:0:0:
38,258,273317,1,0,0:0:0:0:
35,243,273395,2,0,L|127:249,1,76,2|0,0:0|0:0,0:0:0:0:
322,322,273552,53,8,0:0:0:0:
362,269,273631,1,0,0:0:0:0:
335,213,273709,1,4,0:0:0:0:
269,213,273788,1,0,0:0:0:0:
240,269,273866,54,0,P|285:206|288:325,1,270.749992770195,2|0,0:0|0:0,0:0:0:0:
436,346,274181,54,0,P|458:298|451:240,1,85.4999973907472,8|0,0:0|0:0,0:0:0:0:
375,130,274338,2,0,P|320:110|278:119,1,85.4999973907472,4|0,0:0|0:0,0:0:0:0:
160,309,274495,54,0,B|132:237|177:166|177:166|128:215|30:197,1,256.499992172241,4|0,0:0|0:0,0:0:0:0:
38,52,274809,54,0,P|129:41|61:116,1,228,8|0,0:0|0:0,0:0:0:0:
1,128,275123,53,4,0:0:0:0:
208,7,275280,2,0,B|247:-3|247:-3|317:27,1,76,2|0,0:0|0:0,0:0:0:0:
332,203,275437,2,0,B|371:213|371:213|441:183,1,76,8|0,0:0|0:0,0:0:0:0:
491,76,275594,1,4,0:0:0:0:
433,369,275751,53,4,0:0:0:0:
352,32,275908,2,0,L|357:83,3,50.6666666666667
207,364,276222,1,4,0:0:0:0:
207,364,276301,1,0,0:0:0:0:
207,364,276379,54,0,P|128:377|77:317,1,152,4|2,0:0|0:0,0:0:0:0:
118,195,276615,1,0,0:0:0:0:
138,214,276694,2,0,P|156:242|155:300,1,76,8|0,0:0|0:0,0:0:0:0:
80,330,276851,54,0,L|-27:321,1,85.4999973907472,4|0,0:0|0:0,0:0:0:0:
27,110,277008,2,0,L|135:103,1,85.4999973907472,4|0,0:0|0:0,0:0:0:0:
326,84,277165,1,2,0:0:0:0:
264,212,277322,54,0,B|227:246|227:246|256:55,1,180.49999518013,8|0,0:0|0:0,0:0:0:0:
187,55,277558,1,2,0:0:0:0:
187,55,277636,54,0,P|272:39|337:124,1,161.500003080368,0|2,0:0|0:0,0:0:0:0:
137,124,277872,1,0,0:0:0:0:
137,124,277950,2,0,L|43:112,1,80.750001540184,8|0,0:0|0:0,0:0:0:0:
57,299,278107,2,0,L|151:287,1,80.750001540184,4|0,0:0|0:0,0:0:0:0:
399,189,278264,53,2,0:0:0:0:
91,207,278421,1,2,0:0:0:0:
442,96,278578,53,8,0:0:0:0:
499,141,278657,1,0,0:0:0:0:
509,213,278736,1,4,0:0:0:0:
476,277,278814,1,0,0:0:0:0:
405,298,278893,53,8,0:0:0:0:
382,34,279050,1,2,0:0:0:0:
319,334,279207,53,8,0:0:0:0:
296,70,279364,1,6,0:0:0:0:
197,335,279521,53,12,0:0:0:0:
220,71,279678,1,2,0:0:0:0:
107,294,279835,53,8,0:0:0:0:
130,30,279992,1,6,0:0:0:0:
197,335,280149,53,12,0:0:0:0:
44,45,280306,1,2,0:0:0:0:
231,359,280463,53,8,0:0:0:0:
186,45,280620,1,6,0:0:0:0:
281,359,280777,53,12,0:0:0:0:
326,45,280934,1,2,0:0:0:0:
315,335,281092,53,8,0:0:0:0:
468,45,281249,1,6,0:0:0:0:
479,301,281406,53,12,0:0:0:0:
438,350,281484,1,2,0:0:0:0:
373,363,281563,1,2,0:0:0:0:
315,335,281641,1,2,0:0:0:0:
290,279,281720,53,8,0:0:0:0:
243,215,281798,1,2,0:0:0:0:
172,195,281877,1,6,0:0:0:0:
106,225,281955,1,2,0:0:0:0:
82,294,282034,53,12,0:0:0:0:
116,357,282112,1,2,0:0:0:0:
185,378,282191,1,2,0:0:0:0:
252,350,282270,1,2,0:0:0:0:
290,279,282348,53,8,0:0:0:0:
243,215,282427,1,2,0:0:0:0:
238,129,282505,1,6,0:0:0:0:
289,62,282584,1,2,0:0:0:0:
373,44,282662,53,12,0:0:0:0:
449,85,282741,1,2,0:0:0:0:
478,169,282819,1,2,0:0:0:0:
445,248,282898,1,2,0:0:0:0:
372,287,282976,1,8,0:0:0:0:
290,279,283055,1,2,0:0:0:0:
243,215,283133,1,6,0:0:0:0:
238,129,283212,1,2,0:0:0:0:
185,62,283290,54,2,B|118:26|25:71|2:137|-18:223|81:301|81:301|144:252|142:179|142:179|137:289|231:328,1,665,12|0,0:0|0:0,0:0:0:0:
252,350,283919,69,2,0:1:0:0:
444,310,284233,2,0,P|399:279|311:297,1,142.500005435944,0|0,0:0|0:0,0:0:0:0:
252,350,284704,22,0,B|228:309|228:309|240:241,1,95,0|0,0:0|0:0,0:0:0:0:
371,145,285018,2,0,B|347:186|347:186|282:209,1,95,0|0,0:0|0:0,0:0:0:0:
134,145,285332,2,0,B|181:144|181:144|234:189,1,95,0|0,0:0|0:0,0:0:0:0:
316,292,285647,1,0,0:0:0:0:
316,292,285804,1,0,0:0:0:0:
152,229,285961,1,0,0:0:0:0:
288,118,286118,22,0,B|242:69|242:69|274:249,1,213.750008153916,0|0,0:0|0:0,0:0:0:0:
267,213,286432,22,0,L|180:205,1,71.25,0|0,0:0|0:0,0:0:0:0:
15,270,286746,22,0,B|111:248|77:339|195:305,1,190,0|0,0:0|0:0,0:0:0:0:
421,280,287217,22,0,P|394:321|399:385,1,95
191,306,287531,2,0,P|225:337|238:383,1,95,0|0,0:0|0:0,0:0:0:0:
505,229,287845,2,0,P|456:234|410:279,1,95,0|0,0:0|0:0,0:0:0:0:
102,276,288160,2,0,P|148:270|191:289,1,95,0|0,0:0|0:0,0:0:0:0:
312,365,288474,1,0,0:0:0:0:
296,212,288631,21,0,0:0:0:0:
293,188,288709,1,0,0:0:0:0:
291,164,288788,1,0,0:0:0:0:
289,141,288866,1,0,0:0:0:0:
287,117,288945,22,0,L|131:94,1,142.5
196,206,289259,22,0,L|94:222,1,95,0|0,0:0|0:0,0:0:0:0:
11,81,289730,22,0,B|32:115|32:115|15:191,1,95,0|0,0:0|0:0,0:0:0:0:
93,363,290044,2,0,B|114:329|114:329|97:253,1,95
110,110,290359,2,0,L|212:125,1,95,0|0,0:0|0:0,0:0:0:0:
212,302,290673,2,0,L|314:287,1,95,0|0,0:0|0:0,0:0:0:0:
509,163,290987,1,0,0:0:0:0:
509,163,291144,22,0,B|433:158|433:158|387:202|387:202|304:199,1,213.750008153916,0|0,0:0|0:0,0:0:0:0:
313,199,291458,22,0,L|304:121,1,71.25,0|0,0:0|0:0,0:0:0:0:
406,13,291772,22,0,B|466:42|466:42|432:187,1,190,0|0,0:0|0:0,0:0:0:0:
477,242,292243,22,0,B|429:249|429:249|364:216,1,95
236,159,292558,2,0,B|270:125|270:125|342:113,1,95,0|0,0:0|0:0,0:0:0:0:
479,82,292872,2,0,B|470:129|470:129|419:181,1,95,0|0,0:0|0:0,0:0:0:0:
327,288,293186,2,0,B|305:244|305:244|316:172,1,95,0|0,0:0|0:0,0:0:0:0:
330,32,293500,1,0,0:0:0:0:
330,32,293657,22,0,L|321:116,1,71.25,0|0,0:0|0:0,0:0:0:0:
311,198,293971,22,0,P|344:208|408:168,1,95,0|0,0:0|0:0,0:0:0:0:
364,344,294442,22,0,P|356:310|309:277,1,71.2500027179719,0|0,0:0|0:0,0:0:0:0:
252,252,294756,2,0,P|278:274|335:273,1,71.2500027179719,0|0,0:0|0:0,0:0:0:0:
396,260,295071,2,0,P|361:257|315:291,1,71.2500027179719,0|0,0:0|0:0,0:0:0:0:
277,340,295385,2,0,P|306:322|323:267,1,71.2500027179719,0|0,0:0|0:0,0:0:0:0:
328,205,295699,2,0,P|314:236|333:290,1,71.2500027179719,0|0,0:0|0:0,0:0:0:0:
472,295,296013,22,0,L|329:284,1,142.500005435944,0|0,0:0|0:0,0:0:0:0:
259,279,296484,22,0,L|345:285,1,71.25,0|0,0:0|0:0,0:0:0:0:
360,272,296798,22,0,L|217:260,1,142.5,0|0,0:0|0:0,0:0:0:0:
140,252,297112,1,0,0:0:0:0:
217,260,297270,22,0,P|259:255|291:219,1,71.2500027179719,0|0,0:0|0:0,0:0:0:0:
71,288,297584,2,0,P|39:316|35:364,1,71.2500027179719,0|0,0:0|0:0,0:0:0:0:
155,328,297898,2,0,P|172:366|216:385,1,71.2500027179719,0|0,0:0|0:0,0:0:0:0:
81,196,298212,2,0,P|44:175|-2:185,1,71.2500027179719,0|0,0:0|0:0,0:0:0:0:
107,299,298526,21,0,0:0:0:0:
119,332,298605,1,0,0:0:0:0:
100,361,298683,1,0,0:0:0:0:
66,366,298762,1,0,0:0:0:0:
41,342,298840,1,0,0:0:0:0:
43,308,298919,1,0,0:0:0:0:
71,288,298997,1,0,0:0:0:0:
206,149,299311,21,0,0:0:0:0:
262,213,299469,2,0,P|226:233|182:229,1,71.2500027179719,0|0,0:0|0:0,0:0:0:0:
122,165,299783,2,0,P|122:123|148:87,1,71.2500027179719,0|0,0:0|0:0,0:0:0:0:
178,229,300097,2,0,P|142:207|124:167,1,71.2500027179719,0|0,0:0|0:0,0:0:0:0:
150,84,300411,2,0,P|186:64|230:68,1,71.2500027179719,0|0,0:0|0:0,0:0:0:0:
122,165,300725,2,0,P|122:123|148:87,1,71.2500027179719,0|0,0:0|0:0,0:0:0:0:
234,67,301039,2,0,P|269:88|186:133,1,178.12500679493,0|0,0:0|0:0,0:0:0:0:
198,150,301510,22,0,L|366:133,1,142.500005435944,0|0,0:0|0:0,0:0:0:0:
354,253,301982,22,0,P|306:249|270:229,1,71.2500027179719,0|0,0:0|0:0,0:0:0:0:
266,54,302296,2,0,P|297:36|332:30,1,71.2500027179719,0|0,0:0|0:0,0:0:0:0:
446,101,302610,2,0,P|451:135|445:171,1,71.2500027179719,0|0,0:0|0:0,0:0:0:0:
360,272,302924,22,0,P|307:269|268:248,1,95,0|0,0:0|0:0,0:0:0:0:
249,54,303238,22,0,P|295:22|343:19,1,104.500003189087,0|0,0:0|0:0,0:0:0:0:
458,108,303552,22,0,P|463:142|457:178,1,61.7499971733095
308,167,303709,22,0,P|352:107|324:176,1,213.750008153916
384,32,304023,70,0,B|419:0|490:34|473:117|374:147|316:77|316:77|361:134|348:195|276:271|160:254|113:135|128:36|249:27|249:27|218:86|255:130|255:130|167:95|91:164|91:164|125:246|50:302|50:302|-4:279|-9:231|-9:231|-13:355|170:421|276:318|276:318|271:316|271:316|312:293|312:293|305:291|305:291|380:216|496:226|532:290|516:366|483:383|425:386|387:339|421:284,1,2120.40005176758
