osu file format v14

[General]
AudioFilename: zombie.ogg
AudioLeadIn: 0
PreviewTime: 57670
Countdown: 0
SampleSet: Soft
StackLeniency: 0.7
Mode: 3
LetterboxInBreaks: 0
SpecialStyle: 0
WidescreenStoryboard: 1

[Editor]
Bookmarks: 224860
DistanceSpacing: 0.6
BeatDivisor: 4
GridSize: 8
TimelineZoom: 1.9

[Metadata]
Title:ZOMBIE CIRCUS
TitleUnicode:ゾンビー・サーカス
Artist:Camellia
ArtistUnicode:かめりあ
Creator:AlexDunk
Version:INSANE.
Source:
Tags:hybrid long notes technical marathon featured artist fa Kamelcamellia かめるかめりあ 大箭将也 Masaya Oya cametek U.U.F.O. CTCD-022 Hatsune Miku 初音ミク Japanese Electronic Tearout Dubstep Rawstyle famoss vocaloid ボーカロイド ln ending
BeatmapID:3387717
BeatmapSetID:1518740

[Difficulty]
HPDrainRate:7.8
CircleSize:4
OverallDifficulty:7.5
ApproachRate:5
SliderMultiplier:1.4
SliderTickRate:1

[Events]
//Background and Video events
0,0,"ZOMBIE CIRCUS.jpg",0,0
//Break Periods
//Storyboard Layer 0 (Background)
//Storyboard Layer 1 (Fail)
//Storyboard Layer 2 (Pass)
//Storyboard Layer 3 (Foreground)
//Storyboard Layer 4 (Overlay)
//Storyboard Sound Samples

[TimingPoints]
870,400,4,2,1,70,1,0
58470,-100,4,2,1,70,0,1
84070,-100,4,2,1,70,0,0
173670,-100,4,2,1,70,0,1
198470,-100,4,2,1,70,0,0
212070,-100,4,2,1,70,0,1
221670,-100,4,2,1,70,0,0

[HitObjects]
64,192,2470,128,0,2736:0:0:0:0:
320,192,2736,1,0,0:0:0:0:
320,192,3003,1,0,0:0:0:0:
320,192,3270,128,0,3536:0:0:0:0:
192,192,3536,1,0,0:0:0:0:
320,192,3803,1,0,0:0:0:0:
64,192,3936,1,0,0:0:0:0:
448,192,4070,128,0,4336:0:0:0:0:
192,192,4336,1,0,0:0:0:0:
64,192,4603,1,0,0:0:0:0:
320,192,4870,128,0,5136:0:0:0:0:
192,192,5136,1,0,0:0:0:0:
64,192,5403,1,0,0:0:0:0:
320,192,5536,1,0,0:0:0:0:
448,192,5670,128,0,5936:0:0:0:0:
192,192,5936,1,0,0:0:0:0:
64,192,6203,1,0,0:0:0:0:
320,192,6470,128,0,6736:0:0:0:0:
192,192,6736,1,0,0:0:0:0:
448,192,7003,1,0,0:0:0:0:
320,192,7136,1,0,0:0:0:0:
64,192,7270,128,0,7536:0:0:0:0:
448,192,7536,1,0,0:0:0:0:
192,192,7803,1,0,0:0:0:0:
320,192,8070,128,0,8336:0:0:0:0:
448,192,8336,1,0,0:0:0:0:
64,192,8603,1,0,0:0:0:0:
192,192,8870,128,0,9136:0:0:0:0:
320,192,9136,1,0,0:0:0:0:
320,192,9403,1,0,0:0:0:0:
320,192,9670,128,0,9936:0:0:0:0:
64,192,9936,1,0,0:0:0:0:
192,192,10203,1,0,0:0:0:0:
320,192,10336,1,0,0:0:0:0:
448,192,10470,128,0,10736:0:0:0:0:
192,192,10736,1,0,0:0:0:0:
64,192,11003,1,0,0:0:0:0:
320,192,11270,128,0,11536:0:0:0:0:
192,192,11536,1,0,0:0:0:0:
64,192,11803,1,0,0:0:0:0:
320,192,11936,1,0,0:0:0:0:
448,192,12070,128,0,12336:0:0:0:0:
192,192,12336,1,0,0:0:0:0:
64,192,12603,1,0,0:0:0:0:
320,192,12870,128,0,13136:0:0:0:0:
192,192,13136,1,0,0:0:0:0:
448,192,13403,1,0,0:0:0:0:
320,192,13536,1,0,0:0:0:0:
192,192,13670,128,0,13936:0:0:0:0:
64,192,13936,1,0,0:0:0:0:
320,192,14203,1,0,0:0:0:0:
64,192,14470,128,0,19170:0:0:0:0:
448,192,14470,128,0,19170:0:0:0:0:
192,192,18870,128,0,19170:0:0:0:0:
320,192,18870,128,0,19170:0:0:0:0:
64,192,19270,128,2,19536:0:0:0:0:
320,192,19270,128,0,19403:0:0:0:70:finish_short.wav
448,192,19270,128,0,19403:0:0:0:0:
320,192,19536,1,0,0:0:0:0:
64,192,19670,128,2,19803:0:0:0:0:
192,192,19670,128,0,19803:0:0:0:70:finish_short.wav
448,192,19670,128,0,20070:0:0:0:0:
192,192,19936,1,0,0:0:0:0:
64,192,20070,128,2,20603:0:0:0:0:
320,192,20070,128,4,20336:0:0:0:0:
192,192,20336,1,0,0:0:0:0:
448,192,20470,128,0,20603:0:0:0:0:
320,192,20603,128,0,20670:0:0:0:0:
192,192,20736,1,0,0:0:0:0:
64,192,20870,1,0,0:0:0:70:S7.wav
448,192,20870,1,0,0:0:0:0:
320,192,21070,1,0,0:0:0:0:
448,192,21136,1,0,0:0:0:0:
64,192,21270,1,0,0:0:0:70:LR_Drum Kick Low.wav
192,192,21270,1,0,0:0:0:0:
320,192,21403,1,0,0:0:0:0:
192,192,21536,1,0,0:0:0:0:
320,192,21670,128,0,21936:0:0:0:70:LR_Drum Kick Low.wav
448,192,21670,1,0,0:0:0:0:
64,192,21936,1,0,0:0:0:0:
448,192,22070,128,0,22336:0:0:0:0:
192,192,22336,1,0,0:0:0:70:LR_Drum Kick Low.wav
320,192,22336,1,0,0:0:0:0:
64,192,22470,1,0,0:0:0:70:S7.wav
448,192,22470,1,0,0:0:0:0:
320,192,22603,1,0,0:0:0:0:
320,192,22736,1,0,0:0:0:0:
192,192,22870,1,0,0:0:0:0:
192,192,23003,1,0,0:0:0:0:
320,192,23136,128,0,23670:0:0:0:0:
64,192,23270,128,0,23670:0:0:0:70:LR_Drum Kick Low.wav
448,192,23270,1,0,0:0:0:0:
192,192,23670,128,0,23736:0:0:0:0:
448,192,23936,128,0,24470:0:0:0:0:
64,192,24070,1,0,0:0:0:70:S7.wav
192,192,24070,128,0,24470:0:0:0:0:
320,192,24736,1,0,0:0:0:50:S4.wav
448,192,24736,1,0,0:0:0:0:
64,192,24870,1,0,0:0:0:70:LR_Drum Kick Low.wav
320,192,24870,128,0,25136:0:0:0:0:
192,192,25136,1,0,0:0:0:50:S4.wav
448,192,25270,128,0,25536:0:0:0:0:
320,192,25403,1,0,0:0:0:50:S4.wav
64,192,25536,1,0,0:0:0:70:LR_Drum Kick Low.wav
192,192,25536,1,0,0:0:0:0:
192,192,25670,128,0,26070:0:0:0:70:S7.wav
448,192,25670,1,0,0:0:0:50:S4.wav
320,192,25803,1,0,0:0:0:0:
320,192,25936,1,0,0:0:0:0:
64,192,26070,1,0,0:0:0:50:S4.wav
448,192,26070,1,0,0:0:0:0:
320,192,26136,1,0,0:0:0:50:S4.wav
192,192,26203,1,0,0:0:0:50:S4.wav
448,192,26270,1,0,0:0:0:50:S4.wav
64,192,26336,1,0,0:0:0:50:S4.wav
192,192,26403,1,0,0:0:0:50:S4.wav
320,192,26470,128,2,26736:0:0:0:0:
448,192,26470,128,4,27003:0:0:0:0:
64,192,26870,128,0,27003:0:0:0:0:
192,192,27003,128,0,27070:0:0:0:0:
320,192,27136,1,0,0:0:0:0:
64,192,27270,1,0,0:0:0:70:S7.wav
448,192,27270,1,0,0:0:0:0:
192,192,27470,1,0,0:0:0:0:
320,192,27536,1,0,0:0:0:0:
192,192,27670,1,0,0:0:0:70:LR_Drum Kick Low.wav
448,192,27670,1,0,0:0:0:0:
192,192,27803,1,0,0:0:0:0:
192,192,27936,1,0,0:0:0:0:
64,192,28070,1,0,0:0:0:70:LR_Drum Kick Low.wav
320,192,28070,128,0,28336:0:0:0:0:
448,192,28336,1,0,0:0:0:0:
192,192,28470,128,0,28736:0:0:0:0:
320,192,28736,1,0,0:0:0:70:LR_Drum Kick Low.wav
448,192,28736,1,0,0:0:0:0:
64,192,28870,128,0,29136:0:0:0:70:S7.wav
448,192,28870,1,0,0:0:0:0:
320,192,29136,1,0,0:0:0:0:
192,192,29270,128,0,29536:0:0:0:0:
448,192,29403,1,0,0:0:0:0:
64,192,29536,1,0,0:0:0:0:
320,192,29670,128,0,30070:0:0:0:70:LR_Drum Kick Low.wav
448,192,29670,128,0,30070:0:0:0:0:
192,192,30070,128,0,30136:0:0:0:0:
320,192,30336,128,0,30470:0:0:0:0:
64,192,30470,128,0,31136:0:0:0:70:S7.wav
192,192,30603,1,2,0:0:0:0:
448,192,30603,1,0,0:0:0:0:
192,192,30736,1,2,0:0:0:0:
448,192,30736,1,0,0:0:0:0:
320,192,30870,1,2,0:0:0:0:
448,192,30870,128,0,31270:0:0:0:0:
192,192,31136,1,0,0:0:0:0:
64,192,31270,1,0,0:0:0:70:LR_Drum Kick Low.wav
320,192,31270,1,0,0:0:0:0:
320,192,31403,1,0,0:0:0:0:
192,192,31536,1,0,0:0:0:0:
448,192,31536,1,0,0:0:0:0:
192,192,31670,1,0,0:0:0:0:
64,192,31803,1,0,0:0:0:0:
448,192,31803,1,0,0:0:0:0:
320,192,31936,1,0,0:0:0:70:LR_Drum Kick Low.wav
448,192,31936,1,0,0:0:0:0:
64,192,32070,1,0,0:0:0:70:S7.wav
192,192,32070,1,0,0:0:0:0:
448,192,32136,1,0,0:0:0:0:
192,192,32203,1,0,0:0:0:0:
448,192,32270,1,0,0:0:0:0:
320,192,32336,1,0,0:0:0:0:
192,192,32403,1,0,0:0:0:0:
64,192,32470,128,0,32603:0:0:0:0:
448,192,32470,128,0,32603:0:0:0:0:
192,192,32603,1,0,0:0:0:0:
320,192,32736,1,0,0:0:0:0:
64,192,32870,1,4,0:0:0:0:
192,192,32870,1,2,0:0:0:0:
448,192,32870,128,0,33270:0:0:0:0:
320,192,33070,1,0,0:0:0:0:
64,192,33136,128,0,33203:0:0:0:0:
192,192,33270,128,0,33403:0:0:0:0:
64,192,33403,1,0,0:0:0:0:
320,192,33403,1,0,0:0:0:0:
320,192,33536,1,0,0:0:0:0:
64,192,33670,128,0,33936:0:0:0:70:S7.wav
448,192,33670,1,0,0:0:0:0:
192,192,33936,1,0,0:0:0:0:
320,192,34070,1,0,0:0:0:70:LR_Drum Kick Low.wav
192,192,34203,1,0,0:0:0:0:
448,192,34203,1,0,0:0:0:0:
192,192,34336,1,0,0:0:0:0:
320,192,34336,1,0,0:0:0:0:
64,192,34470,1,0,0:0:0:70:LR_Drum Kick Low.wav
448,192,34470,128,0,34736:0:0:0:0:
192,192,34736,128,0,34870:0:0:0:0:
448,192,34870,1,0,0:0:0:0:
320,192,35003,1,0,0:0:0:0:
64,192,35136,1,0,0:0:0:70:LR_Drum Kick Low.wav
192,192,35136,1,0,0:0:0:0:
64,192,35270,1,0,0:0:0:70:S7.wav
448,192,35270,128,0,35670:0:0:0:0:
192,192,35670,128,0,35936:0:0:0:0:
64,192,35803,1,0,0:0:0:0:
320,192,35936,1,0,0:0:0:0:
448,192,35936,1,0,0:0:0:0:
64,192,36070,128,0,36470:0:0:0:70:LR_Drum Kick Low.wav
320,192,36070,128,0,36470:0:0:0:0:
192,192,36470,128,0,36536:0:0:0:0:
448,192,36736,128,0,37270:0:0:0:0:
64,192,36870,1,0,0:0:0:70:S7.wav
192,192,36870,128,0,37270:0:0:0:0:
64,192,37403,1,0,0:0:0:0:
192,192,37536,1,0,0:0:0:50:S4.wav
320,192,37536,1,0,0:0:0:0:
64,192,37670,128,0,37936:0:0:0:70:LR_Drum Kick Low.wav
448,192,37670,1,0,0:0:0:0:
192,192,37936,1,0,0:0:0:50:S4.wav
320,192,37936,1,0,0:0:0:0:
448,192,38070,128,0,38203:0:0:0:0:
64,192,38203,1,0,0:0:0:50:S4.wav
192,192,38203,1,0,0:0:0:0:
320,192,38336,1,0,0:0:0:70:LR_Drum Kick Low.wav
448,192,38336,1,0,0:0:0:0:
64,192,38470,128,0,38870:0:0:0:70:S7.wav
320,192,38470,1,0,0:0:0:50:S4.wav
192,192,38603,1,0,0:0:0:0:
192,192,38736,1,0,0:0:0:0:
320,192,38870,1,0,0:0:0:50:S4.wav
448,192,38870,1,0,0:0:0:0:
192,192,38936,1,0,0:0:0:50:S4.wav
448,192,39003,1,0,0:0:0:50:S4.wav
64,192,39070,1,0,0:0:0:50:S4.wav
320,192,39136,1,0,0:0:0:50:S4.wav
192,192,39203,1,0,0:0:0:50:S4.wav
64,192,39270,1,2,0:0:0:0:
320,192,39270,128,4,39670:0:0:0:0:
448,192,39270,128,0,39670:0:0:0:0:
64,192,39536,1,0,0:0:0:0:
192,192,39670,128,0,39736:0:0:0:0:
320,192,39803,1,0,0:0:0:0:
64,192,39936,1,0,0:0:0:0:
192,192,40070,128,0,40470:0:0:0:70:S7.wav
448,192,40070,1,0,0:0:0:0:
64,192,40470,1,0,0:0:0:0:
448,192,40470,1,0,0:0:0:0:
320,192,40603,1,0,0:0:0:0:
448,192,40603,1,0,0:0:0:0:
64,192,40736,1,0,0:0:0:0:
192,192,40736,1,0,0:0:0:0:
64,192,40870,1,0,0:0:0:70:LR_Drum Kick Low.wav
320,192,40870,128,0,41270:0:0:0:0:
448,192,41136,1,0,0:0:0:0:
192,192,41270,128,0,41336:0:0:0:0:
320,192,41403,1,0,0:0:0:0:
64,192,41536,1,0,0:0:0:70:LR_Drum Kick Low.wav
192,192,41536,1,0,0:0:0:0:
64,192,41670,1,4,0:0:0:70:S7.wav
320,192,41670,128,0,41803:0:0:0:0:
448,192,41670,128,0,41936:0:0:0:0:
320,192,41936,128,0,42336:0:0:0:0:
64,192,42070,128,0,42336:0:0:0:0:
192,192,42336,128,0,42470:0:0:0:0:
64,192,42470,128,2,42870:0:0:0:0:
320,192,42470,1,4,0:0:0:0:
448,192,42470,128,0,42870:0:0:0:0:
192,192,42870,1,0,0:0:0:0:
320,192,42936,1,0,0:0:0:0:
448,192,43003,1,0,0:0:0:0:
192,192,43070,1,0,0:0:0:0:
320,192,43170,1,0,0:0:0:0:
64,192,43270,128,2,43670:0:0:0:0:
192,192,43270,1,4,0:0:0:0:
448,192,43270,128,0,43670:0:0:0:0:
320,192,43670,1,0,0:0:0:70:S1.wav
192,192,43720,1,0,0:0:0:0:
448,192,43770,1,0,0:0:0:0:
64,192,43820,1,0,0:0:0:0:
320,192,43870,1,0,0:0:0:0:
192,192,43970,1,0,0:0:0:0:
64,192,44070,128,2,44370:0:0:0:0:
320,192,44070,128,4,44370:0:0:0:0:
448,192,44070,128,0,44370:0:0:0:0:
64,192,44470,128,2,44770:0:0:0:0:
192,192,44470,128,4,44770:0:0:0:0:
448,192,44470,128,0,44770:0:0:0:0:
64,192,44870,128,2,45270:0:0:0:0:
320,192,44870,128,4,45270:0:0:0:0:
448,192,44870,128,0,45270:0:0:0:0:
192,192,45270,128,0,45570:0:0:0:0:
64,192,45670,1,2,0:0:0:0:
192,192,45670,1,4,0:0:0:0:
448,192,45670,128,0,46070:0:0:0:0:
64,192,46070,1,0,0:0:0:0:
64,192,46203,1,0,0:0:0:0:
320,192,46336,1,0,0:0:0:0:
64,192,46470,1,0,0:0:0:0:
64,192,46736,1,0,0:0:0:0:
320,192,46870,1,0,0:0:0:0:
448,192,47003,1,0,0:0:0:0:
320,192,47136,1,0,0:0:0:0:
64,192,47270,1,0,0:0:0:0:
448,192,47403,1,0,0:0:0:0:
192,192,47536,1,0,0:0:0:0:
320,192,47670,1,0,0:0:0:0:
64,192,47803,1,0,0:0:0:0:
320,192,47936,1,0,0:0:0:0:
192,192,48070,1,0,0:0:0:0:
448,192,48203,1,0,0:0:0:0:
192,192,48336,1,0,0:0:0:0:
64,192,48470,128,0,48870:0:0:0:0:
192,192,48870,1,0,0:0:0:0:
448,192,48870,1,0,0:0:0:0:
448,192,49136,1,0,0:0:0:0:
64,192,49270,1,0,0:0:0:0:
64,192,49403,1,0,0:0:0:0:
64,192,49536,1,0,0:0:0:0:
320,192,49670,1,0,0:0:0:0:
320,192,49803,1,0,0:0:0:0:
320,192,49936,1,0,0:0:0:0:
192,192,50070,1,0,0:0:0:0:
192,192,50203,1,0,0:0:0:0:
192,192,50336,1,0,0:0:0:0:
64,192,50470,1,0,0:0:0:0:
448,192,50470,1,0,0:0:0:0:
192,192,50603,1,0,0:0:0:0:
320,192,50603,1,0,0:0:0:0:
448,192,50736,1,0,0:0:0:0:
64,192,50870,1,0,0:0:0:0:
192,192,50870,1,0,0:0:0:0:
320,192,51003,1,0,0:0:0:0:
448,192,51003,1,0,0:0:0:0:
64,192,51136,1,0,0:0:0:0:
192,192,51270,1,0,0:0:0:0:
448,192,51270,1,0,0:0:0:0:
320,192,51403,1,0,0:0:0:0:
64,192,51536,1,0,0:0:0:0:
192,192,51536,1,0,0:0:0:0:
320,192,51670,1,0,0:0:0:0:
448,192,51670,1,0,0:0:0:0:
64,192,51803,1,0,0:0:0:0:
192,192,51936,1,0,0:0:0:0:
64,192,52070,128,8,52336:0:0:0:0:
320,192,52070,1,0,0:0:0:0:
448,192,52070,1,0,0:0:0:0:
448,192,52203,1,0,0:0:0:0:
192,192,52336,1,0,0:0:0:0:
64,192,52470,1,8,0:0:0:0:
320,192,52470,1,0,0:0:0:0:
448,192,52470,1,0,0:0:0:0:
192,192,52603,1,0,0:0:0:0:
320,192,52736,1,0,0:0:0:0:
64,192,52870,1,8,0:0:0:0:
192,192,52870,1,0,0:0:0:0:
448,192,52870,128,0,53136:0:0:0:0:
64,192,53003,1,0,0:0:0:0:
320,192,53136,1,0,0:0:0:0:
64,192,53270,1,8,0:0:0:0:
192,192,53270,1,0,0:0:0:0:
448,192,53270,1,0,0:0:0:0:
320,192,53403,1,0,0:0:0:0:
192,192,53536,1,0,0:0:0:0:
64,192,53670,128,8,53936:0:0:0:0:
320,192,53670,1,0,0:0:0:0:
448,192,53670,1,0,0:0:0:0:
448,192,53803,1,0,0:0:0:0:
192,192,53936,1,0,0:0:0:0:
64,192,54070,1,8,0:0:0:0:
320,192,54070,1,0,0:0:0:0:
448,192,54070,1,0,0:0:0:0:
192,192,54203,1,0,0:0:0:0:
320,192,54336,1,0,0:0:0:0:
64,192,54470,1,8,0:0:0:0:
192,192,54470,1,0,0:0:0:0:
448,192,54470,128,0,54736:0:0:0:0:
64,192,54603,1,0,0:0:0:0:
320,192,54736,1,0,0:0:0:0:
64,192,54870,1,8,0:0:0:0:
192,192,54870,1,0,0:0:0:0:
448,192,54870,1,0,0:0:0:0:
320,192,55003,1,0,0:0:0:0:
192,192,55136,1,0,0:0:0:0:
64,192,55270,128,8,55536:0:0:0:0:
320,192,55270,1,0,0:0:0:0:
448,192,55270,1,0,0:0:0:0:
192,192,55536,1,8,0:0:0:0:
320,192,55536,1,0,0:0:0:0:
448,192,55536,128,0,55803:0:0:0:0:
64,192,55803,1,8,0:0:0:0:
192,192,55803,128,0,56070:0:0:0:0:
320,192,55803,1,0,0:0:0:0:
64,192,56070,1,8,0:0:0:0:
320,192,56070,128,0,56336:0:0:0:0:
448,192,56070,1,0,0:0:0:0:
64,192,56336,128,8,56603:0:0:0:0:
192,192,56336,1,0,0:0:0:0:
448,192,56336,1,0,0:0:0:0:
192,192,56603,1,8,0:0:0:0:
320,192,56603,1,0,0:0:0:0:
448,192,56603,128,0,56870:0:0:0:0:
64,192,56870,128,2,57270:0:0:0:0:
320,192,56870,1,0,0:0:0:0:
320,192,57003,1,0,0:0:0:0:
320,192,57136,1,0,0:0:0:0:
192,192,57270,128,0,57403:0:0:0:0:
448,192,57270,128,0,57403:0:0:0:0:
64,192,57670,128,0,57803:0:0:0:70:LR_Drum Kick Low.wav
320,192,57670,128,0,57803:0:0:0:0:
64,192,57936,1,2,0:0:0:0:
448,192,57936,1,0,0:0:0:0:
320,192,57981,1,2,0:0:0:0:
192,192,58025,1,2,0:0:0:0:
64,192,58070,128,0,58203:0:0:0:70:LR_Snare Hit Hard.wav
448,192,58070,128,0,58203:0:0:0:0:
64,192,58470,128,2,58870:0:0:0:0:
192,192,58470,128,4,58870:0:0:0:0:
320,192,58470,1,0,0:0:0:0:
448,192,58870,1,0,0:0:0:0:
320,192,58936,1,0,0:0:0:0:
192,192,59003,1,0,0:0:0:0:
64,192,59070,1,0,0:0:0:0:
448,192,59136,1,0,0:0:0:0:
320,192,59203,1,0,0:0:0:0:
64,192,59270,1,8,0:0:0:0:
192,192,59270,1,0,0:0:0:0:
320,192,59403,128,0,59670:0:0:0:0:
448,192,59470,128,0,59670:0:0:0:0:
192,192,59670,1,0,0:0:0:0:
320,192,59803,128,0,60070:0:0:0:0:
448,192,59870,128,0,60070:0:0:0:0:
64,192,60070,1,2,0:0:0:0:
320,192,60203,128,0,60470:0:0:0:0:
448,192,60270,128,0,60470:0:0:0:0:
192,192,60470,1,0,0:0:0:0:
320,192,60603,128,0,60736:0:0:0:0:
448,192,60670,128,0,60736:0:0:0:0:
192,192,60736,1,2,0:0:0:0:
64,192,60870,1,8,0:0:0:0:
320,192,60870,1,0,0:0:0:0:
448,192,60870,1,0,0:0:0:0:
64,192,61003,128,0,61136:0:0:0:0:
448,192,61136,1,0,0:0:0:0:
448,192,61270,128,0,61536:0:0:0:0:
64,192,61403,128,0,61670:0:0:0:0:
192,192,61536,128,0,61670:0:0:0:0:
320,192,61670,128,2,61870:0:0:0:0:
448,192,61670,128,0,61936:0:0:0:0:
64,192,61870,1,0,0:0:0:0:
192,192,61936,1,0,0:0:0:0:
320,192,62003,1,0,0:0:0:0:
448,192,62070,1,0,0:0:0:0:
192,192,62136,1,0,0:0:0:0:
448,192,62203,1,0,0:0:0:0:
64,192,62270,1,0,0:0:0:0:
320,192,62370,1,0,0:0:0:0:
64,192,62470,1,8,0:0:0:0:
192,192,62470,1,0,0:0:0:0:
448,192,62470,128,0,62670:0:0:0:0:
320,192,62570,128,0,62670:0:0:0:0:
320,192,62820,128,0,62920:0:0:0:0:
448,192,62820,128,0,62920:0:0:0:0:
320,192,63070,128,0,63170:0:0:0:0:
448,192,63070,128,0,63170:0:0:0:0:
192,192,63270,1,2,0:0:0:0:
320,192,63370,128,0,63470:0:0:0:0:
448,192,63370,128,0,63470:0:0:0:0:
320,192,63620,128,0,63720:0:0:0:0:
448,192,63620,128,0,63720:0:0:0:0:
320,192,63870,1,0,0:0:0:0:
448,192,63870,1,0,0:0:0:0:
192,192,63936,1,2,0:0:0:0:
64,192,64070,1,8,0:0:0:0:
320,192,64070,1,0,0:0:0:0:
448,192,64070,1,0,0:0:0:0:
192,192,64203,1,0,0:0:0:0:
448,192,64270,1,0,0:0:0:0:
64,192,64320,1,0,0:0:0:0:
320,192,64370,1,0,0:0:0:0:
448,192,64420,1,0,0:0:0:0:
64,192,64470,128,0,64603:0:0:0:0:
192,192,64470,128,0,64603:0:0:0:0:
320,192,64603,1,0,0:0:0:0:
448,192,64670,1,0,0:0:0:0:
64,192,64736,1,0,0:0:0:0:
192,192,64803,1,0,0:0:0:0:
64,192,64870,1,2,0:0:0:0:
320,192,64870,128,4,65270:0:0:0:0:
448,192,64870,128,0,65270:0:0:0:0:
64,192,65270,1,0,0:0:0:0:
192,192,65336,1,0,0:0:0:0:
320,192,65403,1,0,0:0:0:0:
448,192,65470,1,0,0:0:0:0:
192,192,65536,1,0,0:0:0:0:
64,192,65603,1,0,0:0:0:0:
320,192,65670,1,8,0:0:0:0:
448,192,65670,1,0,0:0:0:0:
192,192,65803,128,0,66070:0:0:0:0:
64,192,65870,128,0,66070:0:0:0:0:
320,192,66070,1,0,0:0:0:0:
192,192,66203,128,0,66470:0:0:0:0:
64,192,66270,128,0,66470:0:0:0:0:
320,192,66470,128,2,66603:0:0:0:0:
448,192,66470,128,0,66670:0:0:0:0:
192,192,66603,128,0,66803:0:0:0:0:
64,192,66670,128,0,66736:0:0:0:0:
320,192,66736,128,0,66870:0:0:0:0:
448,192,66803,1,0,0:0:0:0:
64,192,66870,1,0,0:0:0:0:
192,192,66936,1,0,0:0:0:0:
320,192,67070,1,0,0:0:0:0:
448,192,67136,1,2,0:0:0:0:
192,192,67203,1,0,0:0:0:0:
64,192,67270,128,8,67403:0:0:0:0:
448,192,67270,128,0,67403:0:0:0:0:
320,192,67403,128,0,67470:0:0:0:0:
64,192,67536,128,0,67670:0:0:0:0:
448,192,67536,128,0,67670:0:0:0:0:
192,192,67670,128,0,67736:0:0:0:0:
64,192,67803,128,0,67936:0:0:0:0:
448,192,67803,128,0,67936:0:0:0:0:
320,192,67936,128,0,68003:0:0:0:0:
64,192,68070,128,2,68336:0:0:0:0:
192,192,68070,128,0,68336:0:0:0:0:
320,192,68336,1,0,0:0:0:0:
64,192,68470,128,0,68536:0:0:0:0:
448,192,68470,128,0,68736:0:0:0:0:
192,192,68736,1,0,0:0:0:0:
64,192,68870,1,8,0:0:0:0:
320,192,68870,128,0,69136:0:0:0:0:
448,192,68870,128,0,69136:0:0:0:0:
192,192,69136,1,0,0:0:0:0:
64,192,69270,128,0,69536:0:0:0:0:
448,192,69270,128,0,69336:0:0:0:0:
320,192,69536,1,0,0:0:0:0:
64,192,69670,128,2,69936:0:0:0:0:
192,192,69670,128,0,69936:0:0:0:0:
448,192,69936,1,0,0:0:0:0:
320,192,70003,1,0,0:0:0:0:
192,192,70070,1,0,0:0:0:0:
192,192,70203,1,0,0:0:0:0:
320,192,70336,1,2,0:0:0:0:
448,192,70336,1,0,0:0:0:0:
64,192,70470,128,8,70670:0:0:0:0:
192,192,70470,128,0,70603:0:0:0:0:
448,192,70470,1,0,0:0:0:0:
320,192,70603,1,0,0:0:0:0:
448,192,70670,1,0,0:0:0:0:
192,192,70736,1,0,0:0:0:0:
64,192,70803,1,0,0:0:0:0:
320,192,70870,128,0,70936:0:0:0:0:
448,192,70870,128,0,71003:0:0:0:0:
192,192,71003,1,0,0:0:0:0:
320,192,71070,1,0,0:0:0:0:
448,192,71136,1,0,0:0:0:0:
192,192,71203,1,0,0:0:0:0:
64,192,71270,1,4,0:0:0:0:
320,192,71270,128,2,71670:0:0:0:0:
448,192,71270,128,0,71670:0:0:0:0:
192,192,71536,1,0,0:0:0:0:
64,192,71670,1,0,0:0:0:0:
192,192,71736,1,0,0:0:0:0:
320,192,71803,1,0,0:0:0:0:
448,192,71870,1,0,0:0:0:0:
192,192,71936,1,0,0:0:0:0:
64,192,72070,1,8,0:0:0:0:
320,192,72070,1,0,0:0:0:0:
448,192,72070,1,0,0:0:0:0:
192,192,72203,128,0,72470:0:0:0:0:
64,192,72270,128,0,72470:0:0:0:0:
320,192,72470,1,0,0:0:0:0:
192,192,72603,128,0,72870:0:0:0:0:
64,192,72670,128,0,72870:0:0:0:0:
448,192,72870,1,2,0:0:0:0:
192,192,73003,128,0,73270:0:0:0:0:
64,192,73070,128,0,73270:0:0:0:0:
320,192,73270,1,0,0:0:0:0:
192,192,73403,128,0,73536:0:0:0:0:
64,192,73470,128,0,73536:0:0:0:0:
320,192,73536,1,2,0:0:0:0:
64,192,73670,1,8,0:0:0:0:
192,192,73670,1,0,0:0:0:0:
448,192,73670,1,0,0:0:0:0:
448,192,73803,128,0,73936:0:0:0:0:
64,192,73936,1,0,0:0:0:0:
64,192,74070,128,0,74336:0:0:0:0:
448,192,74203,128,0,74470:0:0:0:0:
320,192,74336,128,0,74470:0:0:0:0:
64,192,74470,128,2,74736:0:0:0:0:
192,192,74470,128,0,74670:0:0:0:0:
448,192,74670,1,0,0:0:0:0:
320,192,74736,1,0,0:0:0:0:
192,192,74803,1,0,0:0:0:0:
64,192,74870,1,0,0:0:0:0:
320,192,74936,1,0,0:0:0:0:
64,192,75003,1,0,0:0:0:0:
448,192,75070,1,0,0:0:0:0:
192,192,75170,1,0,0:0:0:0:
64,192,75270,128,8,75470:0:0:0:0:
320,192,75270,1,0,0:0:0:0:
448,192,75270,1,0,0:0:0:0:
192,192,75370,128,0,75470:0:0:0:0:
64,192,75620,128,0,75720:0:0:0:0:
192,192,75620,128,0,75720:0:0:0:0:
64,192,75870,128,0,75970:0:0:0:0:
192,192,75870,128,0,75970:0:0:0:0:
320,192,76070,1,2,0:0:0:0:
64,192,76170,128,0,76270:0:0:0:0:
192,192,76170,128,0,76270:0:0:0:0:
64,192,76420,128,0,76520:0:0:0:0:
192,192,76420,128,0,76520:0:0:0:0:
64,192,76670,1,0,0:0:0:0:
192,192,76670,1,0,0:0:0:0:
320,192,76736,1,2,0:0:0:0:
64,192,76870,1,8,0:0:0:0:
192,192,76870,1,0,0:0:0:0:
448,192,76870,1,0,0:0:0:0:
320,192,77003,1,0,0:0:0:0:
64,192,77070,1,0,0:0:0:0:
448,192,77120,1,0,0:0:0:0:
192,192,77170,1,0,0:0:0:0:
64,192,77220,1,0,0:0:0:0:
320,192,77270,128,0,77403:0:0:0:0:
448,192,77270,128,0,77403:0:0:0:0:
192,192,77403,1,0,0:0:0:0:
64,192,77470,1,0,0:0:0:0:
448,192,77536,1,0,0:0:0:0:
320,192,77603,1,0,0:0:0:0:
64,192,77670,128,2,77870:0:0:0:0:
192,192,77670,128,4,77803:0:0:0:0:
448,192,77670,1,0,0:0:0:0:
320,192,77870,128,0,78003:0:0:0:0:
192,192,77936,128,0,78070:0:0:0:0:
64,192,78003,128,0,78136:0:0:0:0:
448,192,78070,128,0,78136:0:0:0:0:
320,192,78136,128,0,78203:0:0:0:0:
192,192,78203,128,0,78270:0:0:0:0:
64,192,78270,128,0,78336:0:0:0:0:
320,192,78336,1,0,0:0:0:0:
448,192,78403,1,0,0:0:0:0:
64,192,78470,1,8,0:0:0:0:
192,192,78470,1,0,0:0:0:0:
320,192,78603,128,0,78870:0:0:0:0:
448,192,78670,128,0,78870:0:0:0:0:
192,192,78870,1,0,0:0:0:0:
320,192,79003,128,0,79270:0:0:0:0:
448,192,79070,128,0,79270:0:0:0:0:
64,192,79270,128,2,79470:0:0:0:0:
192,192,79270,128,0,79403:0:0:0:0:
320,192,79403,128,0,79603:0:0:0:0:
448,192,79470,128,0,79536:0:0:0:0:
192,192,79536,128,0,79670:0:0:0:0:
64,192,79603,1,0,0:0:0:0:
448,192,79670,1,0,0:0:0:0:
320,192,79736,1,0,0:0:0:0:
192,192,79870,1,0,0:0:0:0:
64,192,79936,1,2,0:0:0:0:
320,192,80003,1,0,0:0:0:0:
64,192,80070,128,8,80203:0:0:0:0:
448,192,80070,128,0,80203:0:0:0:0:
192,192,80203,128,0,80270:0:0:0:0:
64,192,80336,128,0,80470:0:0:0:0:
448,192,80336,128,0,80470:0:0:0:0:
320,192,80470,128,0,80536:0:0:0:0:
64,192,80603,128,0,80736:0:0:0:0:
448,192,80603,128,0,80736:0:0:0:0:
192,192,80736,128,0,80803:0:0:0:0:
320,192,80736,1,0,0:0:0:0:
64,192,80870,1,2,0:0:0:0:
320,192,80870,128,4,81136:0:0:0:0:
448,192,80870,128,0,81136:0:0:0:0:
192,192,81136,1,0,0:0:0:0:
64,192,81270,128,8,81536:0:0:0:0:
320,192,81270,128,0,81336:0:0:0:0:
448,192,81270,128,0,81336:0:0:0:0:
192,192,81403,128,0,81536:0:0:0:0:
320,192,81536,1,0,0:0:0:0:
64,192,81670,128,2,81936:0:0:0:0:
192,192,81670,128,4,81803:0:0:0:0:
448,192,81670,1,0,0:0:0:0:
320,192,81803,1,0,0:0:0:0:
448,192,81870,1,0,0:0:0:0:
192,192,81936,1,0,0:0:0:0:
64,192,82070,1,8,0:0:0:0:
320,192,82070,1,0,0:0:0:0:
448,192,82070,1,0,0:0:0:0:
64,192,82203,1,0,0:0:0:0:
192,192,82203,1,0,0:0:0:0:
320,192,82336,1,0,0:0:0:0:
448,192,82336,1,0,0:0:0:0:
64,192,82470,1,4,0:0:0:0:
192,192,82470,1,2,0:0:0:0:
448,192,82470,128,0,82736:0:0:0:0:
64,192,82736,128,4,83003:0:0:0:0:
192,192,82736,1,2,0:0:0:0:
320,192,82736,1,0,0:0:0:0:
192,192,83003,128,4,83270:0:0:0:0:
320,192,83003,1,2,0:0:0:0:
448,192,83003,1,0,0:0:0:0:
320,192,83270,128,2,83403:0:0:0:0:
448,192,83270,128,4,83470:0:0:0:0:
64,192,83336,1,0,0:0:0:0:
192,192,83470,1,0,0:0:0:0:
320,192,83536,1,0,0:0:0:0:
448,192,83603,1,0,0:0:0:0:
192,192,83670,1,0,0:0:0:0:
320,192,83770,1,0,0:0:0:0:
64,192,83870,1,0,0:0:0:0:
192,192,83970,1,0,0:0:0:0:
64,192,84070,128,2,84470:0:0:0:0:
320,192,84070,128,4,84470:0:0:0:0:
448,192,84070,128,0,84470:0:0:0:0:
448,192,85670,1,0,0:0:0:0:
448,192,86070,1,0,0:0:0:0:
448,192,86470,1,0,0:0:0:0:
64,192,86720,1,0,0:0:0:0:
192,192,86770,1,0,0:0:0:0:
320,192,86820,1,0,0:0:0:0:
64,192,86870,1,0,0:0:0:70:LR_Snare Hit Hard.wav
448,192,86870,1,0,0:0:0:0:
64,192,87270,128,2,87803:0:0:0:0:
320,192,87270,128,4,87670:0:0:0:0:
448,192,87670,128,0,87803:0:0:0:0:
320,192,87803,128,0,87870:0:0:0:0:
192,192,87936,1,0,0:0:0:0:
64,192,88070,1,0,0:0:0:70:S7.wav
448,192,88070,1,0,0:0:0:0:
320,192,88270,1,0,0:0:0:0:
448,192,88336,1,0,0:0:0:0:
64,192,88470,1,0,0:0:0:70:LR_Drum Kick Low.wav
192,192,88470,1,0,0:0:0:0:
320,192,88603,1,0,0:0:0:0:
192,192,88736,1,0,0:0:0:0:
320,192,88870,128,0,89136:0:0:0:70:LR_Drum Kick Low.wav
448,192,88870,1,0,0:0:0:0:
64,192,89136,1,0,0:0:0:0:
448,192,89270,128,0,89536:0:0:0:0:
192,192,89536,1,0,0:0:0:70:LR_Drum Kick Low.wav
320,192,89536,1,0,0:0:0:0:
64,192,89670,1,0,0:0:0:70:S7.wav
448,192,89670,1,0,0:0:0:0:
320,192,89803,1,0,0:0:0:0:
320,192,89936,1,0,0:0:0:0:
192,192,90070,1,0,0:0:0:0:
192,192,90203,1,0,0:0:0:0:
320,192,90336,128,0,90870:0:0:0:0:
64,192,90470,128,0,90870:0:0:0:70:LR_Drum Kick Low.wav
448,192,90470,1,0,0:0:0:0:
192,192,90870,128,0,90936:0:0:0:0:
320,192,91003,1,0,0:0:0:0:
448,192,91136,128,0,91670:0:0:0:0:
64,192,91270,1,0,0:0:0:70:S7.wav
192,192,91270,128,0,91670:0:0:0:0:
320,192,91936,1,0,0:0:0:50:S4.wav
448,192,91936,1,0,0:0:0:0:
64,192,92070,1,0,0:0:0:70:LR_Drum Kick Low.wav
320,192,92070,128,0,92336:0:0:0:0:
192,192,92336,1,0,0:0:0:50:S4.wav
448,192,92470,128,0,92736:0:0:0:0:
320,192,92603,1,0,0:0:0:50:S4.wav
64,192,92736,1,0,0:0:0:70:LR_Drum Kick Low.wav
192,192,92736,1,0,0:0:0:0:
192,192,92870,128,0,93270:0:0:0:70:S7.wav
448,192,92870,1,0,0:0:0:50:S4.wav
320,192,93003,1,0,0:0:0:0:
320,192,93136,1,0,0:0:0:0:
64,192,93270,1,0,0:0:0:50:S4.wav
448,192,93270,1,0,0:0:0:0:
320,192,93336,1,0,0:0:0:50:S4.wav
192,192,93403,1,0,0:0:0:50:S4.wav
448,192,93470,1,0,0:0:0:50:S4.wav
64,192,93536,1,0,0:0:0:50:S4.wav
192,192,93603,1,0,0:0:0:50:S4.wav
320,192,93670,128,2,93936:0:0:0:0:
448,192,93670,128,4,94203:0:0:0:0:
192,192,93936,1,0,0:0:0:0:
64,192,94070,128,0,94203:0:0:0:0:
192,192,94203,128,0,94270:0:0:0:0:
320,192,94336,1,0,0:0:0:0:
64,192,94470,1,0,0:0:0:70:S7.wav
448,192,94470,1,0,0:0:0:0:
192,192,94670,1,0,0:0:0:0:
320,192,94736,1,0,0:0:0:0:
192,192,94870,1,0,0:0:0:70:LR_Drum Kick Low.wav
448,192,94870,1,0,0:0:0:0:
192,192,95003,1,0,0:0:0:0:
192,192,95136,1,0,0:0:0:0:
64,192,95270,1,0,0:0:0:70:LR_Drum Kick Low.wav
320,192,95270,128,0,95536:0:0:0:0:
448,192,95536,1,0,0:0:0:0:
192,192,95670,128,0,95936:0:0:0:0:
320,192,95936,1,0,0:0:0:70:LR_Drum Kick Low.wav
448,192,95936,1,0,0:0:0:0:
64,192,96070,128,0,96336:0:0:0:70:S7.wav
448,192,96070,1,0,0:0:0:0:
320,192,96336,1,0,0:0:0:0:
192,192,96470,128,0,96736:0:0:0:0:
448,192,96603,1,0,0:0:0:0:
64,192,96736,1,0,0:0:0:0:
320,192,96870,128,0,97270:0:0:0:70:LR_Drum Kick Low.wav
448,192,96870,128,0,97270:0:0:0:0:
192,192,97270,128,0,97336:0:0:0:0:
320,192,97536,128,0,97670:0:0:0:0:
64,192,97670,128,0,98336:0:0:0:70:S7.wav
192,192,97803,1,2,0:0:0:0:
448,192,97803,1,0,0:0:0:0:
192,192,97936,1,2,0:0:0:0:
448,192,97936,1,0,0:0:0:0:
320,192,98070,1,2,0:0:0:0:
448,192,98070,128,0,98470:0:0:0:0:
192,192,98336,1,0,0:0:0:0:
64,192,98470,1,0,0:0:0:70:LR_Drum Kick Low.wav
320,192,98470,1,0,0:0:0:0:
320,192,98603,1,0,0:0:0:0:
192,192,98736,1,0,0:0:0:0:
448,192,98736,1,0,0:0:0:0:
192,192,98870,1,0,0:0:0:0:
64,192,99003,1,0,0:0:0:0:
448,192,99003,1,0,0:0:0:0:
320,192,99136,1,0,0:0:0:70:LR_Drum Kick Low.wav
448,192,99136,1,0,0:0:0:0:
64,192,99270,1,0,0:0:0:70:S7.wav
192,192,99270,1,0,0:0:0:0:
448,192,99336,1,0,0:0:0:0:
192,192,99403,1,0,0:0:0:0:
448,192,99470,1,0,0:0:0:0:
320,192,99536,1,0,0:0:0:0:
192,192,99603,1,0,0:0:0:0:
64,192,99670,128,0,99803:0:0:0:0:
448,192,99670,128,0,99803:0:0:0:0:
192,192,99803,1,0,0:0:0:0:
320,192,99936,1,0,0:0:0:0:
64,192,100070,1,4,0:0:0:0:
192,192,100070,1,2,0:0:0:0:
448,192,100070,128,0,100470:0:0:0:0:
320,192,100270,1,0,0:0:0:0:
64,192,100336,128,0,100403:0:0:0:0:
192,192,100470,128,0,100603:0:0:0:0:
64,192,100603,1,0,0:0:0:0:
320,192,100603,1,0,0:0:0:0:
320,192,100736,1,0,0:0:0:0:
64,192,100870,128,0,101136:0:0:0:70:S7.wav
448,192,100870,1,0,0:0:0:0:
192,192,101136,1,0,0:0:0:0:
320,192,101270,1,0,0:0:0:70:LR_Drum Kick Low.wav
192,192,101403,1,0,0:0:0:0:
448,192,101403,1,0,0:0:0:0:
192,192,101536,1,0,0:0:0:0:
320,192,101536,1,0,0:0:0:0:
64,192,101670,1,0,0:0:0:70:LR_Drum Kick Low.wav
448,192,101670,128,0,101936:0:0:0:0:
192,192,101936,128,0,102070:0:0:0:0:
448,192,102070,1,0,0:0:0:0:
320,192,102203,1,0,0:0:0:0:
64,192,102336,1,0,0:0:0:70:LR_Drum Kick Low.wav
192,192,102336,1,0,0:0:0:0:
64,192,102470,1,0,0:0:0:70:S7.wav
448,192,102470,128,0,102870:0:0:0:0:
192,192,102870,128,0,103136:0:0:0:0:
64,192,103003,1,0,0:0:0:0:
320,192,103136,1,0,0:0:0:0:
448,192,103136,1,0,0:0:0:0:
64,192,103270,128,0,103670:0:0:0:70:LR_Drum Kick Low.wav
320,192,103270,128,0,103670:0:0:0:0:
448,192,103536,1,0,0:0:0:0:
192,192,103670,128,0,103736:0:0:0:0:
320,192,103803,1,0,0:0:0:0:
448,192,103936,128,0,104470:0:0:0:0:
64,192,104070,1,0,0:0:0:70:S7.wav
192,192,104070,128,0,104470:0:0:0:0:
64,192,104603,1,0,0:0:0:0:
192,192,104736,1,0,0:0:0:50:S4.wav
320,192,104736,1,0,0:0:0:0:
64,192,104870,128,0,105136:0:0:0:70:LR_Drum Kick Low.wav
448,192,104870,1,0,0:0:0:0:
192,192,105136,1,0,0:0:0:50:S4.wav
320,192,105136,1,0,0:0:0:0:
448,192,105270,128,0,105403:0:0:0:0:
64,192,105403,1,0,0:0:0:50:S4.wav
192,192,105403,1,0,0:0:0:0:
320,192,105536,1,0,0:0:0:70:LR_Drum Kick Low.wav
448,192,105536,1,0,0:0:0:0:
64,192,105670,128,0,106070:0:0:0:70:S7.wav
320,192,105670,1,0,0:0:0:50:S4.wav
192,192,105803,1,0,0:0:0:0:
192,192,105936,1,0,0:0:0:0:
320,192,106070,1,0,0:0:0:50:S4.wav
448,192,106070,1,0,0:0:0:0:
192,192,106136,1,0,0:0:0:50:S4.wav
448,192,106203,1,0,0:0:0:50:S4.wav
64,192,106270,1,0,0:0:0:50:S4.wav
320,192,106336,1,0,0:0:0:50:S4.wav
192,192,106403,1,0,0:0:0:50:S4.wav
64,192,106470,1,2,0:0:0:0:
320,192,106470,128,4,106870:0:0:0:0:
448,192,106470,128,0,106870:0:0:0:0:
64,192,106736,1,0,0:0:0:0:
192,192,106870,128,0,106936:0:0:0:0:
320,192,107003,1,0,0:0:0:0:
64,192,107136,1,0,0:0:0:0:
192,192,107270,128,0,107670:0:0:0:70:S7.wav
448,192,107270,1,0,0:0:0:0:
64,192,107670,1,0,0:0:0:0:
448,192,107670,1,0,0:0:0:0:
320,192,107803,1,0,0:0:0:0:
448,192,107803,1,0,0:0:0:0:
64,192,107936,1,0,0:0:0:0:
192,192,107936,1,0,0:0:0:0:
64,192,108070,1,0,0:0:0:70:LR_Drum Kick Low.wav
320,192,108070,128,0,108470:0:0:0:0:
448,192,108336,1,0,0:0:0:0:
192,192,108470,128,0,108536:0:0:0:0:
320,192,108603,1,0,0:0:0:0:
64,192,108736,1,0,0:0:0:70:LR_Drum Kick Low.wav
192,192,108736,1,0,0:0:0:0:
64,192,108870,1,4,0:0:0:70:S7.wav
320,192,108870,128,0,109003:0:0:0:0:
448,192,108870,128,0,109136:0:0:0:0:
320,192,109136,128,0,109536:0:0:0:0:
64,192,109270,128,0,109536:0:0:0:0:
192,192,109536,128,0,109670:0:0:0:0:
64,192,109670,128,2,110070:0:0:0:0:
320,192,109670,1,4,0:0:0:0:
448,192,109670,128,0,110070:0:0:0:0:
192,192,110070,1,0,0:0:0:0:
320,192,110136,1,0,0:0:0:0:
448,192,110203,1,0,0:0:0:0:
192,192,110270,1,0,0:0:0:0:
320,192,110370,1,0,0:0:0:0:
64,192,110470,128,2,110870:0:0:0:0:
192,192,110470,1,4,0:0:0:0:
448,192,110470,128,0,110870:0:0:0:0:
320,192,110870,1,0,0:0:0:70:S1.wav
192,192,110920,1,0,0:0:0:0:
448,192,110970,1,0,0:0:0:0:
64,192,111020,1,0,0:0:0:0:
320,192,111070,1,0,0:0:0:0:
192,192,111170,1,0,0:0:0:0:
64,192,111270,128,2,111570:0:0:0:0:
320,192,111270,128,4,111570:0:0:0:0:
448,192,111270,128,0,111570:0:0:0:0:
64,192,111670,128,2,111970:0:0:0:0:
192,192,111670,128,4,111970:0:0:0:0:
448,192,111670,128,0,111970:0:0:0:0:
64,192,112070,128,2,112470:0:0:0:0:
320,192,112070,128,4,112470:0:0:0:0:
448,192,112070,128,0,112470:0:0:0:0:
192,192,112470,128,0,112770:0:0:0:0:
64,192,112870,128,2,113270:0:0:0:0:
192,192,112870,1,4,0:0:0:0:
448,192,112870,128,0,115670:0:0:0:0:
320,192,113270,1,0,0:0:0:0:
320,192,113536,1,0,0:0:0:0:
64,192,113670,128,0,113936:0:0:0:0:
192,192,113936,1,0,0:0:0:0:
320,192,114070,1,0,0:0:0:0:
192,192,114203,1,0,0:0:0:0:
320,192,114336,1,0,0:0:0:0:
64,192,114470,128,0,114870:0:0:0:0:
192,192,114870,1,0,0:0:0:0:
192,192,115003,1,0,0:0:0:0:
320,192,115136,1,0,0:0:0:0:
64,192,115270,1,0,0:0:0:0:
64,192,115403,1,0,0:0:0:0:
192,192,115536,1,0,0:0:0:0:
64,192,115670,128,0,115936:0:0:0:0:
320,192,115670,1,0,0:0:0:0:
320,192,115803,1,0,0:0:0:0:
320,192,115936,1,0,0:0:0:0:
64,192,116070,1,4,0:0:0:0:
192,192,116070,1,0,0:0:0:50:LR_Drum Kick Low.wav
448,192,116070,1,0,0:0:0:0:
320,192,116336,1,0,0:0:0:50:LR_Drum Kick Low.wav
448,192,116336,1,0,0:0:0:0:
64,192,116403,1,0,0:0:0:50:LR_Drum Kick Low.wav
192,192,116403,1,0,0:0:0:0:
320,192,116470,1,0,0:0:0:50:LR_Drum Kick Low.wav
448,192,116470,1,0,0:0:0:0:
64,192,116736,1,0,0:0:0:50:LR_Drum Kick Low.wav
192,192,116736,1,0,0:0:0:0:
64,192,116870,1,0,0:0:0:50:LR_Snare Hit Hard.wav
320,192,116870,1,0,0:0:0:0:
448,192,116870,1,0,0:0:0:0:
192,192,117136,1,0,0:0:0:50:LR_Drum Kick Low.wav
320,192,117136,1,0,0:0:0:0:
64,192,117270,1,0,0:0:0:50:LR_Drum Kick Low.wav
448,192,117270,1,0,0:0:0:0:
320,192,117403,1,0,0:0:0:50:LR_Drum Kick Low.wav
448,192,117403,1,0,0:0:0:0:
64,192,117536,1,0,0:0:0:50:LR_Drum Kick Low.wav
192,192,117536,1,0,0:0:0:0:
192,192,117670,1,4,0:0:0:0:
320,192,117670,1,0,0:0:0:50:LR_Drum Kick Low.wav
320,192,117936,1,0,0:0:0:50:LR_Drum Kick Low.wav
448,192,117936,1,0,0:0:0:0:
64,192,118003,1,0,0:0:0:50:LR_Drum Kick Low.wav
192,192,118003,1,0,0:0:0:0:
320,192,118070,1,0,0:0:0:50:LR_Drum Kick Low.wav
448,192,118070,1,0,0:0:0:0:
64,192,118336,1,0,0:0:0:50:LR_Drum Kick Low.wav
192,192,118336,1,0,0:0:0:0:
64,192,118470,1,0,0:0:0:50:LR_Snare Hit Hard.wav
320,192,118470,1,0,0:0:0:0:
448,192,118470,1,0,0:0:0:0:
192,192,118736,1,0,0:0:0:50:LR_Drum Kick Low.wav
320,192,118736,1,0,0:0:0:0:
64,192,118870,1,0,0:0:0:50:LR_Drum Kick Low.wav
448,192,118870,1,0,0:0:0:0:
64,192,119003,1,0,0:0:0:50:LR_Snare Hit Hard.wav
192,192,119003,1,0,0:0:0:0:
320,192,119136,1,0,0:0:0:50:LR_Snare Hit Hard.wav
448,192,119136,1,0,0:0:0:0:
192,192,119270,1,4,0:0:0:0:
320,192,119270,1,0,0:0:0:50:LR_Drum Kick Low.wav
64,192,119536,1,0,0:0:0:50:LR_Drum Kick Low.wav
192,192,119536,1,0,0:0:0:0:
320,192,119603,1,0,0:0:0:50:LR_Drum Kick Low.wav
448,192,119603,1,0,0:0:0:0:
64,192,119670,1,0,0:0:0:50:LR_Drum Kick Low.wav
192,192,119670,1,0,0:0:0:0:
320,192,119936,1,0,0:0:0:50:LR_Drum Kick Low.wav
448,192,119936,1,0,0:0:0:0:
64,192,120070,1,0,0:0:0:50:LR_Snare Hit Hard.wav
192,192,120070,1,0,0:0:0:0:
448,192,120070,1,0,0:0:0:0:
192,192,120336,1,0,0:0:0:50:LR_Drum Kick Low.wav
320,192,120336,1,0,0:0:0:0:
64,192,120470,1,0,0:0:0:50:LR_Drum Kick Low.wav
448,192,120470,1,0,0:0:0:0:
64,192,120603,1,0,0:0:0:50:LR_Drum Kick Low.wav
320,192,120603,1,0,0:0:0:0:
192,192,120736,1,0,0:0:0:50:LR_Drum Kick Low.wav
448,192,120736,1,0,0:0:0:0:
320,192,120870,1,4,0:0:0:0:
448,192,120870,1,0,0:0:0:50:LR_Drum Kick Low.wav
64,192,121136,1,0,0:0:0:50:LR_Drum Kick Low.wav
192,192,121136,1,0,0:0:0:0:
320,192,121203,1,0,0:0:0:50:LR_Drum Kick Low.wav
448,192,121203,1,0,0:0:0:0:
64,192,121270,1,0,0:0:0:50:LR_Drum Kick Low.wav
192,192,121270,1,0,0:0:0:0:
448,192,121403,1,0,0:0:0:0:
192,192,121536,1,0,0:0:0:50:LR_Drum Kick Low.wav
320,192,121536,1,0,0:0:0:0:
64,192,121670,1,0,0:0:0:50:LR_Snare Hit Hard.wav
320,192,121670,1,0,0:0:0:0:
448,192,121670,1,0,0:0:0:0:
192,192,121803,1,0,0:0:0:0:
320,192,121936,1,0,0:0:0:50:LR_Drum Kick Low.wav
448,192,121936,1,0,0:0:0:0:
192,192,122003,1,0,0:0:0:50:LR_Drum Kick Low.wav
64,192,122070,1,0,0:0:0:50:LR_Snare Hit Hard.wav
320,192,122070,128,0,122270:0:0:0:0:
448,192,122070,128,0,122270:0:0:0:0:
64,192,122336,1,0,0:0:0:50:LR_Drum Kick Low.wav
192,192,122336,1,0,0:0:0:0:
320,192,122403,1,0,0:0:0:50:LR_Drum Kick Low.wav
64,192,122470,1,4,0:0:0:0:
192,192,122470,1,0,0:0:0:50:LR_Drum Kick Low.wav
448,192,122470,1,0,0:0:0:0:
320,192,122736,1,0,0:0:0:50:LR_Drum Kick Low.wav
448,192,122736,1,0,0:0:0:0:
64,192,122803,1,0,0:0:0:50:LR_Drum Kick Low.wav
192,192,122803,1,0,0:0:0:0:
320,192,122870,1,0,0:0:0:50:LR_Drum Kick Low.wav
448,192,122870,1,0,0:0:0:0:
64,192,123136,1,0,0:0:0:50:LR_Drum Kick Low.wav
192,192,123136,1,0,0:0:0:0:
64,192,123270,1,0,0:0:0:50:LR_Snare Hit Hard.wav
320,192,123270,1,0,0:0:0:0:
448,192,123270,1,0,0:0:0:0:
192,192,123536,1,0,0:0:0:50:LR_Drum Kick Low.wav
320,192,123536,1,0,0:0:0:0:
64,192,123670,1,0,0:0:0:50:LR_Drum Kick Low.wav
448,192,123670,1,0,0:0:0:0:
64,192,123803,1,0,0:0:0:50:LR_Drum Kick Low.wav
320,192,123803,1,0,0:0:0:0:
192,192,123936,1,0,0:0:0:50:LR_Drum Kick Low.wav
448,192,123936,1,0,0:0:0:0:
320,192,124070,1,4,0:0:0:0:
448,192,124070,1,0,0:0:0:50:LR_Drum Kick Low.wav
64,192,124336,1,0,0:0:0:50:LR_Drum Kick Low.wav
192,192,124336,1,0,0:0:0:0:
320,192,124403,1,0,0:0:0:50:LR_Drum Kick Low.wav
448,192,124403,1,0,0:0:0:0:
64,192,124470,1,0,0:0:0:50:LR_Drum Kick Low.wav
192,192,124470,1,0,0:0:0:0:
320,192,124736,1,0,0:0:0:50:LR_Drum Kick Low.wav
448,192,124736,1,0,0:0:0:0:
64,192,124870,1,0,0:0:0:50:LR_Snare Hit Hard.wav
192,192,124870,1,0,0:0:0:0:
448,192,124870,1,0,0:0:0:0:
64,192,125136,1,0,0:0:0:50:LR_Drum Kick Low.wav
320,192,125136,1,0,0:0:0:0:
192,192,125270,1,0,0:0:0:50:LR_Drum Kick Low.wav
448,192,125270,1,0,0:0:0:0:
64,192,125403,1,0,0:0:0:50:LR_Snare Hit Hard.wav
320,192,125403,1,0,0:0:0:0:
448,192,125403,1,0,0:0:0:0:
64,192,125536,1,0,0:0:0:50:LR_Snare Hit Hard.wav
320,192,125536,1,0,0:0:0:0:
448,192,125536,1,0,0:0:0:0:
64,192,125670,1,4,0:0:0:0:
192,192,125670,1,0,0:0:0:50:LR_Drum Kick Low.wav
448,192,125670,1,0,0:0:0:0:
320,192,125936,1,0,0:0:0:50:LR_Drum Kick Low.wav
448,192,125936,1,0,0:0:0:0:
64,192,126003,1,0,0:0:0:50:LR_Drum Kick Low.wav
192,192,126003,1,0,0:0:0:0:
320,192,126070,1,0,0:0:0:50:LR_Drum Kick Low.wav
448,192,126070,1,0,0:0:0:0:
64,192,126336,1,0,0:0:0:50:LR_Drum Kick Low.wav
192,192,126336,1,0,0:0:0:0:
64,192,126470,1,0,0:0:0:50:LR_Snare Hit Hard.wav
320,192,126470,1,0,0:0:0:0:
448,192,126470,1,0,0:0:0:0:
192,192,126603,1,0,0:0:0:0:
320,192,126736,1,0,0:0:0:50:LR_Drum Kick Low.wav
448,192,126736,1,0,0:0:0:0:
64,192,126870,1,0,0:0:0:50:LR_Drum Kick Low.wav
192,192,126870,1,0,0:0:0:0:
64,192,127003,1,0,0:0:0:50:LR_Drum Kick Low.wav
320,192,127003,1,0,0:0:0:0:
192,192,127136,1,0,0:0:0:50:LR_Drum Kick Low.wav
448,192,127136,1,0,0:0:0:0:
64,192,127270,1,4,0:0:0:0:
320,192,127270,1,0,0:0:0:50:LR_Snare Hit Hard.wav
448,192,127270,1,0,0:0:0:0:
192,192,127403,1,0,0:0:0:0:
320,192,127470,1,0,0:0:0:0:
192,192,127536,1,0,0:0:0:50:LR_Drum Kick Low.wav
64,192,127670,1,0,0:0:0:50:LR_Snare Hit Hard.wav
320,192,127670,1,0,0:0:0:0:
448,192,127670,1,0,0:0:0:0:
192,192,127803,1,0,0:0:0:0:
320,192,127870,1,0,0:0:0:0:
192,192,127936,1,0,0:0:0:50:LR_Drum Kick Low.wav
64,192,128070,128,0,128736:0:0:0:50:LR_Snare Hit Hard.wav
320,192,128070,128,0,128336:0:0:0:0:
320,192,128470,1,0,0:0:0:0:
320,192,128603,1,0,0:0:0:0:
320,192,128736,1,0,0:0:0:0:
64,192,128870,1,4,0:0:0:0:
192,192,128870,1,0,0:0:0:50:LR_Drum Kick Low.wav
448,192,128870,1,0,0:0:0:0:
320,192,129136,1,0,0:0:0:50:LR_Drum Kick Low.wav
448,192,129136,1,0,0:0:0:0:
64,192,129203,1,0,0:0:0:50:LR_Drum Kick Low.wav
192,192,129203,1,0,0:0:0:0:
320,192,129270,1,0,0:0:0:50:LR_Drum Kick Low.wav
448,192,129270,1,0,0:0:0:0:
192,192,129536,1,0,0:0:0:50:LR_Drum Kick Low.wav
320,192,129603,1,0,0:0:0:50:LR_Drum Kick Low.wav
64,192,129670,128,0,130336:0:0:0:50:LR_Snare Hit Hard.wav
192,192,129670,1,0,0:0:0:0:
448,192,129670,128,0,129936:0:0:0:0:
448,192,130070,128,0,130336:0:0:0:0:
64,192,130470,128,4,131003:0:0:0:0:
448,192,130470,128,0,130736:0:0:0:0:
448,192,130870,128,0,131136:0:0:0:0:
192,192,131136,1,0,0:0:0:50:LR_Drum Kick Low.wav
64,192,131203,1,0,0:0:0:50:LR_Drum Kick Low.wav
320,192,131270,1,0,0:0:0:50:LR_Snare Hit Hard.wav
448,192,131270,128,0,131536:0:0:0:0:
192,192,131403,1,0,0:0:0:50:LR_Drum Kick Low.wav
64,192,131536,1,0,0:0:0:50:LR_Drum Kick Low.wav
192,192,131603,1,0,0:0:0:50:LR_Drum Kick Low.wav
320,192,131670,1,0,0:0:0:50:LR_Drum Kick Low.wav
64,192,131803,1,0,0:0:0:50:LR_Snare Hit Hard.wav
192,192,131803,1,0,0:0:0:0:
448,192,131803,1,0,0:0:0:0:
320,192,131936,1,0,0:0:0:50:LR_Snare Hit Hard.wav
192,192,132003,1,0,0:0:0:50:LR_Drum Kick Low.wav
64,192,132070,128,4,132270:0:0:0:0:
320,192,132070,1,0,0:0:0:50:LR_Drum Kick Low.wav
448,192,132070,1,0,0:0:0:0:
320,192,132336,1,0,0:0:0:50:LR_Drum Kick Low.wav
448,192,132336,1,0,0:0:0:0:
64,192,132403,1,0,0:0:0:50:LR_Drum Kick Low.wav
192,192,132403,1,0,0:0:0:0:
320,192,132470,1,0,0:0:0:50:LR_Drum Kick Low.wav
448,192,132470,1,0,0:0:0:0:
192,192,132736,1,0,0:0:0:50:LR_Drum Kick Low.wav
320,192,132803,1,0,0:0:0:50:LR_Drum Kick Low.wav
64,192,132870,128,0,133536:0:0:0:50:LR_Snare Hit Hard.wav
192,192,132870,1,0,0:0:0:0:
448,192,132870,128,0,133136:0:0:0:0:
448,192,133270,128,0,133536:0:0:0:0:
64,192,133670,128,4,134203:0:0:0:0:
448,192,133670,128,0,133936:0:0:0:0:
448,192,134070,128,0,134336:0:0:0:0:
192,192,134336,1,0,0:0:0:50:LR_Drum Kick Low.wav
320,192,134403,1,0,0:0:0:50:LR_Drum Kick Low.wav
64,192,134470,128,0,134736:0:0:0:50:LR_Snare Hit Hard.wav
192,192,134470,1,0,0:0:0:0:
448,192,134470,128,0,134736:0:0:0:0:
320,192,134736,1,0,0:0:0:0:
192,192,134870,128,0,135270:0:0:0:0:
64,192,135270,1,4,0:0:0:0:
320,192,135270,1,0,0:0:0:50:LR_Drum Kick Low.wav
448,192,135270,1,0,0:0:0:0:
64,192,135536,1,0,0:0:0:50:LR_Drum Kick Low.wav
192,192,135536,1,0,0:0:0:0:
320,192,135603,1,0,0:0:0:50:LR_Drum Kick Low.wav
448,192,135603,1,0,0:0:0:0:
64,192,135670,1,0,0:0:0:50:LR_Drum Kick Low.wav
192,192,135670,1,0,0:0:0:0:
320,192,135936,1,0,0:0:0:50:LR_Drum Kick Low.wav
192,192,136003,1,0,0:0:0:50:LR_Drum Kick Low.wav
64,192,136070,128,0,136203:0:0:0:50:LR_Snare Hit Hard.wav
320,192,136070,1,0,0:0:0:0:
448,192,136070,128,0,136736:0:0:0:0:
64,192,136336,128,0,136470:0:0:0:0:
64,192,136603,128,0,136736:0:0:0:0:
64,192,136870,128,4,137003:0:0:0:0:
448,192,136870,128,0,137536:0:0:0:0:
64,192,137136,128,0,137270:0:0:0:0:
64,192,137403,128,0,137536:0:0:0:0:
320,192,137536,1,0,0:0:0:50:LR_Drum Kick Low.wav
192,192,137603,1,0,0:0:0:50:LR_Drum Kick Low.wav
64,192,137670,1,0,0:0:0:50:LR_Snare Hit Hard.wav
448,192,137670,1,0,0:0:0:0:
64,192,137803,1,0,0:0:0:50:LR_Drum Kick Low.wav
192,192,137803,1,0,0:0:0:0:
320,192,137936,1,0,0:0:0:50:LR_Drum Kick Low.wav
448,192,138003,1,0,0:0:0:50:LR_Drum Kick Low.wav
64,192,138070,1,0,0:0:0:50:LR_Drum Kick Low.wav
192,192,138070,1,0,0:0:0:0:
192,192,138203,1,0,0:0:0:50:LR_Snare Hit Hard.wav
320,192,138203,1,0,0:0:0:0:
64,192,138336,1,0,0:0:0:50:LR_Snare Hit Hard.wav
448,192,138336,1,0,0:0:0:0:
192,192,138403,1,0,0:0:0:50:LR_Drum Kick Low.wav
64,192,138470,1,4,0:0:0:0:
320,192,138470,128,0,138670:0:0:0:50:LR_Drum Kick Low.wav
448,192,138470,128,0,138670:0:0:0:0:
64,192,138736,1,0,0:0:0:50:LR_Drum Kick Low.wav
192,192,138736,1,0,0:0:0:0:
320,192,138803,1,0,0:0:0:50:LR_Drum Kick Low.wav
448,192,138803,1,0,0:0:0:0:
64,192,138870,1,0,0:0:0:50:LR_Drum Kick Low.wav
192,192,138870,1,0,0:0:0:0:
320,192,139136,1,0,0:0:0:50:LR_Drum Kick Low.wav
192,192,139203,1,0,0:0:0:50:LR_Drum Kick Low.wav
64,192,139270,128,0,139536:0:0:0:50:LR_Snare Hit Hard.wav
320,192,139270,1,0,0:0:0:0:
448,192,139270,128,0,139803:0:0:0:0:
192,192,139536,128,0,139803:0:0:0:0:
320,192,139803,128,0,140070:0:0:0:0:
64,192,140070,128,4,140603:0:0:0:0:
448,192,140070,128,0,140336:0:0:0:0:
320,192,140336,128,0,140603:0:0:0:0:
192,192,140603,128,0,140870:0:0:0:0:
448,192,140736,1,0,0:0:0:50:LR_Drum Kick Low.wav
64,192,140803,1,0,0:0:0:50:LR_Drum Kick Low.wav
320,192,140870,128,0,141270:0:0:0:50:LR_Snare Hit Hard.wav
448,192,140870,128,0,141270:0:0:0:0:
192,192,141270,128,0,141670:0:0:0:0:
64,192,141670,1,0,0:0:0:0:
320,192,142070,1,0,0:0:0:0:
192,192,142336,1,0,0:0:0:0:
320,192,142470,1,0,0:0:0:0:
192,192,142736,1,0,0:0:0:0:
448,192,142870,1,0,0:0:0:0:
448,192,143003,1,0,0:0:0:0:
192,192,143136,1,0,0:0:0:0:
320,192,143270,1,0,0:0:0:0:
320,192,143403,1,0,0:0:0:0:
64,192,143536,1,0,0:0:0:0:
448,192,143670,1,0,0:0:0:0:
448,192,143803,1,0,0:0:0:0:
192,192,143936,1,0,0:0:0:0:
192,192,144070,1,0,0:0:0:0:
320,192,144203,1,0,0:0:0:0:
320,192,144336,1,0,0:0:0:0:
64,192,144470,128,0,144870:0:0:0:0:
448,192,144870,1,0,0:0:0:0:
192,192,145270,1,0,0:0:0:0:
320,192,145536,1,0,0:0:0:0:
192,192,145670,1,0,0:0:0:0:
64,192,145936,1,0,0:0:0:0:
320,192,146070,1,0,0:0:0:0:
320,192,146336,1,0,0:0:0:0:
192,192,146470,1,0,0:0:0:0:
448,192,146470,1,0,0:0:0:0:
64,192,146603,1,0,0:0:0:0:
320,192,146736,1,0,0:0:0:0:
64,192,146870,1,0,0:0:0:0:
448,192,146870,1,0,0:0:0:0:
192,192,147003,1,0,0:0:0:0:
320,192,147136,1,0,0:0:0:0:
64,192,147270,1,0,0:0:0:0:
448,192,147270,1,0,0:0:0:0:
320,192,147403,1,0,0:0:0:0:
192,192,147536,1,0,0:0:0:0:
64,192,147670,128,0,148070:0:0:0:0:
320,192,147670,1,0,0:0:0:0:
448,192,147803,1,0,0:0:0:0:
320,192,147936,1,0,0:0:0:0:
192,192,148070,1,0,0:0:0:0:
448,192,148070,128,0,148470:0:0:0:0:
64,192,148470,1,0,0:0:0:0:
64,192,148603,1,0,0:0:0:0:
320,192,148736,1,0,0:0:0:0:
64,192,148870,1,0,0:0:0:0:
448,192,148870,128,0,149270:0:0:0:0:
192,192,149270,1,0,0:0:0:0:
192,192,149403,1,0,0:0:0:0:
320,192,149536,1,0,0:0:0:0:
64,192,149670,1,0,0:0:0:0:
448,192,149670,128,0,150070:0:0:0:0:
320,192,150070,1,0,0:0:0:0:
320,192,150203,1,0,0:0:0:0:
192,192,150336,1,0,0:0:0:0:
64,192,150470,1,0,0:0:0:0:
448,192,150470,128,0,150870:0:0:0:0:
320,192,150603,1,0,0:0:0:0:
192,192,150736,1,0,0:0:0:0:
64,192,150870,1,0,0:0:0:0:
320,192,150870,1,0,0:0:0:0:
64,192,151003,1,0,0:0:0:0:
192,192,151136,1,0,0:0:0:0:
320,192,151270,1,0,0:0:0:0:
448,192,151270,1,0,0:0:0:0:
320,192,151403,1,0,0:0:0:0:
192,192,151536,1,0,0:0:0:0:
448,192,151536,1,0,0:0:0:0:
192,192,151670,128,0,151736:0:0:0:0:
64,192,151803,1,0,0:0:0:0:
320,192,151803,1,0,0:0:0:0:
64,192,151936,128,0,152070:0:0:0:0:
192,192,152070,1,0,0:0:0:0:
448,192,152070,1,0,0:0:0:0:
448,192,152203,128,0,152336:0:0:0:0:
64,192,152336,1,0,0:0:0:0:
320,192,152336,1,0,0:0:0:0:
64,192,152470,128,0,152603:0:0:0:0:
192,192,152603,1,0,0:0:0:0:
448,192,152603,1,0,0:0:0:0:
192,192,152736,128,0,152870:0:0:0:0:
64,192,152870,1,2,0:0:0:0:
320,192,152870,128,0,153270:0:0:0:0:
448,192,152870,1,0,0:0:0:0:
64,192,153270,128,0,153536:0:0:0:0:
192,192,153270,128,0,153536:0:0:0:0:
192,192,153670,128,0,153936:0:0:0:0:
320,192,153670,128,0,153936:0:0:0:0:
320,192,154070,128,0,154336:0:0:0:0:
448,192,154070,128,0,154336:0:0:0:0:
64,192,154470,1,0,0:0:0:0:
192,192,154470,1,0,0:0:0:0:
448,192,154470,1,0,0:0:0:0:
192,192,154736,1,0,0:0:0:0:
320,192,154870,1,0,0:0:0:0:
192,192,155003,1,0,0:0:0:0:
192,192,155270,128,0,155670:0:0:0:50:LR_Snare Hit Hard.wav
448,192,155270,1,0,0:0:0:0:
320,192,155670,1,0,0:0:0:50:LR_Snare Hit Hard.wav
64,192,155803,1,0,0:0:0:0:
448,192,155803,1,0,0:0:0:0:
192,192,155936,1,0,0:0:0:0:
320,192,155936,1,0,0:0:0:0:
64,192,156070,1,0,0:0:0:50:LR_Snare Hit Hard.wav
448,192,156070,128,0,156336:0:0:0:0:
320,192,156336,1,0,0:0:0:0:
192,192,156470,1,0,0:0:0:50:LR_Snare Hit Hard.wav
192,192,156603,1,0,0:0:0:0:
448,192,156603,1,0,0:0:0:0:
320,192,156736,1,0,0:0:0:0:
64,192,156870,128,0,157136:0:0:0:50:LR_Snare Hit Hard.wav
448,192,156870,1,0,0:0:0:0:
192,192,157136,1,0,0:0:0:50:LR_Snare Hit Hard.wav
320,192,157270,1,0,0:0:0:0:
64,192,157403,1,0,0:0:0:50:LR_Snare Hit Hard.wav
192,192,157403,1,0,0:0:0:0:
320,192,157536,1,0,0:0:0:50:LR_Snare Hit Hard.wav
448,192,157536,1,0,0:0:0:0:
64,192,157670,1,0,0:0:0:50:LR_Snare Hit Hard.wav
448,192,157670,128,0,157936:0:0:0:0:
320,192,157936,1,0,0:0:0:0:
192,192,158070,1,0,0:0:0:50:LR_Snare Hit Hard.wav
64,192,158203,1,0,0:0:0:0:
320,192,158203,1,0,0:0:0:0:
320,192,158336,1,0,0:0:0:0:
64,192,158470,128,0,158870:0:0:0:50:LR_Snare Hit Hard.wav
448,192,158470,1,0,0:0:0:0:
192,192,158870,1,0,0:0:0:50:LR_Snare Hit Hard.wav
448,192,158870,1,0,0:0:0:0:
320,192,159003,1,0,0:0:0:0:
192,192,159136,1,0,0:0:0:0:
64,192,159270,1,0,0:0:0:50:LR_Snare Hit Hard.wav
448,192,159270,128,0,159536:0:0:0:0:
320,192,159536,1,0,0:0:0:0:
192,192,159670,1,0,0:0:0:50:LR_Snare Hit Hard.wav
64,192,159803,1,0,0:0:0:0:
320,192,159803,1,0,0:0:0:0:
320,192,159936,1,0,0:0:0:0:
64,192,160070,128,0,160336:0:0:0:50:LR_Snare Hit Hard.wav
448,192,160070,1,0,0:0:0:0:
192,192,160336,1,0,0:0:0:50:LR_Snare Hit Hard.wav
64,192,160470,1,0,0:0:0:50:LR_Snare Hit Hard.wav
448,192,160470,1,0,0:0:0:0:
192,192,160536,1,0,0:0:0:50:LR_Snare Hit Hard.wav
448,192,160603,1,0,0:0:0:50:LR_Snare Hit Hard.wav
64,192,160670,1,0,0:0:0:50:LR_Snare Hit Hard.wav
320,192,160736,1,0,0:0:0:50:LR_Snare Hit Hard.wav
192,192,160803,1,0,0:0:0:50:LR_Snare Hit Hard.wav
64,192,160870,1,8,0:0:0:0:
320,192,160870,128,4,161136:0:0:0:0:
448,192,160870,128,0,161136:0:0:0:0:
64,192,161270,1,8,0:0:0:0:
320,192,161270,128,0,161336:0:0:0:0:
448,192,161270,128,0,161403:0:0:0:0:
192,192,161403,1,0,0:0:0:0:
320,192,161470,1,0,0:0:0:0:
448,192,161536,1,0,0:0:0:0:
192,192,161603,1,0,0:0:0:0:
64,192,161670,1,8,0:0:0:0:
320,192,161670,128,0,161936:0:0:0:0:
448,192,161670,128,0,161936:0:0:0:0:
64,192,162070,1,8,0:0:0:0:
320,192,162070,1,0,0:0:0:0:
448,192,162070,1,0,0:0:0:0:
192,192,162336,1,0,0:0:0:0:
320,192,162336,1,0,0:0:0:0:
64,192,162470,128,8,162736:0:0:0:0:
192,192,162470,128,4,162736:0:0:0:0:
448,192,162470,1,0,0:0:0:0:
64,192,162870,128,8,163003:0:0:0:0:
192,192,162870,128,0,162936:0:0:0:0:
448,192,162870,1,0,0:0:0:0:
320,192,163003,1,0,0:0:0:0:
192,192,163070,1,0,0:0:0:0:
64,192,163136,1,0,0:0:0:0:
320,192,163203,1,0,0:0:0:0:
64,192,163270,128,8,163536:0:0:0:0:
192,192,163270,128,0,163536:0:0:0:0:
448,192,163270,1,0,0:0:0:0:
64,192,163670,1,8,0:0:0:0:
192,192,163670,1,0,0:0:0:0:
448,192,163670,1,0,0:0:0:0:
320,192,163803,1,0,0:0:0:0:
64,192,163870,1,0,0:0:0:0:
192,192,163936,1,0,0:0:0:0:
64,192,164070,128,8,164203:0:0:0:0:
320,192,164070,128,4,164203:0:0:0:0:
448,192,164070,128,0,164203:0:0:0:0:
192,192,164336,128,8,164470:0:0:0:0:
320,192,164336,128,4,164470:0:0:0:0:
448,192,164336,128,0,164470:0:0:0:0:
64,192,164603,128,8,164736:0:0:0:0:
192,192,164603,128,4,164736:0:0:0:0:
320,192,164603,128,0,164736:0:0:0:0:
64,192,164870,128,8,165003:0:0:0:0:
192,192,164870,128,4,165003:0:0:0:0:
448,192,164870,128,0,165003:0:0:0:0:
64,192,165136,128,8,165270:0:0:0:0:
320,192,165136,128,4,165270:0:0:0:0:
448,192,165136,128,0,165270:0:0:0:0:
64,192,165403,128,4,165536:0:0:0:0:
192,192,165403,128,8,165536:0:0:0:0:
320,192,165403,128,0,165536:0:0:0:0:
448,192,165670,128,0,166070:0:0:0:0:
64,192,166070,128,0,166203:0:0:0:0:
192,192,166070,128,0,166203:0:0:0:0:
192,192,166470,128,0,166603:0:0:0:0:
320,192,166470,128,0,166603:0:0:0:0:
64,192,166736,1,2,0:0:0:0:
448,192,166736,1,0,0:0:0:0:
192,192,166781,1,2,0:0:0:0:
320,192,166825,1,2,0:0:0:0:
64,192,166870,128,0,167003:0:0:0:70:LR_Snare Hit Hard.wav
448,192,166870,128,0,167003:0:0:0:0:
64,192,167270,128,4,168736:0:0:0:0:
192,192,167270,128,2,168003:0:0:0:0:
320,192,167270,128,0,167936:0:0:0:0:
448,192,168070,128,0,168170:0:0:0:0:
320,192,168136,128,0,168236:0:0:0:0:
192,192,168336,128,0,168403:0:0:0:0:
448,192,168336,1,0,0:0:0:0:
448,192,168470,128,0,168570:0:0:0:0:
320,192,168536,128,0,168636:0:0:0:0:
192,192,168736,128,0,168803:0:0:0:0:
448,192,168736,1,0,0:0:0:0:
64,192,168870,1,0,0:0:0:0:
320,192,168870,1,0,0:0:0:0:
448,192,168936,1,0,0:0:0:0:
192,192,169003,1,0,0:0:0:0:
320,192,169070,1,0,0:0:0:0:
64,192,169136,1,0,0:0:0:0:
192,192,169203,1,0,0:0:0:0:
448,192,169270,1,0,0:0:0:0:
320,192,169370,1,0,0:0:0:0:
192,192,169470,1,0,0:0:0:0:
64,192,169570,128,0,170336:0:0:0:0:
320,192,169670,1,0,0:0:0:0:
448,192,169670,128,0,169803:0:0:0:0:
192,192,169803,128,0,169936:0:0:0:0:
320,192,169936,128,0,170070:0:0:0:0:
448,192,169936,1,0,0:0:0:0:
192,192,170070,128,0,170203:0:0:0:0:
320,192,170203,1,0,0:0:0:0:
448,192,170203,128,0,170336:0:0:0:0:
192,192,170336,128,0,170403:0:0:0:0:
64,192,170470,1,0,0:0:0:0:
320,192,170470,128,0,170736:0:0:0:0:
448,192,170470,1,0,0:0:0:0:
64,192,170736,1,0,0:0:0:0:
192,192,170736,128,0,171003:0:0:0:0:
448,192,170736,1,0,0:0:0:0:
64,192,171003,128,0,171270:0:0:0:0:
320,192,171003,1,0,0:0:0:0:
448,192,171003,1,0,0:0:0:0:
192,192,171270,1,0,0:0:0:0:
320,192,171270,128,0,171536:0:0:0:0:
448,192,171270,1,0,0:0:0:0:
64,192,171536,1,0,0:0:0:0:
192,192,171536,1,0,0:0:0:0:
448,192,171536,1,0,0:0:0:0:
192,192,171670,128,0,171803:0:0:0:0:
64,192,171803,1,0,0:0:0:0:
320,192,171803,1,0,0:0:0:0:
448,192,171803,1,0,0:0:0:0:
320,192,171936,128,0,172003:0:0:0:0:
64,192,172070,1,0,0:0:0:0:
192,192,172070,1,0,0:0:0:0:
448,192,172070,1,0,0:0:0:0:
64,192,172203,1,0,0:0:0:0:
320,192,172203,1,0,0:0:0:0:
192,192,172336,1,0,0:0:0:0:
448,192,172336,1,0,0:0:0:0:
64,192,172470,1,0,0:0:0:0:
320,192,172470,1,0,0:0:0:0:
448,192,172470,1,0,0:0:0:0:
64,192,172603,1,0,0:0:0:0:
192,192,172603,1,0,0:0:0:0:
320,192,172736,1,0,0:0:0:0:
448,192,172736,1,0,0:0:0:0:
64,192,172870,1,0,0:0:0:0:
192,192,172870,1,0,0:0:0:0:
448,192,172870,1,0,0:0:0:0:
320,192,172936,1,0,0:0:0:0:
64,192,173003,1,0,0:0:0:0:
192,192,173070,1,0,0:0:0:0:
448,192,173136,1,0,0:0:0:0:
320,192,173203,1,0,0:0:0:0:
64,192,173270,1,0,0:0:0:70:LR_Snare Hit Hard.wav
192,192,173270,1,0,0:0:0:0:
448,192,173270,1,0,0:0:0:0:
64,192,173670,128,4,173936:0:0:0:0:
320,192,173670,1,0,0:0:0:70:dirty kick #3.wav
448,192,173670,1,0,0:0:0:0:
448,192,173870,1,0,0:0:0:0:
320,192,173936,1,0,0:0:0:0:
192,192,174003,1,0,0:0:0:0:
64,192,174070,1,0,0:0:0:70:dirty kick #3.wav
320,192,174070,128,0,174136:0:0:0:0:
448,192,174070,128,0,174203:0:0:0:0:
192,192,174203,1,0,0:0:0:0:
320,192,174270,1,0,0:0:0:0:
448,192,174336,1,0,0:0:0:0:
192,192,174403,1,0,0:0:0:0:
64,192,174470,1,0,0:0:0:70:dirty kick #3.wav
320,192,174470,1,0,0:0:0:0:
448,192,174470,1,0,0:0:0:0:
192,192,174603,128,0,174736:0:0:0:0:
320,192,174603,128,0,174870:0:0:0:0:
64,192,174870,1,0,0:0:0:70:dirty kick #3.wav
192,192,174870,1,0,0:0:0:0:
448,192,174870,1,0,0:0:0:0:
192,192,175003,128,0,175270:0:0:0:0:
320,192,175003,128,0,175136:0:0:0:0:
64,192,175270,1,0,0:0:0:70:dirty kick #3.wav
320,192,175270,1,0,0:0:0:0:
448,192,175270,1,0,0:0:0:0:
192,192,175403,128,0,175536:0:0:0:0:
320,192,175403,128,0,175670:0:0:0:0:
64,192,175670,1,0,0:0:0:70:dirty kick #3.wav
192,192,175670,1,0,0:0:0:0:
448,192,175670,1,0,0:0:0:0:
192,192,175803,128,0,176070:0:0:0:0:
320,192,175803,128,0,175936:0:0:0:0:
64,192,176070,1,0,0:0:0:70:dirty kick #3.wav
320,192,176070,1,0,0:0:0:0:
448,192,176070,128,0,176336:0:0:0:0:
64,192,176203,1,0,0:0:0:0:
192,192,176336,1,2,0:0:0:0:
320,192,176336,1,0,0:0:0:0:
64,192,176470,1,0,0:0:0:70:dirty kick #3.wav
192,192,176470,1,0,0:0:0:0:
448,192,176470,1,0,0:0:0:0:
320,192,176603,1,2,0:0:0:0:
448,192,176603,1,0,0:0:0:0:
64,192,176736,1,2,0:0:0:0:
192,192,176736,1,0,0:0:0:0:
64,192,176870,1,4,0:0:0:0:
320,192,176870,1,0,0:0:0:70:dirty kick #3.wav
448,192,176870,1,0,0:0:0:0:
192,192,177003,1,0,0:0:0:0:
448,192,177070,1,0,0:0:0:0:
64,192,177136,1,0,0:0:0:0:
320,192,177203,1,0,0:0:0:0:
64,192,177270,128,0,177470:0:0:0:70:dirty kick #3.wav
192,192,177270,128,0,177470:0:0:0:0:
448,192,177270,1,0,0:0:0:0:
320,192,177470,1,0,0:0:0:0:
448,192,177536,1,0,0:0:0:0:
192,192,177603,1,0,0:0:0:0:
64,192,177670,1,0,0:0:0:70:dirty kick #3.wav
320,192,177670,128,0,177870:0:0:0:0:
448,192,177670,1,0,0:0:0:0:
192,192,177803,128,0,177936:0:0:0:0:
448,192,177936,1,0,0:0:0:0:
320,192,178003,1,0,0:0:0:0:
64,192,178070,1,0,0:0:0:70:dirty kick #3.wav
192,192,178070,1,0,0:0:0:0:
448,192,178070,1,0,0:0:0:0:
64,192,178270,1,0,0:0:0:0:
320,192,178336,1,0,0:0:0:70:dirty kick #3.wav
448,192,178336,1,0,0:0:0:0:
192,192,178403,1,0,0:0:0:70:dirty kick #3.wav
64,192,178470,1,0,0:0:0:70:dirty kick #3.wav
320,192,178470,128,0,178736:0:0:0:0:
448,192,178470,1,0,0:0:0:0:
192,192,178603,128,0,178736:0:0:0:0:
64,192,178736,1,0,0:0:0:70:dirty kick #3.wav
448,192,178736,1,0,0:0:0:0:
192,192,178870,1,0,0:0:0:70:dirty kick #3.wav
320,192,178870,1,0,0:0:0:0:
64,192,179003,1,0,0:0:0:70:dirty kick #3.wav
448,192,179003,1,0,0:0:0:0:
320,192,179136,1,0,0:0:0:0:
64,192,179270,1,0,0:0:0:70:dirty kick #3.wav
192,192,179270,1,0,0:0:0:0:
448,192,179270,128,0,179536:0:0:0:0:
64,192,179536,128,2,179803:0:0:0:0:
192,192,179536,1,0,0:0:0:0:
320,192,179536,1,0,0:0:0:0:
192,192,179803,1,2,0:0:0:0:
320,192,179803,1,0,0:0:0:0:
448,192,179803,128,0,180070:0:0:0:0:
64,192,180070,128,2,180203:0:0:0:0:
320,192,180070,1,0,0:0:0:0:
192,192,180203,1,0,0:0:0:0:
448,192,180270,1,0,0:0:0:0:
64,192,180336,1,2,0:0:0:0:
320,192,180336,1,0,0:0:0:0:
192,192,180403,1,2,0:0:0:0:
64,192,180470,1,4,0:0:0:0:
320,192,180470,128,0,180736:0:0:0:70:dirty kick #3.wav
448,192,180470,128,0,180736:0:0:0:0:
64,192,180870,1,0,0:0:0:70:dirty kick #3.wav
192,192,180870,1,0,0:0:0:0:
448,192,180870,1,0,0:0:0:0:
192,192,181003,128,0,181270:0:0:0:0:
320,192,181003,128,0,181136:0:0:0:0:
64,192,181270,1,0,0:0:0:70:dirty kick #3.wav
320,192,181270,1,0,0:0:0:0:
448,192,181270,1,0,0:0:0:0:
192,192,181403,1,0,0:0:0:70:dirty kick #3.wav
448,192,181403,1,0,0:0:0:0:
64,192,181536,1,2,0:0:0:0:
320,192,181536,1,0,0:0:0:0:
64,192,181670,1,0,0:0:0:70:dirty kick #3.wav
192,192,181670,1,0,0:0:0:0:
448,192,181670,1,0,0:0:0:0:
320,192,181803,1,0,0:0:0:0:
448,192,181870,1,0,0:0:0:0:
64,192,181936,1,0,0:0:0:0:
192,192,182003,1,0,0:0:0:0:
64,192,182070,1,0,0:0:0:70:dirty kick #3.wav
320,192,182070,1,0,0:0:0:0:
448,192,182070,1,0,0:0:0:0:
320,192,182270,1,0,0:0:0:0:
192,192,182403,1,0,0:0:0:0:
64,192,182470,1,0,0:0:0:70:dirty kick #3.wav
320,192,182470,128,0,182670:0:0:0:0:
448,192,182470,128,0,182670:0:0:0:0:
64,192,182736,1,2,0:0:0:0:
192,192,182736,1,0,0:0:0:0:
320,192,182803,1,0,0:0:0:0:
64,192,182870,1,2,0:0:0:0:
192,192,182870,1,0,0:0:0:0:
448,192,182870,1,0,0:0:0:0:
320,192,183003,1,0,0:0:0:0:
64,192,183136,1,2,0:0:0:0:
448,192,183136,1,0,0:0:0:0:
192,192,183203,1,0,0:0:0:0:
64,192,183270,1,4,0:0:0:0:
320,192,183270,1,0,0:0:0:70:dirty kick #3.wav
448,192,183270,1,0,0:0:0:0:
64,192,183403,1,0,0:0:0:70:dirty kick #3.wav
320,192,183403,1,0,0:0:0:0:
448,192,183403,1,0,0:0:0:0:
192,192,183536,1,0,0:0:0:0:
64,192,183670,1,0,0:0:0:70:dirty kick #3.wav
192,192,183670,1,0,0:0:0:0:
448,192,183670,128,0,183936:0:0:0:0:
192,192,183936,1,2,0:0:0:0:
320,192,183936,1,0,0:0:0:0:
64,192,184070,128,2,184336:0:0:0:0:
320,192,184070,1,4,0:0:0:0:
448,192,184070,1,0,0:0:0:0:
320,192,184336,1,0,0:0:0:0:
64,192,184470,1,0,0:0:0:70:dirty kick #3.wav
192,192,184470,1,0,0:0:0:0:
448,192,184470,1,0,0:0:0:0:
320,192,184603,1,2,0:0:0:0:
448,192,184603,1,0,0:0:0:0:
64,192,184736,1,2,0:0:0:0:
192,192,184736,1,0,0:0:0:0:
64,192,184870,1,4,0:0:0:0:
320,192,184870,128,0,185136:0:0:0:70:dirty kick #3.wav
448,192,184870,1,0,0:0:0:0:
64,192,185136,1,2,0:0:0:0:
192,192,185136,1,0,0:0:0:0:
448,192,185203,1,0,0:0:0:0:
192,192,185270,1,0,0:0:0:0:
64,192,185403,1,2,0:0:0:0:
320,192,185403,1,0,0:0:0:0:
320,192,185536,1,0,0:0:0:0:
64,192,185670,1,2,0:0:0:0:
448,192,185670,1,0,0:0:0:0:
64,192,185803,1,2,0:0:0:0:
320,192,185803,1,0,0:0:0:0:
64,192,185936,1,2,0:0:0:0:
192,192,185936,1,0,0:0:0:0:
320,192,186070,1,2,0:0:0:0:
448,192,186070,1,0,0:0:0:0:
192,192,186203,1,2,0:0:0:0:
448,192,186203,1,0,0:0:0:0:
64,192,186336,1,2,0:0:0:0:
448,192,186336,1,0,0:0:0:0:
64,192,186470,128,4,186736:0:0:0:0:
192,192,186470,128,0,186670:0:0:0:70:dirty kick #3.wav
320,192,186470,1,0,0:0:0:0:
448,192,186470,1,0,0:0:0:0:
320,192,186670,1,0,0:0:0:0:
448,192,186736,1,0,0:0:0:0:
192,192,186803,1,0,0:0:0:0:
64,192,186870,1,0,0:0:0:70:dirty kick #3.wav
320,192,186870,1,0,0:0:0:0:
448,192,186870,1,0,0:0:0:0:
192,192,187003,128,0,187136:0:0:0:0:
320,192,187003,128,0,187270:0:0:0:0:
64,192,187270,1,0,0:0:0:70:dirty kick #3.wav
192,192,187270,1,0,0:0:0:0:
448,192,187270,128,0,187536:0:0:0:0:
64,192,187403,128,0,187536:0:0:0:0:
192,192,187403,128,0,187536:0:0:0:0:
64,192,187670,1,0,0:0:0:70:dirty kick #3.wav
320,192,187670,1,0,0:0:0:0:
448,192,187670,1,0,0:0:0:0:
64,192,187803,128,0,187936:0:0:0:0:
192,192,187803,128,0,187936:0:0:0:0:
320,192,187936,1,0,0:0:0:0:
448,192,187936,1,0,0:0:0:0:
64,192,188070,1,0,0:0:0:70:dirty kick #3.wav
192,192,188070,1,0,0:0:0:0:
448,192,188070,1,0,0:0:0:0:
320,192,188203,128,0,188336:0:0:0:0:
448,192,188203,128,0,188336:0:0:0:0:
64,192,188336,1,0,0:0:0:0:
192,192,188336,1,0,0:0:0:0:
64,192,188470,1,0,0:0:0:70:dirty kick #3.wav
320,192,188470,1,0,0:0:0:0:
448,192,188470,1,0,0:0:0:0:
192,192,188603,128,0,188736:0:0:0:0:
320,192,188603,128,0,188736:0:0:0:0:
448,192,188736,1,0,0:0:0:0:
64,192,188870,128,0,189136:0:0:0:70:dirty kick #3.wav
192,192,188870,128,0,189136:0:0:0:0:
448,192,188870,1,0,0:0:0:0:
448,192,189136,1,2,0:0:0:0:
64,192,189270,1,0,0:0:0:70:dirty kick #3.wav
320,192,189270,128,0,189403:0:0:0:0:
448,192,189270,128,0,189403:0:0:0:0:
192,192,189403,1,0,0:0:0:0:
64,192,189536,1,2,0:0:0:0:
320,192,189536,1,0,0:0:0:0:
448,192,189536,1,0,0:0:0:0:
64,192,189670,128,4,189936:0:0:0:0:
192,192,189670,128,0,189870:0:0:0:70:dirty kick #3.wav
448,192,189670,1,0,0:0:0:0:
320,192,189870,1,0,0:0:0:0:
448,192,189936,1,0,0:0:0:0:
192,192,190003,1,0,0:0:0:0:
64,192,190070,1,0,0:0:0:70:dirty kick #3.wav
320,192,190070,1,0,0:0:0:0:
448,192,190070,1,0,0:0:0:0:
192,192,190203,128,0,190336:0:0:0:0:
320,192,190203,128,0,190470:0:0:0:0:
64,192,190470,1,0,0:0:0:70:dirty kick #3.wav
192,192,190470,1,0,0:0:0:0:
448,192,190470,128,0,190736:0:0:0:0:
320,192,190736,1,0,0:0:0:0:
192,192,190803,1,0,0:0:0:0:
64,192,190870,1,0,0:0:0:70:dirty kick #3.wav
320,192,190870,1,0,0:0:0:0:
448,192,190870,1,0,0:0:0:0:
192,192,191003,128,0,191136:0:0:0:0:
64,192,191070,128,0,191136:0:0:0:0:
320,192,191136,1,0,0:0:0:0:
64,192,191270,1,0,0:0:0:70:dirty kick #3.wav
192,192,191270,1,0,0:0:0:0:
448,192,191270,128,0,191536:0:0:0:0:
320,192,191536,1,0,0:0:0:0:
192,192,191603,1,0,0:0:0:0:
64,192,191670,1,0,0:0:0:70:dirty kick #3.wav
320,192,191670,1,0,0:0:0:0:
448,192,191670,1,0,0:0:0:0:
192,192,191803,128,0,191936:0:0:0:0:
64,192,191870,128,0,191936:0:0:0:0:
320,192,191936,1,0,0:0:0:0:
64,192,192070,1,0,0:0:0:70:dirty kick #3.wav
192,192,192070,1,0,0:0:0:0:
448,192,192070,1,0,0:0:0:0:
320,192,192203,1,2,0:0:0:0:
448,192,192203,1,0,0:0:0:0:
192,192,192336,1,2,0:0:0:0:
320,192,192336,1,0,0:0:0:0:
64,192,192470,1,0,0:0:0:70:dirty kick #3.wav
448,192,192470,1,0,0:0:0:0:
192,192,192536,1,0,0:0:0:70:dirty kick #3.wav
320,192,192536,1,0,0:0:0:0:
64,192,192603,1,2,0:0:0:0:
448,192,192603,1,0,0:0:0:0:
192,192,192736,1,2,0:0:0:0:
320,192,192736,1,0,0:0:0:0:
64,192,192870,128,4,193136:0:0:0:0:
192,192,192870,128,0,193070:0:0:0:70:dirty kick #3.wav
448,192,192870,1,0,0:0:0:0:
320,192,193070,1,0,0:0:0:0:
448,192,193136,1,0,0:0:0:0:
192,192,193203,1,0,0:0:0:0:
64,192,193270,1,0,0:0:0:70:dirty kick #3.wav
320,192,193270,1,0,0:0:0:0:
448,192,193270,1,0,0:0:0:0:
192,192,193403,128,0,193536:0:0:0:0:
320,192,193403,128,0,193670:0:0:0:0:
64,192,193670,1,0,0:0:0:70:dirty kick #3.wav
192,192,193670,1,0,0:0:0:0:
448,192,193670,128,0,193936:0:0:0:0:
64,192,193803,128,0,193936:0:0:0:0:
192,192,193803,128,0,193936:0:0:0:0:
64,192,194070,1,0,0:0:0:70:dirty kick #3.wav
320,192,194070,1,0,0:0:0:0:
448,192,194070,1,0,0:0:0:0:
64,192,194203,128,0,194336:0:0:0:0:
192,192,194203,128,0,194336:0:0:0:0:
320,192,194336,1,0,0:0:0:0:
448,192,194336,1,0,0:0:0:0:
64,192,194470,1,0,0:0:0:70:dirty kick #3.wav
192,192,194470,1,0,0:0:0:0:
448,192,194470,1,0,0:0:0:0:
320,192,194603,1,0,0:0:0:0:
448,192,194670,1,0,0:0:0:0:
64,192,194736,1,0,0:0:0:0:
192,192,194803,1,0,0:0:0:0:
64,192,194870,1,0,0:0:0:70:dirty kick #3.wav
320,192,194870,1,0,0:0:0:0:
448,192,194870,1,0,0:0:0:0:
192,192,195003,128,0,195136:0:0:0:0:
448,192,195136,1,0,0:0:0:0:
320,192,195203,1,0,0:0:0:0:
64,192,195270,128,0,195536:0:0:0:70:dirty kick #3.wav
192,192,195270,128,0,195536:0:0:0:0:
448,192,195270,1,0,0:0:0:0:
320,192,195536,1,2,0:0:0:0:
448,192,195536,1,0,0:0:0:0:
64,192,195670,1,0,0:0:0:70:dirty kick #3.wav
192,192,195670,1,0,0:0:0:0:
448,192,195670,1,0,0:0:0:0:
192,192,195803,1,0,0:0:0:0:
320,192,195936,1,0,0:0:0:0:
448,192,195936,1,0,0:0:0:0:
64,192,196070,128,4,196336:0:0:0:0:
192,192,196070,128,0,196270:0:0:0:70:dirty kick #3.wav
448,192,196070,1,0,0:0:0:0:
448,192,196270,1,0,0:0:0:0:
320,192,196336,1,0,0:0:0:0:
192,192,196403,1,0,0:0:0:0:
64,192,196470,1,0,0:0:0:70:dirty kick #3.wav
320,192,196470,128,0,196670:0:0:0:0:
448,192,196470,128,0,196736:0:0:0:0:
64,192,196670,1,0,0:0:0:0:
192,192,196736,1,0,0:0:0:0:
320,192,196803,1,0,0:0:0:0:
64,192,196870,128,4,197136:0:0:0:0:
192,192,196870,128,0,197070:0:0:0:70:dirty kick #3.wav
448,192,196870,1,0,0:0:0:0:
448,192,197070,1,0,0:0:0:0:
320,192,197136,1,0,0:0:0:0:
192,192,197203,1,0,0:0:0:0:
64,192,197270,1,0,0:0:0:70:dirty kick #3.wav
320,192,197270,1,0,0:0:0:0:
448,192,197270,1,0,0:0:0:0:
64,192,197403,1,0,0:0:0:0:
192,192,197403,1,0,0:0:0:0:
320,192,197536,1,0,0:0:0:0:
448,192,197536,1,0,0:0:0:0:
64,192,197670,128,4,197803:0:0:0:0:
192,192,197670,128,2,197803:0:0:0:0:
448,192,197670,128,0,197803:0:0:0:0:
64,192,197936,128,2,198070:0:0:0:0:
192,192,197936,128,4,198070:0:0:0:0:
320,192,197936,128,0,198070:0:0:0:0:
192,192,198203,128,4,198336:0:0:0:0:
320,192,198203,128,2,198336:0:0:0:0:
448,192,198203,128,0,198336:0:0:0:0:
64,192,198470,1,0,0:0:0:0:
448,192,198470,1,0,0:0:0:0:
192,192,198536,1,0,0:0:0:0:
320,192,198603,1,0,0:0:0:0:
64,192,198670,1,0,0:0:0:0:
192,192,198736,1,0,0:0:0:0:
448,192,198803,1,0,0:0:0:0:
320,192,198870,1,0,0:0:0:0:
64,192,198936,1,0,0:0:0:0:
448,192,199003,1,0,0:0:0:0:
192,192,199070,1,0,0:0:0:0:
320,192,199136,1,0,0:0:0:0:
448,192,199203,1,0,0:0:0:0:
64,192,199270,1,4,0:0:0:0:
192,192,199270,1,2,0:0:0:0:
192,192,199536,1,2,0:0:0:0:
320,192,199536,1,4,0:0:0:0:
320,192,199803,1,2,0:0:0:0:
448,192,199803,1,4,0:0:0:0:
64,192,199936,1,2,0:0:0:0:
192,192,199936,1,0,0:0:0:0:
320,192,200003,1,2,0:0:0:0:
64,192,200070,1,4,0:0:0:0:
192,192,200070,1,0,0:0:0:70:S1.wav
448,192,200070,128,0,200336:0:0:0:0:
320,192,200336,1,0,0:0:0:0:
320,192,200470,1,0,0:0:0:0:
64,192,200603,1,0,0:0:0:0:
192,192,200603,1,0,0:0:0:0:
320,192,200736,1,0,0:0:0:0:
448,192,200736,1,0,0:0:0:0:
64,192,200870,1,2,0:0:0:0:
448,192,200870,1,0,0:0:0:0:
192,192,201003,1,0,0:0:0:0:
64,192,201136,128,0,201403:0:0:0:0:
320,192,201136,1,0,0:0:0:0:
320,192,201270,1,0,0:0:0:0:
192,192,201403,1,0,0:0:0:0:
320,192,201536,1,2,0:0:0:0:
448,192,201536,1,0,0:0:0:0:
64,192,201670,1,4,0:0:0:0:
192,192,201670,1,0,0:0:0:70:S1.wav
448,192,201670,1,0,0:0:0:0:
448,192,201803,128,0,202070:0:0:0:0:
64,192,201936,1,0,0:0:0:0:
64,192,202070,128,0,202470:0:0:0:0:
448,192,202203,128,0,202470:0:0:0:0:
320,192,202336,128,0,202470:0:0:0:0:
192,192,202470,128,0,202736:0:0:0:0:
320,192,202736,128,2,203003:0:0:0:0:
448,192,202736,1,0,0:0:0:0:
64,192,203003,1,2,0:0:0:0:
192,192,203003,128,0,203136:0:0:0:0:
64,192,203270,1,4,0:0:0:0:
320,192,203270,128,0,203536:0:0:0:70:S1.wav
448,192,203270,128,0,203603:0:0:0:0:
64,192,203536,1,0,0:0:0:0:
64,192,203670,128,0,203870:0:0:0:0:
320,192,203714,1,0,0:0:0:0:
448,192,203758,1,0,0:0:0:0:
192,192,203936,128,0,204003:0:0:0:0:
448,192,203936,1,0,0:0:0:0:
64,192,204070,128,2,204203:0:0:0:0:
320,192,204070,1,0,0:0:0:0:
448,192,204136,1,0,0:0:0:0:
192,192,204203,1,0,0:0:0:0:
320,192,204270,1,0,0:0:0:0:
448,192,204336,128,0,204470:0:0:0:0:
192,192,204470,1,0,0:0:0:0:
64,192,204536,1,0,0:0:0:0:
320,192,204603,128,0,204736:0:0:0:0:
192,192,204736,1,2,0:0:0:0:
448,192,204736,1,0,0:0:0:0:
64,192,204870,128,8,205003:0:0:0:0:
320,192,204870,1,4,0:0:0:0:
448,192,204870,128,0,205136:0:0:0:0:
192,192,205003,1,0,0:0:0:0:
320,192,205070,1,0,0:0:0:0:
64,192,205136,1,0,0:0:0:0:
192,192,205203,1,0,0:0:0:0:
320,192,205270,128,0,205403:0:0:0:0:
448,192,205270,128,0,205470:0:0:0:0:
192,192,205403,1,0,0:0:0:0:
64,192,205470,1,0,0:0:0:0:
320,192,205536,1,0,0:0:0:0:
192,192,205603,1,0,0:0:0:0:
64,192,205670,128,2,206070:0:0:0:0:
320,192,205670,128,4,205803:0:0:0:0:
448,192,205670,128,0,205870:0:0:0:0:
192,192,205870,1,0,0:0:0:0:
320,192,205936,1,0,0:0:0:0:
448,192,206003,1,0,0:0:0:0:
192,192,206070,1,0,0:0:0:0:
320,192,206136,1,0,0:0:0:0:
64,192,206203,1,0,0:0:0:0:
192,192,206270,1,0,0:0:0:0:
320,192,206336,1,0,0:0:0:0:
64,192,206470,1,4,0:0:0:0:
192,192,206470,1,0,0:0:0:70:S1.wav
448,192,206470,128,0,206803:0:0:0:0:
64,192,206736,1,0,0:0:0:0:
64,192,206870,1,0,0:0:0:0:
320,192,206914,1,0,0:0:0:0:
448,192,206958,1,0,0:0:0:0:
192,192,207003,128,0,207136:0:0:0:0:
320,192,207136,128,0,207270:0:0:0:0:
64,192,207270,128,2,207536:0:0:0:0:
448,192,207270,1,0,0:0:0:0:
192,192,207536,128,0,207736:0:0:0:0:
448,192,207736,1,0,0:0:0:0:
320,192,207870,1,0,0:0:0:0:
64,192,207936,1,2,0:0:0:0:
192,192,207936,1,0,0:0:0:0:
64,192,208070,1,4,0:0:0:0:
320,192,208070,128,0,208336:0:0:0:70:S1.wav
448,192,208070,128,0,208336:0:0:0:0:
64,192,208336,128,0,208603:0:0:0:0:
192,192,208336,128,0,208603:0:0:0:0:
320,192,208603,128,0,208736:0:0:0:0:
448,192,208603,128,0,208736:0:0:0:0:
192,192,208736,1,0,0:0:0:0:
64,192,208870,128,2,208936:0:0:0:0:
320,192,208870,128,4,209003:0:0:0:0:
448,192,208870,128,0,209136:0:0:0:0:
192,192,209003,1,0,0:0:0:0:
64,192,209070,1,0,0:0:0:0:
320,192,209136,1,0,0:0:0:0:
192,192,209203,1,0,0:0:0:0:
64,192,209270,128,0,209536:0:0:0:70:S1.wav
320,192,209270,1,0,0:0:0:0:
448,192,209270,1,0,0:0:0:0:
192,192,209403,128,0,209536:0:0:0:0:
448,192,209403,128,0,209536:0:0:0:0:
320,192,209536,1,0,0:0:0:0:
64,192,209670,128,4,209936:0:0:0:0:
192,192,209670,128,2,209803:0:0:0:0:
448,192,209670,128,0,209736:0:0:0:0:
320,192,209803,1,0,0:0:0:0:
448,192,209870,1,0,0:0:0:0:
192,192,209936,1,0,0:0:0:0:
320,192,210003,1,0,0:0:0:0:
64,192,210070,1,0,0:0:0:70:S1.wav
192,192,210070,1,0,0:0:0:0:
448,192,210070,128,0,210203:0:0:0:0:
64,192,210203,128,0,210336:0:0:0:0:
320,192,210203,1,0,0:0:0:0:
192,192,210336,1,0,0:0:0:0:
448,192,210336,1,0,0:0:0:0:
64,192,210470,128,4,210603:0:0:0:0:
320,192,210470,128,2,210603:0:0:0:0:
448,192,210470,128,0,210603:0:0:0:0:
64,192,210736,128,2,210870:0:0:0:0:
192,192,210736,128,4,210870:0:0:0:0:
448,192,210736,128,0,210870:0:0:0:0:
192,192,211003,128,4,211136:0:0:0:0:
320,192,211003,128,2,211136:0:0:0:0:
448,192,211003,128,0,211136:0:0:0:0:
64,192,211270,128,2,211870:0:0:0:0:
320,192,211270,1,4,0:0:0:0:
448,192,211270,1,0,0:0:0:0:
192,192,211420,1,0,0:0:0:0:
320,192,211470,1,0,0:0:0:50:LR_Snare Hit Hard.wav
448,192,211520,1,0,0:0:0:0:
192,192,211603,1,0,0:0:0:0:
320,192,211670,1,0,0:0:0:0:
448,192,211770,1,0,0:0:0:0:
320,192,211870,1,0,0:0:0:0:
192,192,211970,1,0,0:0:0:0:
64,192,212070,1,4,0:0:0:0:
320,192,212070,128,2,212203:0:0:0:0:
448,192,212070,128,0,212336:0:0:0:0:
192,192,212336,1,0,0:0:0:0:
320,192,212336,1,0,0:0:0:0:
64,192,212403,1,0,0:0:0:0:
320,192,212470,128,0,212603:0:0:0:0:
448,192,212470,128,0,212603:0:0:0:0:
320,192,212736,1,0,0:0:0:0:
448,192,212736,1,0,0:0:0:0:
64,192,212870,128,0,213270:0:0:0:70:S1.wav
192,192,212870,128,0,213270:0:0:0:0:
320,192,212870,1,0,0:0:0:0:
448,192,212870,1,0,0:0:0:0:
320,192,213270,1,0,0:0:0:0:
448,192,213270,1,0,0:0:0:0:
64,192,213403,1,0,0:0:0:0:
192,192,213403,1,0,0:0:0:0:
192,192,213536,1,0,0:0:0:0:
320,192,213536,1,0,0:0:0:0:
64,192,213670,1,2,0:0:0:0:
320,192,213670,128,0,213803:0:0:0:0:
448,192,213670,128,0,213803:0:0:0:0:
192,192,213803,1,0,0:0:0:0:
64,192,213870,1,0,0:0:0:0:
320,192,213936,1,0,0:0:0:0:
448,192,214003,1,0,0:0:0:0:
192,192,214070,128,0,214203:0:0:0:0:
320,192,214203,1,0,0:0:0:0:
64,192,214336,1,2,0:0:0:0:
320,192,214336,1,0,0:0:0:0:
64,192,214470,128,0,214736:0:0:0:70:S1.wav
192,192,214470,128,0,214603:0:0:0:0:
448,192,214470,128,0,214536:0:0:0:0:
320,192,214670,1,0,0:0:0:0:
192,192,214736,128,0,214803:0:0:0:0:
320,192,214803,128,0,214870:0:0:0:0:
64,192,214870,128,0,215003:0:0:0:0:
448,192,214870,128,0,214936:0:0:0:0:
192,192,214936,128,0,215070:0:0:0:0:
320,192,215003,128,0,215136:0:0:0:0:
448,192,215070,128,0,215136:0:0:0:0:
64,192,215136,1,0,0:0:0:0:
192,192,215203,1,0,0:0:0:0:
64,192,215270,128,2,215803:0:0:0:0:
320,192,215270,1,0,0:0:0:0:
448,192,215270,1,0,0:0:0:0:
320,192,215403,1,0,0:0:0:0:
448,192,215403,1,0,0:0:0:0:
320,192,215536,1,0,0:0:0:0:
448,192,215536,1,0,0:0:0:0:
320,192,215670,128,0,215936:0:0:0:0:
448,192,215670,128,0,215936:0:0:0:0:
64,192,215936,1,0,0:0:0:0:
192,192,215936,1,0,0:0:0:0:
64,192,216070,1,0,0:0:0:70:S1.wav
192,192,216070,128,0,216470:0:0:0:0:
320,192,216070,128,0,216470:0:0:0:0:
448,192,216070,1,0,0:0:0:0:
64,192,216470,1,0,0:0:0:0:
448,192,216470,1,0,0:0:0:0:
192,192,216603,1,0,0:0:0:0:
320,192,216603,1,0,0:0:0:0:
64,192,216736,1,0,0:0:0:0:
320,192,216736,1,0,0:0:0:0:
64,192,216870,128,2,217403:0:0:0:0:
192,192,216870,128,0,217403:0:0:0:0:
448,192,216870,1,0,0:0:0:0:
448,192,217136,128,0,217203:0:0:0:0:
320,192,217403,128,0,217470:0:0:0:0:
64,192,217536,1,2,0:0:0:0:
192,192,217536,1,0,0:0:0:0:
448,192,217536,1,0,0:0:0:0:
64,192,217670,128,0,218120:0:0:0:70:S1.wav
192,192,217670,128,0,218070:0:0:0:0:
320,192,217670,128,0,218020:0:0:0:0:
448,192,217670,128,0,217970:0:0:0:0:
448,192,218070,128,0,218170:0:0:0:0:
320,192,218120,128,0,218220:0:0:0:0:
192,192,218170,128,0,218270:0:0:0:0:
64,192,218220,128,0,218320:0:0:0:0:
448,192,218270,1,0,0:0:0:0:
320,192,218320,1,0,0:0:0:0:
192,192,218370,1,0,0:0:0:0:
64,192,218420,1,0,0:0:0:0:
320,192,218470,128,4,218603:0:0:0:0:
448,192,218470,128,2,218736:0:0:0:0:
192,192,218736,1,0,0:0:0:0:
320,192,218736,1,0,0:0:0:0:
64,192,218803,1,0,0:0:0:0:
320,192,218870,128,0,219003:0:0:0:0:
448,192,218870,128,0,219003:0:0:0:0:
320,192,219136,1,0,0:0:0:0:
448,192,219136,1,0,0:0:0:0:
64,192,219270,128,0,219670:0:0:0:70:S1.wav
192,192,219270,128,0,219670:0:0:0:0:
320,192,219270,1,0,0:0:0:0:
448,192,219270,1,0,0:0:0:0:
320,192,219670,1,0,0:0:0:0:
448,192,219670,1,0,0:0:0:0:
64,192,219803,1,0,0:0:0:0:
192,192,219803,1,0,0:0:0:0:
192,192,219936,1,0,0:0:0:0:
320,192,219936,1,0,0:0:0:0:
64,192,220070,1,2,0:0:0:0:
320,192,220070,128,0,220203:0:0:0:0:
448,192,220070,128,0,220203:0:0:0:0:
192,192,220203,1,0,0:0:0:0:
64,192,220270,1,0,0:0:0:0:
320,192,220336,1,0,0:0:0:0:
448,192,220403,1,0,0:0:0:0:
192,192,220470,128,0,220603:0:0:0:0:
320,192,220603,1,0,0:0:0:0:
64,192,220736,1,2,0:0:0:0:
320,192,220736,1,0,0:0:0:0:
64,192,220870,128,0,221136:0:0:0:70:S1.wav
192,192,220870,128,0,221003:0:0:0:0:
448,192,220870,128,0,220936:0:0:0:0:
320,192,221070,1,0,0:0:0:0:
192,192,221136,128,0,221203:0:0:0:0:
320,192,221203,128,0,221270:0:0:0:0:
64,192,221270,128,0,221403:0:0:0:0:
448,192,221270,128,0,221336:0:0:0:0:
192,192,221336,128,0,221470:0:0:0:0:
320,192,221403,128,0,221536:0:0:0:0:
448,192,221470,128,0,221536:0:0:0:0:
64,192,221536,1,0,0:0:0:0:
192,192,221603,1,0,0:0:0:0:
64,192,221670,128,2,222270:0:0:0:0:
320,192,221670,1,4,0:0:0:0:
448,192,221670,1,0,0:0:0:0:
448,192,221936,128,0,222070:0:0:0:0:
192,192,222070,128,0,222136:0:0:0:0:
320,192,222203,1,0,0:0:0:0:
192,192,222270,128,0,222336:0:0:0:0:
448,192,222336,1,0,0:0:0:0:
64,192,222470,128,2,222870:0:0:0:0:
320,192,222470,1,4,0:0:0:0:
448,192,222470,128,0,222870:0:0:0:0:
192,192,222870,128,0,223136:0:0:0:0:
320,192,222870,128,0,223070:0:0:0:0:
448,192,223070,1,0,0:0:0:0:
64,192,223136,1,0,0:0:0:0:
320,192,223203,1,0,0:0:0:0:
64,192,223270,128,4,223536:0:0:0:0:
192,192,223270,128,2,223536:0:0:0:0:
448,192,223270,128,0,223536:0:0:0:0:
64,192,223670,128,8,223936:0:0:0:0:
320,192,223670,128,4,223936:0:0:0:0:
448,192,223670,128,0,223936:0:0:0:0:
64,192,224070,128,2,224336:0:0:0:0:
192,192,224070,128,4,224336:0:0:0:0:
320,192,224070,128,0,224336:0:0:0:0:
448,192,224070,128,0,224336:0:0:0:0:
448,192,224470,1,0,0:0:0:0:
320,192,224536,1,0,0:0:0:0:
192,192,224603,1,0,0:0:0:0:
64,192,224670,1,0,0:0:0:0:
320,192,224736,1,0,0:0:0:0:
448,192,224803,1,0,0:0:0:0:
64,192,224870,128,2,225136:0:0:0:0:
192,192,224870,1,0,0:0:0:0:
320,192,225136,1,0,0:0:0:0:
320,192,225403,1,0,0:0:0:0:
320,192,225670,128,0,225936:0:0:0:0:
192,192,225936,1,0,0:0:0:0:
320,192,226203,1,0,0:0:0:0:
64,192,226336,1,0,0:0:0:0:
448,192,226470,128,0,226736:0:0:0:0:
192,192,226736,1,0,0:0:0:0:
64,192,227003,1,0,0:0:0:0:
320,192,227270,128,0,227536:0:0:0:0:
192,192,227536,1,0,0:0:0:0:
64,192,227803,1,0,0:0:0:0:
320,192,227936,1,0,0:0:0:0:
448,192,228070,128,0,228336:0:0:0:0:
192,192,228336,1,0,0:0:0:0:
64,192,228603,1,0,0:0:0:0:
320,192,228870,128,0,229136:0:0:0:0:
192,192,229136,1,0,0:0:0:0:
448,192,229403,1,0,0:0:0:0:
320,192,229536,1,0,0:0:0:0:
64,192,229670,128,0,229936:0:0:0:0:
448,192,229936,1,0,0:0:0:0:
192,192,230203,1,0,0:0:0:0:
320,192,230470,128,0,230736:0:0:0:0:
448,192,230736,1,0,0:0:0:0:
64,192,231003,1,0,0:0:0:0:
192,192,231270,128,0,231536:0:0:0:0:
320,192,231536,1,0,0:0:0:0:
320,192,231803,1,0,0:0:0:0:
320,192,232070,128,0,232336:0:0:0:0:
64,192,232336,1,0,0:0:0:0:
192,192,232603,1,0,0:0:0:0:
320,192,232736,1,0,0:0:0:0:
448,192,232870,128,0,233136:0:0:0:0:
192,192,233136,1,0,0:0:0:0:
64,192,233403,1,0,0:0:0:0:
320,192,233670,128,0,233936:0:0:0:0:
192,192,233936,1,0,0:0:0:0:
64,192,234203,1,0,0:0:0:0:
320,192,234336,1,0,0:0:0:0:
448,192,234470,128,0,234736:0:0:0:0:
192,192,234736,1,0,0:0:0:0:
64,192,235003,1,0,0:0:0:0:
320,192,235270,128,0,235536:0:0:0:0:
192,192,235536,1,0,0:0:0:0:
448,192,235803,1,0,0:0:0:0:
320,192,235936,1,0,0:0:0:0:
192,192,236070,128,0,236336:0:0:0:0:
64,192,236336,1,0,0:0:0:0:
320,192,236603,1,0,0:0:0:0:
64,192,236870,128,0,240070:0:0:0:0:
448,192,236870,128,0,240070:0:0:0:0:
