osu file format v14

[General]
AudioFilename: audio.mp3
AudioLeadIn: 0
PreviewTime: 207529
Countdown: 0
SampleSet: Normal
StackLeniency: 0.7
Mode: 1
LetterboxInBreaks: 0
WidescreenStoryboard: 0

[Editor]
DistanceSpacing: 1
BeatDivisor: 4
GridSize: 32
TimelineZoom: 3.299999

[Metadata]
Title:Xeroa ("preconnaiXance" Long ver.)
TitleUnicode:Xéroa ("préconnaiXance" Long ver.)
Artist:Camellia
ArtistUnicode:かめりあ
Creator:Cynplytholowazy
Version:PURITY
Source:SOUND VOLTEX IV HEAVENLY HAVEN
Tags:sdvx 4 The 7th KACオリジナル楽曲コンテスト original song contest xroniàl xéro xronial xero かめるかめりあ cametek kamelcamellia masaya oya 大箭将也 electronic instrumental rhythm video game speedcore MTNTWarz TaikOseania
BeatmapID:3044422
BeatmapSetID:1484496

[Difficulty]
HPDrainRate:2.2
CircleSize:5
OverallDifficulty:8.8
ApproachRate:10
SliderMultiplier:1.4
SliderTickRate:1

[Events]
//Background and Video events
0,0,"xeroap.jpg",0,85
//Break Periods
//Storyboard Layer 0 (Background)
//Storyboard Layer 1 (Fail)
//Storyboard Layer 2 (Pass)
//Storyboard Layer 3 (Foreground)
//Storyboard Layer 4 (Overlay)
//Storyboard Sound Samples

[TimingPoints]
1018,199.335548172757,4,1,0,100,1,0
1217,-133.333333333333,4,1,0,80,0,0
7197,-121.212121212121,4,1,0,90,0,0
13725,-100,4,1,0,100,0,0
13825,-133.333333333333,4,1,0,80,0,0
16915,-117.647058823529,4,1,0,90,0,0
20054,-117.647058823529,4,1,0,80,0,0
20752,-133.333333333333,4,1,0,80,0,0
23277,-100,4,1,0,100,0,0
23343,-100,4,1,0,100,0,1
26532,-100,4,1,0,100,0,0
26732,-133.333333333333,4,1,0,60,0,0
32712,-100,4,1,0,100,0,0
33111,-133.333333333333,4,1,0,60,0,0
34307,-100,4,1,0,100,0,0
34506,-100,4,1,0,100,0,1
36101,-100,4,1,0,100,0,0
36300,-133.333333333333,4,1,0,60,0,0
37496,-100,4,1,0,100,0,0
37695,-100,4,1,0,100,0,1
39290,-100,4,1,0,100,0,0
39490,-121.212121212121,4,1,0,80,0,0
43875,-121.212121212121,4,1,0,100,0,0
44074,199.335548172757,4,1,0,100,1,0
44074,-111.111111111111,4,1,0,100,0,0
44173,-111.111111111111,4,1,0,90,0,0
50253,-100,4,1,0,100,0,0
50452,-100,4,1,0,100,0,1
53442,-100,4,1,0,100,0,0
53642,-100,4,1,0,100,0,1
56034,-100,4,1,0,100,0,0
56831,-100,4,1,0,100,0,1
58426,-100,4,1,0,100,0,0
58625,-100,4,1,0,100,0,1
59622,-100,4,1,0,100,0,0
61715,-100,4,1,0,100,0,1
63210,-100,4,1,0,100,0,0
63409,-133.333333333333,4,1,0,80,0,0
66366,-100,4,1,0,100,0,0
66798,-133.333333333333,4,1,0,60,0,0
67794,-121.212121212121,4,1,0,80,0,0
69389,-100,4,1,0,80,0,0
69588,-100,4,1,0,80,0,1
77163,-100,4,1,0,80,0,0
77562,-100,4,1,0,80,0,1
78758,-100,4,1,0,80,0,0
79157,-100,4,1,0,80,0,1
82346,199.335548172757,4,1,0,100,1,9
82347,199.335548172757,6,1,0,100,1,0
82546,-111.111111111111,6,1,0,100,0,0
90420,-100,6,1,0,100,0,0
90918,-133.333333333333,6,1,0,60,0,0
91715,-133.333333333333,6,1,0,100,0,0
91915,199.335548172757,4,1,0,100,1,1
91915,-100,4,1,0,100,0,1
95104,-100,4,1,0,100,0,0
95303,-133.333333333333,4,1,0,60,0,0
97396,-133.333333333333,4,1,0,90,0,0
97596,-111.111111111111,4,1,0,90,0,0
101283,-100,4,1,0,100,0,0
120619,-100,4,1,0,100,0,1
123808,-100,4,1,0,100,0,0
125503,-100,4,1,0,100,0,1
126998,-100,4,1,0,100,0,0
127197,-117.647058823529,4,1,0,90,0,0
132546,-117.647058823529,4,1,0,100,0,0
132579,199.335548172757,4,1,0,100,1,0
132778,-117.647058823529,4,1,0,90,0,0
135569,-100,4,1,0,100,0,0
135768,-100,4,1,0,100,0,1
138957,-100,4,1,0,100,0,0
142147,-100,4,1,0,100,0,1
145336,-100,4,1,0,100,0,0
148725,-111.111111111111,4,1,0,90,0,0
150070,-111.111111111111,4,1,0,100,0,0
150120,-100,4,1,0,100,0,1
151715,-100,4,1,0,100,0,0
151914,-111.111111111111,4,1,0,90,0,0
153260,-111.111111111111,4,1,0,100,0,0
153309,-100,4,1,0,100,0,1
154904,-100,4,1,0,100,0,0
155004,-133.333333333333,4,1,0,60,0,0
157994,-117.647058823529,4,1,0,90,0,0
161133,-100,4,1,0,100,0,0
161382,-133.333333333333,4,1,0,80,0,0
166665,-100,4,1,0,100,0,0
167861,-133.333333333333,4,1,0,80,0,0
170818,-100,4,1,0,100,0,0
171250,-133.333333333333,4,1,0,80,0,0
172412,-100,4,1,0,100,0,0
174040,-100,4,1,0,100,0,1
181615,-100,4,1,0,100,0,0
182014,-100,4,1,0,100,0,1
183210,-100,4,1,0,100,0,0
183608,-100,4,1,0,100,0,1
186798,199.335548172757,7,1,0,100,1,0
186798,-100,4,1,0,100,0,0
197960,199.335548172757,7,1,0,100,1,8
197961,199.335548172757,4,1,0,100,1,0
201349,-133.333333333333,4,1,0,80,0,0
204339,-133.333333333333,4,1,0,80,0,0
205137,-120.000048000019,4,1,0,80,0,0
205735,-111.627948512725,4,1,0,80,0,0
205784,-110.982617902384,4,1,0,80,0,0
205834,-110.344827586207,4,1,0,80,0,0
205934,-109.090869421502,4,1,0,80,0,0
205984,-108.474576271186,4,1,0,80,0,0
206034,-107.865207322322,4,1,0,80,0,0
206133,-106.666666666667,4,1,0,80,0,0
206183,-106.077385574324,4,1,0,80,0,0
206233,-105.49446839755,4,1,0,80,0,0
206333,-104.347862381865,4,1,0,80,0,0
206382,-103.783747880217,4,1,0,80,0,0
206432,-103.225806451613,4,1,0,80,0,0
206532,-102.127624807617,4,1,0,80,0,0
206582,-101.587301587302,4,1,0,80,0,0
206632,-101.05266561774,4,1,0,80,0,0
206731,-100,4,1,0,80,0,0
207329,-100,4,1,0,100,0,0
207529,-100,4,1,0,100,0,1
220286,-100,4,1,0,100,0,0
220485,-100,4,1,0,100,0,1
231050,-100,4,1,0,100,0,0
231449,-100,4,1,0,100,0,1
232645,-100,4,1,0,100,0,0
233044,-95.2380952380952,4,1,0,100,0,1
235436,-95.2380952380952,4,1,0,100,0,0
235585,-96.0960960960961,4,1,0,100,0,0
235635,-96.3855421686747,4,1,0,100,0,0
235685,-96.6767371601208,4,1,0,100,0,0
235735,-96.969696969697,4,1,0,100,0,0
235884,-97.8593272171254,4,1,0,100,0,0
235934,-98.159509202454,4,1,0,100,0,0
235984,-98.4615384615385,4,1,0,100,0,0
236034,-98.7654320987654,4,1,0,100,0,0
236233,-100,4,1,0,100,0,1
242213,-100,4,1,0,100,0,0
242612,-100,4,1,0,100,0,1
244206,-95.2380952380952,4,1,0,100,0,1
245336,-100,4,1,0,100,0,0
245801,-95.2380952380952,4,1,0,100,0,1
247396,199.335548172757,4,1,0,100,1,9
247397,199.335548172757,7,1,0,100,1,1
247397,-90.9090909090909,7,1,0,100,0,1
252978,199.335548172757,4,1,0,100,1,0
253177,-133.333333333333,4,1,0,60,0,0
254373,-100,4,1,0,100,0,0
254772,-133.333333333333,4,1,0,60,0,0
255968,-100,4,1,0,100,0,0
256366,-133.333333333333,4,1,0,60,0,0
259157,-133.333333333333,4,1,0,90,0,0
259356,-133.333333333333,4,1,0,90,0,0
260154,-114.328179037928,4,1,0,90,0,0
260353,-110.39428422554,4,1,0,90,0,0
260403,-109.452779881703,4,1,0,90,0,0
260453,-108.527081305233,4,1,0,90,0,0
260502,-107.617025443893,4,1,0,90,0,0
260552,-106.722105242937,4,1,0,90,0,0
260602,-105.841946221707,4,1,0,90,0,0
260652,-104.976186152171,4,1,0,90,0,0
260702,-104.124366142921,4,1,0,90,0,0
260752,-103.286365580025,4,1,0,90,0,0
260801,-102.461745907166,4,1,0,90,0,0
260851,-101.650189171002,4,1,0,90,0,0
260901,-100.851387412537,4,1,0,90,0,0
260951,-100.064942147454,4,1,0,90,0,0
262346,-100.064942147454,4,1,0,100,0,0
262546,-95.2380952380952,4,1,0,100,0,1
268127,-95.2380952380952,4,1,0,100,0,0
268174,-95.8105427661237,4,1,0,100,0,0
268224,-96.3899135272419,4,1,0,100,0,0
268274,-96.9763338808785,4,1,0,100,0,0
268323,-97.5579900850725,4,1,0,100,0,0
268423,-98.7669620174732,4,1,0,100,0,0
268473,-99.3827545358189,4,1,0,100,0,0
268523,-100.006273919317,4,1,0,100,0,0
268622,-101.264214471762,4,1,0,100,0,0
268722,-102.567402355061,4,1,0,100,0,0
268772,-103.23165598083,4,1,0,100,0,0
268822,-103.904569454403,4,1,0,100,0,0
268924,-95.2380952380952,4,1,0,100,0,1
271715,-95.2380952380952,4,1,0,100,0,0
277147,-133.333333333333,4,1,0,60,0,0
278293,-100,4,1,0,90,0,0
278492,-100,4,1,0,90,0,1
281682,-100,4,1,0,90,0,0
281881,-133.333333333333,4,1,0,60,0,0
284672,-95.2380952380952,4,1,0,100,0,0
284871,-95.2380952380952,4,1,0,100,0,1
286466,-95.2380952380952,4,1,0,100,0,0

[HitObjects]
155,73,1018,5,4,0:0:0:0:
330,134,2662,1,8,0:0:0:0:
238,135,4257,1,8,0:0:0:0:
238,135,5852,1,8,0:0:0:0:
183,196,7397,1,0,0:0:0:0:
183,196,7596,1,0,0:0:0:0:
183,196,7696,1,8,0:0:0:0:
273,157,7895,1,8,0:0:0:0:
295,200,7995,1,8,0:0:0:0:
273,157,8094,1,0,0:0:0:0:
269,229,8144,1,0,0:0:0:0:
273,157,8194,1,8,0:0:0:0:
295,200,8393,1,0,0:0:0:0:
295,200,8443,1,0,0:0:0:0:
295,200,8493,1,0,0:0:0:0:
295,200,8593,1,8,0:0:0:0:
295,200,8692,1,0,0:0:0:0:
295,200,8792,1,8,0:0:0:0:
295,200,8892,1,8,0:0:0:0:
295,200,8991,1,0,0:0:0:0:
281,148,9191,1,0,0:0:0:0:
281,148,9290,1,8,0:0:0:0:
211,169,9490,1,8,0:0:0:0:
211,169,9589,1,8,0:0:0:0:
209,148,9689,1,0,0:0:0:0:
209,148,9739,1,0,0:0:0:0:
209,148,9789,1,8,0:0:0:0:
275,98,9988,1,0,0:0:0:0:
275,98,10038,1,0,0:0:0:0:
275,98,10088,1,8,0:0:0:0:
328,117,10187,1,8,0:0:0:0:
328,117,10287,1,8,0:0:0:0:
328,117,10387,1,0,0:0:0:0:
328,117,10486,1,0,0:0:0:0:
328,117,10586,1,8,0:0:0:0:
275,176,10785,1,8,0:0:0:0:
275,176,10885,1,0,0:0:0:0:
399,197,11084,1,0,0:0:0:0:
399,197,11284,1,8,0:0:0:0:
399,197,11483,1,8,0:0:0:0:
392,198,11583,1,0,0:0:0:0:
392,198,11782,1,8,0:0:0:0:
392,198,11931,1,0,0:0:0:0:
392,198,12081,1,0,0:0:0:0:
392,198,12181,1,8,0:0:0:0:
392,198,12380,1,0,0:0:0:0:
392,198,12480,1,8,0:0:0:0:
392,198,12679,1,0,0:0:0:0:
392,198,12779,1,8,0:0:0:0:
392,198,12878,1,0,0:0:0:0:
392,198,12978,1,8,0:0:0:0:
392,198,13127,1,8,0:0:0:0:
392,198,13277,1,0,0:0:0:0:
392,198,13377,1,8,0:0:0:0:
392,198,13526,1,0,0:0:0:0:
392,198,13676,1,8,0:0:0:0:
392,198,13775,1,4,0:0:0:0:
195,164,14373,1,0,0:0:0:0:
229,215,14971,1,0,0:0:0:0:
312,128,15171,1,0,0:0:0:0:
312,128,15270,1,0,0:0:0:0:
312,128,15370,1,0,0:0:0:0:
319,148,15968,1,0,0:0:0:0:
356,179,16566,1,0,0:0:0:0:
305,124,16765,1,0,0:0:0:0:
305,124,16865,1,0,0:0:0:0:
272,222,16965,1,8,0:0:0:0:
418,252,17015,1,0,0:0:0:0:
272,222,17064,1,0,0:0:0:0:
272,222,17164,1,8,0:0:0:0:
418,252,17214,1,0,0:0:0:0:
272,222,17264,1,0,0:0:0:0:
272,222,17363,1,8,0:0:0:0:
418,252,17413,1,0,0:0:0:0:
272,222,17463,1,0,0:0:0:0:
272,222,17563,1,8,0:0:0:0:
418,252,17613,1,0,0:0:0:0:
272,222,17662,1,0,0:0:0:0:
272,222,17762,1,8,0:0:0:0:
192,192,17812,1,8,0:0:0:0:
418,252,17862,1,0,0:0:0:0:
418,252,17912,1,0,0:0:0:0:
272,222,17961,1,0,0:0:0:0:
272,222,18061,1,8,0:0:0:0:
192,192,18111,1,8,0:0:0:0:
418,252,18161,1,0,0:0:0:0:
418,252,18211,1,0,0:0:0:0:
418,252,18260,1,0,0:0:0:0:
284,146,18360,1,8,0:0:0:0:
246,209,18410,1,8,0:0:0:0:
284,146,18460,1,0,0:0:0:0:
200,59,18510,1,0,0:0:0:0:
143,143,18559,1,8,0:0:0:0:
418,252,18609,1,0,0:0:0:0:
197,135,18659,1,0,0:0:0:0:
197,135,18759,1,8,0:0:0:0:
418,252,18809,1,0,0:0:0:0:
197,135,18858,1,0,0:0:0:0:
245,101,18958,1,8,0:0:0:0:
418,252,19008,1,0,0:0:0:0:
331,95,19058,1,0,0:0:0:0:
331,95,19157,1,8,0:0:0:0:
418,252,19207,1,0,0:0:0:0:
362,175,19257,1,0,0:0:0:0:
362,175,19357,1,8,0:0:0:0:
362,175,19407,1,8,0:0:0:0:
418,252,19456,1,0,0:0:0:0:
418,252,19506,1,0,0:0:0:0:
418,252,19556,1,0,0:0:0:0:
271,232,19656,1,8,0:0:0:0:
271,232,19706,1,8,0:0:0:0:
418,252,19755,1,0,0:0:0:0:
418,252,19805,1,0,0:0:0:0:
271,232,19855,1,0,0:0:0:0:
175,236,19955,1,0,0:0:0:0:
342,228,20154,1,0,0:0:0:0:
342,228,20752,1,0,0:0:0:0:
295,159,20951,1,8,0:0:0:0:
295,159,21084,1,0,0:0:0:0:
295,159,21217,1,0,0:0:0:0:
295,159,21350,1,8,0:0:0:0:
295,159,21483,1,8,0:0:0:0:
295,159,21616,1,8,0:0:0:0:
295,159,21749,1,0,0:0:0:0:
295,159,21948,1,0,0:0:0:0:
345,161,22347,1,0,0:0:0:0:
345,161,22546,1,8,0:0:0:0:
345,161,22679,1,0,0:0:0:0:
345,161,22812,1,0,0:0:0:0:
345,161,22945,1,8,0:0:0:0:
345,161,23078,1,8,0:0:0:0:
345,161,23211,1,8,0:0:0:0:
202,190,23343,1,8,0:0:0:0:
202,190,23393,1,8,0:0:0:0:
267,204,23443,1,0,0:0:0:0:
267,204,23543,1,8,0:0:0:0:
267,204,23593,1,8,0:0:0:0:
317,239,23642,1,0,0:0:0:0:
250,96,23742,1,8,0:0:0:0:
250,96,23792,1,8,0:0:0:0:
250,96,23842,1,0,0:0:0:0:
250,96,23941,1,8,0:0:0:0:
250,96,23991,1,8,0:0:0:0:
250,96,24041,1,0,0:0:0:0:
250,96,24141,1,8,0:0:0:0:
250,96,24191,1,8,0:0:0:0:
250,96,24240,1,8,0:0:0:0:
250,96,24290,1,8,0:0:0:0:
250,96,24340,1,0,0:0:0:0:
250,96,24440,1,8,0:0:0:0:
250,96,24490,1,8,0:0:0:0:
250,96,24539,1,8,0:0:0:0:
250,96,24589,1,8,0:0:0:0:
250,96,24639,1,0,0:0:0:0:
250,96,24739,1,8,0:0:0:0:
250,96,24789,1,8,0:0:0:0:
250,96,24838,1,0,0:0:0:0:
250,96,24888,1,0,0:0:0:0:
320,132,24938,1,8,0:0:0:0:
320,132,24988,1,8,0:0:0:0:
320,132,25038,1,0,0:0:0:0:
320,132,25137,1,8,0:0:0:0:
320,132,25187,1,8,0:0:0:0:
320,132,25237,1,0,0:0:0:0:
320,132,25337,1,8,0:0:0:0:
320,132,25387,1,8,0:0:0:0:
320,132,25436,1,0,0:0:0:0:
298,166,25536,1,8,0:0:0:0:
298,166,25586,1,8,0:0:0:0:
298,166,25636,1,0,0:0:0:0:
298,166,25735,1,8,0:0:0:0:
298,166,25785,1,8,0:0:0:0:
298,166,25835,1,8,0:0:0:0:
298,166,25885,1,8,0:0:0:0:
298,166,25935,1,0,0:0:0:0:
298,166,26034,1,8,0:0:0:0:
298,166,26084,1,8,0:0:0:0:
298,166,26134,1,8,0:0:0:0:
298,166,26184,1,8,0:0:0:0:
298,166,26234,1,0,0:0:0:0:
333,195,26333,1,8,0:0:0:0:
333,195,26533,1,4,0:0:0:0:
256,192,30619,12,0,32712,0:0:0:0:
239,146,32912,5,4,0:0:0:0:
178,179,34506,1,8,0:0:0:0:
300,152,34556,1,8,0:0:0:0:
178,179,34606,1,0,0:0:0:0:
300,152,34706,1,8,0:0:0:0:
325,148,34755,1,8,0:0:0:0:
325,148,34805,1,0,0:0:0:0:
178,179,34905,1,8,0:0:0:0:
300,152,34955,1,8,0:0:0:0:
178,179,35005,1,0,0:0:0:0:
300,152,35105,1,8,0:0:0:0:
325,148,35154,1,8,0:0:0:0:
325,148,35204,1,0,0:0:0:0:
298,166,35304,1,8,0:0:0:0:
298,166,35354,1,8,0:0:0:0:
298,166,35404,1,8,0:0:0:0:
298,166,35454,1,8,0:0:0:0:
298,166,35504,1,0,0:0:0:0:
298,166,35603,1,8,0:0:0:0:
298,166,35653,1,8,0:0:0:0:
298,166,35703,1,8,0:0:0:0:
298,166,35753,1,8,0:0:0:0:
298,166,35803,1,0,0:0:0:0:
333,195,35902,1,8,0:0:0:0:
333,195,36102,1,4,0:0:0:0:
178,179,37696,1,8,0:0:0:0:
300,152,37746,1,8,0:0:0:0:
178,179,37796,1,0,0:0:0:0:
300,152,37896,1,8,0:0:0:0:
325,148,37945,1,8,0:0:0:0:
325,148,37995,1,0,0:0:0:0:
178,179,38094,1,8,0:0:0:0:
300,152,38144,1,8,0:0:0:0:
178,179,38194,1,0,0:0:0:0:
300,152,38294,1,8,0:0:0:0:
325,148,38343,1,8,0:0:0:0:
325,148,38394,1,0,0:0:0:0:
298,166,38493,1,8,0:0:0:0:
298,166,38543,1,0,0:0:0:0:
298,166,38593,1,8,0:0:0:0:
298,166,38642,1,8,0:0:0:0:
298,166,38692,1,0,0:0:0:0:
298,166,38792,1,8,0:0:0:0:
298,166,38842,1,0,0:0:0:0:
298,166,38892,1,8,0:0:0:0:
298,166,38941,1,8,0:0:0:0:
298,166,38991,1,0,0:0:0:0:
333,195,39091,1,8,0:0:0:0:
419,184,39191,1,8,0:0:0:0:
419,184,39240,1,8,0:0:0:0:
333,195,39290,1,0,0:0:0:0:
358,114,39888,1,0,0:0:0:0:
358,114,40088,1,8,0:0:0:0:
358,114,40686,1,0,0:0:0:0:
358,114,40885,1,8,0:0:0:0:
358,114,41483,1,8,0:0:0:0:
358,114,41682,1,0,0:0:0:0:
299,154,42280,1,0,0:0:0:0:
299,154,42413,1,0,0:0:0:0:
299,154,42546,1,0,0:0:0:0:
299,154,42679,1,8,0:0:0:0:
299,154,42853,1,0,0:0:0:0:
299,154,43028,1,0,0:0:0:0:
265,115,43277,1,8,0:0:0:0:
353,182,44074,1,12,0:0:0:0:
280,195,44273,1,0,0:0:0:0:
280,195,44373,1,0,0:0:0:0:
280,195,44472,1,0,0:0:0:0:
280,195,44572,1,0,0:0:0:0:
232,131,44672,1,8,0:0:0:0:
312,154,44871,1,0,0:0:0:0:
312,154,44971,1,0,0:0:0:0:
312,154,45070,1,0,0:0:0:0:
312,154,45170,1,0,0:0:0:0:
312,154,45270,1,8,0:0:0:0:
312,154,45668,1,8,0:0:0:0:
312,154,45868,1,0,0:0:0:0:
312,154,45967,1,0,0:0:0:0:
312,154,46067,1,0,0:0:0:0:
312,154,46167,1,0,0:0:0:0:
312,154,46266,1,8,0:0:0:0:
312,154,46466,1,0,0:0:0:0:
312,154,46565,1,0,0:0:0:0:
312,154,46665,1,0,0:0:0:0:
312,154,46765,1,0,0:0:0:0:
312,154,46864,1,8,0:0:0:0:
312,154,47064,1,8,0:0:0:0:
312,154,47263,1,8,0:0:0:0:
312,154,47462,1,0,0:0:0:0:
312,154,47562,1,0,0:0:0:0:
312,154,47662,1,0,0:0:0:0:
312,154,47761,1,0,0:0:0:0:
312,154,47861,1,8,0:0:0:0:
312,154,48060,1,8,0:0:0:0:
312,154,48160,1,0,0:0:0:0:
312,154,48260,1,0,0:0:0:0:
312,154,48359,1,0,0:0:0:0:
312,154,48459,1,8,0:0:0:0:
366,129,48658,1,0,0:0:0:0:
366,129,48858,1,8,0:0:0:0:
366,129,49057,1,0,0:0:0:0:
366,129,49123,1,0,0:0:0:0:
366,129,49190,1,0,0:0:0:0:
366,129,49256,1,8,0:0:0:0:
366,129,49456,1,0,0:0:0:0:
366,129,49655,1,8,0:0:0:0:
345,201,50452,1,0,0:0:0:0:
345,201,50552,1,0,0:0:0:0:
345,201,50652,1,8,0:0:0:0:
345,201,50751,1,0,0:0:0:0:
339,191,50851,1,8,0:0:0:0:
339,191,50951,1,0,0:0:0:0:
339,191,51050,1,8,0:0:0:0:
339,191,51150,1,0,0:0:0:0:
339,191,51200,1,0,0:0:0:0:
339,191,51250,1,8,0:0:0:0:
339,191,51349,1,0,0:0:0:0:
339,191,51449,1,8,0:0:0:0:
339,191,51549,1,0,0:0:0:0:
339,191,51598,1,0,0:0:0:0:
339,191,51648,1,8,0:0:0:0:
339,191,51748,1,0,0:0:0:0:
339,191,51848,1,8,0:0:0:0:
339,191,51897,1,8,0:0:0:0:
339,191,51947,1,8,0:0:0:0:
339,191,51997,1,8,0:0:0:0:
339,191,52047,1,0,0:0:0:0:
339,191,52147,1,0,0:0:0:0:
339,191,52246,1,8,0:0:0:0:
339,191,52346,1,0,0:0:0:0:
339,191,52446,1,8,0:0:0:0:
339,191,52545,1,0,0:0:0:0:
339,191,52645,1,8,0:0:0:0:
174,121,52745,1,0,0:0:0:0:
174,121,52794,1,0,0:0:0:0:
174,121,52844,1,8,0:0:0:0:
174,121,52877,1,8,0:0:0:0:
174,121,52911,1,8,0:0:0:0:
232,107,52944,1,8,0:0:0:0:
232,107,52977,1,8,0:0:0:0:
232,107,53010,1,8,0:0:0:0:
266,107,53044,1,0,0:0:0:0:
266,107,53093,1,0,0:0:0:0:
266,107,53143,1,8,0:0:0:0:
313,100,53243,1,0,0:0:0:0:
313,100,53343,1,0,0:0:0:0:
313,100,53442,1,8,0:0:0:0:
186,196,53642,1,0,0:0:0:0:
186,196,53741,1,0,0:0:0:0:
303,225,53841,1,8,0:0:0:0:
303,225,53941,1,0,0:0:0:0:
303,225,54040,1,8,0:0:0:0:
303,225,54140,1,0,0:0:0:0:
303,225,54240,1,8,0:0:0:0:
303,225,54339,1,0,0:0:0:0:
303,225,54389,1,0,0:0:0:0:
303,225,54439,1,8,0:0:0:0:
303,225,54539,1,0,0:0:0:0:
303,225,54638,1,8,0:0:0:0:
239,138,54738,1,0,0:0:0:0:
239,138,54788,1,0,0:0:0:0:
327,144,54838,1,8,0:0:0:0:
327,144,54937,1,0,0:0:0:0:
327,144,55037,1,8,0:0:0:0:
327,144,55087,1,8,0:0:0:0:
327,144,55137,1,8,0:0:0:0:
327,144,55186,1,8,0:0:0:0:
140,200,55236,1,0,0:0:0:0:
193,176,55336,1,12,0:0:0:0:
193,176,55535,1,12,0:0:0:0:
193,176,55735,1,12,0:0:0:0:
193,176,55934,1,12,0:0:0:0:
305,158,56034,1,0,0:0:0:0:
305,158,56083,1,0,0:0:0:0:
278,98,56133,1,8,0:0:0:0:
245,116,56183,1,0,0:0:0:0:
245,116,56233,1,8,0:0:0:0:
254,224,56283,1,8,0:0:0:0:
254,224,56333,1,0,0:0:0:0:
300,186,56432,1,8,0:0:0:0:
300,186,56482,1,0,0:0:0:0:
300,186,56532,1,8,0:0:0:0:
300,186,56582,1,0,0:0:0:0:
300,186,56632,1,8,0:0:0:0:
300,186,56681,1,8,0:0:0:0:
300,186,56731,1,0,0:0:0:0:
300,186,56831,1,0,0:0:0:0:
300,186,56931,1,0,0:0:0:0:
300,186,57030,1,8,0:0:0:0:
300,186,57130,1,0,0:0:0:0:
300,186,57230,1,8,0:0:0:0:
300,186,57329,1,0,0:0:0:0:
300,186,57429,1,8,0:0:0:0:
347,179,57529,1,0,0:0:0:0:
347,179,57578,1,0,0:0:0:0:
176,114,57628,1,8,0:0:0:0:
176,114,57728,1,0,0:0:0:0:
176,114,57828,1,8,0:0:0:0:
273,98,57927,1,0,0:0:0:0:
273,98,57977,1,0,0:0:0:0:
273,98,58027,1,8,0:0:0:0:
163,186,58127,1,0,0:0:0:0:
255,147,58226,1,8,0:0:0:0:
163,186,58276,1,8,0:0:0:0:
255,147,58326,1,8,0:0:0:0:
255,147,58376,1,8,0:0:0:0:
265,146,58426,1,0,0:0:0:0:
277,229,58459,1,0,0:0:0:0:
277,229,58492,1,0,0:0:0:0:
311,229,58525,1,0,0:0:0:0:
332,264,58559,1,0,0:0:0:0:
330,276,58592,1,0,0:0:0:0:
265,146,58625,1,8,0:0:0:0:
265,146,58675,1,8,0:0:0:0:
380,105,58725,1,0,0:0:0:0:
415,183,58824,1,8,0:0:0:0:
415,183,58924,1,0,0:0:0:0:
415,183,59024,1,8,0:0:0:0:
415,183,59073,1,8,0:0:0:0:
415,183,59123,1,0,0:0:0:0:
111,73,59173,1,0,0:0:0:0:
322,90,59223,1,8,0:0:0:0:
322,90,59356,1,8,0:0:0:0:
222,153,59489,1,8,0:0:0:0:
188,265,59622,1,0,0:0:0:0:
209,86,60020,1,8,0:0:0:0:
291,182,60120,1,0,0:0:0:0:
291,182,60170,1,0,0:0:0:0:
294,121,60220,1,8,0:0:0:0:
294,121,60270,1,8,0:0:0:0:
294,121,60319,1,0,0:0:0:0:
221,85,60618,1,8,0:0:0:0:
320,86,60718,1,0,0:0:0:0:
320,86,60768,1,8,0:0:0:0:
320,86,60818,1,8,0:0:0:0:
381,97,60868,1,8,0:0:0:0:
381,97,60917,1,0,0:0:0:0:
228,184,61216,1,8,0:0:0:0:
228,184,61316,1,0,0:0:0:0:
371,170,61416,1,8,0:0:0:0:
371,170,61466,1,8,0:0:0:0:
371,170,61515,1,8,0:0:0:0:
371,170,61565,1,8,0:0:0:0:
371,170,61615,1,0,0:0:0:0:
371,170,61715,1,12,0:0:0:0:
254,98,61914,1,12,0:0:0:0:
254,98,62113,1,12,0:0:0:0:
317,117,62313,1,8,0:0:0:0:
317,117,62363,1,8,0:0:0:0:
317,117,62412,1,8,0:0:0:0:
259,202,62512,1,0,0:0:0:0:
259,202,62562,1,8,0:0:0:0:
388,126,62662,1,0,0:0:0:0:
388,126,62711,1,0,0:0:0:0:
416,111,62811,1,8,0:0:0:0:
342,209,62911,1,0,0:0:0:0:
342,209,62961,1,0,0:0:0:0:
257,159,63060,1,8,0:0:0:0:
257,159,63110,1,0,0:0:0:0:
257,159,63210,1,12,0:0:0:0:
330,161,64854,1,8,0:0:0:0:
330,161,66000,1,8,0:0:0:0:
330,161,66067,1,0,0:0:0:0:
330,161,66133,1,0,0:0:0:0:
330,161,66200,1,8,0:0:0:0:
330,161,66266,1,8,0:0:0:0:
330,161,66333,1,8,0:0:0:0:
330,161,66399,1,4,0:0:0:0:
330,161,66598,1,4,0:0:0:0:
272,201,67994,1,0,0:0:0:0:
272,201,68060,1,0,0:0:0:0:
272,201,68127,1,0,0:0:0:0:
290,198,68193,1,8,0:0:0:0:
290,198,68260,1,0,0:0:0:0:
290,198,68326,1,0,0:0:0:0:
320,182,68392,1,8,0:0:0:0:
320,182,68459,1,8,0:0:0:0:
320,182,68525,1,0,0:0:0:0:
305,133,68592,1,8,0:0:0:0:
293,139,68658,1,0,0:0:0:0:
293,139,68725,1,0,0:0:0:0:
293,139,68791,1,8,0:0:0:0:
293,139,68891,1,8,0:0:0:0:
293,139,68990,1,8,0:0:0:0:
293,139,69090,1,8,0:0:0:0:
218,120,69190,1,0,0:0:0:0:
313,76,69588,1,12,0:0:0:0:
333,136,69788,1,0,0:0:0:0:
333,136,69887,1,0,0:0:0:0:
333,136,69987,1,8,0:0:0:0:
396,137,70037,1,8,0:0:0:0:
333,136,70087,1,0,0:0:0:0:
333,136,70137,1,8,0:0:0:0:
333,136,70186,1,0,0:0:0:0:
333,136,70286,1,0,0:0:0:0:
333,136,70336,1,0,0:0:0:0:
333,136,70386,1,8,0:0:0:0:
237,116,70485,1,0,0:0:0:0:
247,136,70585,1,8,0:0:0:0:
275,195,70635,1,8,0:0:0:0:
178,146,70685,1,0,0:0:0:0:
156,81,70784,1,8,0:0:0:0:
172,91,70884,1,0,0:0:0:0:
172,91,70984,1,8,0:0:0:0:
247,136,71083,1,8,0:0:0:0:
161,178,71183,1,0,0:0:0:0:
102,148,71283,1,0,0:0:0:0:
239,204,71333,1,0,0:0:0:0:
102,148,71382,1,8,0:0:0:0:
269,196,71482,1,0,0:0:0:0:
429,184,71582,1,8,0:0:0:0:
429,184,71632,1,8,0:0:0:0:
270,202,71681,1,0,0:0:0:0:
351,194,71731,1,8,0:0:0:0:
351,194,71781,1,0,0:0:0:0:
318,234,71881,1,0,0:0:0:0:
318,234,71931,1,0,0:0:0:0:
285,126,71980,1,8,0:0:0:0:
371,127,72080,1,0,0:0:0:0:
287,113,72180,1,8,0:0:0:0:
287,113,72230,1,8,0:0:0:0:
177,177,72279,1,0,0:0:0:0:
277,127,72379,1,8,0:0:0:0:
277,127,72479,1,0,0:0:0:0:
277,127,72578,1,8,0:0:0:0:
277,127,72678,1,8,0:0:0:0:
396,116,72778,1,8,0:0:0:0:
113,137,72877,1,0,0:0:0:0:
258,142,72927,1,0,0:0:0:0:
396,116,72977,1,8,0:0:0:0:
320,199,73077,1,0,0:0:0:0:
315,108,73176,1,8,0:0:0:0:
315,108,73226,1,8,0:0:0:0:
315,108,73276,1,0,0:0:0:0:
315,108,73326,1,8,0:0:0:0:
315,108,73376,1,0,0:0:0:0:
351,101,73426,1,0,0:0:0:0:
351,101,73475,1,8,0:0:0:0:
163,120,73575,1,0,0:0:0:0:
163,120,73625,1,0,0:0:0:0:
385,70,73675,1,8,0:0:0:0:
236,110,73774,1,0,0:0:0:0:
236,110,73874,1,8,0:0:0:0:
236,110,73924,1,8,0:0:0:0:
143,177,73974,1,0,0:0:0:0:
143,177,74123,1,0,0:0:0:0:
234,229,74273,1,0,0:0:0:0:
465,100,74373,1,8,0:0:0:0:
155,161,74422,1,8,0:0:0:0:
155,161,74472,1,0,0:0:0:0:
318,172,74522,1,0,0:0:0:0:
318,172,74572,1,8,0:0:0:0:
294,105,74672,1,0,0:0:0:0:
196,63,74771,1,8,0:0:0:0:
196,63,74871,1,8,0:0:0:0:
159,151,74971,1,0,0:0:0:0:
159,151,75020,1,0,0:0:0:0:
159,151,75070,1,0,0:0:0:0:
159,151,75120,1,0,0:0:0:0:
342,57,75170,1,8,0:0:0:0:
342,57,75270,1,0,0:0:0:0:
342,57,75319,1,8,0:0:0:0:
321,68,75419,1,0,0:0:0:0:
321,68,75469,1,0,0:0:0:0:
238,167,75569,1,8,0:0:0:0:
238,167,75602,1,8,0:0:0:0:
238,167,75635,1,0,0:0:0:0:
238,167,75668,1,0,0:0:0:0:
351,176,75718,1,8,0:0:0:0:
351,176,75751,1,8,0:0:0:0:
351,176,75784,1,0,0:0:0:0:
351,176,75818,1,0,0:0:0:0:
351,176,75868,1,8,0:0:0:0:
351,176,75901,1,8,0:0:0:0:
351,176,75934,1,0,0:0:0:0:
351,176,75967,1,0,0:0:0:0:
197,219,76167,1,0,0:0:0:0:
197,219,76266,1,0,0:0:0:0:
197,219,76366,1,8,0:0:0:0:
197,219,76416,1,0,0:0:0:0:
197,219,76466,1,8,0:0:0:0:
197,219,76515,1,8,0:0:0:0:
197,219,76565,1,0,0:0:0:0:
270,237,76665,1,0,0:0:0:0:
270,237,76715,1,0,0:0:0:0:
270,237,76765,1,8,0:0:0:0:
270,237,76864,1,0,0:0:0:0:
270,237,76964,1,8,0:0:0:0:
270,237,77014,1,8,0:0:0:0:
270,237,77064,1,0,0:0:0:0:
318,235,77163,1,8,0:0:0:0:
280,177,77562,1,8,0:0:0:0:
298,167,77761,1,0,0:0:0:0:
298,167,77861,1,0,0:0:0:0:
279,170,77961,1,8,0:0:0:0:
279,170,78010,1,0,0:0:0:0:
279,170,78060,1,0,0:0:0:0:
279,170,78110,1,8,0:0:0:0:
279,170,78160,1,0,0:0:0:0:
274,149,78260,1,0,0:0:0:0:
274,149,78359,1,8,0:0:0:0:
274,149,78459,1,8,0:0:0:0:
325,140,78559,1,0,0:0:0:0:
325,140,78608,1,0,0:0:0:0:
325,140,78658,1,8,0:0:0:0:
325,140,78708,1,8,0:0:0:0:
325,140,78758,1,8,0:0:0:0:
325,140,79157,1,4,0:0:0:0:
325,140,79356,1,8,0:0:0:0:
325,140,79456,1,4,0:0:0:0:
325,140,79655,1,12,0:0:0:0:
325,140,79854,1,4,0:0:0:0:
325,140,79954,1,8,0:0:0:0:
325,140,80004,1,0,0:0:0:0:
325,140,80054,1,8,0:0:0:0:
325,140,80103,1,8,0:0:0:0:
325,140,80153,1,0,0:0:0:0:
325,140,80203,1,8,0:0:0:0:
325,140,80253,1,0,0:0:0:0:
325,140,80353,1,8,0:0:0:0:
325,140,80452,1,0,0:0:0:0:
325,140,80502,1,8,0:0:0:0:
325,140,80602,1,0,0:0:0:0:
325,140,80652,1,8,0:0:0:0:
325,140,80751,1,8,0:0:0:0:
325,140,80851,1,0,0:0:0:0:
325,140,80901,1,0,0:0:0:0:
325,140,80951,1,8,0:0:0:0:
325,140,81050,1,0,0:0:0:0:
222,158,81150,1,8,0:0:0:0:
244,148,81200,1,0,0:0:0:0:
244,148,81250,1,8,0:0:0:0:
244,148,81349,1,0,0:0:0:0:
217,103,81449,1,0,0:0:0:0:
217,103,81499,1,8,0:0:0:0:
248,96,81549,1,0,0:0:0:0:
248,96,81698,1,8,0:0:0:0:
248,96,81848,1,0,0:0:0:0:
248,96,81947,1,8,0:0:0:0:
248,96,82097,1,0,0:0:0:0:
248,96,82147,1,8,0:0:0:0:
248,96,82246,1,8,0:0:0:0:
248,96,82347,1,4,0:0:0:0:
279,166,82546,1,0,0:0:0:0:
279,166,82646,1,8,0:0:0:0:
279,166,82845,1,0,0:0:0:0:
279,166,83044,1,0,0:0:0:0:
279,166,83244,1,0,0:0:0:0:
279,166,83343,1,8,0:0:0:0:
237,169,83543,1,0,0:0:0:0:
237,169,83592,1,0,0:0:0:0:
237,169,83642,1,0,0:0:0:0:
237,169,83742,1,0,0:0:0:0:
237,169,83842,1,8,0:0:0:0:
237,169,83991,1,0,0:0:0:0:
237,169,84141,1,0,0:0:0:0:
237,169,84290,1,0,0:0:0:0:
237,169,84440,1,0,0:0:0:0:
237,169,84539,1,8,0:0:0:0:
237,169,84739,1,0,0:0:0:0:
237,169,84938,1,0,0:0:0:0:
237,169,85038,1,8,0:0:0:0:
237,169,85237,1,0,0:0:0:0:
237,169,85436,1,0,0:0:0:0:
237,169,85636,1,0,0:0:0:0:
237,169,85735,1,8,0:0:0:0:
237,169,85935,1,0,0:0:0:0:
237,169,85984,1,0,0:0:0:0:
237,169,86034,1,0,0:0:0:0:
237,169,86134,1,0,0:0:0:0:
174,135,86234,1,8,0:0:0:0:
269,116,86383,1,0,0:0:0:0:
269,116,86533,1,0,0:0:0:0:
269,116,86682,1,0,0:0:0:0:
269,116,86832,1,0,0:0:0:0:
269,116,86931,1,8,0:0:0:0:
285,122,87131,1,4,0:0:0:0:
321,214,87330,1,0,0:0:0:0:
321,214,87430,1,8,0:0:0:0:
190,219,87629,1,8,0:0:0:0:
190,219,87828,1,0,0:0:0:0:
118,219,88028,1,0,0:0:0:0:
118,219,88127,1,8,0:0:0:0:
158,117,88327,1,8,0:0:0:0:
158,117,88376,1,8,0:0:0:0:
158,117,88426,1,0,0:0:0:0:
312,128,88526,1,0,0:0:0:0:
312,128,88626,1,8,0:0:0:0:
325,182,88775,1,8,0:0:0:0:
325,182,88925,1,0,0:0:0:0:
325,182,89074,1,0,0:0:0:0:
325,182,89224,1,0,0:0:0:0:
325,182,89323,1,8,0:0:0:0:
227,190,89523,1,0,0:0:0:0:
245,186,89722,1,0,0:0:0:0:
245,186,89822,1,8,0:0:0:0:
242,106,90021,1,8,0:0:0:0:
288,95,90220,1,0,0:0:0:0:
345,80,90420,1,12,0:0:0:0:
345,80,90569,1,12,0:0:0:0:
161,142,90719,1,12,0:0:0:0:
285,141,91915,1,8,0:0:0:0:
285,141,91964,1,8,0:0:0:0:
208,209,92014,1,0,0:0:0:0:
208,209,92114,1,8,0:0:0:0:
208,209,92164,1,8,0:0:0:0:
208,209,92214,1,0,0:0:0:0:
208,209,92313,1,8,0:0:0:0:
208,209,92363,1,8,0:0:0:0:
208,209,92413,1,0,0:0:0:0:
208,209,92513,1,8,0:0:0:0:
208,209,92562,1,8,0:0:0:0:
208,209,92612,1,0,0:0:0:0:
208,209,92712,1,8,0:0:0:0:
208,209,92762,1,8,0:0:0:0:
208,209,92812,1,8,0:0:0:0:
208,209,92861,1,8,0:0:0:0:
208,209,92911,1,0,0:0:0:0:
208,209,93011,1,8,0:0:0:0:
208,209,93061,1,8,0:0:0:0:
208,209,93111,1,8,0:0:0:0:
208,209,93160,1,8,0:0:0:0:
208,209,93210,1,0,0:0:0:0:
351,121,93310,1,8,0:0:0:0:
351,121,93360,1,8,0:0:0:0:
351,121,93410,1,0,0:0:0:0:
351,121,93459,1,0,0:0:0:0:
351,121,93509,1,8,0:0:0:0:
351,121,93559,1,8,0:0:0:0:
326,194,93609,1,0,0:0:0:0:
326,194,93709,1,8,0:0:0:0:
326,194,93758,1,8,0:0:0:0:
326,194,93808,1,0,0:0:0:0:
426,197,93908,1,8,0:0:0:0:
426,197,93958,1,8,0:0:0:0:
208,87,94008,1,0,0:0:0:0:
208,87,94107,1,8,0:0:0:0:
208,87,94157,1,8,0:0:0:0:
164,110,94207,1,0,0:0:0:0:
237,159,94307,1,8,0:0:0:0:
237,159,94356,1,8,0:0:0:0:
237,159,94406,1,8,0:0:0:0:
65,117,94456,1,8,0:0:0:0:
65,117,94506,1,0,0:0:0:0:
93,158,94606,1,8,0:0:0:0:
93,158,94655,1,8,0:0:0:0:
93,158,94705,1,8,0:0:0:0:
93,158,94755,1,8,0:0:0:0:
201,267,94805,1,0,0:0:0:0:
358,78,94905,1,12,0:0:0:0:
332,174,95104,1,4,0:0:0:0:
179,192,97596,1,0,0:0:0:0:
179,192,97645,1,0,0:0:0:0:
179,192,97695,1,8,0:0:0:0:
179,192,97795,1,8,0:0:0:0:
263,173,97895,1,0,0:0:0:0:
263,173,97994,1,0,0:0:0:0:
263,173,98094,1,8,0:0:0:0:
263,173,98194,1,8,0:0:0:0:
263,173,98243,1,8,0:0:0:0:
270,212,98293,1,0,0:0:0:0:
308,195,98692,1,8,0:0:0:0:
280,129,98891,1,0,0:0:0:0:
176,161,99091,1,8,0:0:0:0:
280,129,99290,1,0,0:0:0:0:
359,139,99489,1,8,0:0:0:0:
280,129,99689,1,0,0:0:0:0:
280,129,99888,1,8,0:0:0:0:
280,129,99988,1,8,0:0:0:0:
355,111,100087,1,0,0:0:0:0:
355,111,100187,1,0,0:0:0:0:
217,118,100287,1,8,0:0:0:0:
217,118,100386,1,8,0:0:0:0:
217,118,100486,1,0,0:0:0:0:
217,118,100586,1,0,0:0:0:0:
217,118,100685,1,8,0:0:0:0:
267,186,101483,1,4,0:0:0:0:
374,159,101682,1,0,0:0:0:0:
313,150,101881,1,0,0:0:0:0:
198,128,101981,1,0,0:0:0:0:
198,128,102081,1,8,0:0:0:0:
198,128,102130,1,8,0:0:0:0:
198,128,102180,1,8,0:0:0:0:
89,165,102280,1,0,0:0:0:0:
89,165,102380,1,0,0:0:0:0:
229,204,102479,1,8,0:0:0:0:
304,262,102579,1,0,0:0:0:0:
304,262,102679,1,8,0:0:0:0:
304,262,102778,1,8,0:0:0:0:
280,268,102878,1,8,0:0:0:0:
280,268,102978,1,8,0:0:0:0:
132,110,103077,1,0,0:0:0:0:
275,191,103277,1,0,0:0:0:0:
275,191,103476,1,0,0:0:0:0:
275,191,103576,1,0,0:0:0:0:
210,115,103675,1,8,0:0:0:0:
210,115,103725,1,8,0:0:0:0:
210,115,103775,1,8,0:0:0:0:
313,150,103875,1,0,0:0:0:0:
189,187,104074,1,0,0:0:0:0:
156,161,104273,1,8,0:0:0:0:
156,161,104373,1,8,0:0:0:0:
156,161,104473,1,8,0:0:0:0:
156,161,104572,1,8,0:0:0:0:
317,212,104672,1,0,0:0:0:0:
317,212,104871,1,0,0:0:0:0:
317,212,105071,1,0,0:0:0:0:
264,167,105170,1,0,0:0:0:0:
264,167,105270,1,8,0:0:0:0:
264,167,105320,1,8,0:0:0:0:
264,167,105370,1,8,0:0:0:0:
205,108,105469,1,0,0:0:0:0:
205,108,105569,1,0,0:0:0:0:
205,108,105669,1,8,0:0:0:0:
205,108,105768,1,0,0:0:0:0:
205,108,105868,1,8,0:0:0:0:
317,128,105968,1,8,0:0:0:0:
317,128,106067,1,8,0:0:0:0:
317,128,106167,1,8,0:0:0:0:
392,83,106267,1,4,0:0:0:0:
118,204,106566,1,8,0:0:0:0:
288,208,106715,1,4,0:0:0:0:
244,174,106865,1,8,0:0:0:0:
98,190,106964,1,4,0:0:0:0:
98,190,107064,1,4,0:0:0:0:
366,197,107214,1,4,0:0:0:0:
211,192,107363,1,4,0:0:0:0:
339,237,107513,1,4,0:0:0:0:
267,92,107662,1,8,0:0:0:0:
267,92,107861,1,4,0:0:0:0:
263,150,108061,1,0,0:0:0:0:
263,150,108260,1,0,0:0:0:0:
125,143,108360,1,0,0:0:0:0:
138,141,108459,1,8,0:0:0:0:
138,141,108509,1,8,0:0:0:0:
138,141,108559,1,8,0:0:0:0:
212,205,108659,1,0,0:0:0:0:
212,205,108758,1,0,0:0:0:0:
371,172,108858,1,8,0:0:0:0:
371,172,108958,1,0,0:0:0:0:
371,172,109057,1,8,0:0:0:0:
371,172,109157,1,0,0:0:0:0:
371,172,109257,1,8,0:0:0:0:
371,172,109356,1,0,0:0:0:0:
300,179,109456,1,8,0:0:0:0:
315,224,109655,1,0,0:0:0:0:
297,192,109855,1,0,0:0:0:0:
228,217,109954,1,0,0:0:0:0:
228,217,110054,1,8,0:0:0:0:
228,217,110104,1,8,0:0:0:0:
228,217,110154,1,8,0:0:0:0:
228,217,110253,1,0,0:0:0:0:
228,217,110303,1,0,0:0:0:0:
239,184,110403,1,0,0:0:0:0:
239,184,110453,1,8,0:0:0:0:
133,139,110552,1,0,0:0:0:0:
133,139,110602,1,0,0:0:0:0:
305,56,110652,1,0,0:0:0:0:
305,56,110752,1,0,0:0:0:0:
305,56,110851,1,0,0:0:0:0:
305,56,110951,1,0,0:0:0:0:
389,66,111051,1,12,0:0:0:0:
308,185,111350,1,0,0:0:0:0:
308,185,111400,1,0,0:0:0:0:
211,101,111449,1,8,0:0:0:0:
211,101,111599,1,8,0:0:0:0:
144,108,111748,1,0,0:0:0:0:
216,80,111848,1,12,0:0:0:0:
222,173,112147,1,8,0:0:0:0:
360,112,112197,1,8,0:0:0:0:
222,173,112247,1,0,0:0:0:0:
222,173,112396,1,0,0:0:0:0:
133,196,112546,1,0,0:0:0:0:
300,224,112745,1,0,0:0:0:0:
300,224,112845,1,8,0:0:0:0:
239,113,113044,1,0,0:0:0:0:
239,113,113243,1,0,0:0:0:0:
239,113,113343,1,8,0:0:0:0:
369,159,113542,1,8,0:0:0:0:
369,159,113742,1,0,0:0:0:0:
369,159,113841,1,8,0:0:0:0:
174,107,113941,1,0,0:0:0:0:
348,113,113991,1,0,0:0:0:0:
348,113,114041,1,8,0:0:0:0:
348,113,114091,1,8,0:0:0:0:
348,113,114140,1,8,0:0:0:0:
348,113,114190,1,8,0:0:0:0:
348,113,114240,1,0,0:0:0:0:
155,180,114439,1,0,0:0:0:0:
257,153,114539,1,0,0:0:0:0:
267,166,114639,1,8,0:0:0:0:
299,60,114738,1,0,0:0:0:0:
299,60,114838,1,8,0:0:0:0:
326,82,114888,1,8,0:0:0:0:
267,166,114938,1,0,0:0:0:0:
201,93,115037,1,0,0:0:0:0:
163,128,115137,1,0,0:0:0:0:
163,128,115237,1,8,0:0:0:0:
163,128,115336,1,0,0:0:0:0:
198,173,115436,1,8,0:0:0:0:
361,156,115486,1,0,0:0:0:0:
214,171,115536,1,8,0:0:0:0:
254,83,115586,1,0,0:0:0:0:
246,169,115635,1,8,0:0:0:0:
246,168,115702,1,8,0:0:0:0:
260,116,115768,1,8,0:0:0:0:
145,113,115835,1,0,0:0:0:0:
145,113,116034,1,0,0:0:0:0:
145,113,116134,1,0,0:0:0:0:
236,105,116233,1,8,0:0:0:0:
321,93,116333,1,0,0:0:0:0:
351,51,116433,1,8,0:0:0:0:
182,72,116483,1,8,0:0:0:0:
264,101,116532,1,0,0:0:0:0:
321,93,116632,1,8,0:0:0:0:
354,97,116732,1,0,0:0:0:0:
295,125,116831,1,8,0:0:0:0:
295,125,116898,1,0,0:0:0:0:
295,125,116964,1,0,0:0:0:0:
256,115,117031,1,8,0:0:0:0:
244,150,117097,1,8,0:0:0:0:
244,150,117164,1,8,0:0:0:0:
237,183,117230,1,0,0:0:0:0:
237,183,117297,1,0,0:0:0:0:
162,144,117363,1,8,0:0:0:0:
162,144,117429,1,0,0:0:0:0:
322,207,117629,1,8,0:0:0:0:
322,207,117695,1,8,0:0:0:0:
322,207,117762,1,0,0:0:0:0:
324,58,117828,1,0,0:0:0:0:
322,207,117928,1,0,0:0:0:0:
299,60,118027,1,8,0:0:0:0:
299,60,118077,1,8,0:0:0:0:
226,78,118127,1,0,0:0:0:0:
321,93,118227,1,8,0:0:0:0:
321,93,118360,1,0,0:0:0:0:
374,85,118426,1,8,0:0:0:0:
368,90,118493,1,0,0:0:0:0:
368,90,118559,1,0,0:0:0:0:
368,90,118625,1,8,0:0:0:0:
368,90,118725,1,8,0:0:0:0:
368,90,118825,1,8,0:0:0:0:
368,90,118924,1,8,0:0:0:0:
302,95,119024,1,0,0:0:0:0:
346,118,119223,1,0,0:0:0:0:
346,118,119273,1,0,0:0:0:0:
431,144,119323,1,8,0:0:0:0:
328,179,119373,1,0,0:0:0:0:
431,144,119423,1,8,0:0:0:0:
335,171,119489,1,0,0:0:0:0:
335,171,119556,1,0,0:0:0:0:
214,147,119622,1,8,0:0:0:0:
214,147,119672,1,8,0:0:0:0:
266,138,119722,1,0,0:0:0:0:
304,131,119821,1,0,0:0:0:0:
302,190,120021,1,0,0:0:0:0:
302,190,120120,1,0,0:0:0:0:
302,190,120220,1,8,0:0:0:0:
302,190,120320,1,0,0:0:0:0:
286,80,120370,1,8,0:0:0:0:
286,80,120419,1,0,0:0:0:0:
266,83,120519,1,0,0:0:0:0:
266,83,120619,1,8,0:0:0:0:
266,83,120669,1,8,0:0:0:0:
158,106,120718,1,0,0:0:0:0:
158,106,120818,1,0,0:0:0:0:
278,114,120868,1,8,0:0:0:0:
278,114,120918,1,0,0:0:0:0:
278,114,120968,1,0,0:0:0:0:
278,114,121017,1,8,0:0:0:0:
188,136,121117,1,0,0:0:0:0:
188,136,121217,1,8,0:0:0:0:
188,136,121267,1,8,0:0:0:0:
188,136,121316,1,0,0:0:0:0:
234,185,121366,1,0,0:0:0:0:
234,185,121416,1,8,0:0:0:0:
205,125,121516,1,0,0:0:0:0:
244,174,121615,1,0,0:0:0:0:
244,174,121665,1,0,0:0:0:0:
244,174,121715,1,8,0:0:0:0:
244,174,121765,1,0,0:0:0:0:
244,174,121815,1,8,0:0:0:0:
244,174,121865,1,8,0:0:0:0:
244,174,121914,1,0,0:0:0:0:
305,125,122014,1,8,0:0:0:0:
305,125,122064,1,0,0:0:0:0:
209,182,122114,1,0,0:0:0:0:
305,125,122214,1,8,0:0:0:0:
305,125,122263,1,8,0:0:0:0:
305,125,122313,1,0,0:0:0:0:
305,125,122413,1,0,0:0:0:0:
305,125,122463,1,8,0:0:0:0:
305,125,122513,1,0,0:0:0:0:
305,125,122562,1,0,0:0:0:0:
305,125,122612,1,8,0:0:0:0:
305,125,122712,1,0,0:0:0:0:
305,125,122812,1,8,0:0:0:0:
305,125,122861,1,8,0:0:0:0:
305,125,122911,1,0,0:0:0:0:
305,125,122961,1,8,0:0:0:0:
305,125,123011,1,0,0:0:0:0:
305,125,123111,1,0,0:0:0:0:
305,125,123160,1,0,0:0:0:0:
305,125,123210,1,8,0:0:0:0:
305,125,123310,1,0,0:0:0:0:
304,93,123410,1,8,0:0:0:0:
304,93,123459,1,0,0:0:0:0:
304,93,123509,1,0,0:0:0:0:
304,93,123559,1,0,0:0:0:0:
304,93,123609,1,8,0:0:0:0:
304,93,123659,1,8,0:0:0:0:
304,93,123709,1,8,0:0:0:0:
304,93,123758,1,8,0:0:0:0:
304,93,123808,1,0,0:0:0:0:
201,89,123908,1,8,0:0:0:0:
201,89,123958,1,8,0:0:0:0:
201,89,124008,1,0,0:0:0:0:
274,84,124057,1,0,0:0:0:0:
274,84,124107,1,8,0:0:0:0:
267,174,124406,1,8,0:0:0:0:
302,168,124506,1,0,0:0:0:0:
302,168,124556,1,0,0:0:0:0:
159,163,124606,1,8,0:0:0:0:
159,163,124655,1,0,0:0:0:0:
99,143,124705,1,8,0:0:0:0:
237,121,125004,1,8,0:0:0:0:
237,121,125104,1,0,0:0:0:0:
203,81,125204,1,8,0:0:0:0:
203,81,125253,1,8,0:0:0:0:
227,85,125303,1,0,0:0:0:0:
227,85,125353,1,0,0:0:0:0:
335,70,125403,1,8,0:0:0:0:
335,70,125503,1,12,0:0:0:0:
335,70,125702,1,12,0:0:0:0:
335,70,125901,1,12,0:0:0:0:
335,70,126101,1,8,0:0:0:0:
335,70,126150,1,8,0:0:0:0:
335,148,126200,1,0,0:0:0:0:
335,148,126300,1,8,0:0:0:0:
335,148,126350,1,8,0:0:0:0:
216,161,126449,1,0,0:0:0:0:
216,161,126499,1,0,0:0:0:0:
216,161,126599,1,8,0:0:0:0:
164,149,126698,1,8,0:0:0:0:
164,149,126748,1,0,0:0:0:0:
82,143,126798,1,0,0:0:0:0:
82,143,126848,1,8,0:0:0:0:
285,105,126898,1,0,0:0:0:0:
285,105,126948,1,0,0:0:0:0:
438,76,126998,1,8,0:0:0:0:
406,114,127596,1,0,0:0:0:0:
387,140,127795,1,8,0:0:0:0:
362,208,128393,1,0,0:0:0:0:
362,208,128592,1,8,0:0:0:0:
362,208,129190,1,8,0:0:0:0:
362,208,129390,1,0,0:0:0:0:
362,208,129988,1,0,0:0:0:0:
362,208,130054,1,0,0:0:0:0:
362,208,130120,1,8,0:0:0:0:
362,208,130187,1,8,0:0:0:0:
362,208,130785,1,0,0:0:0:0:
362,208,130984,1,8,0:0:0:0:
362,208,131582,1,8,0:0:0:0:
362,208,131782,1,0,0:0:0:0:
362,208,131981,1,8,0:0:0:0:
362,208,132047,1,0,0:0:0:0:
362,208,132114,1,0,0:0:0:0:
362,208,132180,1,0,0:0:0:0:
362,208,132247,1,0,0:0:0:0:
362,208,132313,1,0,0:0:0:0:
362,208,132380,1,0,0:0:0:0:
362,208,132446,1,0,0:0:0:0:
362,208,132513,1,0,0:0:0:0:
362,208,132579,1,12,0:0:0:0:
362,208,133077,1,0,0:0:0:0:
277,160,133143,1,0,0:0:0:0:
267,106,133210,1,8,0:0:0:0:
267,106,133276,1,8,0:0:0:0:
270,128,135768,1,4,0:0:0:0:
395,149,135868,1,0,0:0:0:0:
395,149,135967,1,8,0:0:0:0:
395,149,136067,1,0,0:0:0:0:
287,120,136167,1,8,0:0:0:0:
169,73,136266,1,8,0:0:0:0:
169,73,136366,1,0,0:0:0:0:
218,74,136466,1,8,0:0:0:0:
218,74,136515,1,0,0:0:0:0:
218,74,136565,1,8,0:0:0:0:
218,74,136665,1,0,0:0:0:0:
218,74,136765,1,0,0:0:0:0:
218,74,136864,1,8,0:0:0:0:
218,74,136914,1,0,0:0:0:0:
218,74,136964,1,8,0:0:0:0:
218,74,137064,1,0,0:0:0:0:
218,74,137163,1,8,0:0:0:0:
218,74,137213,1,8,0:0:0:0:
218,74,137263,1,8,0:0:0:0:
218,74,137313,1,8,0:0:0:0:
218,74,137363,1,0,0:0:0:0:
218,74,137462,1,0,0:0:0:0:
218,74,137562,1,8,0:0:0:0:
218,74,137662,1,0,0:0:0:0:
218,74,137761,1,8,0:0:0:0:
218,74,137861,1,8,0:0:0:0:
218,74,137961,1,0,0:0:0:0:
244,103,138060,1,8,0:0:0:0:
244,103,138110,1,0,0:0:0:0:
244,103,138160,1,8,0:0:0:0:
244,103,138193,1,8,0:0:0:0:
212,139,138226,1,8,0:0:0:0:
212,139,138260,1,8,0:0:0:0:
212,139,138293,1,8,0:0:0:0:
212,139,138326,1,8,0:0:0:0:
212,139,138359,1,0,0:0:0:0:
323,140,138409,1,0,0:0:0:0:
323,140,138459,1,0,0:0:0:0:
323,140,138509,1,0,0:0:0:0:
314,78,138559,1,8,0:0:0:0:
314,78,138658,1,0,0:0:0:0:
314,78,138758,1,8,0:0:0:0:
269,101,138957,1,0,0:0:0:0:
269,101,139007,1,0,0:0:0:0:
269,101,139057,1,0,0:0:0:0:
269,101,139107,1,0,0:0:0:0:
206,80,139157,1,8,0:0:0:0:
168,70,139256,1,0,0:0:0:0:
168,70,139306,1,0,0:0:0:0:
168,70,139356,1,0,0:0:0:0:
168,70,139406,1,0,0:0:0:0:
213,161,139456,1,8,0:0:0:0:
213,161,139555,1,0,0:0:0:0:
213,161,139605,1,0,0:0:0:0:
305,142,139655,1,8,0:0:0:0:
305,142,139755,1,0,0:0:0:0:
340,146,139804,1,0,0:0:0:0:
340,146,139854,1,8,0:0:0:0:
164,177,139954,1,0,0:0:0:0:
164,177,140004,1,0,0:0:0:0:
164,177,140054,1,8,0:0:0:0:
260,179,140153,1,8,0:0:0:0:
260,179,140253,1,8,0:0:0:0:
245,192,140452,1,8,0:0:0:0:
245,192,140552,1,0,0:0:0:0:
245,192,140602,1,0,0:0:0:0:
245,192,140652,1,0,0:0:0:0:
245,192,140701,1,0,0:0:0:0:
353,207,140751,1,8,0:0:0:0:
353,207,140851,1,0,0:0:0:0:
353,207,140901,1,0,0:0:0:0:
353,207,140951,1,0,0:0:0:0:
353,207,141000,1,0,0:0:0:0:
395,139,141050,1,8,0:0:0:0:
391,150,141150,1,0,0:0:0:0:
391,150,141200,1,0,0:0:0:0:
394,187,141250,1,8,0:0:0:0:
394,187,141349,1,8,0:0:0:0:
394,187,141416,1,0,0:0:0:0:
394,187,141482,1,0,0:0:0:0:
325,134,141549,1,8,0:0:0:0:
325,134,141615,1,0,0:0:0:0:
325,134,141681,1,0,0:0:0:0:
199,75,141748,1,8,0:0:0:0:
203,204,142147,1,4,0:0:0:0:
312,184,142246,1,0,0:0:0:0:
312,184,142346,1,8,0:0:0:0:
312,184,142446,1,0,0:0:0:0:
217,112,142545,1,8,0:0:0:0:
297,77,142645,1,8,0:0:0:0:
297,77,142745,1,0,0:0:0:0:
346,101,142844,1,8,0:0:0:0:
346,101,142894,1,0,0:0:0:0:
346,101,142944,1,8,0:0:0:0:
380,182,143044,1,0,0:0:0:0:
402,176,143143,1,0,0:0:0:0:
419,153,143243,1,8,0:0:0:0:
419,153,143293,1,0,0:0:0:0:
419,153,143343,1,8,0:0:0:0:
455,103,143442,1,0,0:0:0:0:
231,165,143542,1,8,0:0:0:0:
231,165,143608,1,8,0:0:0:0:
231,165,143675,1,0,0:0:0:0:
182,106,143741,1,8,0:0:0:0:
186,64,143791,1,8,0:0:0:0:
182,106,143841,1,0,0:0:0:0:
226,81,143941,1,8,0:0:0:0:
309,58,143990,1,8,0:0:0:0:
226,81,144040,1,0,0:0:0:0:
284,58,144140,1,8,0:0:0:0:
322,113,144190,1,8,0:0:0:0:
322,113,144240,1,0,0:0:0:0:
322,113,144339,1,8,0:0:0:0:
322,113,144439,1,0,0:0:0:0:
322,113,144489,1,0,0:0:0:0:
154,86,144539,1,8,0:0:0:0:
154,86,144588,1,8,0:0:0:0:
324,186,144638,1,8,0:0:0:0:
324,186,144688,1,8,0:0:0:0:
280,199,144738,1,0,0:0:0:0:
280,199,144788,1,0,0:0:0:0:
276,95,144838,1,8,0:0:0:0:
276,95,144871,1,8,0:0:0:0:
276,95,144904,1,8,0:0:0:0:
276,95,144937,1,0,0:0:0:0:
320,64,144987,1,0,0:0:0:0:
228,149,145037,1,8,0:0:0:0:
228,149,145070,1,8,0:0:0:0:
228,149,145103,1,8,0:0:0:0:
228,149,145137,1,0,0:0:0:0:
228,149,145236,1,0,0:0:0:0:
242,53,145336,1,4,0:0:0:0:
179,144,145535,1,8,0:0:0:0:
179,144,145585,1,8,0:0:0:0:
179,144,145635,1,0,0:0:0:0:
137,104,145834,1,8,0:0:0:0:
137,104,145884,1,8,0:0:0:0:
137,104,145934,1,0,0:0:0:0:
315,103,146133,1,8,0:0:0:0:
315,103,146183,1,8,0:0:0:0:
374,159,146233,1,0,0:0:0:0:
248,109,146283,1,0,0:0:0:0:
248,109,146333,1,8,0:0:0:0:
267,183,146382,1,0,0:0:0:0:
267,183,146432,1,8,0:0:0:0:
267,183,146482,1,8,0:0:0:0:
115,131,146532,1,0,0:0:0:0:
318,98,146632,1,8,0:0:0:0:
115,131,146731,1,0,0:0:0:0:
350,87,146831,1,0,0:0:0:0:
350,87,146931,1,0,0:0:0:0:
397,91,147130,1,8,0:0:0:0:
397,91,147180,1,8,0:0:0:0:
397,91,147230,1,0,0:0:0:0:
333,46,147429,1,8,0:0:0:0:
333,46,147479,1,8,0:0:0:0:
333,46,147529,1,0,0:0:0:0:
340,108,147728,1,12,0:0:0:0:
340,108,147878,1,12,0:0:0:0:
340,108,148027,1,12,0:0:0:0:
340,108,148127,1,12,0:0:0:0:
340,108,148276,1,12,0:0:0:0:
340,108,148426,1,12,0:0:0:0:
230,142,148525,1,4,0:0:0:0:
284,137,148824,1,0,0:0:0:0:
284,137,149123,1,0,0:0:0:0:
284,137,149223,1,0,0:0:0:0:
284,137,149323,1,0,0:0:0:0:
284,137,149622,1,0,0:0:0:0:
284,137,149921,1,0,0:0:0:0:
284,137,150020,1,0,0:0:0:0:
206,158,150120,1,8,0:0:0:0:
206,158,150170,1,8,0:0:0:0:
181,85,150220,1,0,0:0:0:0:
181,85,150319,1,8,0:0:0:0:
213,80,150369,1,8,0:0:0:0:
181,85,150419,1,0,0:0:0:0:
213,80,150519,1,8,0:0:0:0:
213,80,150569,1,8,0:0:0:0:
315,80,150618,1,0,0:0:0:0:
315,80,150718,1,8,0:0:0:0:
315,80,150768,1,8,0:0:0:0:
315,80,150818,1,0,0:0:0:0:
120,117,150917,1,8,0:0:0:0:
120,117,150967,1,8,0:0:0:0:
120,117,151017,1,8,0:0:0:0:
120,117,151067,1,8,0:0:0:0:
120,117,151117,1,0,0:0:0:0:
320,159,151216,1,8,0:0:0:0:
320,159,151266,1,8,0:0:0:0:
320,159,151316,1,8,0:0:0:0:
320,159,151366,1,8,0:0:0:0:
320,159,151416,1,0,0:0:0:0:
247,139,151515,1,0,0:0:0:0:
247,139,151715,1,4,0:0:0:0:
272,139,152014,1,0,0:0:0:0:
344,141,152313,1,0,0:0:0:0:
370,57,152412,1,0,0:0:0:0:
236,168,152512,1,0,0:0:0:0:
255,156,152811,1,0,0:0:0:0:
304,177,153110,1,0,0:0:0:0:
304,177,153210,1,0,0:0:0:0:
218,79,153309,1,8,0:0:0:0:
218,79,153359,1,8,0:0:0:0:
218,79,153409,1,0,0:0:0:0:
218,79,153509,1,8,0:0:0:0:
218,79,153559,1,8,0:0:0:0:
218,79,153608,1,0,0:0:0:0:
218,79,153708,1,8,0:0:0:0:
218,79,153758,1,8,0:0:0:0:
288,120,153808,1,0,0:0:0:0:
288,120,153907,1,8,0:0:0:0:
288,120,153957,1,8,0:0:0:0:
163,83,154007,1,0,0:0:0:0:
163,83,154107,1,8,0:0:0:0:
163,83,154157,1,0,0:0:0:0:
163,83,154206,1,8,0:0:0:0:
265,91,154256,1,8,0:0:0:0:
163,83,154306,1,0,0:0:0:0:
265,91,154406,1,8,0:0:0:0:
265,91,154456,1,0,0:0:0:0:
265,91,154505,1,8,0:0:0:0:
265,91,154555,1,8,0:0:0:0:
265,91,154605,1,0,0:0:0:0:
342,85,154705,1,8,0:0:0:0:
342,85,154755,1,8,0:0:0:0:
342,85,154804,1,8,0:0:0:0:
342,85,154854,1,8,0:0:0:0:
342,85,154904,1,0,0:0:0:0:
173,125,158093,1,8,0:0:0:0:
257,194,158143,1,0,0:0:0:0:
173,125,158193,1,0,0:0:0:0:
173,125,158293,1,8,0:0:0:0:
257,194,158343,1,0,0:0:0:0:
173,125,158392,1,0,0:0:0:0:
257,194,158492,1,8,0:0:0:0:
257,194,158542,1,0,0:0:0:0:
257,194,158592,1,0,0:0:0:0:
257,194,158691,1,8,0:0:0:0:
257,194,158741,1,0,0:0:0:0:
257,194,158791,1,0,0:0:0:0:
257,194,158891,1,8,0:0:0:0:
257,194,158941,1,8,0:0:0:0:
257,194,158990,1,0,0:0:0:0:
257,194,159040,1,0,0:0:0:0:
257,194,159090,1,0,0:0:0:0:
257,194,159190,1,8,0:0:0:0:
257,194,159240,1,8,0:0:0:0:
257,194,159289,1,0,0:0:0:0:
257,194,159339,1,0,0:0:0:0:
257,194,159389,1,0,0:0:0:0:
257,194,159489,1,8,0:0:0:0:
264,190,159539,1,8,0:0:0:0:
139,93,159588,1,0,0:0:0:0:
139,93,159638,1,0,0:0:0:0:
307,124,159688,1,8,0:0:0:0:
307,124,159738,1,0,0:0:0:0:
307,124,159788,1,0,0:0:0:0:
239,121,159887,1,8,0:0:0:0:
239,121,159937,1,0,0:0:0:0:
239,121,159987,1,0,0:0:0:0:
296,76,160087,1,8,0:0:0:0:
296,76,160137,1,0,0:0:0:0:
296,76,160186,1,0,0:0:0:0:
260,152,160286,1,8,0:0:0:0:
188,140,160336,1,0,0:0:0:0:
260,152,160386,1,0,0:0:0:0:
188,140,160485,1,8,0:0:0:0:
188,140,160535,1,8,0:0:0:0:
188,140,160585,1,0,0:0:0:0:
188,140,160635,1,0,0:0:0:0:
188,140,160685,1,0,0:0:0:0:
259,129,160784,1,8,0:0:0:0:
259,129,160834,1,8,0:0:0:0:
259,129,160884,1,0,0:0:0:0:
259,129,160934,1,0,0:0:0:0:
259,129,160984,1,0,0:0:0:0:
251,223,161283,1,4,0:0:0:0:
328,163,162927,1,8,0:0:0:0:
261,128,164472,1,8,0:0:0:0:
261,128,166117,1,8,0:0:0:0:
323,177,166864,1,4,0:0:0:0:
323,177,167163,1,4,0:0:0:0:
371,189,167462,1,12,0:0:0:0:
371,189,167662,1,4,0:0:0:0:
336,105,169256,1,8,0:0:0:0:
197,120,170452,1,8,0:0:0:0:
197,120,170519,1,0,0:0:0:0:
197,120,170585,1,0,0:0:0:0:
197,120,170652,1,8,0:0:0:0:
197,120,170718,1,8,0:0:0:0:
197,120,170784,1,8,0:0:0:0:
250,247,170851,1,4,0:0:0:0:
250,247,171050,1,4,0:0:0:0:
285,185,171848,1,8,0:0:0:0:
285,185,172047,1,8,0:0:0:0:
285,185,172147,1,8,0:0:0:0:
291,177,172246,1,0,0:0:0:0:
294,200,172313,1,0,0:0:0:0:
294,200,172379,1,0,0:0:0:0:
315,143,172446,1,12,0:0:0:0:
315,143,172578,1,4,0:0:0:0:
315,143,172711,1,4,0:0:0:0:
315,143,172977,1,4,0:0:0:0:
315,143,173243,1,4,0:0:0:0:
315,143,173376,1,4,0:0:0:0:
315,143,173509,1,4,0:0:0:0:
313,76,174040,1,12,0:0:0:0:
333,136,174240,1,0,0:0:0:0:
333,136,174339,1,0,0:0:0:0:
333,136,174439,1,8,0:0:0:0:
396,137,174489,1,8,0:0:0:0:
333,136,174539,1,0,0:0:0:0:
333,136,174589,1,8,0:0:0:0:
333,136,174638,1,0,0:0:0:0:
333,136,174738,1,0,0:0:0:0:
333,136,174788,1,0,0:0:0:0:
333,136,174838,1,8,0:0:0:0:
237,116,174937,1,0,0:0:0:0:
247,136,175037,1,8,0:0:0:0:
275,195,175087,1,8,0:0:0:0:
178,146,175137,1,0,0:0:0:0:
156,81,175236,1,8,0:0:0:0:
172,91,175336,1,0,0:0:0:0:
262,106,175386,1,0,0:0:0:0:
172,91,175436,1,8,0:0:0:0:
247,136,175535,1,8,0:0:0:0:
161,178,175635,1,0,0:0:0:0:
102,148,175735,1,0,0:0:0:0:
239,204,175785,1,0,0:0:0:0:
102,148,175834,1,8,0:0:0:0:
269,196,175934,1,0,0:0:0:0:
429,184,176034,1,8,0:0:0:0:
429,184,176084,1,8,0:0:0:0:
270,202,176133,1,0,0:0:0:0:
351,194,176183,1,8,0:0:0:0:
351,194,176233,1,0,0:0:0:0:
318,234,176333,1,0,0:0:0:0:
318,234,176383,1,0,0:0:0:0:
285,126,176432,1,8,0:0:0:0:
371,127,176532,1,0,0:0:0:0:
287,113,176632,1,8,0:0:0:0:
287,113,176682,1,8,0:0:0:0:
177,177,176731,1,0,0:0:0:0:
277,127,176831,1,8,0:0:0:0:
277,127,176931,1,0,0:0:0:0:
194,139,176980,1,0,0:0:0:0:
277,127,177030,1,8,0:0:0:0:
277,127,177130,1,8,0:0:0:0:
396,116,177230,1,8,0:0:0:0:
113,137,177329,1,0,0:0:0:0:
258,142,177379,1,0,0:0:0:0:
396,116,177429,1,8,0:0:0:0:
320,199,177529,1,0,0:0:0:0:
315,108,177628,1,8,0:0:0:0:
315,108,177678,1,8,0:0:0:0:
315,108,177728,1,0,0:0:0:0:
315,108,177778,1,8,0:0:0:0:
315,108,177828,1,0,0:0:0:0:
351,101,177878,1,0,0:0:0:0:
351,101,177927,1,8,0:0:0:0:
163,120,178027,1,0,0:0:0:0:
163,120,178077,1,0,0:0:0:0:
385,70,178127,1,8,0:0:0:0:
236,110,178226,1,0,0:0:0:0:
236,110,178326,1,8,0:0:0:0:
236,110,178376,1,8,0:0:0:0:
143,177,178426,1,0,0:0:0:0:
143,177,178575,1,0,0:0:0:0:
234,229,178725,1,0,0:0:0:0:
465,100,178825,1,8,0:0:0:0:
155,161,178874,1,8,0:0:0:0:
155,161,178924,1,0,0:0:0:0:
318,172,178974,1,0,0:0:0:0:
318,172,179024,1,8,0:0:0:0:
294,105,179124,1,0,0:0:0:0:
196,63,179223,1,8,0:0:0:0:
196,63,179323,1,8,0:0:0:0:
159,151,179423,1,0,0:0:0:0:
159,151,179472,1,0,0:0:0:0:
159,151,179522,1,0,0:0:0:0:
159,151,179572,1,0,0:0:0:0:
342,57,179622,1,8,0:0:0:0:
342,57,179722,1,0,0:0:0:0:
342,57,179771,1,8,0:0:0:0:
321,68,179871,1,0,0:0:0:0:
321,68,179921,1,0,0:0:0:0:
238,167,180021,1,8,0:0:0:0:
238,167,180054,1,8,0:0:0:0:
238,167,180087,1,0,0:0:0:0:
238,167,180120,1,0,0:0:0:0:
351,176,180170,1,8,0:0:0:0:
351,176,180203,1,8,0:0:0:0:
351,176,180236,1,0,0:0:0:0:
351,176,180270,1,0,0:0:0:0:
351,176,180320,1,8,0:0:0:0:
351,176,180353,1,8,0:0:0:0:
351,176,180386,1,0,0:0:0:0:
351,176,180419,1,0,0:0:0:0:
197,219,180619,1,0,0:0:0:0:
197,219,180718,1,0,0:0:0:0:
197,219,180818,1,8,0:0:0:0:
197,219,180868,1,0,0:0:0:0:
197,219,180918,1,8,0:0:0:0:
197,219,180967,1,8,0:0:0:0:
197,219,181017,1,0,0:0:0:0:
270,237,181117,1,0,0:0:0:0:
270,237,181167,1,0,0:0:0:0:
270,237,181217,1,8,0:0:0:0:
270,237,181316,1,0,0:0:0:0:
270,237,181416,1,8,0:0:0:0:
270,237,181466,1,8,0:0:0:0:
270,237,181516,1,0,0:0:0:0:
318,235,181615,1,8,0:0:0:0:
191,93,181715,1,8,0:0:0:0:
191,93,181814,1,0,0:0:0:0:
118,177,181914,1,0,0:0:0:0:
280,177,182014,1,8,0:0:0:0:
298,167,182213,1,0,0:0:0:0:
298,167,182313,1,0,0:0:0:0:
279,170,182413,1,8,0:0:0:0:
279,170,182462,1,0,0:0:0:0:
279,170,182512,1,0,0:0:0:0:
279,170,182562,1,8,0:0:0:0:
279,170,182612,1,0,0:0:0:0:
274,149,182712,1,0,0:0:0:0:
274,149,182811,1,8,0:0:0:0:
274,149,182911,1,8,0:0:0:0:
325,140,183011,1,0,0:0:0:0:
325,140,183060,1,0,0:0:0:0:
325,140,183110,1,8,0:0:0:0:
325,140,183160,1,8,0:0:0:0:
325,140,183210,1,8,0:0:0:0:
317,98,183309,1,0,0:0:0:0:
317,98,183409,1,8,0:0:0:0:
249,154,183509,1,8,0:0:0:0:
325,140,183609,1,4,0:0:0:0:
325,140,183808,1,8,0:0:0:0:
325,140,183908,1,4,0:0:0:0:
325,140,184107,1,12,0:0:0:0:
325,140,184306,1,4,0:0:0:0:
325,140,184406,1,8,0:0:0:0:
325,140,184456,1,0,0:0:0:0:
325,140,184506,1,8,0:0:0:0:
325,140,184555,1,8,0:0:0:0:
325,140,184605,1,0,0:0:0:0:
325,140,184655,1,8,0:0:0:0:
325,140,184705,1,0,0:0:0:0:
161,105,184755,1,0,0:0:0:0:
325,140,184805,1,8,0:0:0:0:
325,140,184904,1,0,0:0:0:0:
325,140,184954,1,8,0:0:0:0:
325,140,185054,1,0,0:0:0:0:
325,140,185104,1,8,0:0:0:0:
325,140,185203,1,8,0:0:0:0:
325,140,185303,1,0,0:0:0:0:
325,140,185353,1,0,0:0:0:0:
325,140,185403,1,8,0:0:0:0:
325,140,185502,1,0,0:0:0:0:
222,158,185602,1,8,0:0:0:0:
244,148,185652,1,0,0:0:0:0:
244,148,185702,1,8,0:0:0:0:
244,148,185801,1,0,0:0:0:0:
217,103,185901,1,0,0:0:0:0:
217,103,185951,1,8,0:0:0:0:
248,96,186001,1,0,0:0:0:0:
248,96,186150,1,8,0:0:0:0:
248,96,186300,1,0,0:0:0:0:
248,96,186399,1,8,0:0:0:0:
248,96,186549,1,0,0:0:0:0:
248,96,186698,1,8,0:0:0:0:
248,96,186799,1,4,0:0:0:0:
226,175,186897,1,0,0:0:0:0:
226,175,186997,1,8,0:0:0:0:
305,172,187047,1,8,0:0:0:0:
297,174,187097,1,0,0:0:0:0:
295,174,187147,1,0,0:0:0:0:
85,176,187296,1,0,0:0:0:0:
222,214,187396,1,0,0:0:0:0:
339,158,187495,1,8,0:0:0:0:
339,158,187545,1,8,0:0:0:0:
339,158,187595,1,8,0:0:0:0:
339,158,187645,1,8,0:0:0:0:
275,248,187695,1,0,0:0:0:0:
275,248,187794,1,0,0:0:0:0:
409,199,187994,1,8,0:0:0:0:
409,199,188044,1,8,0:0:0:0:
322,227,188093,1,0,0:0:0:0:
322,227,188143,1,0,0:0:0:0:
197,70,188193,1,0,0:0:0:0:
197,70,188293,1,0,0:0:0:0:
270,79,188392,1,8,0:0:0:0:
270,79,188442,1,8,0:0:0:0:
236,131,188492,1,0,0:0:0:0:
396,133,188592,1,8,0:0:0:0:
396,133,188642,1,8,0:0:0:0:
317,163,188691,1,0,0:0:0:0:
317,163,188791,1,8,0:0:0:0:
256,131,188891,1,0,0:0:0:0:
370,54,189090,1,0,0:0:0:0:
370,54,189190,1,0,0:0:0:0:
156,88,189389,1,8,0:0:0:0:
205,107,189439,1,8,0:0:0:0:
156,88,189489,1,0,0:0:0:0:
328,70,189588,1,8,0:0:0:0:
156,88,189688,1,0,0:0:0:0:
261,53,189788,1,0,0:0:0:0:
122,176,189987,1,0,0:0:0:0:
354,145,190087,1,8,0:0:0:0:
354,145,190137,1,8,0:0:0:0:
302,161,190186,1,0,0:0:0:0:
332,154,190286,1,8,0:0:0:0:
332,154,190336,1,8,0:0:0:0:
332,154,190386,1,0,0:0:0:0:
291,65,190485,1,0,0:0:0:0:
257,143,190685,1,8,0:0:0:0:
257,143,190735,1,8,0:0:0:0:
334,109,190784,1,0,0:0:0:0:
326,108,190834,1,0,0:0:0:0:
378,84,190884,1,8,0:0:0:0:
378,84,190934,1,0,0:0:0:0:
409,93,191083,1,8,0:0:0:0:
401,94,191183,1,0,0:0:0:0:
401,94,191283,1,0,0:0:0:0:
401,94,191382,1,0,0:0:0:0:
403,94,191582,1,8,0:0:0:0:
403,94,191632,1,8,0:0:0:0:
403,94,191681,1,0,0:0:0:0:
403,94,191731,1,0,0:0:0:0:
206,95,191781,1,8,0:0:0:0:
200,159,191881,1,0,0:0:0:0:
200,159,191931,1,0,0:0:0:0:
360,145,191980,1,8,0:0:0:0:
360,145,192080,1,0,0:0:0:0:
360,145,192279,1,0,0:0:0:0:
287,77,192379,1,8,0:0:0:0:
287,77,192429,1,0,0:0:0:0:
287,77,192479,1,0,0:0:0:0:
338,62,192578,1,8,0:0:0:0:
338,62,192628,1,8,0:0:0:0:
338,62,192678,1,0,0:0:0:0:
287,148,192778,1,0,0:0:0:0:
287,148,192878,1,8,0:0:0:0:
287,148,192927,1,0,0:0:0:0:
287,148,193027,1,8,0:0:0:0:
224,171,193077,1,0,0:0:0:0:
178,95,193177,1,8,0:0:0:0:
150,144,193276,1,8,0:0:0:0:
178,95,193309,1,8,0:0:0:0:
133,141,193343,1,0,0:0:0:0:
366,110,193376,1,0,0:0:0:0:
366,110,193476,1,0,0:0:0:0:
286,106,193575,1,8,0:0:0:0:
286,106,193625,1,0,0:0:0:0:
210,176,193725,1,8,0:0:0:0:
287,148,193775,1,8,0:0:0:0:
323,191,193824,1,0,0:0:0:0:
364,171,193874,1,0,0:0:0:0:
290,201,193974,1,0,0:0:0:0:
156,110,194074,1,8,0:0:0:0:
156,110,194123,1,8,0:0:0:0:
269,196,194173,1,0,0:0:0:0:
170,177,194373,1,0,0:0:0:0:
317,227,194472,1,0,0:0:0:0:
317,227,194522,1,8,0:0:0:0:
359,168,194622,1,8,0:0:0:0:
359,168,194672,1,0,0:0:0:0:
168,220,194771,1,8,0:0:0:0:
239,222,194871,1,0,0:0:0:0:
239,222,194921,1,0,0:0:0:0:
262,196,194971,1,8,0:0:0:0:
262,196,195004,1,8,0:0:0:0:
262,196,195037,1,8,0:0:0:0:
262,196,195070,1,8,0:0:0:0:
262,196,195103,1,8,0:0:0:0:
262,196,195137,1,8,0:0:0:0:
269,164,195270,1,0,0:0:0:0:
264,203,195369,1,0,0:0:0:0:
363,164,195469,1,8,0:0:0:0:
363,164,195519,1,0,0:0:0:0:
363,164,195618,1,0,0:0:0:0:
363,164,195718,1,0,0:0:0:0:
363,164,195768,1,8,0:0:0:0:
286,253,195868,1,0,0:0:0:0:
403,139,195967,1,8,0:0:0:0:
403,139,196034,1,8,0:0:0:0:
247,82,196100,1,8,0:0:0:0:
247,82,196167,1,8,0:0:0:0:
257,192,196366,1,0,0:0:0:0:
257,192,196416,1,0,0:0:0:0:
257,192,196466,1,0,0:0:0:0:
257,192,196515,1,0,0:0:0:0:
257,192,196565,1,8,0:0:0:0:
257,192,196765,1,0,0:0:0:0:
257,192,196914,1,8,0:0:0:0:
257,192,196964,1,0,0:0:0:0:
257,192,197014,1,0,0:0:0:0:
257,192,197064,1,8,0:0:0:0:
257,192,197163,1,0,0:0:0:0:
209,116,197296,1,0,0:0:0:0:
209,116,197429,1,0,0:0:0:0:
209,116,197562,1,0,0:0:0:0:
259,108,197628,1,0,0:0:0:0:
259,108,197695,1,0,0:0:0:0:
259,108,197761,1,0,0:0:0:0:
259,108,197828,1,0,0:0:0:0:
259,108,197894,1,0,0:0:0:0:
437,50,197961,1,12,0:0:0:0:
262,137,199555,1,8,0:0:0:0:
262,137,199605,1,8,0:0:0:0:
262,137,199655,1,0,0:0:0:0:
262,137,199755,1,8,0:0:0:0:
262,137,199804,1,8,0:0:0:0:
262,137,199854,1,0,0:0:0:0:
262,137,199954,1,8,0:0:0:0:
262,137,200004,1,8,0:0:0:0:
262,137,200054,1,0,0:0:0:0:
191,162,200153,1,8,0:0:0:0:
191,162,200203,1,8,0:0:0:0:
191,162,200253,1,0,0:0:0:0:
160,136,200353,1,8,0:0:0:0:
160,136,200402,1,8,0:0:0:0:
160,136,200452,1,8,0:0:0:0:
160,136,200502,1,8,0:0:0:0:
160,136,200552,1,0,0:0:0:0:
160,136,200652,1,8,0:0:0:0:
160,136,200701,1,8,0:0:0:0:
160,136,200751,1,8,0:0:0:0:
160,136,200801,1,8,0:0:0:0:
332,115,200851,1,0,0:0:0:0:
327,115,200951,1,0,0:0:0:0:
113,221,201150,1,4,0:0:0:0:
224,153,204339,1,8,0:0:0:0:
247,169,205137,1,8,0:0:0:0:
256,133,205735,1,8,0:0:0:0:
256,133,205784,1,8,0:0:0:0:
256,133,205834,1,0,0:0:0:0:
270,161,205934,1,8,0:0:0:0:
231,101,205984,1,8,0:0:0:0:
208,204,206034,1,0,0:0:0:0:
259,95,206133,1,8,0:0:0:0:
208,204,206183,1,0,0:0:0:0:
208,204,206233,1,0,0:0:0:0:
259,95,206333,1,8,0:0:0:0:
259,95,206382,1,0,0:0:0:0:
259,95,206432,1,0,0:0:0:0:
259,95,206532,1,8,0:0:0:0:
259,95,206582,1,8,0:0:0:0:
259,95,206632,1,8,0:0:0:0:
269,201,207529,1,12,0:0:0:0:
296,177,207728,1,8,0:0:0:0:
296,177,207828,1,0,0:0:0:0:
296,177,207927,1,8,0:0:0:0:
296,177,207977,1,0,0:0:0:0:
296,177,208027,1,8,0:0:0:0:
296,177,208077,1,8,0:0:0:0:
296,177,208127,1,0,0:0:0:0:
296,177,208226,1,0,0:0:0:0:
296,177,208326,1,8,0:0:0:0:
296,177,208426,1,0,0:0:0:0:
296,177,208476,1,0,0:0:0:0:
296,177,208525,1,8,0:0:0:0:
296,177,208625,1,0,0:0:0:0:
296,177,208725,1,8,0:0:0:0:
296,177,208824,1,0,0:0:0:0:
296,177,208924,1,8,0:0:0:0:
296,177,208974,1,0,0:0:0:0:
296,177,209024,1,8,0:0:0:0:
296,177,209123,1,0,0:0:0:0:
296,177,209223,1,0,0:0:0:0:
296,177,209273,1,0,0:0:0:0:
296,177,209323,1,8,0:0:0:0:
296,177,209373,1,0,0:0:0:0:
296,177,209422,1,8,0:0:0:0:
296,177,209522,1,0,0:0:0:0:
309,164,209572,1,0,0:0:0:0:
327,140,209622,1,8,0:0:0:0:
327,140,209672,1,8,0:0:0:0:
327,140,209721,1,0,0:0:0:0:
327,140,209771,1,0,0:0:0:0:
327,140,209821,1,8,0:0:0:0:
327,140,209871,1,0,0:0:0:0:
327,140,209921,1,8,0:0:0:0:
327,140,210020,1,0,0:0:0:0:
327,140,210070,1,8,0:0:0:0:
327,140,210120,1,0,0:0:0:0:
327,140,210170,1,0,0:0:0:0:
327,140,210220,1,8,0:0:0:0:
327,140,210319,1,0,0:0:0:0:
327,140,210419,1,8,0:0:0:0:
327,140,210469,1,8,0:0:0:0:
327,140,210519,1,0,0:0:0:0:
327,140,210618,1,8,0:0:0:0:
327,140,210718,1,0,0:0:0:0:
327,140,210818,1,8,0:0:0:0:
327,140,210868,1,8,0:0:0:0:
327,140,210917,1,0,0:0:0:0:
327,140,210967,1,8,0:0:0:0:
327,140,211017,1,0,0:0:0:0:
327,140,211117,1,0,0:0:0:0:
327,140,211216,1,8,0:0:0:0:
327,140,211266,1,8,0:0:0:0:
320,116,211316,1,0,0:0:0:0:
320,116,211366,1,0,0:0:0:0:
320,116,211416,1,8,0:0:0:0:
241,132,211515,1,8,0:0:0:0:
285,113,211615,1,0,0:0:0:0:
172,109,211665,1,8,0:0:0:0:
172,109,211715,1,0,0:0:0:0:
172,109,211765,1,8,0:0:0:0:
384,85,211814,1,0,0:0:0:0:
178,191,211914,1,8,0:0:0:0:
283,174,212014,1,0,0:0:0:0:
283,174,212113,1,8,0:0:0:0:
283,174,212213,1,8,0:0:0:0:
272,223,212313,1,8,0:0:0:0:
272,223,212412,1,0,0:0:0:0:
272,223,212462,1,0,0:0:0:0:
372,186,212512,1,8,0:0:0:0:
372,186,212612,1,0,0:0:0:0:
372,186,212662,1,0,0:0:0:0:
218,189,212711,1,8,0:0:0:0:
193,233,212811,1,0,0:0:0:0:
193,233,212861,1,0,0:0:0:0:
193,233,212911,1,8,0:0:0:0:
349,239,213010,1,0,0:0:0:0:
349,239,213060,1,0,0:0:0:0:
349,239,213110,1,8,0:0:0:0:
314,187,213210,1,8,0:0:0:0:
314,187,213260,1,8,0:0:0:0:
314,187,213309,1,0,0:0:0:0:
314,187,213409,1,8,0:0:0:0:
314,187,213459,1,8,0:0:0:0:
314,187,213509,1,0,0:0:0:0:
314,187,213559,1,0,0:0:0:0:
314,187,213658,1,0,0:0:0:0:
314,187,213708,1,8,0:0:0:0:
314,187,213808,1,0,0:0:0:0:
314,187,213907,1,12,0:0:0:0:
277,190,214007,1,0,0:0:0:0:
277,190,214057,1,0,0:0:0:0:
277,190,214107,1,8,0:0:0:0:
277,190,214157,1,0,0:0:0:0:
277,190,214206,1,8,0:0:0:0:
277,190,214306,1,0,0:0:0:0:
277,190,214356,1,0,0:0:0:0:
277,190,214406,1,8,0:0:0:0:
277,190,214456,1,0,0:0:0:0:
277,190,214505,1,8,0:0:0:0:
277,190,214605,1,0,0:0:0:0:
277,190,214705,1,8,0:0:0:0:
277,190,214804,1,0,0:0:0:0:
277,190,214854,1,0,0:0:0:0:
277,190,214904,1,8,0:0:0:0:
249,117,214954,1,8,0:0:0:0:
249,157,215004,1,0,0:0:0:0:
272,113,215103,1,8,0:0:0:0:
272,113,215203,1,0,0:0:0:0:
272,113,215303,1,0,0:0:0:0:
272,113,215402,1,8,0:0:0:0:
272,113,215502,1,0,0:0:0:0:
272,113,215602,1,8,0:0:0:0:
272,113,215652,1,8,0:0:0:0:
272,113,215701,1,0,0:0:0:0:
272,113,215751,1,0,0:0:0:0:
272,113,215801,1,8,0:0:0:0:
272,113,215901,1,0,0:0:0:0:
272,113,215951,1,0,0:0:0:0:
272,113,216000,1,8,0:0:0:0:
272,113,216050,1,8,0:0:0:0:
272,113,216100,1,0,0:0:0:0:
272,113,216150,1,0,0:0:0:0:
272,113,216200,1,0,0:0:0:0:
272,113,216250,1,0,0:0:0:0:
272,113,216299,1,8,0:0:0:0:
272,113,216399,1,0,0:0:0:0:
272,113,216449,1,8,0:0:0:0:
272,113,216499,1,0,0:0:0:0:
269,121,216549,1,0,0:0:0:0:
269,121,216598,1,0,0:0:0:0:
269,121,216648,1,0,0:0:0:0:
136,110,216698,1,8,0:0:0:0:
358,113,216798,1,0,0:0:0:0:
358,113,216897,1,0,0:0:0:0:
358,113,216997,1,0,0:0:0:0:
361,61,217097,1,12,0:0:0:0:
286,172,217196,1,0,0:0:0:0:
286,172,217246,1,8,0:0:0:0:
286,172,217296,1,0,0:0:0:0:
93,193,217346,1,0,0:0:0:0:
286,172,217396,1,8,0:0:0:0:
214,74,217595,1,8,0:0:0:0:
214,74,217645,1,0,0:0:0:0:
252,131,217745,1,0,0:0:0:0:
252,131,217794,1,8,0:0:0:0:
216,167,217894,1,4,0:0:0:0:
212,126,217994,1,0,0:0:0:0:
212,126,218093,1,8,0:0:0:0:
274,120,218143,1,0,0:0:0:0:
274,120,218193,1,8,0:0:0:0:
315,74,218226,1,8,0:0:0:0:
315,74,218260,1,8,0:0:0:0:
326,118,218293,1,0,0:0:0:0:
369,158,218343,1,8,0:0:0:0:
369,158,218392,1,0,0:0:0:0:
369,158,218442,1,0,0:0:0:0:
369,158,218492,1,8,0:0:0:0:
369,158,218592,1,0,0:0:0:0:
287,165,218691,1,8,0:0:0:0:
287,165,218741,1,8,0:0:0:0:
381,134,218791,1,0,0:0:0:0:
373,177,218891,1,8,0:0:0:0:
373,177,218941,1,8,0:0:0:0:
398,133,218990,1,0,0:0:0:0:
398,133,219090,1,8,0:0:0:0:
398,133,219140,1,8,0:0:0:0:
398,133,219190,1,0,0:0:0:0:
398,133,219289,1,8,0:0:0:0:
398,133,219339,1,8,0:0:0:0:
398,133,219389,1,0,0:0:0:0:
271,138,219489,1,8,0:0:0:0:
271,138,219539,1,8,0:0:0:0:
271,138,219588,1,8,0:0:0:0:
271,138,219638,1,8,0:0:0:0:
271,138,219688,1,0,0:0:0:0:
271,138,219788,1,8,0:0:0:0:
271,138,219838,1,8,0:0:0:0:
271,138,219887,1,8,0:0:0:0:
271,138,219937,1,8,0:0:0:0:
271,138,219987,1,0,0:0:0:0:
271,138,220087,1,8,0:0:0:0:
271,138,220137,1,8,0:0:0:0:
271,138,220186,1,8,0:0:0:0:
271,138,220236,1,0,0:0:0:0:
289,93,220485,1,0,0:0:0:0:
289,93,220535,1,8,0:0:0:0:
289,93,220585,1,0,0:0:0:0:
252,91,220685,1,8,0:0:0:0:
252,91,220735,1,0,0:0:0:0:
252,91,220784,1,8,0:0:0:0:
252,91,220834,1,8,0:0:0:0:
246,147,220884,1,0,0:0:0:0:
344,93,220934,1,8,0:0:0:0:
324,163,220984,1,0,0:0:0:0:
351,109,221083,1,8,0:0:0:0:
351,109,221183,1,0,0:0:0:0:
351,109,221233,1,0,0:0:0:0:
351,109,221283,1,8,0:0:0:0:
174,188,221382,1,0,0:0:0:0:
174,188,221482,1,8,0:0:0:0:
173,110,221532,1,8,0:0:0:0:
173,110,221582,1,0,0:0:0:0:
208,80,221681,1,8,0:0:0:0:
208,80,221731,1,0,0:0:0:0:
208,80,221781,1,8,0:0:0:0:
174,81,221831,1,8,0:0:0:0:
174,81,221881,1,0,0:0:0:0:
282,162,221980,1,0,0:0:0:0:
282,162,222030,1,0,0:0:0:0:
282,162,222080,1,8,0:0:0:0:
282,162,222130,1,0,0:0:0:0:
282,162,222180,1,8,0:0:0:0:
313,212,222279,1,0,0:0:0:0:
313,212,222329,1,0,0:0:0:0:
370,182,222379,1,8,0:0:0:0:
370,182,222429,1,8,0:0:0:0:
370,182,222479,1,0,0:0:0:0:
370,182,222529,1,0,0:0:0:0:
370,182,222578,1,8,0:0:0:0:
370,182,222628,1,8,0:0:0:0:
370,182,222678,1,0,0:0:0:0:
370,182,222778,1,8,0:0:0:0:
363,181,222828,1,0,0:0:0:0:
193,198,222878,1,0,0:0:0:0:
193,198,222927,1,0,0:0:0:0:
193,198,222977,1,8,0:0:0:0:
270,170,223077,1,0,0:0:0:0:
270,170,223177,1,8,0:0:0:0:
270,170,223226,1,0,0:0:0:0:
270,170,223276,1,8,0:0:0:0:
270,170,223376,1,8,0:0:0:0:
219,128,223476,1,0,0:0:0:0:
251,165,223575,1,8,0:0:0:0:
251,165,223625,1,0,0:0:0:0:
251,165,223675,1,0,0:0:0:0:
251,165,223725,1,8,0:0:0:0:
251,165,223775,1,0,0:0:0:0:
314,150,223874,1,8,0:0:0:0:
314,150,223924,1,0,0:0:0:0:
314,150,223974,1,8,0:0:0:0:
314,150,224024,1,8,0:0:0:0:
314,150,224074,1,0,0:0:0:0:
314,150,224123,1,0,0:0:0:0:
314,150,224173,1,8,0:0:0:0:
314,150,224273,1,0,0:0:0:0:
314,150,224373,1,8,0:0:0:0:
321,195,224422,1,0,0:0:0:0:
269,154,224472,1,0,0:0:0:0:
269,154,224522,1,8,0:0:0:0:
269,154,224572,1,0,0:0:0:0:
295,138,224672,1,8,0:0:0:0:
295,138,224771,1,0,0:0:0:0:
282,83,224871,1,8,0:0:0:0:
282,83,224971,1,8,0:0:0:0:
365,72,225070,1,8,0:0:0:0:
365,72,225170,1,0,0:0:0:0:
365,72,225220,1,0,0:0:0:0:
365,72,225270,1,8,0:0:0:0:
398,96,225369,1,0,0:0:0:0:
398,96,225419,1,0,0:0:0:0:
398,96,225469,1,8,0:0:0:0:
103,169,225569,1,0,0:0:0:0:
116,78,225618,1,0,0:0:0:0:
116,78,225668,1,8,0:0:0:0:
265,190,225768,1,8,0:0:0:0:
265,190,225818,1,8,0:0:0:0:
265,190,225868,1,0,0:0:0:0:
190,158,225917,1,0,0:0:0:0:
190,158,225967,1,8,0:0:0:0:
267,124,226017,1,8,0:0:0:0:
310,172,226067,1,0,0:0:0:0:
307,114,226167,1,0,0:0:0:0:
307,114,226216,1,0,0:0:0:0:
261,104,226266,1,8,0:0:0:0:
261,104,226366,1,0,0:0:0:0:
261,104,226466,1,8,0:0:0:0:
261,104,226565,1,0,0:0:0:0:
261,104,226665,1,12,0:0:0:0:
237,202,226765,1,0,0:0:0:0:
237,202,226864,1,8,0:0:0:0:
237,202,226964,1,0,0:0:0:0:
237,202,227064,1,8,0:0:0:0:
237,202,227163,1,0,0:0:0:0:
237,202,227263,1,8,0:0:0:0:
237,202,227363,1,8,0:0:0:0:
101,169,227412,1,8,0:0:0:0:
305,158,227462,1,0,0:0:0:0:
305,158,227562,1,0,0:0:0:0:
305,158,227662,1,8,0:0:0:0:
305,158,227761,1,0,0:0:0:0:
294,160,227811,1,0,0:0:0:0:
305,158,227861,1,8,0:0:0:0:
305,158,227961,1,0,0:0:0:0:
294,160,228060,1,8,0:0:0:0:
294,160,228110,1,8,0:0:0:0:
294,160,228160,1,8,0:0:0:0:
294,160,228210,1,8,0:0:0:0:
294,160,228260,1,0,0:0:0:0:
294,160,228359,1,0,0:0:0:0:
294,160,228409,1,0,0:0:0:0:
294,160,228459,1,8,0:0:0:0:
294,160,228509,1,0,0:0:0:0:
294,160,228559,1,8,0:0:0:0:
191,96,228658,1,0,0:0:0:0:
191,96,228708,1,8,0:0:0:0:
191,96,228758,1,8,0:0:0:0:
191,96,228858,1,0,0:0:0:0:
233,101,228957,1,8,0:0:0:0:
233,101,229007,1,0,0:0:0:0:
352,91,229057,1,8,0:0:0:0:
352,91,229090,1,8,0:0:0:0:
352,91,229123,1,8,0:0:0:0:
352,91,229157,1,0,0:0:0:0:
352,91,229206,1,0,0:0:0:0:
352,91,229256,1,0,0:0:0:0:
352,91,229356,1,8,0:0:0:0:
352,91,229406,1,8,0:0:0:0:
352,91,229456,1,0,0:0:0:0:
352,91,229555,1,8,0:0:0:0:
352,91,229605,1,8,0:0:0:0:
352,91,229655,1,0,0:0:0:0:
352,91,229755,1,0,0:0:0:0:
352,91,229854,1,8,0:0:0:0:
352,91,229904,1,8,0:0:0:0:
352,91,229954,1,0,0:0:0:0:
352,91,230004,1,0,0:0:0:0:
352,91,230054,1,8,0:0:0:0:
212,139,230153,1,0,0:0:0:0:
325,128,230253,1,8,0:0:0:0:
325,128,230353,1,0,0:0:0:0:
317,137,230452,1,8,0:0:0:0:
317,137,230502,1,8,0:0:0:0:
289,174,230552,1,0,0:0:0:0:
317,137,230602,1,0,0:0:0:0:
289,174,230652,1,8,0:0:0:0:
289,174,230751,1,0,0:0:0:0:
80,74,230851,1,8,0:0:0:0:
237,94,230951,1,8,0:0:0:0:
237,94,231000,1,8,0:0:0:0:
237,94,231050,1,0,0:0:0:0:
199,144,231449,1,12,0:0:0:0:
199,144,231549,1,0,0:0:0:0:
341,169,231648,1,8,0:0:0:0:
341,169,231748,1,8,0:0:0:0:
341,169,231798,1,8,0:0:0:0:
341,169,231848,1,0,0:0:0:0:
287,202,231947,1,0,0:0:0:0:
287,202,231997,1,0,0:0:0:0:
287,202,232047,1,8,0:0:0:0:
287,202,232147,1,0,0:0:0:0:
287,202,232196,1,0,0:0:0:0:
280,154,232296,1,8,0:0:0:0:
280,154,232346,1,0,0:0:0:0:
280,154,232396,1,0,0:0:0:0:
283,76,232446,1,8,0:0:0:0:
283,76,232479,1,8,0:0:0:0:
283,76,232512,1,8,0:0:0:0:
205,171,232545,1,0,0:0:0:0:
205,171,232595,1,0,0:0:0:0:
205,171,232645,1,8,0:0:0:0:
192,128,233044,1,8,0:0:0:0:
192,128,233093,1,8,0:0:0:0:
192,128,233143,1,0,0:0:0:0:
192,128,233193,1,0,0:0:0:0:
352,128,233243,1,8,0:0:0:0:
352,128,233293,1,8,0:0:0:0:
352,128,233343,1,0,0:0:0:0:
352,128,233392,1,0,0:0:0:0:
352,128,233442,1,8,0:0:0:0:
352,128,233492,1,0,0:0:0:0:
352,128,233542,1,8,0:0:0:0:
352,128,233592,1,0,0:0:0:0:
352,128,233642,1,8,0:0:0:0:
352,128,233691,1,8,0:0:0:0:
352,128,233741,1,0,0:0:0:0:
352,128,233791,1,0,0:0:0:0:
352,128,233841,1,8,0:0:0:0:
352,128,233891,1,0,0:0:0:0:
352,128,233941,1,8,0:0:0:0:
352,128,233990,1,0,0:0:0:0:
352,128,234040,1,8,0:0:0:0:
352,128,234090,1,8,0:0:0:0:
352,128,234140,1,0,0:0:0:0:
352,128,234190,1,0,0:0:0:0:
288,64,234240,1,8,0:0:0:0:
288,64,234289,1,8,0:0:0:0:
288,64,234339,1,8,0:0:0:0:
288,64,234389,1,8,0:0:0:0:
288,64,234439,1,0,0:0:0:0:
288,64,234472,1,0,0:0:0:0:
288,64,234505,1,0,0:0:0:0:
288,64,234539,1,0,0:0:0:0:
288,64,234572,1,0,0:0:0:0:
288,64,234605,1,0,0:0:0:0:
288,64,234638,1,8,0:0:0:0:
288,64,234688,1,8,0:0:0:0:
288,64,234738,1,0,0:0:0:0:
288,64,234788,1,0,0:0:0:0:
256,128,234838,1,8,0:0:0:0:
256,128,234887,1,0,0:0:0:0:
256,128,234937,1,8,0:0:0:0:
256,128,234987,1,8,0:0:0:0:
256,128,235037,1,0,0:0:0:0:
256,128,235087,1,0,0:0:0:0:
256,128,235137,1,8,0:0:0:0:
256,128,235186,1,0,0:0:0:0:
256,128,235236,1,8,0:0:0:0:
256,128,235286,1,8,0:0:0:0:
256,128,235336,1,8,0:0:0:0:
256,128,235386,1,8,0:0:0:0:
256,128,235436,1,0,0:0:0:0:
256,128,235585,1,0,0:0:0:0:
256,128,235635,1,8,0:0:0:0:
256,128,235685,1,8,0:0:0:0:
256,128,235735,1,0,0:0:0:0:
224,128,235884,1,0,0:0:0:0:
224,128,235934,1,8,0:0:0:0:
224,128,235984,1,8,0:0:0:0:
224,128,236034,1,0,0:0:0:0:
224,128,236233,1,8,0:0:0:0:
224,128,236333,1,0,0:0:0:0:
224,128,236432,1,8,0:0:0:0:
224,128,236532,1,8,0:0:0:0:
224,128,236632,1,0,0:0:0:0:
224,128,236731,1,0,0:0:0:0:
224,128,236831,1,8,0:0:0:0:
224,128,236881,1,0,0:0:0:0:
224,128,236931,1,0,0:0:0:0:
224,128,236980,1,0,0:0:0:0:
224,128,237030,1,8,0:0:0:0:
128,160,237130,1,0,0:0:0:0:
128,160,237230,1,8,0:0:0:0:
288,160,237329,1,0,0:0:0:0:
288,160,237379,1,0,0:0:0:0:
288,160,237429,1,8,0:0:0:0:
320,192,237529,1,8,0:0:0:0:
320,192,237578,1,8,0:0:0:0:
256,224,237628,1,0,0:0:0:0:
256,224,237678,1,8,0:0:0:0:
256,224,237728,1,0,0:0:0:0:
256,224,237778,1,0,0:0:0:0:
320,192,237828,1,8,0:0:0:0:
320,192,237878,1,0,0:0:0:0:
320,192,237927,1,0,0:0:0:0:
320,192,238027,1,8,0:0:0:0:
320,192,238127,1,0,0:0:0:0:
320,192,238177,1,8,0:0:0:0:
320,192,238226,1,0,0:0:0:0:
320,192,238326,1,0,0:0:0:0:
320,192,238426,1,8,0:0:0:0:
320,192,238476,1,0,0:0:0:0:
320,192,238525,1,8,0:0:0:0:
320,192,238575,1,8,0:0:0:0:
320,192,238625,1,0,0:0:0:0:
320,192,238725,1,8,0:0:0:0:
320,192,238758,1,8,0:0:0:0:
320,192,238791,1,8,0:0:0:0:
320,192,238824,1,0,0:0:0:0:
320,192,238874,1,0,0:0:0:0:
320,192,238924,1,8,0:0:0:0:
320,192,238974,1,8,0:0:0:0:
320,192,239024,1,0,0:0:0:0:
320,192,239123,1,0,0:0:0:0:
320,192,239173,1,0,0:0:0:0:
320,192,239223,1,8,0:0:0:0:
320,192,239273,1,8,0:0:0:0:
320,192,239323,1,0,0:0:0:0:
320,192,239422,1,8,0:0:0:0:
256,128,239522,1,0,0:0:0:0:
256,128,239572,1,0,0:0:0:0:
256,128,239622,1,8,0:0:0:0:
288,128,239672,1,0,0:0:0:0:
288,128,239721,1,8,0:0:0:0:
160,64,239821,1,0,0:0:0:0:
160,64,239871,1,0,0:0:0:0:
320,64,239921,1,8,0:0:0:0:
192,128,240020,1,0,0:0:0:0:
192,128,240070,1,0,0:0:0:0:
256,160,240120,1,8,0:0:0:0:
256,160,240170,1,0,0:0:0:0:
256,160,240220,1,8,0:0:0:0:
128,160,240319,1,8,0:0:0:0:
128,160,240369,1,0,0:0:0:0:
128,160,240419,1,8,0:0:0:0:
192,192,240519,1,0,0:0:0:0:
192,192,240569,1,0,0:0:0:0:
256,96,240618,1,8,0:0:0:0:
256,96,240668,1,8,0:0:0:0:
256,96,240718,1,8,0:0:0:0:
256,96,240768,1,8,0:0:0:0:
256,96,240818,1,0,0:0:0:0:
256,96,240868,1,0,0:0:0:0:
256,96,240917,1,0,0:0:0:0:
256,96,240967,1,0,0:0:0:0:
256,96,241017,1,8,0:0:0:0:
320,192,241117,1,0,0:0:0:0:
320,192,241167,1,0,0:0:0:0:
320,192,241216,1,0,0:0:0:0:
320,192,241266,1,0,0:0:0:0:
320,192,241316,1,8,0:0:0:0:
320,128,241416,1,0,0:0:0:0:
320,128,241466,1,0,0:0:0:0:
320,128,241515,1,8,0:0:0:0:
320,128,241565,1,0,0:0:0:0:
320,128,241615,1,8,0:0:0:0:
384,160,241715,1,0,0:0:0:0:
384,160,241765,1,0,0:0:0:0:
384,160,241814,1,0,0:0:0:0:
384,160,241864,1,0,0:0:0:0:
224,96,241914,1,8,0:0:0:0:
224,96,242014,1,0,0:0:0:0:
224,96,242064,1,8,0:0:0:0:
224,96,242113,1,8,0:0:0:0:
224,96,242163,1,8,0:0:0:0:
224,96,242213,1,0,0:0:0:0:
224,96,242346,1,0,0:0:0:0:
224,96,242479,1,0,0:0:0:0:
224,96,242612,1,8,0:0:0:0:
288,160,242662,1,0,0:0:0:0:
288,160,242711,1,0,0:0:0:0:
192,160,242811,1,8,0:0:0:0:
192,160,242911,1,0,0:0:0:0:
256,96,242961,1,0,0:0:0:0:
256,96,243010,1,8,0:0:0:0:
224,192,243060,1,0,0:0:0:0:
224,192,243110,1,8,0:0:0:0:
192,224,243210,1,0,0:0:0:0:
192,224,243260,1,0,0:0:0:0:
320,160,243309,1,8,0:0:0:0:
320,160,243409,1,8,0:0:0:0:
320,160,243509,1,0,0:0:0:0:
320,160,243608,1,8,0:0:0:0:
320,160,243708,1,0,0:0:0:0:
320,160,243758,1,0,0:0:0:0:
320,160,243808,1,8,0:0:0:0:
320,160,243907,1,8,0:0:0:0:
320,160,244007,1,0,0:0:0:0:
320,160,244107,1,0,0:0:0:0:
320,160,244157,1,0,0:0:0:0:
320,160,244206,1,12,0:0:0:0:
320,160,244306,1,12,0:0:0:0:
320,160,244505,1,12,0:0:0:0:
320,160,244605,1,12,0:0:0:0:
320,160,244804,1,12,0:0:0:0:
320,160,244904,1,12,0:0:0:0:
320,160,245103,1,12,0:0:0:0:
320,160,245203,1,12,0:0:0:0:
320,160,245336,1,0,0:0:0:0:
320,160,245402,1,8,0:0:0:0:
320,160,245469,1,8,0:0:0:0:
320,160,245535,1,8,0:0:0:0:
320,160,245602,1,0,0:0:0:0:
320,160,245668,1,0,0:0:0:0:
320,160,245735,1,0,0:0:0:0:
224,192,245801,1,8,0:0:0:0:
384,256,245851,1,0,0:0:0:0:
224,128,245901,1,8,0:0:0:0:
224,128,245951,1,8,0:0:0:0:
384,128,246000,1,0,0:0:0:0:
384,128,246050,1,0,0:0:0:0:
256,96,246100,1,8,0:0:0:0:
256,96,246133,1,8,0:0:0:0:
256,96,246167,1,8,0:0:0:0:
288,96,246200,1,0,0:0:0:0:
288,96,246250,1,0,0:0:0:0:
288,128,246299,1,8,0:0:0:0:
288,128,246349,1,0,0:0:0:0:
288,128,246399,1,8,0:0:0:0:
288,128,246449,1,8,0:0:0:0:
320,64,246499,1,0,0:0:0:0:
320,64,246549,1,0,0:0:0:0:
352,128,246598,1,8,0:0:0:0:
352,128,246632,1,8,0:0:0:0:
352,128,246665,1,8,0:0:0:0:
320,160,246698,1,0,0:0:0:0:
320,160,246748,1,0,0:0:0:0:
352,192,246798,1,8,0:0:0:0:
352,192,246831,1,0,0:0:0:0:
352,192,246864,1,0,0:0:0:0:
160,128,246897,1,8,0:0:0:0:
160,128,246947,1,0,0:0:0:0:
160,128,246997,1,8,0:0:0:0:
256,64,247097,1,0,0:0:0:0:
256,64,247147,1,0,0:0:0:0:
256,160,247196,1,8,0:0:0:0:
256,160,247246,1,8,0:0:0:0:
256,96,247296,1,0,0:0:0:0:
256,96,247346,1,0,0:0:0:0:
288,160,247397,1,12,0:0:0:0:
288,160,247496,1,12,0:0:0:0:
224,128,247696,1,12,0:0:0:0:
224,128,247795,1,12,0:0:0:0:
224,128,247995,1,12,0:0:0:0:
224,128,248094,1,12,0:0:0:0:
224,128,248294,1,12,0:0:0:0:
224,128,248393,1,12,0:0:0:0:
224,128,248792,1,12,0:0:0:0:
224,128,248892,1,12,0:0:0:0:
224,128,249091,1,12,0:0:0:0:
224,128,249191,1,12,0:0:0:0:
224,128,249390,1,12,0:0:0:0:
224,128,249490,1,12,0:0:0:0:
224,128,249689,1,12,0:0:0:0:
224,128,249789,1,12,0:0:0:0:
224,128,250187,1,12,0:0:0:0:
224,128,250287,1,12,0:0:0:0:
224,128,250486,1,12,0:0:0:0:
224,128,250586,1,12,0:0:0:0:
224,128,250785,1,12,0:0:0:0:
224,128,250885,1,12,0:0:0:0:
224,128,251084,1,12,0:0:0:0:
224,128,251184,1,12,0:0:0:0:
224,128,251583,1,12,0:0:0:0:
224,128,251682,1,12,0:0:0:0:
224,128,251882,1,12,0:0:0:0:
224,128,251981,1,12,0:0:0:0:
224,128,252181,1,12,0:0:0:0:
224,128,252280,1,12,0:0:0:0:
224,128,252480,1,12,0:0:0:0:
224,128,252579,1,12,0:0:0:0:
224,128,252978,1,4,0:0:0:0:
288,128,254572,1,4,0:0:0:0:
288,128,256167,1,4,0:0:0:0:
352,256,259356,1,8,0:0:0:0:
352,256,260154,1,8,0:0:0:0:
384,192,260353,1,0,0:0:0:0:
384,192,260403,1,0,0:0:0:0:
448,160,260453,1,8,0:0:0:0:
448,160,260502,1,8,0:0:0:0:
448,160,260552,1,0,0:0:0:0:
448,160,260602,1,0,0:0:0:0:
448,160,260652,1,8,0:0:0:0:
448,160,260702,1,8,0:0:0:0:
448,160,260752,1,0,0:0:0:0:
448,160,260801,1,0,0:0:0:0:
448,160,260851,1,8,0:0:0:0:
448,160,260901,1,8,0:0:0:0:
288,128,262147,1,8,0:0:0:0:
187,164,262546,1,4,0:0:0:0:
323,175,262645,1,8,0:0:0:0:
323,175,262695,1,8,0:0:0:0:
323,175,262745,1,0,0:0:0:0:
323,175,262795,1,0,0:0:0:0:
323,175,262845,1,8,0:0:0:0:
323,175,262878,1,8,0:0:0:0:
323,175,262911,1,8,0:0:0:0:
323,175,262944,1,0,0:0:0:0:
312,113,262994,1,8,0:0:0:0:
323,175,263044,1,0,0:0:0:0:
323,175,263144,1,0,0:0:0:0:
323,175,263243,1,8,0:0:0:0:
323,175,263293,1,0,0:0:0:0:
323,175,263343,1,8,0:0:0:0:
323,175,263376,1,8,0:0:0:0:
323,175,263409,1,8,0:0:0:0:
323,175,263443,1,8,0:0:0:0:
323,175,263476,1,8,0:0:0:0:
323,175,263509,1,8,0:0:0:0:
323,175,263542,1,0,0:0:0:0:
323,175,263642,1,8,0:0:0:0:
323,175,263692,1,8,0:0:0:0:
323,175,263742,1,0,0:0:0:0:
323,175,263841,1,0,0:0:0:0:
323,175,263891,1,8,0:0:0:0:
323,175,263941,1,0,0:0:0:0:
323,175,263974,1,0,0:0:0:0:
323,175,264007,1,0,0:0:0:0:
323,175,264041,1,0,0:0:0:0:
323,175,264074,1,0,0:0:0:0:
323,175,264107,1,0,0:0:0:0:
323,175,264140,1,8,0:0:0:0:
323,175,264190,1,8,0:0:0:0:
323,175,264240,1,0,0:0:0:0:
323,175,264290,1,8,0:0:0:0:
323,175,264340,1,0,0:0:0:0:
323,175,264439,1,8,0:0:0:0:
323,175,264489,1,8,0:0:0:0:
323,175,264539,1,0,0:0:0:0:
323,175,264639,1,0,0:0:0:0:
323,175,264688,1,0,0:0:0:0:
323,175,264738,1,8,0:0:0:0:
323,175,264772,1,8,0:0:0:0:
323,175,264805,1,8,0:0:0:0:
323,175,264838,1,0,0:0:0:0:
323,175,264888,1,0,0:0:0:0:
323,175,264938,1,8,0:0:0:0:
323,175,265004,1,8,0:0:0:0:
323,175,265071,1,8,0:0:0:0:
323,175,265137,1,0,0:0:0:0:
323,175,265203,1,0,0:0:0:0:
323,175,265270,1,0,0:0:0:0:
323,175,265336,1,8,0:0:0:0:
323,175,265436,1,0,0:0:0:0:
323,175,265486,1,0,0:0:0:0:
356,101,265536,1,8,0:0:0:0:
323,175,265585,1,8,0:0:0:0:
323,175,265635,1,0,0:0:0:0:
256,196,265735,1,8,0:0:0:0:
302,191,265835,1,0,0:0:0:0:
302,191,265884,1,8,0:0:0:0:
302,191,265934,1,0,0:0:0:0:
281,90,266034,1,8,0:0:0:0:
281,90,266084,1,8,0:0:0:0:
281,90,266134,1,0,0:0:0:0:
281,90,266183,1,0,0:0:0:0:
281,90,266233,1,8,0:0:0:0:
281,90,266283,1,8,0:0:0:0:
281,90,266333,1,0,0:0:0:0:
281,90,266433,1,8,0:0:0:0:
281,90,266466,1,8,0:0:0:0:
281,90,266499,1,8,0:0:0:0:
281,90,266532,1,0,0:0:0:0:
281,90,266599,1,0,0:0:0:0:
281,90,266665,1,0,0:0:0:0:
281,90,266732,1,8,0:0:0:0:
281,90,266831,1,8,0:0:0:0:
281,90,266865,1,8,0:0:0:0:
281,90,266898,1,8,0:0:0:0:
281,90,266931,1,0,0:0:0:0:
281,90,266981,1,0,0:0:0:0:
393,106,267031,1,8,0:0:0:0:
281,90,267080,1,0,0:0:0:0:
281,90,267130,1,8,0:0:0:0:
281,90,267180,1,8,0:0:0:0:
393,106,267230,1,0,0:0:0:0:
281,90,267280,1,8,0:0:0:0:
281,90,267330,1,0,0:0:0:0:
281,90,267379,1,0,0:0:0:0:
267,157,267429,1,8,0:0:0:0:
267,157,267463,1,8,0:0:0:0:
267,157,267496,1,8,0:0:0:0:
267,157,267529,1,0,0:0:0:0:
267,157,267579,1,0,0:0:0:0:
328,136,267629,1,8,0:0:0:0:
328,136,267662,1,0,0:0:0:0:
328,136,267695,1,0,0:0:0:0:
328,136,267728,1,8,0:0:0:0:
328,136,267778,1,0,0:0:0:0:
328,136,267828,1,8,0:0:0:0:
328,136,267861,1,8,0:0:0:0:
328,136,267894,1,8,0:0:0:0:
328,136,267928,1,0,0:0:0:0:
328,136,267977,1,0,0:0:0:0:
328,136,268027,1,8,0:0:0:0:
328,136,268061,1,0,0:0:0:0:
328,136,268094,1,0,0:0:0:0:
328,136,268127,1,8,0:0:0:0:
309,25,268177,1,8,0:0:0:0:
184,177,268227,1,0,0:0:0:0:
345,208,268277,1,0,0:0:0:0:
152,131,268326,1,8,0:0:0:0:
152,131,268426,1,0,0:0:0:0:
339,149,268476,1,8,0:0:0:0:
152,131,268526,1,0,0:0:0:0:
152,131,268625,1,0,0:0:0:0:
152,131,268725,1,8,0:0:0:0:
198,100,268775,1,8,0:0:0:0:
152,131,268825,1,0,0:0:0:0:
152,131,268924,1,8,0:0:0:0:
152,131,268974,1,8,0:0:0:0:
152,131,269024,1,8,0:0:0:0:
152,131,269074,1,0,0:0:0:0:
329,148,269124,1,8,0:0:0:0:
329,148,269174,1,8,0:0:0:0:
409,252,269223,1,0,0:0:0:0:
409,252,269273,1,0,0:0:0:0:
409,252,269323,1,8,0:0:0:0:
409,252,269373,1,0,0:0:0:0:
409,252,269423,1,0,0:0:0:0:
409,252,269473,1,0,0:0:0:0:
409,252,269522,1,8,0:0:0:0:
409,252,269572,1,0,0:0:0:0:
284,149,269622,1,8,0:0:0:0:
284,149,269655,1,8,0:0:0:0:
284,149,269688,1,8,0:0:0:0:
207,166,269722,1,0,0:0:0:0:
343,68,269821,1,8,0:0:0:0:
343,68,269871,1,0,0:0:0:0:
343,68,269921,1,8,0:0:0:0:
343,68,269971,1,8,0:0:0:0:
343,68,270021,1,0,0:0:0:0:
343,68,270071,1,0,0:0:0:0:
343,68,270120,1,8,0:0:0:0:
343,68,270154,1,8,0:0:0:0:
343,68,270187,1,0,0:0:0:0:
343,68,270220,1,0,0:0:0:0:
343,68,270253,1,8,0:0:0:0:
343,68,270286,1,8,0:0:0:0:
343,68,270320,1,0,0:0:0:0:
343,68,270353,1,0,0:0:0:0:
343,68,270386,1,8,0:0:0:0:
343,68,270419,1,8,0:0:0:0:
343,68,270453,1,0,0:0:0:0:
343,68,270486,1,0,0:0:0:0:
245,130,270718,1,0,0:0:0:0:
383,164,270768,1,0,0:0:0:0:
383,164,270818,1,8,0:0:0:0:
330,239,270918,1,0,0:0:0:0:
330,239,271017,1,0,0:0:0:0:
330,239,271117,1,8,0:0:0:0:
330,239,271167,1,8,0:0:0:0:
330,239,271217,1,8,0:0:0:0:
330,239,271267,1,8,0:0:0:0:
330,239,271316,1,0,0:0:0:0:
330,239,271416,1,0,0:0:0:0:
330,239,271516,1,8,0:0:0:0:
330,239,271566,1,8,0:0:0:0:
330,239,271615,1,8,0:0:0:0:
330,239,271665,1,8,0:0:0:0:
330,239,271715,1,0,0:0:0:0:
282,128,272114,1,8,0:0:0:0:
272,138,272213,1,0,0:0:0:0:
272,138,272263,1,0,0:0:0:0:
272,138,272313,1,8,0:0:0:0:
272,138,272363,1,0,0:0:0:0:
272,138,272413,1,8,0:0:0:0:
290,147,272512,1,0,0:0:0:0:
290,147,272612,1,8,0:0:0:0:
417,164,272712,1,0,0:0:0:0:
417,164,272811,1,8,0:0:0:0:
417,164,272861,1,0,0:0:0:0:
417,164,272911,1,8,0:0:0:0:
417,164,272961,1,8,0:0:0:0:
417,164,273011,1,0,0:0:0:0:
403,88,273061,1,8,0:0:0:0:
400,108,273110,1,0,0:0:0:0:
400,108,273160,1,0,0:0:0:0:
400,108,273210,1,8,0:0:0:0:
400,108,273260,1,0,0:0:0:0:
400,108,273310,1,8,0:0:0:0:
400,108,273409,1,0,0:0:0:0:
400,108,273459,1,0,0:0:0:0:
400,108,273509,1,8,0:0:0:0:
400,108,273559,1,0,0:0:0:0:
400,108,273609,1,8,0:0:0:0:
255,130,273708,1,0,0:0:0:0:
255,130,273808,1,8,0:0:0:0:
212,169,273908,1,0,0:0:0:0:
328,179,274007,1,8,0:0:0:0:
328,179,274057,1,0,0:0:0:0:
328,179,274107,1,8,0:0:0:0:
328,179,274157,1,8,0:0:0:0:
328,179,274207,1,0,0:0:0:0:
319,100,274257,1,8,0:0:0:0:
319,100,274306,1,0,0:0:0:0:
319,100,274356,1,0,0:0:0:0:
319,100,274406,1,8,0:0:0:0:
319,100,274456,1,0,0:0:0:0:
319,100,274506,1,8,0:0:0:0:
319,100,274605,1,0,0:0:0:0:
319,100,274655,1,0,0:0:0:0:
319,100,274705,1,8,0:0:0:0:
319,100,274755,1,8,0:0:0:0:
319,100,274805,1,0,0:0:0:0:
319,100,274904,1,8,0:0:0:0:
319,100,274954,1,0,0:0:0:0:
319,100,275004,1,8,0:0:0:0:
319,100,275054,1,0,0:0:0:0:
319,100,275104,1,8,0:0:0:0:
319,100,275203,1,0,0:0:0:0:
319,100,275253,1,0,0:0:0:0:
319,100,275303,1,8,0:0:0:0:
319,100,275353,1,0,0:0:0:0:
319,100,275403,1,8,0:0:0:0:
319,100,275502,1,0,0:0:0:0:
319,100,275569,1,0,0:0:0:0:
319,100,275635,1,0,0:0:0:0:
319,100,275702,1,8,0:0:0:0:
319,100,275801,1,0,0:0:0:0:
319,100,275851,1,0,0:0:0:0:
319,100,275901,1,8,0:0:0:0:
319,100,275951,1,8,0:0:0:0:
319,100,276001,1,0,0:0:0:0:
319,100,276100,1,8,0:0:0:0:
319,100,276200,1,0,0:0:0:0:
319,100,276300,1,8,0:0:0:0:
319,100,276350,1,8,0:0:0:0:
319,100,276399,1,0,0:0:0:0:
319,100,276449,1,0,0:0:0:0:
319,100,276499,1,0,0:0:0:0:
319,100,276549,1,0,0:0:0:0:
319,100,276599,1,8,0:0:0:0:
323,125,276698,1,0,0:0:0:0:
323,125,276748,1,0,0:0:0:0:
323,125,276798,1,0,0:0:0:0:
323,125,276848,1,0,0:0:0:0:
323,125,276898,1,12,0:0:0:0:
317,166,278492,1,8,0:0:0:0:
317,166,278542,1,8,0:0:0:0:
317,166,278592,1,0,0:0:0:0:
317,166,278692,1,8,0:0:0:0:
317,166,278742,1,8,0:0:0:0:
317,166,278791,1,0,0:0:0:0:
317,166,278891,1,8,0:0:0:0:
317,166,278941,1,8,0:0:0:0:
317,166,278991,1,0,0:0:0:0:
317,166,279090,1,8,0:0:0:0:
317,166,279140,1,8,0:0:0:0:
317,166,279190,1,0,0:0:0:0:
317,166,279290,1,8,0:0:0:0:
317,166,279340,1,8,0:0:0:0:
317,166,279389,1,8,0:0:0:0:
317,166,279439,1,8,0:0:0:0:
317,166,279489,1,0,0:0:0:0:
317,166,279589,1,8,0:0:0:0:
317,166,279639,1,8,0:0:0:0:
317,166,279688,1,8,0:0:0:0:
317,166,279738,1,8,0:0:0:0:
317,166,279788,1,0,0:0:0:0:
317,166,279888,1,8,0:0:0:0:
284,144,280087,1,8,0:0:0:0:
227,150,280137,1,8,0:0:0:0:
284,144,280187,1,0,0:0:0:0:
298,138,280286,1,8,0:0:0:0:
298,138,280336,1,8,0:0:0:0:
298,138,280386,1,0,0:0:0:0:
298,138,280486,1,8,0:0:0:0:
298,138,280536,1,8,0:0:0:0:
297,138,280585,1,0,0:0:0:0:
297,138,280685,1,8,0:0:0:0:
297,138,280735,1,8,0:0:0:0:
297,138,280785,1,0,0:0:0:0:
297,138,280884,1,8,0:0:0:0:
297,138,280934,1,0,0:0:0:0:
297,138,280984,1,8,0:0:0:0:
297,138,281034,1,8,0:0:0:0:
297,138,281084,1,0,0:0:0:0:
298,138,281183,1,8,0:0:0:0:
298,138,281233,1,0,0:0:0:0:
298,138,281283,1,8,0:0:0:0:
298,138,281333,1,8,0:0:0:0:
298,138,281383,1,0,0:0:0:0:
297,138,281482,1,8,0:0:0:0:
297,138,281532,1,8,0:0:0:0:
297,138,281582,1,8,0:0:0:0:
297,138,281632,1,8,0:0:0:0:
297,138,281682,1,0,0:0:0:0:
321,156,284871,1,8,0:0:0:0:
321,156,284921,1,8,0:0:0:0:
321,156,284971,1,8,0:0:0:0:
321,156,285021,1,8,0:0:0:0:
321,156,285071,1,8,0:0:0:0:
321,156,285120,1,8,0:0:0:0:
321,156,285170,1,8,0:0:0:0:
321,156,285220,1,8,0:0:0:0:
321,156,285270,1,8,0:0:0:0:
321,156,285320,1,8,0:0:0:0:
321,156,285370,1,8,0:0:0:0:
321,156,285419,1,8,0:0:0:0:
321,156,285469,1,8,0:0:0:0:
321,156,285519,1,8,0:0:0:0:
321,156,285569,1,8,0:0:0:0:
321,156,285619,1,8,0:0:0:0:
321,156,285669,1,8,0:0:0:0:
321,156,285718,1,8,0:0:0:0:
321,156,285768,1,8,0:0:0:0:
321,156,285818,1,8,0:0:0:0:
321,156,285868,1,8,0:0:0:0:
321,156,285918,1,8,0:0:0:0:
321,156,285968,1,8,0:0:0:0:
321,156,286017,1,8,0:0:0:0:
321,156,286067,1,8,0:0:0:0:
321,156,286117,1,8,0:0:0:0:
321,156,286167,1,8,0:0:0:0:
321,156,286217,1,8,0:0:0:0:
321,156,286267,1,8,0:0:0:0:
321,156,286316,1,8,0:0:0:0:
321,156,286366,1,8,0:0:0:0:
321,156,286416,1,8,0:0:0:0:
321,156,286466,1,4,0:0:0:0:
