osu file format v14

[General]
AudioFilename: audio.mp3
AudioLeadIn: 0
PreviewTime: 207529
Countdown: 0
SampleSet: Normal
StackLeniency: 0.7
Mode: 1
LetterboxInBreaks: 0
WidescreenStoryboard: 1

[Editor]
DistanceSpacing: 1.1
BeatDivisor: 2
GridSize: 32
TimelineZoom: 1.3

[Metadata]
Title:Xeroa ("preconnaiXance" Long ver.)
TitleUnicode:Xéroa ("préconnaiXance" Long ver.)
Artist:Camellia
ArtistUnicode:かめりあ
Creator:Cynplytholowazy
Version:ADVANCED
Source:SOUND VOLTEX IV HEAVENLY HAVEN
Tags:sdvx 4 The 7th KACオリジナル楽曲コンテスト original song contest xroniàl xéro xronial xero かめるかめりあ cametek kamelcamellia masaya oya 大箭将也 electronic instrumental rhythm video game speedcore MTNTWarz TaikOseania
BeatmapID:3250880
BeatmapSetID:1484496

[Difficulty]
HPDrainRate:7
CircleSize:5
OverallDifficulty:4
ApproachRate:10
SliderMultiplier:1
SliderTickRate:1

[Events]
//Background and Video events
0,0,"xeroap.jpg",0,85
//Break Periods
2,28127,32114
//Storyboard Layer 0 (Background)
//Storyboard Layer 1 (Fail)
//Storyboard Layer 2 (Pass)
//Storyboard Layer 3 (Foreground)
//Storyboard Layer 4 (Overlay)
//Storyboard Sound Samples

[TimingPoints]
1018,199.335548172757,4,1,0,100,1,0
1018,-125,4,1,0,100,0,0
1217,-125,4,1,0,80,0,0
7197,-125,4,1,0,90,0,0
13725,-125,4,1,0,100,0,0
13825,-125,4,1,0,80,0,0
16915,-125,4,1,0,90,0,0
20054,-125,4,1,0,80,0,0
20752,-125,4,1,0,80,0,0
23277,-125,4,1,0,100,0,0
23343,-125,4,1,0,100,0,1
26532,-125,4,1,0,100,0,0
26732,-125,4,1,0,60,0,0
32712,-125,4,1,0,100,0,0
33111,-125,4,1,0,60,0,0
34307,-125,4,1,0,100,0,0
34506,-125,4,1,0,100,0,1
36101,-125,4,1,0,100,0,0
36300,-125,4,1,0,60,0,0
37496,-125,4,1,0,100,0,0
37695,-125,4,1,0,100,0,1
39290,-125,4,1,0,100,0,0
39490,-125,4,1,0,80,0,0
43875,-125,4,1,0,100,0,0
44074,199.335548172757,4,1,0,100,1,0
44074,-125,4,1,0,100,0,0
44173,-125,4,1,0,90,0,0
50253,-125,4,1,0,100,0,0
50452,-125,4,1,0,100,0,1
53442,-125,4,1,0,100,0,0
53642,-125,4,1,0,100,0,1
56034,-125,4,1,0,100,0,0
56831,-125,4,1,0,100,0,1
58426,-125,4,1,0,100,0,0
58625,-125,4,1,0,100,0,1
59622,-125,4,1,0,100,0,0
61715,-125,4,1,0,100,0,1
63210,-125,4,1,0,100,0,0
63409,-125,4,1,0,80,0,0
66366,-125,4,1,0,100,0,0
66798,-125,4,1,0,60,0,0
67794,-125,4,1,0,80,0,0
69389,-125,4,1,0,80,0,0
69588,-125,4,1,0,80,0,1
77163,-125,4,1,0,80,0,0
77562,-125,4,1,0,80,0,1
78758,-125,4,1,0,80,0,0
79157,-125,4,1,0,80,0,1
82346,199.335548172757,4,1,0,100,1,9
82347,199.335548172757,6,1,0,100,1,0
82347,-125,6,1,0,100,0,0
82546,-125,6,1,0,100,0,0
90420,-125,6,1,0,100,0,0
90918,-125,6,1,0,60,0,0
91715,-125,6,1,0,100,0,0
91915,199.335548172757,4,1,0,100,1,1
91915,-125,4,1,0,100,0,1
95104,-125,4,1,0,100,0,0
95303,-125,4,1,0,60,0,0
97396,-125,4,1,0,90,0,0
97596,-125,4,1,0,90,0,0
101283,-125,4,1,0,100,0,0
120619,-125,4,1,0,100,0,1
123808,-125,4,1,0,100,0,0
125503,-125,4,1,0,100,0,1
126998,-125,4,1,0,100,0,0
127197,-125,4,1,0,90,0,0
132546,-125,4,1,0,100,0,0
132579,199.335548172757,4,1,0,100,1,0
132579,-125,4,1,0,100,0,0
132778,-125,4,1,0,90,0,0
135569,-125,4,1,0,100,0,0
135768,-125,4,1,0,100,0,1
138957,-125,4,1,0,100,0,0
142147,-125,4,1,0,100,0,1
145336,-125,4,1,0,100,0,0
148725,-125,4,1,0,90,0,0
150070,-125,4,1,0,100,0,0
150120,-125,4,1,0,100,0,1
151715,-125,4,1,0,100,0,0
151914,-125,4,1,0,90,0,0
153260,-125,4,1,0,100,0,0
153309,-125,4,1,0,100,0,1
154904,-125,4,1,0,100,0,0
155004,-125,4,1,0,60,0,0
157994,-125,4,1,0,90,0,0
161133,-125,4,1,0,100,0,0
161382,-125,4,1,0,80,0,0
166665,-125,4,1,0,100,0,0
167861,-125,4,1,0,80,0,0
170818,-125,4,1,0,100,0,0
171250,-125,4,1,0,80,0,0
172412,-125,4,1,0,100,0,0
174040,-125,4,1,0,100,0,1
181615,-125,4,1,0,100,0,0
182014,-125,4,1,0,100,0,1
183210,-125,4,1,0,100,0,0
183608,-125,4,1,0,100,0,1
186798,199.335548172757,7,1,0,100,1,0
186798,-125,4,1,0,100,0,0
197960,199.335548172757,7,1,0,100,1,8
197961,199.335548172757,4,1,0,100,1,0
197961,-125,4,1,0,100,0,0
201349,-125,4,1,0,80,0,0
204339,-125,4,1,0,80,0,0
205137,-125,4,1,0,80,0,0
205735,-125,4,1,0,80,0,0
205784,-125,4,1,0,80,0,0
205834,-125,4,1,0,80,0,0
205934,-125,4,1,0,80,0,0
205984,-125,4,1,0,80,0,0
206034,-125,4,1,0,80,0,0
206133,-125,4,1,0,80,0,0
206183,-125,4,1,0,80,0,0
206233,-125,4,1,0,80,0,0
206333,-125,4,1,0,80,0,0
206382,-125,4,1,0,80,0,0
206432,-125,4,1,0,80,0,0
206532,-125,4,1,0,80,0,0
206582,-125,4,1,0,80,0,0
206632,-125,4,1,0,80,0,0
206731,-125,4,1,0,80,0,0
207329,-125,4,1,0,100,0,0
207529,-125,4,1,0,100,0,1
220286,-125,4,1,0,100,0,0
220485,-125,4,1,0,100,0,1
231050,-125,4,1,0,100,0,0
231449,-125,4,1,0,100,0,1
232645,-125,4,1,0,100,0,0
233044,-125,4,1,0,100,0,1
235436,-125,4,1,0,100,0,0
235585,-125,4,1,0,100,0,0
235635,-125,4,1,0,100,0,0
235685,-125,4,1,0,100,0,0
235735,-125,4,1,0,100,0,0
235884,-125,4,1,0,100,0,0
235934,-125,4,1,0,100,0,0
235984,-125,4,1,0,100,0,0
236034,-125,4,1,0,100,0,0
236233,-125,4,1,0,100,0,1
242213,-125,4,1,0,100,0,0
242612,-125,4,1,0,100,0,1
244206,-125,4,1,0,100,0,1
245336,-125,4,1,0,100,0,0
245801,-125,4,1,0,100,0,1
247396,199.335548172757,4,1,0,100,1,9
247397,199.335548172757,7,1,0,100,1,1
247397,-125,7,1,0,100,0,1
252978,199.335548172757,4,1,0,100,1,0
252978,-125,4,1,0,100,0,0
253177,-125,4,1,0,60,0,0
254373,-125,4,1,0,100,0,0
254772,-125,4,1,0,60,0,0
255968,-125,4,1,0,100,0,0
256366,-125,4,1,0,60,0,0
259157,-125,4,1,0,90,0,0
259356,-125,4,1,0,90,0,0
260154,-125,4,1,0,90,0,0
260353,-125,4,1,0,90,0,0
260403,-125,4,1,0,90,0,0
260453,-125,4,1,0,90,0,0
260502,-125,4,1,0,90,0,0
260552,-125,4,1,0,90,0,0
260602,-125,4,1,0,90,0,0
260652,-125,4,1,0,90,0,0
260702,-125,4,1,0,90,0,0
260752,-125,4,1,0,90,0,0
260801,-125,4,1,0,90,0,0
260851,-125,4,1,0,90,0,0
260901,-125,4,1,0,90,0,0
260951,-125,4,1,0,90,0,0
262346,-125,4,1,0,100,0,0
262546,-125,4,1,0,100,0,1
271715,-125,4,1,0,100,0,0
277147,-125,4,1,0,60,0,0
278293,-125,4,1,0,90,0,0
278492,-125,4,1,0,90,0,1
281682,-125,4,1,0,90,0,0
281881,-125,4,1,0,60,0,0
284672,-125,4,1,0,100,0,0
284871,-125,4,1,0,100,0,1
286466,-125,4,1,0,100,0,0

[HitObjects]
155,73,1018,5,4,0:0:0:0:
330,134,2662,1,8,0:0:0:0:
238,135,4257,1,8,0:0:0:0:
238,135,5852,1,8,0:0:0:0:
183,196,7397,1,0,0:0:0:0:
273,157,8194,1,8,0:0:0:0:
295,200,8593,1,8,0:0:0:0:
295,200,8991,1,0,0:0:0:0:
209,148,9789,1,8,0:0:0:0:
328,117,10187,1,8,0:0:0:0:
328,117,10586,1,8,0:0:0:0:
399,197,11284,1,8,0:0:0:0:
392,198,11782,1,8,0:0:0:0:
392,198,12181,1,8,0:0:0:0:
392,198,12978,1,8,0:0:0:0:
392,198,13377,1,8,0:0:0:0:
392,198,13775,1,4,0:0:0:0:
195,164,14373,1,0,0:0:0:0:
229,215,14971,1,0,0:0:0:0:
312,128,15370,1,0,0:0:0:0:
319,148,15968,1,0,0:0:0:0:
356,179,16566,1,0,0:0:0:0:
272,222,16965,1,8,0:0:0:0:
272,222,17363,1,8,0:0:0:0:
272,222,17762,1,8,0:0:0:0:
272,222,18061,1,8,0:0:0:0:
284,146,18360,1,8,0:0:0:0:
143,143,18559,1,8,0:0:0:0:
245,101,18958,1,8,0:0:0:0:
362,175,19357,1,8,0:0:0:0:
271,232,19656,1,8,0:0:0:0:
342,228,20154,1,0,0:0:0:0:
342,228,20752,1,0,0:0:0:0:
295,159,20951,1,8,0:0:0:0:
295,159,21350,1,8,0:0:0:0:
295,159,21749,1,0,0:0:0:0:
345,161,22347,1,0,0:0:0:0:
345,161,22546,1,8,0:0:0:0:
345,161,22945,1,8,0:0:0:0:
202,190,23343,1,8,0:0:0:0:
267,204,23543,1,8,0:0:0:0:
250,96,23742,1,8,0:0:0:0:
250,96,23941,1,8,0:0:0:0:
250,96,24141,1,8,0:0:0:0:
250,96,24440,1,8,0:0:0:0:
250,96,24739,1,8,0:0:0:0:
320,132,24938,1,8,0:0:0:0:
320,132,25137,1,8,0:0:0:0:
320,132,25336,1,8,0:0:0:0:
298,166,25536,1,8,0:0:0:0:
298,166,25735,1,8,0:0:0:0:
298,166,26034,1,8,0:0:0:0:
333,195,26533,1,4,0:0:0:0:
239,146,32912,5,4,0:0:0:0:
178,179,34506,1,8,0:0:0:0:
300,152,34706,1,8,0:0:0:0:
178,179,34905,1,8,0:0:0:0:
300,152,35105,1,8,0:0:0:0:
298,166,35304,1,8,0:0:0:0:
298,166,35603,1,8,0:0:0:0:
333,195,36102,1,4,0:0:0:0:
178,179,37696,1,8,0:0:0:0:
300,152,37896,1,8,0:0:0:0:
178,179,38094,1,8,0:0:0:0:
300,152,38294,1,8,0:0:0:0:
298,166,38493,1,8,0:0:0:0:
298,166,38792,1,8,0:0:0:0:
333,195,39091,1,8,0:0:0:0:
333,195,39290,1,4,0:0:0:0:
358,114,40088,1,8,0:0:0:0:
358,114,40885,1,8,0:0:0:0:
358,114,41682,1,0,0:0:0:0:
256,192,42280,8,0,43277,0:0:0:0:
353,182,44074,5,4,0:0:0:0:
312,154,47263,1,8,0:0:0:0:
312,154,48060,1,8,0:0:0:0:
366,129,48858,1,0,0:0:0:0:
366,129,49256,1,0,0:0:0:0:
366,129,49655,1,8,0:0:0:0:
241,177,50452,1,4,0:0:0:0:
271,210,50851,1,8,0:0:0:0:
271,210,51050,1,0,0:0:0:0:
257,244,51250,1,8,0:0:0:0:
257,244,51648,1,8,0:0:0:0:
212,194,52047,1,8,0:0:0:0:
214,185,52446,1,8,0:0:0:0:
214,185,52645,1,0,0:0:0:0:
214,185,52844,1,8,0:0:0:0:
214,185,53044,1,8,0:0:0:0:
214,185,53243,1,0,0:0:0:0:
176,245,53642,1,0,0:0:0:0:
268,174,54040,1,8,0:0:0:0:
268,174,54240,1,0,0:0:0:0:
268,174,54439,1,8,0:0:0:0:
268,174,54838,1,8,0:0:0:0:
265,217,55336,1,8,0:0:0:0:
265,217,55535,1,8,0:0:0:0:
265,217,55735,1,8,0:0:0:0:
300,238,56831,1,4,0:0:0:0:
271,210,57230,1,8,0:0:0:0:
271,210,57429,1,0,0:0:0:0:
257,244,57629,1,8,0:0:0:0:
257,244,58027,1,8,0:0:0:0:
212,194,58625,1,0,0:0:0:0:
214,185,58825,1,8,0:0:0:0:
214,185,59024,1,0,0:0:0:0:
256,191,59223,1,12,0:0:0:0:
256,191,60020,1,4,0:0:0:0:
256,191,60618,1,4,0:0:0:0:
256,191,61216,1,4,0:0:0:0:
256,191,61715,1,8,0:0:0:0:
256,191,61914,1,8,0:0:0:0:
256,191,62113,1,8,0:0:0:0:
256,191,62412,1,8,0:0:0:0:
281,195,62811,1,8,0:0:0:0:
258,214,63210,1,4,0:0:0:0:
263,197,64804,1,8,0:0:0:0:
263,197,66000,1,0,0:0:0:0:
263,197,66399,1,12,0:0:0:0:
263,197,66598,1,12,0:0:0:0:
256,192,67994,8,0,69190,0:0:0:0:
234,234,69588,5,4,0:0:0:0:
203,200,69987,1,8,0:0:0:0:
203,200,70186,1,0,0:0:0:0:
203,200,70386,1,8,0:0:0:0:
203,200,70784,1,8,0:0:0:0:
203,200,71183,1,0,0:0:0:0:
203,200,71582,1,8,0:0:0:0:
203,200,71781,1,0,0:0:0:0:
203,200,71980,1,8,0:0:0:0:
203,200,72379,1,8,0:0:0:0:
203,200,72578,1,0,0:0:0:0:
203,200,72778,1,8,0:0:0:0:
203,200,73276,1,0,0:0:0:0:
203,200,73475,1,8,0:0:0:0:
203,200,73974,1,8,0:0:0:0:
203,200,74373,1,0,0:0:0:0:
203,200,74771,1,8,0:0:0:0:
203,200,74971,1,8,0:0:0:0:
203,200,75170,1,8,0:0:0:0:
203,200,75569,1,8,0:0:0:0:
203,200,75967,1,4,0:0:0:0:
262,194,76366,1,8,0:0:0:0:
262,194,76565,1,0,0:0:0:0:
262,194,76765,1,8,0:0:0:0:
262,194,77562,1,4,0:0:0:0:
257,226,77961,1,8,0:0:0:0:
257,226,78160,1,0,0:0:0:0:
257,226,78359,1,8,0:0:0:0:
257,226,79157,1,4,0:0:0:0:
257,226,79456,1,8,0:0:0:0:
257,226,79655,1,8,0:0:0:0:
257,226,79854,1,0,0:0:0:0:
257,226,80353,1,8,0:0:0:0:
257,226,80751,1,12,0:0:0:0:
257,226,81250,1,0,0:0:0:0:
257,226,81549,1,8,0:0:0:0:
257,226,81947,1,8,0:0:0:0:
257,226,82347,1,4,0:0:0:0:
289,177,82845,1,0,0:0:0:0:
289,177,83044,1,0,0:0:0:0:
289,177,83343,1,8,0:0:0:0:
289,177,83842,1,8,0:0:0:0:
351,189,84539,1,8,0:0:0:0:
126,268,84739,1,0,0:0:0:0:
126,268,85038,1,8,0:0:0:0:
258,275,85237,1,0,0:0:0:0:
258,275,85436,1,0,0:0:0:0:
258,275,85735,1,8,0:0:0:0:
258,275,86234,1,8,0:0:0:0:
258,275,86931,1,8,0:0:0:0:
257,226,87131,1,4,0:0:0:0:
289,177,87629,1,0,0:0:0:0:
289,177,87828,1,0,0:0:0:0:
289,177,88127,1,8,0:0:0:0:
289,177,88626,1,8,0:0:0:0:
351,189,89323,1,8,0:0:0:0:
126,268,89523,1,0,0:0:0:0:
126,268,89822,1,8,0:0:0:0:
258,275,90021,1,0,0:0:0:0:
258,275,90220,1,0,0:0:0:0:
258,275,90420,1,12,0:0:0:0:
337,156,90719,1,12,0:0:0:0:
287,177,91915,1,8,0:0:0:0:
287,177,92114,1,8,0:0:0:0:
287,177,92313,1,8,0:0:0:0:
287,177,92513,1,8,0:0:0:0:
287,177,92712,1,8,0:0:0:0:
287,177,93011,1,8,0:0:0:0:
287,177,93310,1,8,0:0:0:0:
287,177,93509,1,8,0:0:0:0:
287,177,93708,1,8,0:0:0:0:
287,177,93907,1,8,0:0:0:0:
287,177,94107,1,8,0:0:0:0:
287,177,94306,1,8,0:0:0:0:
287,177,94605,1,8,0:0:0:0:
251,221,95104,1,4,0:0:0:0:
273,198,98293,1,4,0:0:0:0:
207,221,98692,1,0,0:0:0:0:
207,221,99091,1,0,0:0:0:0:
207,221,99489,1,0,0:0:0:0:
207,221,99888,1,8,0:0:0:0:
207,221,100087,1,0,0:0:0:0:
207,221,100287,1,8,0:0:0:0:
207,221,100486,1,0,0:0:0:0:
207,221,100685,1,8,0:0:0:0:
239,196,101483,1,4,0:0:0:0:
272,199,101881,1,0,0:0:0:0:
272,199,102081,1,8,0:0:0:0:
377,234,102280,1,0,0:0:0:0:
375,179,102679,1,8,0:0:0:0:
375,179,102878,1,8,0:0:0:0:
271,157,103077,1,0,0:0:0:0:
223,178,103476,1,0,0:0:0:0:
223,178,103675,1,8,0:0:0:0:
223,178,103875,1,8,0:0:0:0:
223,178,104273,1,0,0:0:0:0:
223,178,104473,1,0,0:0:0:0:
223,178,104672,1,8,0:0:0:0:
223,178,105071,1,0,0:0:0:0:
223,178,105270,1,8,0:0:0:0:
223,178,105469,1,0,0:0:0:0:
223,178,105868,1,8,0:0:0:0:
223,178,106067,1,8,0:0:0:0:
223,178,106267,1,4,0:0:0:0:
223,178,106715,1,4,0:0:0:0:
293,168,107064,1,4,0:0:0:0:
269,240,107861,1,4,0:0:0:0:
200,231,108260,1,0,0:0:0:0:
233,145,108459,1,8,0:0:0:0:
327,234,108659,1,0,0:0:0:0:
347,189,109057,1,8,0:0:0:0:
347,189,109257,1,8,0:0:0:0:
347,189,109456,1,0,0:0:0:0:
347,189,109855,1,0,0:0:0:0:
347,189,110054,1,8,0:0:0:0:
347,189,110253,1,0,0:0:0:0:
347,189,110453,1,0,0:0:0:0:
347,189,110652,1,8,0:0:0:0:
347,189,111051,1,12,0:0:0:0:
347,189,111449,1,0,0:0:0:0:
347,189,111848,1,12,0:0:0:0:
347,189,112247,1,8,0:0:0:0:
347,189,112446,1,8,0:0:0:0:
310,190,112845,1,8,0:0:0:0:
310,190,113044,1,0,0:0:0:0:
310,190,113343,1,0,0:0:0:0:
228,178,113543,1,0,0:0:0:0:
228,178,113842,1,8,0:0:0:0:
292,116,114240,1,12,0:0:0:0:
314,169,114838,1,8,0:0:0:0:
314,169,115038,1,0,0:0:0:0:
314,214,115436,1,0,0:0:0:0:
314,214,115636,1,8,0:0:0:0:
235,155,115835,1,0,0:0:0:0:
235,155,116234,1,8,0:0:0:0:
247,219,116433,1,0,0:0:0:0:
247,219,116632,1,8,0:0:0:0:
247,219,117031,1,8,0:0:0:0:
247,219,117230,1,8,0:0:0:0:
247,219,117430,1,0,0:0:0:0:
247,219,117828,1,0,0:0:0:0:
247,219,118227,1,0,0:0:0:0:
247,190,118426,1,0,0:0:0:0:
280,166,118626,1,8,0:0:0:0:
280,166,119024,1,8,0:0:0:0:
268,201,119622,1,8,0:0:0:0:
268,201,119822,1,0,0:0:0:0:
230,212,120220,1,8,0:0:0:0:
284,215,120619,1,4,0:0:0:0:
226,249,121018,1,8,0:0:0:0:
183,242,121217,1,0,0:0:0:0:
183,242,121416,1,8,0:0:0:0:
183,242,121616,1,0,0:0:0:0:
196,179,121815,1,8,0:0:0:0:
217,181,122214,1,8,0:0:0:0:
268,188,122413,1,8,0:0:0:0:
268,188,122612,1,0,0:0:0:0:
268,230,122812,1,0,0:0:0:0:
268,230,123011,1,8,0:0:0:0:
275,148,123410,1,8,0:0:0:0:
315,227,123609,1,0,0:0:0:0:
315,227,123808,1,8,0:0:0:0:
315,227,124107,1,8,0:0:0:0:
315,227,124406,1,8,0:0:0:0:
315,227,124705,1,8,0:0:0:0:
315,227,125004,1,8,0:0:0:0:
315,227,125503,1,8,0:0:0:0:
307,225,125702,1,8,0:0:0:0:
307,225,125901,1,8,0:0:0:0:
307,225,126200,1,0,0:0:0:0:
307,225,126599,1,8,0:0:0:0:
307,225,126998,1,4,0:0:0:0:
246,187,127795,1,8,0:0:0:0:
246,187,128592,1,8,0:0:0:0:
246,187,129390,1,0,0:0:0:0:
246,187,129988,1,0,0:0:0:0:
246,187,130187,1,8,0:0:0:0:
246,187,130984,1,8,0:0:0:0:
246,187,131782,1,8,0:0:0:0:
246,187,131981,1,0,0:0:0:0:
246,187,132380,1,0,0:0:0:0:
246,187,132579,1,12,0:0:0:0:
260,192,135768,1,4,0:0:0:0:
264,197,136167,1,8,0:0:0:0:
264,197,136366,1,0,0:0:0:0:
264,197,136565,1,8,0:0:0:0:
264,197,136765,1,0,0:0:0:0:
264,197,136964,1,8,0:0:0:0:
264,197,137363,1,8,0:0:0:0:
264,197,137562,1,0,0:0:0:0:
264,197,137761,1,8,0:0:0:0:
247,213,137961,1,8,0:0:0:0:
247,213,138160,1,0,0:0:0:0:
256,208,138957,1,4,0:0:0:0:
256,208,139256,1,0,0:0:0:0:
256,208,139555,1,0,0:0:0:0:
249,210,139854,1,8,0:0:0:0:
249,210,140054,1,8,0:0:0:0:
256,208,140253,1,8,0:0:0:0:
249,203,140552,1,0,0:0:0:0:
249,203,140851,1,0,0:0:0:0:
249,203,141150,1,0,0:0:0:0:
249,203,141349,1,8,0:0:0:0:
249,203,141549,1,8,0:0:0:0:
249,203,141748,1,8,0:0:0:0:
260,192,142147,1,4,0:0:0:0:
264,197,142546,1,8,0:0:0:0:
264,197,142745,1,0,0:0:0:0:
264,197,142944,1,8,0:0:0:0:
264,197,143144,1,0,0:0:0:0:
264,197,143343,1,8,0:0:0:0:
264,197,143742,1,8,0:0:0:0:
264,197,143941,1,0,0:0:0:0:
264,197,144140,1,8,0:0:0:0:
247,213,144340,1,8,0:0:0:0:
247,213,144539,1,8,0:0:0:0:
254,199,145336,1,4,0:0:0:0:
254,199,145635,1,0,0:0:0:0:
254,199,145934,1,0,0:0:0:0:
254,199,146133,1,8,0:0:0:0:
254,199,146532,1,0,0:0:0:0:
254,199,146731,1,0,0:0:0:0:
254,199,146931,1,0,0:0:0:0:
254,199,147230,1,0,0:0:0:0:
254,199,147529,1,0,0:0:0:0:
246,194,147728,1,12,0:0:0:0:
246,194,148127,1,12,0:0:0:0:
246,194,148525,1,4,0:0:0:0:
252,198,148824,1,0,0:0:0:0:
252,198,149123,1,0,0:0:0:0:
252,198,149323,1,0,0:0:0:0:
252,198,149622,1,0,0:0:0:0:
178,179,150120,1,8,0:0:0:0:
300,152,150320,1,8,0:0:0:0:
178,179,150519,1,8,0:0:0:0:
300,152,150719,1,8,0:0:0:0:
298,166,150918,1,8,0:0:0:0:
298,166,151217,1,8,0:0:0:0:
333,195,151716,1,4,0:0:0:0:
252,198,152014,1,0,0:0:0:0:
252,198,152313,1,0,0:0:0:0:
252,198,152513,1,0,0:0:0:0:
252,198,152812,1,0,0:0:0:0:
178,179,153309,1,8,0:0:0:0:
300,152,153509,1,8,0:0:0:0:
178,179,153708,1,8,0:0:0:0:
300,152,153908,1,8,0:0:0:0:
298,166,154107,1,8,0:0:0:0:
298,166,154406,1,8,0:0:0:0:
333,195,154705,1,8,0:0:0:0:
333,195,154905,1,4,0:0:0:0:
272,222,158093,1,8,0:0:0:0:
272,222,158491,1,8,0:0:0:0:
272,222,158890,1,8,0:0:0:0:
272,222,159189,1,8,0:0:0:0:
284,146,159488,1,8,0:0:0:0:
143,143,159687,1,8,0:0:0:0:
245,101,160086,1,8,0:0:0:0:
362,175,160485,1,8,0:0:0:0:
271,232,160784,1,8,0:0:0:0:
175,236,161283,1,4,0:0:0:0:
285,205,162878,1,8,0:0:0:0:
150,239,164472,1,8,0:0:0:0:
464,369,166067,1,8,0:0:0:0:
254,244,166864,1,4,0:0:0:0:
254,244,167163,1,4,0:0:0:0:
254,244,167462,1,12,0:0:0:0:
254,244,167662,1,4,0:0:0:0:
226,219,169256,1,8,0:0:0:0:
254,215,170452,1,0,0:0:0:0:
284,262,170851,1,12,0:0:0:0:
284,262,171050,1,12,0:0:0:0:
244,184,172446,1,8,0:0:0:0:
244,184,172745,1,0,0:0:0:0:
244,184,172994,1,0,0:0:0:0:
227,207,173243,1,0,0:0:0:0:
227,207,173542,1,0,0:0:0:0:
234,234,174040,1,4,0:0:0:0:
203,200,174439,1,8,0:0:0:0:
203,200,174638,1,0,0:0:0:0:
203,200,174838,1,8,0:0:0:0:
203,200,175236,1,8,0:0:0:0:
203,200,175635,1,0,0:0:0:0:
203,200,176034,1,8,0:0:0:0:
203,200,176233,1,0,0:0:0:0:
203,200,176432,1,8,0:0:0:0:
203,200,176831,1,8,0:0:0:0:
203,200,177030,1,0,0:0:0:0:
203,200,177230,1,8,0:0:0:0:
203,200,177728,1,0,0:0:0:0:
203,200,177927,1,8,0:0:0:0:
203,200,178426,1,8,0:0:0:0:
203,200,178825,1,0,0:0:0:0:
203,200,179223,1,8,0:0:0:0:
203,200,179423,1,8,0:0:0:0:
203,200,179622,1,8,0:0:0:0:
203,200,180021,1,8,0:0:0:0:
203,200,180419,1,4,0:0:0:0:
262,194,180818,1,8,0:0:0:0:
262,194,181017,1,0,0:0:0:0:
262,194,181217,1,8,0:0:0:0:
262,194,182014,1,4,0:0:0:0:
257,226,182413,1,8,0:0:0:0:
257,226,182612,1,0,0:0:0:0:
257,226,182811,1,8,0:0:0:0:
257,226,183609,1,4,0:0:0:0:
257,226,183908,1,8,0:0:0:0:
257,226,184107,1,8,0:0:0:0:
257,226,184306,1,0,0:0:0:0:
257,226,184805,1,8,0:0:0:0:
257,226,185203,1,12,0:0:0:0:
257,226,185702,1,0,0:0:0:0:
257,226,186001,1,8,0:0:0:0:
257,226,186399,1,8,0:0:0:0:
257,226,186799,1,4,0:0:0:0:
233,171,187296,1,0,0:0:0:0:
233,171,187994,1,0,0:0:0:0:
233,171,188392,1,8,0:0:0:0:
284,166,189090,1,0,0:0:0:0:
288,171,189588,1,8,0:0:0:0:
284,166,189987,1,0,0:0:0:0:
284,166,190685,1,0,0:0:0:0:
284,166,191183,1,0,0:0:0:0:
359,181,191582,1,0,0:0:0:0:
294,183,192379,1,12,0:0:0:0:
352,182,192878,1,0,0:0:0:0:
229,172,193276,1,0,0:0:0:0:
352,182,193775,1,0,0:0:0:0:
229,172,194074,1,0,0:0:0:0:
229,172,194373,1,0,0:0:0:0:
229,172,195270,1,0,0:0:0:0:
229,172,196366,1,0,0:0:0:0:
229,172,196765,1,0,0:0:0:0:
229,172,197163,1,0,0:0:0:0:
229,172,197562,1,0,0:0:0:0:
198,127,197961,1,12,0:0:0:0:
226,234,199555,1,8,0:0:0:0:
226,234,199755,1,8,0:0:0:0:
226,234,199954,1,8,0:0:0:0:
226,234,200153,1,8,0:0:0:0:
226,234,200353,1,8,0:0:0:0:
226,234,200652,1,8,0:0:0:0:
226,234,201150,1,4,0:0:0:0:
170,249,204339,1,8,0:0:0:0:
170,249,205137,1,8,0:0:0:0:
170,249,205934,1,8,0:0:0:0:
170,249,207529,1,4,0:0:0:0:
175,235,207927,1,8,0:0:0:0:
175,235,208326,1,8,0:0:0:0:
254,193,208525,1,0,0:0:0:0:
254,193,208725,1,8,0:0:0:0:
254,193,208924,1,8,0:0:0:0:
254,193,209123,1,0,0:0:0:0:
263,192,209522,1,0,0:0:0:0:
263,192,209921,1,8,0:0:0:0:
263,192,210120,1,8,0:0:0:0:
263,192,210319,1,0,0:0:0:0:
263,192,210519,1,8,0:0:0:0:
263,192,210718,1,0,0:0:0:0:
263,192,211117,1,8,0:0:0:0:
263,192,211515,1,8,0:0:0:0:
263,192,211914,1,0,0:0:0:0:
263,192,212113,1,8,0:0:0:0:
263,192,212313,1,8,0:0:0:0:
263,192,212512,1,8,0:0:0:0:
263,192,212711,1,0,0:0:0:0:
263,192,213110,1,8,0:0:0:0:
263,192,213309,1,0,0:0:0:0:
263,192,213509,1,8,0:0:0:0:
263,192,213907,1,4,0:0:0:0:
263,192,214705,1,8,0:0:0:0:
263,192,214904,1,0,0:0:0:0:
263,192,215103,1,8,0:0:0:0:
263,192,215303,1,0,0:0:0:0:
263,192,215502,1,8,0:0:0:0:
263,192,215901,1,0,0:0:0:0:
263,192,216299,1,8,0:0:0:0:
263,192,216499,1,0,0:0:0:0:
263,192,216698,1,8,0:0:0:0:
263,192,217097,1,12,0:0:0:0:
263,192,217396,1,4,0:0:0:0:
263,192,217894,1,4,0:0:0:0:
258,227,218193,1,4,0:0:0:0:
208,190,218691,1,8,0:0:0:0:
208,190,218891,1,8,0:0:0:0:
208,190,219090,1,8,0:0:0:0:
208,190,219289,1,8,0:0:0:0:
208,190,219489,1,8,0:0:0:0:
208,190,219788,1,8,0:0:0:0:
170,249,220485,1,4,0:0:0:0:
175,235,221083,1,8,0:0:0:0:
254,193,221282,1,0,0:0:0:0:
254,193,221482,1,8,0:0:0:0:
254,193,221880,1,0,0:0:0:0:
263,192,222279,1,0,0:0:0:0:
263,192,222678,1,8,0:0:0:0:
263,192,222877,1,8,0:0:0:0:
263,192,223076,1,0,0:0:0:0:
263,192,223276,1,8,0:0:0:0:
263,192,223475,1,0,0:0:0:0:
263,192,223874,1,8,0:0:0:0:
263,192,224272,1,8,0:0:0:0:
263,192,224671,1,0,0:0:0:0:
263,192,224870,1,8,0:0:0:0:
263,192,225070,1,8,0:0:0:0:
263,192,225269,1,8,0:0:0:0:
263,192,225468,1,0,0:0:0:0:
263,192,225867,1,8,0:0:0:0:
263,192,226664,1,4,0:0:0:0:
263,192,227063,1,8,0:0:0:0:
263,192,227262,1,8,0:0:0:0:
263,192,227462,1,8,0:0:0:0:
263,192,227661,1,0,0:0:0:0:
263,192,227860,1,8,0:0:0:0:
263,192,228259,1,8,0:0:0:0:
263,192,228459,1,0,0:0:0:0:
263,192,228658,1,8,0:0:0:0:
263,192,228857,1,0,0:0:0:0:
263,192,229056,1,8,0:0:0:0:
263,192,229456,1,8,0:0:0:0:
263,192,229854,1,4,0:0:0:0:
263,192,230054,1,8,0:0:0:0:
263,192,230253,1,0,0:0:0:0:
263,192,230652,1,0,0:0:0:0:
263,192,230851,1,8,0:0:0:0:
263,192,231050,1,8,0:0:0:0:
263,192,231449,1,4,0:0:0:0:
263,192,231648,1,8,0:0:0:0:
263,192,231848,1,0,0:0:0:0:
263,192,232246,1,8,0:0:0:0:
263,192,232446,1,8,0:0:0:0:
263,192,232645,1,0,0:0:0:0:
263,192,233044,1,4,0:0:0:0:
263,201,233243,1,8,0:0:0:0:
263,201,233442,1,0,0:0:0:0:
263,201,233642,1,8,0:0:0:0:
263,201,233841,1,0,0:0:0:0:
322,237,234240,1,0,0:0:0:0:
314,218,234638,1,4,0:0:0:0:
314,218,234838,1,8,0:0:0:0:
314,218,235037,1,0,0:0:0:0:
314,218,235236,1,8,0:0:0:0:
314,218,235436,1,4,0:0:0:0:
314,218,235735,1,4,0:0:0:0:
314,218,236034,1,4,0:0:0:0:
314,218,236233,1,12,0:0:0:0:
314,218,236831,1,8,0:0:0:0:
314,218,237030,1,0,0:0:0:0:
314,218,237429,1,8,0:0:0:0:
314,218,237828,1,0,0:0:0:0:
314,218,238027,1,8,0:0:0:0:
314,218,238326,1,8,0:0:0:0:
314,218,238625,1,0,0:0:0:0:
314,218,238824,1,8,0:0:0:0:
314,218,239024,1,8,0:0:0:0:
314,218,239422,1,8,0:0:0:0:
314,218,239622,1,8,0:0:0:0:
314,218,239921,1,8,0:0:0:0:
314,218,240220,1,8,0:0:0:0:
314,218,240419,1,0,0:0:0:0:
314,218,240618,1,8,0:0:0:0:
314,218,241017,1,8,0:0:0:0:
314,218,241316,1,8,0:0:0:0:
314,218,241615,1,8,0:0:0:0:
314,218,241914,1,8,0:0:0:0:
314,218,242213,1,0,0:0:0:0:
314,218,242612,1,4,0:0:0:0:
314,218,243210,1,8,0:0:0:0:
314,218,243409,1,0,0:0:0:0:
314,218,243808,1,8,0:0:0:0:
314,218,244206,1,8,0:0:0:0:
314,218,244505,1,8,0:0:0:0:
314,218,244804,1,8,0:0:0:0:
314,218,245103,1,8,0:0:0:0:
314,218,245801,1,8,0:0:0:0:
314,218,246000,1,0,0:0:0:0:
314,218,246200,1,8,0:0:0:0:
314,218,246399,1,0,0:0:0:0:
314,218,246598,1,8,0:0:0:0:
314,218,246798,1,0,0:0:0:0:
306,205,246997,1,8,0:0:0:0:
306,205,247397,1,8,0:0:0:0:
306,205,247696,1,8,0:0:0:0:
306,205,247995,1,8,0:0:0:0:
306,205,248294,1,8,0:0:0:0:
306,205,248792,1,8,0:0:0:0:
306,205,249091,1,8,0:0:0:0:
306,199,249390,1,8,0:0:0:0:
306,199,249689,1,8,0:0:0:0:
306,199,250187,1,8,0:0:0:0:
306,199,250486,1,8,0:0:0:0:
306,199,250785,1,8,0:0:0:0:
306,199,251084,1,8,0:0:0:0:
306,199,251583,1,8,0:0:0:0:
306,199,251882,1,8,0:0:0:0:
306,199,252181,1,8,0:0:0:0:
306,199,252480,1,8,0:0:0:0:
306,199,252978,1,4,0:0:0:0:
310,198,254572,1,4,0:0:0:0:
310,198,256167,1,4,0:0:0:0:
153,279,259356,1,8,0:0:0:0:
153,279,260154,1,8,0:0:0:0:
223,217,262147,1,8,0:0:0:0:
259,272,262546,1,4,0:0:0:0:
260,237,262944,1,8,0:0:0:0:
285,198,263144,1,8,0:0:0:0:
285,198,263343,1,0,0:0:0:0:
285,198,263542,1,8,0:0:0:0:
285,198,263742,1,0,0:0:0:0:
285,198,264140,1,8,0:0:0:0:
294,203,264340,1,0,0:0:0:0:
294,203,264539,1,8,0:0:0:0:
294,203,264738,1,8,0:0:0:0:
294,203,264938,1,0,0:0:0:0:
301,206,265137,1,0,0:0:0:0:
301,206,265336,1,8,0:0:0:0:
301,206,265735,1,0,0:0:0:0:
301,206,266134,1,8,0:0:0:0:
301,206,266333,1,8,0:0:0:0:
301,206,266532,1,0,0:0:0:0:
301,206,266732,1,8,0:0:0:0:
301,206,266931,1,8,0:0:0:0:
301,206,267130,1,0,0:0:0:0:
301,206,267429,1,8,0:0:0:0:
301,206,267629,1,8,0:0:0:0:
301,206,267828,1,8,0:0:0:0:
301,206,268027,1,8,0:0:0:0:
301,206,268924,1,0,0:0:0:0:
301,206,269323,1,0,0:0:0:0:
301,206,269522,1,8,0:0:0:0:
301,206,269722,1,8,0:0:0:0:
301,206,269921,1,0,0:0:0:0:
301,206,270120,1,8,0:0:0:0:
301,206,270320,1,8,0:0:0:0:
301,206,270718,1,0,0:0:0:0:
301,206,270918,1,8,0:0:0:0:
301,206,271117,1,8,0:0:0:0:
301,206,271316,1,0,0:0:0:0:
301,206,271516,1,8,0:0:0:0:
301,206,271715,1,0,0:0:0:0:
301,206,272114,1,8,0:0:0:0:
301,206,272413,1,8,0:0:0:0:
236,245,272712,1,0,0:0:0:0:
236,245,273011,1,0,0:0:0:0:
236,245,273310,1,8,0:0:0:0:
236,245,273609,1,8,0:0:0:0:
236,245,273908,1,0,0:0:0:0:
236,245,274506,1,8,0:0:0:0:
236,245,274705,1,8,0:0:0:0:
236,245,274904,1,0,0:0:0:0:
236,245,275104,1,8,0:0:0:0:
236,245,275303,1,0,0:0:0:0:
236,245,275702,1,8,0:0:0:0:
236,245,275901,1,8,0:0:0:0:
236,245,276100,1,0,0:0:0:0:
236,245,276300,1,8,0:0:0:0:
236,245,276499,1,8,0:0:0:0:
236,245,276898,1,4,0:0:0:0:
236,245,278492,1,8,0:0:0:0:
236,245,278692,1,8,0:0:0:0:
236,245,278891,1,8,0:0:0:0:
236,245,279090,1,8,0:0:0:0:
236,245,279290,1,8,0:0:0:0:
236,245,279589,1,8,0:0:0:0:
236,245,279888,1,0,0:0:0:0:
236,245,280087,1,8,0:0:0:0:
236,245,280286,1,8,0:0:0:0:
236,245,280486,1,8,0:0:0:0:
236,245,280685,1,8,0:0:0:0:
236,245,280884,1,8,0:0:0:0:
236,245,281183,1,8,0:0:0:0:
236,245,281482,1,8,0:0:0:0:
236,245,281682,1,4,0:0:0:0:
256,192,284871,2,4,L|320:192,16,40
