osu file format v14

[General]
AudioFilename: audio.mp3
AudioLeadIn: 0
PreviewTime: 206816
Countdown: 0
SampleSet: Normal
StackLeniency: 0.7
Mode: 3
LetterboxInBreaks: 0
SpecialStyle: 0
WidescreenStoryboard: 0

[Editor]
Bookmarks: 7401,13779,23347,26537,32916,44078,50457,63215,69593,82351,91919,95108,101487,114244,127002,132583,142151,148530,154909,161288,167666,174045,186803,197965,199560,200656,206736,220291,229859,236238,245806,252982,260955,268929,276902,281736,284876
DistanceSpacing: 0.3
BeatDivisor: 7
GridSize: 16
TimelineZoom: 3.999998

[Metadata]
Title:Xeroa ("preconnaiXance" Long ver.)
TitleUnicode:Xéroa ("préconnaiXance" Long ver.)
Artist:Camellia
ArtistUnicode:かめりあ
Creator:Abraxos
Version:precogniXance
Source:SOUND VOLTEX IV HEAVENLY HAVEN
Tags:Electronic Video Game Instrumental cametek kamelcamellia xroniàl xéro xronial xero かめるかめりあSDVX bemani konami The 7th KAC Original Song Contest オリジナル楽曲コンテスト4 大箭将也3 III GRAVITY WARS コナステPONY CANYON speedcore fa featured artist
BeatmapID:2705948
BeatmapSetID:1305067

[Difficulty]
HPDrainRate:8.3
CircleSize:4
OverallDifficulty:7.3
ApproachRate:5
SliderMultiplier:1.4
SliderTickRate:1

[Events]
//Background and Video events
0,0,"81990631_p0.jpg",0,0
//Break Periods
2,155189,156978
2,201434,203224
2,256451,258240
//Storyboard Layer 0 (Background)
//Storyboard Layer 1 (Fail)
//Storyboard Layer 2 (Pass)
//Storyboard Layer 3 (Foreground)
//Storyboard Layer 4 (Overlay)
//Storyboard Sound Samples

[TimingPoints]
1102,199.335548172757,4,1,1,45,1,0

[HitObjects]
320,192,1102,5,0,0:0:0:0:
448,192,1102,1,0,0:0:0:0:
64,192,1102,1,0,0:0:0:0:
192,192,1181,1,0,0:0:0:0:
192,192,2696,1,0,0:0:0:0:
448,192,2753,1,0,0:0:0:0:
320,192,4291,1,0,0:0:0:0:
448,192,4341,1,0,0:0:0:0:
448,192,5886,1,0,0:0:0:0:
64,192,5935,1,0,0:0:0:0:
448,192,7480,1,0,0:0:0:0:
64,192,7480,1,0,0:0:0:0:
192,192,7530,1,0,0:0:0:0:
192,192,7680,1,0,0:0:0:0:
320,192,7779,1,0,0:0:0:0:
448,192,7979,1,0,0:0:0:0:
320,192,8078,1,0,0:0:0:0:
192,192,8178,1,0,0:0:0:0:
320,192,8228,1,0,0:0:0:0:
448,192,8278,1,0,0:0:0:0:
192,192,8477,1,0,0:0:0:0:
320,192,8527,1,0,0:0:0:0:
448,192,8577,1,0,0:0:0:0:
448,192,8676,1,0,0:0:0:0:
320,192,8776,1,0,0:0:0:0:
192,192,8876,1,0,0:0:0:0:
64,192,8975,1,0,0:0:0:0:
192,192,9075,128,0,9125:0:0:0:0:
448,192,9125,128,0,9175:0:0:0:0:
192,192,9274,1,0,0:0:0:0:
320,192,9374,1,0,0:0:0:0:
448,192,9573,1,0,0:0:0:0:
320,192,9673,1,0,0:0:0:0:
192,192,9773,1,0,0:0:0:0:
320,192,9822,1,0,0:0:0:0:
448,192,9872,1,0,0:0:0:0:
192,192,10072,1,0,0:0:0:0:
320,192,10121,1,0,0:0:0:0:
448,192,10171,1,0,0:0:0:0:
448,192,10271,1,0,0:0:0:0:
192,192,10371,1,0,0:0:0:0:
320,192,10470,1,0,0:0:0:0:
64,192,10570,1,0,0:0:0:0:
320,192,10670,128,0,10727:0:0:0:0:
448,192,10719,128,0,10769:0:0:0:0:
448,192,10869,1,0,0:0:0:0:
64,192,10969,1,0,0:0:0:0:
192,192,11168,1,0,0:0:0:0:
320,192,11367,1,0,0:0:0:0:
448,192,11567,1,0,0:0:0:0:
320,192,11666,1,0,0:0:0:0:
448,192,11866,1,0,0:0:0:0:
64,192,12015,1,0,0:0:0:0:
192,192,12165,1,0,0:0:0:0:
448,192,12264,128,0,12331:0:0:0:0:
64,192,12314,128,0,12364:0:0:0:0:
192,192,12464,1,0,0:0:0:0:
448,192,12563,1,0,0:0:0:0:
64,192,12763,1,0,0:0:0:0:
320,192,12862,1,0,0:0:0:0:
448,192,12962,1,0,0:0:0:0:
192,192,13062,1,0,0:0:0:0:
320,192,13211,1,0,0:0:0:0:
64,192,13361,1,0,0:0:0:0:
320,192,13460,1,0,0:0:0:0:
192,192,13610,1,0,0:0:0:0:
448,192,13759,128,0,13859:0:0:0:0:
64,192,13859,1,0,0:0:0:0:
192,192,13859,1,0,0:0:0:0:
320,192,13859,1,0,0:0:0:0:
192,192,14258,1,0,0:0:0:0:
320,192,14357,1,0,0:0:0:0:
448,192,14457,1,0,0:0:0:0:
64,192,14656,1,0,0:0:0:0:
192,192,14756,1,0,0:0:0:0:
448,192,14856,1,0,0:0:0:0:
320,192,14955,1,0,0:0:0:0:
448,192,15055,1,0,0:0:0:0:
64,192,15055,1,0,0:0:0:0:
320,192,15254,1,0,0:0:0:0:
192,192,15354,1,0,0:0:0:0:
64,192,15454,1,0,0:0:0:0:
448,192,15653,1,0,0:0:0:0:
320,192,15753,1,0,0:0:0:0:
64,192,15852,1,0,0:0:0:0:
192,192,15952,1,0,0:0:0:0:
320,192,16052,1,0,0:0:0:0:
448,192,16251,1,0,0:0:0:0:
192,192,16450,1,0,0:0:0:0:
320,192,16550,1,0,0:0:0:0:
64,192,16650,1,0,0:0:0:0:
448,192,16650,1,0,0:0:0:0:
320,192,16849,1,0,0:0:0:0:
192,192,16949,1,0,0:0:0:0:
64,192,17048,128,0,17248:0:0:0:0:
192,192,17148,1,0,0:0:0:0:
448,192,17248,128,0,17447:0:0:0:0:
320,192,17347,1,0,0:0:0:0:
64,192,17447,128,0,17646:0:0:0:0:
192,192,17547,1,0,0:0:0:0:
448,192,17646,128,0,17846:0:0:0:0:
320,192,17746,1,0,0:0:0:0:
64,192,17846,128,0,17945:0:0:0:0:
448,192,17945,128,0,18045:0:0:0:0:
64,192,18045,1,0,0:0:0:0:
448,192,18145,128,0,18244:0:0:0:0:
64,192,18244,128,0,18344:0:0:0:0:
448,192,18344,1,0,0:0:0:0:
192,192,18444,1,0,0:0:0:0:
320,192,18543,1,0,0:0:0:0:
448,192,18643,128,0,18842:0:0:0:0:
320,192,18743,1,0,0:0:0:0:
64,192,18842,128,0,19042:0:0:0:0:
192,192,18942,1,0,0:0:0:0:
448,192,19042,128,0,19241:0:0:0:0:
320,192,19141,1,0,0:0:0:0:
64,192,19241,128,0,19440:0:0:0:0:
192,192,19341,1,0,0:0:0:0:
448,192,19440,128,0,19540:0:0:0:0:
64,192,19540,128,0,19640:0:0:0:0:
448,192,19640,1,0,0:0:0:0:
64,192,19739,128,0,19839:0:0:0:0:
448,192,19839,128,0,19939:0:0:0:0:
64,192,19939,1,0,0:0:0:0:
192,192,20038,1,0,0:0:0:0:
320,192,20138,1,0,0:0:0:0:
448,192,20238,128,0,20288:0:0:0:0:
64,192,20437,1,0,0:0:0:0:
192,192,20636,1,0,0:0:0:0:
320,192,20736,1,0,0:0:0:0:
448,192,20836,1,0,0:0:0:0:
64,192,21035,128,0,21135:0:0:0:0:
320,192,21168,128,0,21218:0:0:0:0:
192,192,21301,128,0,21367:0:0:0:0:
448,192,21434,128,0,21484:0:0:0:0:
192,192,21567,128,0,21616:0:0:0:0:
320,192,21633,1,0,0:0:0:0:
64,192,21700,128,0,21766:0:0:0:0:
192,192,21733,1,0,0:0:0:0:
64,192,21832,1,0,0:0:0:0:
448,192,22032,1,0,0:0:0:0:
320,192,22131,1,0,0:0:0:0:
64,192,22231,1,0,0:0:0:0:
192,192,22331,1,0,0:0:0:0:
320,192,22430,1,0,0:0:0:0:
448,192,22630,128,0,22713:0:0:0:0:
64,192,22763,128,0,22846:0:0:0:0:
192,192,22829,1,0,0:0:0:0:
448,192,22896,128,0,22962:0:0:0:0:
320,192,22929,1,0,0:0:0:0:
64,192,23028,128,0,23078:0:0:0:0:
448,192,23028,1,0,0:0:0:0:
448,192,23161,128,0,23228:0:0:0:0:
320,192,23228,1,0,0:0:0:0:
64,192,23294,128,0,23377:0:0:0:0:
192,192,23327,1,0,0:0:0:0:
320,192,23427,1,0,0:0:0:0:
64,192,23427,1,0,0:0:0:0:
192,192,23477,1,0,0:0:0:0:
64,192,23527,1,0,0:0:0:0:
192,192,23626,1,0,0:0:0:0:
448,192,23626,1,0,0:0:0:0:
64,192,23676,1,0,0:0:0:0:
320,192,23726,1,0,0:0:0:0:
448,192,23826,1,0,0:0:0:0:
192,192,23826,1,0,0:0:0:0:
320,192,23876,1,0,0:0:0:0:
448,192,23925,1,0,0:0:0:0:
320,192,24025,1,0,0:0:0:0:
64,192,24025,1,0,0:0:0:0:
448,192,24075,1,0,0:0:0:0:
64,192,24125,1,0,0:0:0:0:
192,192,24224,1,0,0:0:0:0:
448,192,24224,1,0,0:0:0:0:
320,192,24274,1,0,0:0:0:0:
448,192,24324,1,0,0:0:0:0:
64,192,24374,1,0,0:0:0:0:
192,192,24424,1,0,0:0:0:0:
320,192,24523,1,0,0:0:0:0:
64,192,24523,1,0,0:0:0:0:
192,192,24573,1,0,0:0:0:0:
64,192,24623,1,0,0:0:0:0:
448,192,24673,1,0,0:0:0:0:
320,192,24723,1,0,0:0:0:0:
192,192,24822,1,0,0:0:0:0:
448,192,24872,1,0,0:0:0:0:
320,192,24922,1,0,0:0:0:0:
64,192,24972,1,0,0:0:0:0:
192,192,25022,1,0,0:0:0:0:
448,192,25022,1,0,0:0:0:0:
320,192,25072,1,0,0:0:0:0:
448,192,25121,1,0,0:0:0:0:
192,192,25221,1,0,0:0:0:0:
64,192,25221,1,0,0:0:0:0:
320,192,25271,1,0,0:0:0:0:
448,192,25321,1,0,0:0:0:0:
64,192,25420,1,0,0:0:0:0:
320,192,25420,1,0,0:0:0:0:
192,192,25470,1,0,0:0:0:0:
64,192,25520,1,0,0:0:0:0:
320,192,25620,1,0,0:0:0:0:
448,192,25620,1,0,0:0:0:0:
192,192,25670,1,0,0:0:0:0:
64,192,25719,1,0,0:0:0:0:
192,192,25819,1,0,0:0:0:0:
448,192,25819,1,0,0:0:0:0:
320,192,25869,1,0,0:0:0:0:
448,192,25919,1,0,0:0:0:0:
64,192,25969,1,0,0:0:0:0:
192,192,26018,1,0,0:0:0:0:
320,192,26118,1,0,0:0:0:0:
64,192,26118,1,0,0:0:0:0:
192,192,26168,1,0,0:0:0:0:
64,192,26218,1,0,0:0:0:0:
448,192,26268,1,0,0:0:0:0:
320,192,26317,1,0,0:0:0:0:
448,192,26417,128,0,26583:0:0:0:0:
320,192,26417,128,0,26583:0:0:0:0:
448,192,26616,1,0,0:0:0:0:
320,192,26616,1,0,0:0:0:0:
192,192,26716,1,0,0:0:0:0:
448,192,26816,1,0,0:0:0:0:
64,192,26915,1,0,0:0:0:0:
320,192,27015,128,0,27065:0:0:0:0:
192,192,27115,1,0,0:0:0:0:
448,192,27214,1,0,0:0:0:0:
64,192,27314,1,0,0:0:0:0:
320,192,27414,128,0,27464:0:0:0:0:
192,192,27513,1,0,0:0:0:0:
448,192,27613,1,0,0:0:0:0:
64,192,27713,1,0,0:0:0:0:
320,192,27812,128,0,27862:0:0:0:0:
192,192,27912,1,0,0:0:0:0:
448,192,28012,1,0,0:0:0:0:
64,192,28111,1,0,0:0:0:0:
320,192,28211,128,0,28261:0:0:0:0:
192,192,28311,1,0,0:0:0:0:
448,192,28410,1,0,0:0:0:0:
64,192,28510,1,0,0:0:0:0:
320,192,28610,128,0,28660:0:0:0:0:
192,192,28709,1,0,0:0:0:0:
448,192,28809,1,0,0:0:0:0:
64,192,28909,1,0,0:0:0:0:
320,192,29008,128,0,29058:0:0:0:0:
192,192,29108,1,0,0:0:0:0:
448,192,29208,1,0,0:0:0:0:
64,192,29307,1,0,0:0:0:0:
320,192,29407,128,0,29457:0:0:0:0:
192,192,29507,1,0,0:0:0:0:
448,192,29606,1,0,0:0:0:0:
64,192,29706,1,0,0:0:0:0:
320,192,29806,128,0,29856:0:0:0:0:
192,192,29905,1,0,0:0:0:0:
448,192,30005,1,0,0:0:0:0:
64,192,30105,1,0,0:0:0:0:
320,192,30204,128,0,30254:0:0:0:0:
192,192,30304,1,0,0:0:0:0:
448,192,30404,1,0,0:0:0:0:
64,192,30503,1,0,0:0:0:0:
320,192,30603,128,0,30653:0:0:0:0:
192,192,30703,1,0,0:0:0:0:
448,192,30802,1,0,0:0:0:0:
64,192,30902,1,0,0:0:0:0:
320,192,31002,128,0,31052:0:0:0:0:
192,192,31101,1,0,0:0:0:0:
448,192,31201,1,0,0:0:0:0:
64,192,31301,1,0,0:0:0:0:
320,192,31401,128,0,31450:0:0:0:0:
192,192,31500,1,0,0:0:0:0:
448,192,31600,1,0,0:0:0:0:
64,192,31700,1,0,0:0:0:0:
320,192,31799,128,0,31849:0:0:0:0:
192,192,31899,1,0,0:0:0:0:
448,192,31999,1,0,0:0:0:0:
64,192,32098,1,0,0:0:0:0:
320,192,32198,128,0,32248:0:0:0:0:
192,192,32298,1,0,0:0:0:0:
448,192,32397,1,0,0:0:0:0:
64,192,32497,1,0,0:0:0:0:
320,192,32597,128,0,32646:0:0:0:0:
192,192,32696,1,0,0:0:0:0:
448,192,32796,1,0,0:0:0:0:
64,192,32896,1,0,0:0:0:0:
64,192,32995,1,0,0:0:0:0:
192,192,32995,1,0,0:0:0:0:
320,192,32995,1,0,0:0:0:0:
192,192,33095,1,0,0:0:0:0:
448,192,33195,1,0,0:0:0:0:
64,192,33294,1,0,0:0:0:0:
192,192,33494,1,0,0:0:0:0:
448,192,33593,1,0,0:0:0:0:
64,192,33693,1,0,0:0:0:0:
192,192,33892,1,0,0:0:0:0:
448,192,33992,1,0,0:0:0:0:
64,192,34092,1,0,0:0:0:0:
192,192,34291,1,0,0:0:0:0:
448,192,34391,1,0,0:0:0:0:
64,192,34490,1,0,0:0:0:0:
448,192,34590,1,0,0:0:0:0:
192,192,34590,1,0,0:0:0:0:
320,192,34640,1,0,0:0:0:0:
448,192,34690,1,0,0:0:0:0:
320,192,34789,1,0,0:0:0:0:
64,192,34789,1,0,0:0:0:0:
192,192,34839,1,0,0:0:0:0:
64,192,34889,1,0,0:0:0:0:
192,192,34989,1,0,0:0:0:0:
448,192,34989,1,0,0:0:0:0:
320,192,35038,1,0,0:0:0:0:
448,192,35088,1,0,0:0:0:0:
320,192,35188,1,0,0:0:0:0:
64,192,35188,1,0,0:0:0:0:
192,192,35238,1,0,0:0:0:0:
64,192,35288,1,0,0:0:0:0:
192,192,35387,1,0,0:0:0:0:
448,192,35387,1,0,0:0:0:0:
320,192,35437,1,0,0:0:0:0:
64,192,35487,1,0,0:0:0:0:
448,192,35487,1,0,0:0:0:0:
192,192,35537,1,0,0:0:0:0:
448,192,35587,1,0,0:0:0:0:
320,192,35686,1,0,0:0:0:0:
64,192,35686,1,0,0:0:0:0:
192,192,35736,1,0,0:0:0:0:
64,192,35786,1,0,0:0:0:0:
448,192,35786,1,0,0:0:0:0:
320,192,35836,1,0,0:0:0:0:
192,192,35886,1,0,0:0:0:0:
448,192,35985,128,0,36035:0:0:0:0:
64,192,35985,128,0,36035:0:0:0:0:
64,192,36185,1,0,0:0:0:0:
192,192,36185,1,0,0:0:0:0:
320,192,36185,1,0,0:0:0:0:
192,192,36284,1,0,0:0:0:0:
448,192,36384,1,0,0:0:0:0:
64,192,36484,1,0,0:0:0:0:
192,192,36683,1,0,0:0:0:0:
448,192,36783,1,0,0:0:0:0:
64,192,36882,1,0,0:0:0:0:
192,192,37082,1,0,0:0:0:0:
448,192,37181,1,0,0:0:0:0:
64,192,37281,1,0,0:0:0:0:
192,192,37480,1,0,0:0:0:0:
448,192,37580,1,0,0:0:0:0:
64,192,37680,1,0,0:0:0:0:
192,192,37779,1,0,0:0:0:0:
448,192,37779,1,0,0:0:0:0:
320,192,37829,1,0,0:0:0:0:
448,192,37879,1,0,0:0:0:0:
320,192,37979,1,0,0:0:0:0:
64,192,37979,1,0,0:0:0:0:
192,192,38028,1,0,0:0:0:0:
64,192,38078,1,0,0:0:0:0:
192,192,38178,1,0,0:0:0:0:
448,192,38178,1,0,0:0:0:0:
320,192,38228,1,0,0:0:0:0:
448,192,38278,1,0,0:0:0:0:
64,192,38377,1,0,0:0:0:0:
320,192,38377,1,0,0:0:0:0:
192,192,38427,1,0,0:0:0:0:
64,192,38477,1,0,0:0:0:0:
192,192,38577,1,0,0:0:0:0:
448,192,38577,1,0,0:0:0:0:
320,192,38626,1,0,0:0:0:0:
192,192,38676,1,0,0:0:0:0:
448,192,38676,1,0,0:0:0:0:
64,192,38726,1,0,0:0:0:0:
448,192,38776,1,0,0:0:0:0:
320,192,38876,1,0,0:0:0:0:
64,192,38876,1,0,0:0:0:0:
192,192,38925,1,0,0:0:0:0:
64,192,38975,1,0,0:0:0:0:
320,192,38975,1,0,0:0:0:0:
448,192,39025,1,0,0:0:0:0:
64,192,39075,1,0,0:0:0:0:
448,192,39175,1,0,0:0:0:0:
320,192,39224,1,0,0:0:0:0:
64,192,39274,1,0,0:0:0:0:
448,192,39274,1,0,0:0:0:0:
192,192,39324,1,0,0:0:0:0:
320,192,39374,1,0,0:0:0:0:
64,192,39374,1,0,0:0:0:0:
64,192,39972,1,0,0:0:0:0:
320,192,40171,1,0,0:0:0:0:
192,192,40200,1,0,0:0:0:0:
64,192,40769,1,0,0:0:0:0:
320,192,40969,1,0,0:0:0:0:
448,192,40994,1,0,0:0:0:0:
192,192,41567,1,0,0:0:0:0:
448,192,41766,1,0,0:0:0:0:
64,192,42376,1,0,0:0:0:0:
192,192,42475,1,0,0:0:0:0:
320,192,42608,1,0,0:0:0:0:
448,192,42763,1,0,0:0:0:0:
64,192,43028,1,0,0:0:0:0:
192,192,43095,1,0,0:0:0:0:
320,192,43311,1,0,0:0:0:0:
448,192,43327,128,0,44158:0:0:0:0:
64,192,44158,128,0,44357:0:0:0:0:
320,192,44158,128,0,44357:0:0:0:0:
192,192,44158,128,0,44258:0:0:0:0:
448,192,44357,128,0,44457:0:0:0:0:
320,192,44457,128,0,44557:0:0:0:0:
448,192,44557,128,0,44656:0:0:0:0:
320,192,44656,128,0,44756:0:0:0:0:
64,192,44756,128,0,44955:0:0:0:0:
448,192,44756,128,0,44955:0:0:0:0:
192,192,44955,128,0,45055:0:0:0:0:
64,192,45055,128,0,45155:0:0:0:0:
192,192,45155,128,0,45254:0:0:0:0:
64,192,45254,128,0,45354:0:0:0:0:
192,192,45354,128,0,45553:0:0:0:0:
448,192,45354,128,0,45753:0:0:0:0:
64,192,45553,128,0,45653:0:0:0:0:
64,192,45753,128,0,45952:0:0:0:0:
320,192,45753,128,0,45952:0:0:0:0:
448,192,45952,128,0,46052:0:0:0:0:
320,192,46052,128,0,46151:0:0:0:0:
448,192,46151,128,0,46251:0:0:0:0:
320,192,46251,128,0,46351:0:0:0:0:
64,192,46351,128,0,46550:0:0:0:0:
448,192,46351,128,0,46550:0:0:0:0:
192,192,46550,128,0,46650:0:0:0:0:
64,192,46650,128,0,46749:0:0:0:0:
192,192,46749,128,0,46849:0:0:0:0:
64,192,46849,128,0,46949:0:0:0:0:
320,192,46949,128,0,47148:0:0:0:0:
192,192,46949,128,0,47148:0:0:0:0:
64,192,47148,128,0,47248:0:0:0:0:
448,192,47148,128,0,47347:0:0:0:0:
192,192,47347,128,0,47447:0:0:0:0:
320,192,47347,128,0,47547:0:0:0:0:
64,192,47347,128,0,47547:0:0:0:0:
448,192,47547,128,0,47646:0:0:0:0:
320,192,47646,128,0,47746:0:0:0:0:
448,192,47746,128,0,47846:0:0:0:0:
320,192,47846,128,0,47945:0:0:0:0:
64,192,47945,128,0,48145:0:0:0:0:
448,192,47945,128,0,48145:0:0:0:0:
320,192,48145,128,0,48244:0:0:0:0:
192,192,48145,128,0,48244:0:0:0:0:
64,192,48244,128,0,48344:0:0:0:0:
192,192,48344,128,0,48444:0:0:0:0:
64,192,48444,128,0,48543:0:0:0:0:
320,192,48543,128,0,48743:0:0:0:0:
192,192,48543,128,0,48743:0:0:0:0:
64,192,48743,128,0,48842:0:0:0:0:
448,192,48743,128,0,48942:0:0:0:0:
192,192,48942,128,0,49042:0:0:0:0:
320,192,49141,1,0,0:0:0:0:
448,192,49341,1,0,0:0:0:0:
64,192,49341,1,0,0:0:0:0:
192,192,49540,1,0,0:0:0:0:
448,192,49739,1,0,0:0:0:0:
64,192,49739,1,0,0:0:0:0:
64,192,49964,128,0,50076:0:0:0:0:
448,192,49976,128,0,50088:0:0:0:0:
192,192,50063,128,0,50288:0:0:0:0:
320,192,50076,128,0,50263:0:0:0:0:
448,192,50238,128,0,50437:0:0:0:0:
64,192,50288,128,0,50412:0:0:0:0:
64,192,50537,1,0,0:0:0:0:
192,192,50537,1,0,0:0:0:0:
192,192,50636,1,0,0:0:0:0:
64,192,50636,1,0,0:0:0:0:
448,192,50736,1,0,0:0:0:0:
320,192,50736,1,0,0:0:0:0:
320,192,50836,1,0,0:0:0:0:
448,192,50836,1,0,0:0:0:0:
192,192,50935,1,0,0:0:0:0:
320,192,50935,1,0,0:0:0:0:
320,192,51035,1,0,0:0:0:0:
192,192,51035,1,0,0:0:0:0:
64,192,51135,1,0,0:0:0:0:
192,192,51135,1,0,0:0:0:0:
448,192,51234,1,0,0:0:0:0:
64,192,51234,1,0,0:0:0:0:
320,192,51284,1,0,0:0:0:0:
192,192,51334,1,0,0:0:0:0:
448,192,51334,1,0,0:0:0:0:
64,192,51434,1,0,0:0:0:0:
192,192,51434,1,0,0:0:0:0:
448,192,51533,1,0,0:0:0:0:
320,192,51533,1,0,0:0:0:0:
320,192,51633,1,0,0:0:0:0:
64,192,51633,1,0,0:0:0:0:
192,192,51683,1,0,0:0:0:0:
448,192,51733,1,0,0:0:0:0:
64,192,51733,1,0,0:0:0:0:
192,192,51832,1,0,0:0:0:0:
320,192,51832,1,0,0:0:0:0:
448,192,51932,1,0,0:0:0:0:
64,192,51932,1,0,0:0:0:0:
192,192,51982,1,0,0:0:0:0:
448,192,52032,1,0,0:0:0:0:
192,192,52082,1,0,0:0:0:0:
64,192,52131,1,0,0:0:0:0:
320,192,52131,1,0,0:0:0:0:
320,192,52231,1,0,0:0:0:0:
64,192,52231,1,0,0:0:0:0:
448,192,52331,1,0,0:0:0:0:
192,192,52331,1,0,0:0:0:0:
192,192,52430,1,0,0:0:0:0:
448,192,52430,1,0,0:0:0:0:
192,192,52530,1,0,0:0:0:0:
320,192,52530,1,0,0:0:0:0:
192,192,52630,1,0,0:0:0:0:
320,192,52630,1,0,0:0:0:0:
320,192,52729,1,0,0:0:0:0:
64,192,52729,1,0,0:0:0:0:
64,192,52829,1,0,0:0:0:0:
320,192,52829,1,0,0:0:0:0:
192,192,52879,1,0,0:0:0:0:
448,192,52929,1,0,0:0:0:0:
64,192,52962,1,0,0:0:0:0:
192,192,52995,1,0,0:0:0:0:
320,192,53028,1,0,0:0:0:0:
448,192,53062,1,0,0:0:0:0:
64,192,53128,1,0,0:0:0:0:
192,192,53128,1,0,0:0:0:0:
448,192,53178,1,0,0:0:0:0:
192,192,53228,1,0,0:0:0:0:
320,192,53228,1,0,0:0:0:0:
320,192,53327,1,0,0:0:0:0:
448,192,53327,1,0,0:0:0:0:
64,192,53427,1,0,0:0:0:0:
192,192,53427,1,0,0:0:0:0:
448,192,53527,128,0,53726:0:0:0:0:
320,192,53527,1,0,0:0:0:0:
320,192,53626,128,0,53726:0:0:0:0:
64,192,53726,1,0,0:0:0:0:
192,192,53726,1,0,0:0:0:0:
448,192,53826,1,0,0:0:0:0:
64,192,53826,1,0,0:0:0:0:
320,192,53925,1,0,0:0:0:0:
192,192,53925,1,0,0:0:0:0:
448,192,54025,1,0,0:0:0:0:
320,192,54025,1,0,0:0:0:0:
64,192,54125,1,0,0:0:0:0:
192,192,54125,1,0,0:0:0:0:
448,192,54224,1,0,0:0:0:0:
64,192,54224,1,0,0:0:0:0:
448,192,54324,1,0,0:0:0:0:
320,192,54324,1,0,0:0:0:0:
320,192,54424,1,0,0:0:0:0:
64,192,54424,1,0,0:0:0:0:
192,192,54474,1,0,0:0:0:0:
448,192,54523,1,0,0:0:0:0:
64,192,54523,1,0,0:0:0:0:
448,192,54623,1,0,0:0:0:0:
192,192,54623,1,0,0:0:0:0:
192,192,54723,1,0,0:0:0:0:
64,192,54723,1,0,0:0:0:0:
64,192,54822,1,0,0:0:0:0:
448,192,54822,1,0,0:0:0:0:
320,192,54872,1,0,0:0:0:0:
448,192,54922,1,0,0:0:0:0:
192,192,54922,1,0,0:0:0:0:
64,192,55022,1,0,0:0:0:0:
192,192,55022,1,0,0:0:0:0:
448,192,55121,1,0,0:0:0:0:
320,192,55121,1,0,0:0:0:0:
64,192,55171,1,0,0:0:0:0:
448,192,55221,1,0,0:0:0:0:
192,192,55271,1,0,0:0:0:0:
320,192,55321,1,0,0:0:0:0:
64,192,55321,128,0,55396:0:0:0:0:
192,192,55420,1,0,0:0:0:0:
448,192,55420,1,0,0:0:0:0:
320,192,55420,1,0,0:0:0:0:
192,192,55520,128,0,55595:0:0:0:0:
448,192,55620,1,0,0:0:0:0:
320,192,55620,1,0,0:0:0:0:
64,192,55620,1,0,0:0:0:0:
320,192,55719,128,0,55794:0:0:0:0:
448,192,55819,1,0,0:0:0:0:
192,192,55819,1,0,0:0:0:0:
64,192,55819,1,0,0:0:0:0:
448,192,55919,128,0,55994:0:0:0:0:
64,192,56018,1,0,0:0:0:0:
320,192,56018,1,0,0:0:0:0:
192,192,56068,1,0,0:0:0:0:
448,192,56118,1,0,0:0:0:0:
64,192,56118,1,0,0:0:0:0:
320,192,56168,1,0,0:0:0:0:
448,192,56218,1,0,0:0:0:0:
192,192,56218,1,0,0:0:0:0:
64,192,56268,1,0,0:0:0:0:
320,192,56317,1,0,0:0:0:0:
192,192,56367,1,0,0:0:0:0:
448,192,56417,1,0,0:0:0:0:
320,192,56467,1,0,0:0:0:0:
64,192,56517,128,0,56616:0:0:0:0:
448,192,56567,128,0,56616:0:0:0:0:
192,192,56616,128,0,56716:0:0:0:0:
64,192,56666,128,0,56716:0:0:0:0:
320,192,56716,128,0,56816:0:0:0:0:
192,192,56766,128,0,56816:0:0:0:0:
448,192,56816,128,0,56915:0:0:0:0:
320,192,56866,128,0,56915:0:0:0:0:
64,192,56915,1,0,0:0:0:0:
192,192,56915,1,0,0:0:0:0:
192,192,57015,1,0,0:0:0:0:
64,192,57015,1,0,0:0:0:0:
448,192,57115,1,0,0:0:0:0:
320,192,57115,1,0,0:0:0:0:
320,192,57214,1,0,0:0:0:0:
448,192,57214,1,0,0:0:0:0:
192,192,57314,1,0,0:0:0:0:
320,192,57314,1,0,0:0:0:0:
320,192,57414,1,0,0:0:0:0:
192,192,57414,1,0,0:0:0:0:
64,192,57513,1,0,0:0:0:0:
192,192,57513,1,0,0:0:0:0:
448,192,57613,1,0,0:0:0:0:
64,192,57613,1,0,0:0:0:0:
320,192,57663,1,0,0:0:0:0:
192,192,57713,1,0,0:0:0:0:
448,192,57713,1,0,0:0:0:0:
64,192,57812,1,0,0:0:0:0:
192,192,57812,1,0,0:0:0:0:
448,192,57912,1,0,0:0:0:0:
320,192,57912,1,0,0:0:0:0:
448,192,58012,1,0,0:0:0:0:
64,192,58012,1,0,0:0:0:0:
192,192,58062,1,0,0:0:0:0:
320,192,58111,1,0,0:0:0:0:
64,192,58111,1,0,0:0:0:0:
448,192,58211,1,0,0:0:0:0:
320,192,58211,1,0,0:0:0:0:
192,192,58311,1,0,0:0:0:0:
64,192,58311,1,0,0:0:0:0:
448,192,58361,1,0,0:0:0:0:
192,192,58410,1,0,0:0:0:0:
448,192,58460,128,0,58660:0:0:0:0:
320,192,58510,128,0,58660:0:0:0:0:
192,192,58535,128,0,58660:0:0:0:0:
448,192,58709,1,0,0:0:0:0:
64,192,58709,1,0,0:0:0:0:
192,192,58759,1,0,0:0:0:0:
64,192,58809,1,0,0:0:0:0:
320,192,58809,1,0,0:0:0:0:
448,192,58909,1,0,0:0:0:0:
192,192,58909,1,0,0:0:0:0:
320,192,59008,1,0,0:0:0:0:
192,192,59008,1,0,0:0:0:0:
64,192,59108,1,0,0:0:0:0:
448,192,59108,1,0,0:0:0:0:
192,192,59158,1,0,0:0:0:0:
320,192,59208,1,0,0:0:0:0:
448,192,59208,1,0,0:0:0:0:
192,192,59258,1,0,0:0:0:0:
448,192,59307,1,0,0:0:0:0:
64,192,59307,1,0,0:0:0:0:
64,192,59440,1,0,0:0:0:0:
320,192,59440,1,0,0:0:0:0:
192,192,59573,1,0,0:0:0:0:
64,192,59573,1,0,0:0:0:0:
192,192,59706,128,0,59789:0:0:0:0:
64,192,59706,128,0,59773:0:0:0:0:
64,192,59822,128,0,60055:0:0:0:0:
320,192,59905,128,0,60055:0:0:0:0:
448,192,59922,128,0,60055:0:0:0:0:
448,192,60105,1,0,0:0:0:0:
320,192,60105,1,0,0:0:0:0:
64,192,60204,1,0,0:0:0:0:
320,192,60204,1,0,0:0:0:0:
192,192,60254,1,0,0:0:0:0:
320,192,60304,1,0,0:0:0:0:
64,192,60304,1,0,0:0:0:0:
448,192,60354,1,0,0:0:0:0:
64,192,60404,128,0,60603:0:0:0:0:
448,192,60503,128,0,60548:0:0:0:0:
320,192,60548,128,0,60591:0:0:0:0:
192,192,60591,128,0,60636:0:0:0:0:
320,192,60703,1,0,0:0:0:0:
64,192,60703,1,0,0:0:0:0:
448,192,60802,1,0,0:0:0:0:
192,192,60802,1,0,0:0:0:0:
320,192,60852,1,0,0:0:0:0:
192,192,60902,1,0,0:0:0:0:
448,192,60902,1,0,0:0:0:0:
64,192,60952,1,0,0:0:0:0:
448,192,61002,128,0,61201:0:0:0:0:
64,192,61101,128,0,61190:0:0:0:0:
192,192,61146,128,0,61234:0:0:0:0:
320,192,61190,128,0,61279:0:0:0:0:
448,192,61301,1,0,0:0:0:0:
64,192,61301,1,0,0:0:0:0:
192,192,61401,1,0,0:0:0:0:
320,192,61401,1,0,0:0:0:0:
192,192,61500,1,0,0:0:0:0:
448,192,61500,1,0,0:0:0:0:
320,192,61550,1,0,0:0:0:0:
448,192,61600,1,0,0:0:0:0:
64,192,61600,1,0,0:0:0:0:
192,192,61650,1,0,0:0:0:0:
320,192,61700,1,0,0:0:0:0:
64,192,61700,1,0,0:0:0:0:
448,192,61799,1,0,0:0:0:0:
320,192,61799,1,0,0:0:0:0:
448,192,61999,1,0,0:0:0:0:
320,192,61999,1,0,0:0:0:0:
448,192,62198,1,0,0:0:0:0:
320,192,62198,1,0,0:0:0:0:
448,192,62397,1,0,0:0:0:0:
320,192,62397,1,0,0:0:0:0:
192,192,62447,1,0,0:0:0:0:
64,192,62447,1,0,0:0:0:0:
320,192,62497,1,0,0:0:0:0:
448,192,62497,1,0,0:0:0:0:
320,192,62597,1,0,0:0:0:0:
64,192,62597,1,0,0:0:0:0:
192,192,62646,1,0,0:0:0:0:
448,192,62646,1,0,0:0:0:0:
192,192,62746,1,0,0:0:0:0:
448,192,62746,1,0,0:0:0:0:
64,192,62796,1,0,0:0:0:0:
320,192,62796,1,0,0:0:0:0:
64,192,62896,1,0,0:0:0:0:
192,192,62896,1,0,0:0:0:0:
448,192,62995,1,0,0:0:0:0:
192,192,62995,1,0,0:0:0:0:
320,192,63045,1,0,0:0:0:0:
64,192,63045,1,0,0:0:0:0:
64,192,63145,1,0,0:0:0:0:
320,192,63145,1,0,0:0:0:0:
448,192,63195,1,0,0:0:0:0:
192,192,63195,1,0,0:0:0:0:
320,192,63294,1,0,0:0:0:0:
64,192,63294,1,0,0:0:0:0:
192,192,63294,1,0,0:0:0:0:
320,192,64889,1,0,0:0:0:0:
64,192,66085,1,0,0:0:0:0:
192,192,66085,1,0,0:0:0:0:
448,192,66151,1,0,0:0:0:0:
320,192,66218,1,0,0:0:0:0:
448,192,66284,1,0,0:0:0:0:
64,192,66351,1,0,0:0:0:0:
192,192,66417,1,0,0:0:0:0:
64,192,66484,1,0,0:0:0:0:
448,192,66484,1,0,0:0:0:0:
320,192,66484,1,0,0:0:0:0:
448,192,66683,1,0,0:0:0:0:
64,192,66683,1,0,0:0:0:0:
192,192,66683,1,0,0:0:0:0:
64,192,68078,1,0,0:0:0:0:
448,192,68078,1,0,0:0:0:0:
320,192,68145,1,0,0:0:0:0:
192,192,68211,1,0,0:0:0:0:
64,192,68278,1,0,0:0:0:0:
448,192,68344,1,0,0:0:0:0:
320,192,68410,1,0,0:0:0:0:
448,192,68477,1,0,0:0:0:0:
192,192,68543,1,0,0:0:0:0:
320,192,68610,1,0,0:0:0:0:
64,192,68676,1,0,0:0:0:0:
192,192,68743,1,0,0:0:0:0:
64,192,68809,1,0,0:0:0:0:
320,192,68876,1,0,0:0:0:0:
448,192,68876,1,0,0:0:0:0:
64,192,68975,1,0,0:0:0:0:
192,192,68975,1,0,0:0:0:0:
320,192,69075,1,0,0:0:0:0:
192,192,69075,1,0,0:0:0:0:
448,192,69175,1,0,0:0:0:0:
320,192,69175,1,0,0:0:0:0:
448,192,69274,128,0,69361:0:0:0:0:
320,192,69287,128,0,69361:0:0:0:0:
192,192,69324,128,0,69391:0:0:0:0:
64,192,69374,128,0,69424:0:0:0:0:
448,192,69424,128,0,69474:0:0:0:0:
320,192,69474,128,0,69523:0:0:0:0:
192,192,69523,128,0,69573:0:0:0:0:
64,192,69573,128,0,69623:0:0:0:0:
320,192,69623,128,0,69673:0:0:0:0:
64,192,69673,1,0,0:0:0:0:
448,192,69673,1,0,0:0:0:0:
192,192,69773,1,0,0:0:0:0:
320,192,69872,1,0,0:0:0:0:
64,192,69872,1,0,0:0:0:0:
192,192,69972,1,0,0:0:0:0:
320,192,69972,1,0,0:0:0:0:
64,192,70072,1,0,0:0:0:0:
448,192,70072,1,0,0:0:0:0:
192,192,70121,1,0,0:0:0:0:
448,192,70171,1,0,0:0:0:0:
320,192,70171,1,0,0:0:0:0:
64,192,70271,1,0,0:0:0:0:
192,192,70271,1,0,0:0:0:0:
320,192,70371,1,0,0:0:0:0:
192,192,70420,1,0,0:0:0:0:
320,192,70470,1,0,0:0:0:0:
448,192,70470,1,0,0:0:0:0:
192,192,70570,1,0,0:0:0:0:
64,192,70670,1,0,0:0:0:0:
320,192,70670,1,0,0:0:0:0:
192,192,70719,1,0,0:0:0:0:
448,192,70769,1,0,0:0:0:0:
320,192,70769,1,0,0:0:0:0:
64,192,70869,1,0,0:0:0:0:
192,192,70869,1,0,0:0:0:0:
320,192,70969,1,0,0:0:0:0:
448,192,70969,1,0,0:0:0:0:
192,192,71068,1,0,0:0:0:0:
320,192,71068,1,0,0:0:0:0:
64,192,71168,1,0,0:0:0:0:
192,192,71168,1,0,0:0:0:0:
320,192,71268,1,0,0:0:0:0:
448,192,71268,1,0,0:0:0:0:
448,192,71367,1,0,0:0:0:0:
64,192,71467,1,0,0:0:0:0:
320,192,71467,1,0,0:0:0:0:
320,192,71567,1,0,0:0:0:0:
192,192,71567,1,0,0:0:0:0:
64,192,71666,1,0,0:0:0:0:
448,192,71666,1,0,0:0:0:0:
192,192,71716,1,0,0:0:0:0:
320,192,71766,1,0,0:0:0:0:
448,192,71766,1,0,0:0:0:0:
64,192,71866,1,0,0:0:0:0:
192,192,71866,1,0,0:0:0:0:
320,192,71965,1,0,0:0:0:0:
192,192,72015,1,0,0:0:0:0:
448,192,72065,1,0,0:0:0:0:
320,192,72065,1,0,0:0:0:0:
192,192,72165,1,0,0:0:0:0:
64,192,72264,1,0,0:0:0:0:
320,192,72264,1,0,0:0:0:0:
192,192,72314,1,0,0:0:0:0:
448,192,72364,1,0,0:0:0:0:
320,192,72364,1,0,0:0:0:0:
64,192,72464,1,0,0:0:0:0:
448,192,72464,1,0,0:0:0:0:
320,192,72563,1,0,0:0:0:0:
64,192,72563,1,0,0:0:0:0:
448,192,72663,1,0,0:0:0:0:
192,192,72663,1,0,0:0:0:0:
64,192,72763,1,0,0:0:0:0:
192,192,72763,1,0,0:0:0:0:
448,192,72862,1,0,0:0:0:0:
320,192,72862,1,0,0:0:0:0:
64,192,72962,1,0,0:0:0:0:
320,192,73012,1,0,0:0:0:0:
448,192,73062,1,0,0:0:0:0:
64,192,73062,1,0,0:0:0:0:
320,192,73161,1,0,0:0:0:0:
192,192,73161,1,0,0:0:0:0:
64,192,73261,1,0,0:0:0:0:
192,192,73261,1,0,0:0:0:0:
320,192,73311,1,0,0:0:0:0:
64,192,73361,1,0,0:0:0:0:
448,192,73460,1,0,0:0:0:0:
192,192,73460,1,0,0:0:0:0:
320,192,73510,1,0,0:0:0:0:
448,192,73560,1,0,0:0:0:0:
320,192,73660,1,0,0:0:0:0:
64,192,73660,1,0,0:0:0:0:
192,192,73709,1,0,0:0:0:0:
448,192,73759,1,0,0:0:0:0:
64,192,73759,1,0,0:0:0:0:
320,192,73859,1,0,0:0:0:0:
192,192,73859,1,0,0:0:0:0:
192,192,73959,1,0,0:0:0:0:
448,192,73959,1,0,0:0:0:0:
64,192,74058,1,0,0:0:0:0:
320,192,74058,1,0,0:0:0:0:
320,192,74158,1,0,0:0:0:0:
64,192,74208,1,0,0:0:0:0:
192,192,74208,1,0,0:0:0:0:
192,192,74307,1,0,0:0:0:0:
320,192,74357,1,0,0:0:0:0:
64,192,74357,1,0,0:0:0:0:
448,192,74457,1,0,0:0:0:0:
320,192,74457,1,0,0:0:0:0:
192,192,74557,1,0,0:0:0:0:
320,192,74606,1,0,0:0:0:0:
448,192,74656,1,0,0:0:0:0:
64,192,74656,1,0,0:0:0:0:
448,192,74756,1,0,0:0:0:0:
320,192,74756,1,0,0:0:0:0:
64,192,74856,1,0,0:0:0:0:
192,192,74856,1,0,0:0:0:0:
448,192,74905,1,0,0:0:0:0:
320,192,74955,1,0,0:0:0:0:
64,192,74955,1,0,0:0:0:0:
192,192,75055,1,0,0:0:0:0:
448,192,75055,1,0,0:0:0:0:
320,192,75105,1,0,0:0:0:0:
64,192,75155,1,0,0:0:0:0:
448,192,75155,1,0,0:0:0:0:
192,192,75204,1,0,0:0:0:0:
320,192,75254,1,0,0:0:0:0:
64,192,75254,1,0,0:0:0:0:
320,192,75354,1,0,0:0:0:0:
448,192,75404,1,0,0:0:0:0:
64,192,75404,1,0,0:0:0:0:
192,192,75404,1,0,0:0:0:0:
192,192,75503,1,0,0:0:0:0:
64,192,75553,1,0,0:0:0:0:
448,192,75553,1,0,0:0:0:0:
320,192,75553,1,0,0:0:0:0:
192,192,75653,1,0,0:0:0:0:
320,192,75681,1,0,0:0:0:0:
448,192,75753,1,0,0:0:0:0:
192,192,75802,1,0,0:0:0:0:
64,192,75802,1,0,0:0:0:0:
320,192,75802,1,0,0:0:0:0:
64,192,75902,1,0,0:0:0:0:
448,192,75952,1,0,0:0:0:0:
320,192,75952,1,0,0:0:0:0:
192,192,75952,1,0,0:0:0:0:
64,192,76052,1,0,0:0:0:0:
192,192,76052,1,0,0:0:0:0:
192,192,76151,1,0,0:0:0:0:
320,192,76251,1,0,0:0:0:0:
64,192,76251,1,0,0:0:0:0:
192,192,76351,1,0,0:0:0:0:
320,192,76351,1,0,0:0:0:0:
64,192,76450,1,0,0:0:0:0:
448,192,76450,1,0,0:0:0:0:
192,192,76500,1,0,0:0:0:0:
448,192,76550,1,0,0:0:0:0:
320,192,76550,1,0,0:0:0:0:
64,192,76650,1,0,0:0:0:0:
192,192,76650,1,0,0:0:0:0:
320,192,76749,1,0,0:0:0:0:
192,192,76799,1,0,0:0:0:0:
320,192,76849,1,0,0:0:0:0:
448,192,76849,1,0,0:0:0:0:
192,192,76949,1,0,0:0:0:0:
64,192,77048,1,0,0:0:0:0:
320,192,77048,1,0,0:0:0:0:
192,192,77098,1,0,0:0:0:0:
448,192,77148,1,0,0:0:0:0:
320,192,77148,1,0,0:0:0:0:
64,192,77248,1,0,0:0:0:0:
448,192,77248,1,0,0:0:0:0:
320,192,77347,128,0,77447:0:0:0:0:
192,192,77447,128,0,77547:0:0:0:0:
64,192,77547,128,0,77646:0:0:0:0:
320,192,77646,1,0,0:0:0:0:
448,192,77646,1,0,0:0:0:0:
448,192,77746,1,0,0:0:0:0:
64,192,77846,1,0,0:0:0:0:
320,192,77846,1,0,0:0:0:0:
320,192,77945,1,0,0:0:0:0:
64,192,78045,1,0,0:0:0:0:
192,192,78045,1,0,0:0:0:0:
448,192,78145,1,0,0:0:0:0:
320,192,78195,1,0,0:0:0:0:
192,192,78244,1,0,0:0:0:0:
448,192,78244,1,0,0:0:0:0:
320,192,78344,1,0,0:0:0:0:
64,192,78344,1,0,0:0:0:0:
448,192,78444,1,0,0:0:0:0:
320,192,78444,1,0,0:0:0:0:
192,192,78543,1,0,0:0:0:0:
64,192,78543,1,0,0:0:0:0:
448,192,78643,1,0,0:0:0:0:
64,192,78643,1,0,0:0:0:0:
192,192,78693,1,0,0:0:0:0:
320,192,78743,1,0,0:0:0:0:
64,192,78743,1,0,0:0:0:0:
448,192,78793,1,0,0:0:0:0:
192,192,78842,128,0,79092:0:0:0:0:
320,192,78842,128,0,78992:0:0:0:0:
448,192,78942,1,0,0:0:0:0:
320,192,79042,128,0,79191:0:0:0:0:
192,192,79141,128,0,79241:0:0:0:0:
320,192,79241,1,0,0:0:0:0:
448,192,79241,1,0,0:0:0:0:
64,192,79241,1,0,0:0:0:0:
320,192,79341,1,0,0:0:0:0:
192,192,79391,1,0,0:0:0:0:
448,192,79440,1,0,0:0:0:0:
64,192,79440,1,0,0:0:0:0:
320,192,79490,1,0,0:0:0:0:
192,192,79540,1,0,0:0:0:0:
64,192,79540,1,0,0:0:0:0:
448,192,79540,1,0,0:0:0:0:
448,192,79739,1,0,0:0:0:0:
320,192,79739,1,0,0:0:0:0:
192,192,79939,1,0,0:0:0:0:
320,192,79939,1,0,0:0:0:0:
192,192,80088,1,0,0:0:0:0:
320,192,80138,1,0,0:0:0:0:
64,192,80138,1,0,0:0:0:0:
192,192,80188,1,0,0:0:0:0:
320,192,80238,1,0,0:0:0:0:
192,192,80288,1,0,0:0:0:0:
448,192,80288,1,0,0:0:0:0:
320,192,80337,1,0,0:0:0:0:
64,192,80387,1,0,0:0:0:0:
448,192,80437,1,0,0:0:0:0:
192,192,80437,1,0,0:0:0:0:
448,192,80537,1,0,0:0:0:0:
320,192,80537,1,0,0:0:0:0:
192,192,80587,1,0,0:0:0:0:
64,192,80587,1,0,0:0:0:0:
192,192,80686,1,0,0:0:0:0:
64,192,80686,1,0,0:0:0:0:
448,192,80736,1,0,0:0:0:0:
320,192,80736,1,0,0:0:0:0:
64,192,80836,1,0,0:0:0:0:
448,192,80836,1,0,0:0:0:0:
192,192,80836,1,0,0:0:0:0:
64,192,80935,1,0,0:0:0:0:
320,192,80985,1,0,0:0:0:0:
448,192,81035,1,0,0:0:0:0:
192,192,81035,1,0,0:0:0:0:
64,192,81035,1,0,0:0:0:0:
192,192,81135,1,0,0:0:0:0:
64,192,81163,1,0,0:0:0:0:
448,192,81192,1,0,0:0:0:0:
320,192,81220,1,0,0:0:0:0:
64,192,81284,1,0,0:0:0:0:
320,192,81334,1,0,0:0:0:0:
448,192,81334,1,0,0:0:0:0:
64,192,81434,1,0,0:0:0:0:
192,192,81434,1,0,0:0:0:0:
320,192,81533,1,0,0:0:0:0:
448,192,81583,1,0,0:0:0:0:
192,192,81583,1,0,0:0:0:0:
320,192,81633,128,0,81783:0:0:0:0:
64,192,81783,1,0,0:0:0:0:
448,192,81783,1,0,0:0:0:0:
192,192,81932,1,0,0:0:0:0:
448,192,81932,1,0,0:0:0:0:
320,192,82032,1,0,0:0:0:0:
448,192,82032,1,0,0:0:0:0:
448,192,82181,1,0,0:0:0:0:
320,192,82181,1,0,0:0:0:0:
192,192,82331,1,0,0:0:0:0:
448,192,82331,1,0,0:0:0:0:
64,192,82430,1,0,0:0:0:0:
448,192,82430,1,0,0:0:0:0:
192,192,82630,1,0,0:0:0:0:
64,192,82630,1,0,0:0:0:0:
448,192,82729,1,0,0:0:0:0:
192,192,82729,1,0,0:0:0:0:
64,192,82729,1,0,0:0:0:0:
320,192,82729,1,0,0:0:0:0:
64,192,82929,1,0,0:0:0:0:
192,192,82929,1,0,0:0:0:0:
64,192,83128,1,0,0:0:0:0:
192,192,83128,1,0,0:0:0:0:
64,192,83327,1,0,0:0:0:0:
192,192,83327,1,0,0:0:0:0:
448,192,83427,1,0,0:0:0:0:
192,192,83427,1,0,0:0:0:0:
64,192,83427,1,0,0:0:0:0:
320,192,83427,1,0,0:0:0:0:
64,192,83626,1,0,0:0:0:0:
192,192,83676,1,0,0:0:0:0:
320,192,83726,1,0,0:0:0:0:
64,192,83726,1,0,0:0:0:0:
64,192,83826,1,0,0:0:0:0:
192,192,83826,1,0,0:0:0:0:
448,192,83925,1,0,0:0:0:0:
192,192,83925,1,0,0:0:0:0:
64,192,83925,1,0,0:0:0:0:
320,192,83925,1,0,0:0:0:0:
192,192,84075,1,0,0:0:0:0:
320,192,84075,1,0,0:0:0:0:
192,192,84224,1,0,0:0:0:0:
320,192,84224,1,0,0:0:0:0:
192,192,84374,1,0,0:0:0:0:
320,192,84374,1,0,0:0:0:0:
192,192,84523,1,0,0:0:0:0:
320,192,84523,1,0,0:0:0:0:
64,192,84623,1,0,0:0:0:0:
192,192,84623,1,0,0:0:0:0:
448,192,84623,1,0,0:0:0:0:
320,192,84623,1,0,0:0:0:0:
448,192,84822,1,0,0:0:0:0:
320,192,84822,1,0,0:0:0:0:
320,192,85022,1,0,0:0:0:0:
448,192,85022,1,0,0:0:0:0:
64,192,85121,1,0,0:0:0:0:
192,192,85121,1,0,0:0:0:0:
448,192,85121,1,0,0:0:0:0:
320,192,85121,1,0,0:0:0:0:
320,192,85321,1,0,0:0:0:0:
448,192,85321,1,0,0:0:0:0:
448,192,85520,1,0,0:0:0:0:
320,192,85520,1,0,0:0:0:0:
320,192,85719,1,0,0:0:0:0:
448,192,85719,1,0,0:0:0:0:
192,192,85819,1,0,0:0:0:0:
64,192,85819,1,0,0:0:0:0:
448,192,85819,1,0,0:0:0:0:
320,192,85819,1,0,0:0:0:0:
448,192,86018,1,0,0:0:0:0:
320,192,86068,1,0,0:0:0:0:
192,192,86118,1,0,0:0:0:0:
448,192,86118,1,0,0:0:0:0:
448,192,86218,1,0,0:0:0:0:
64,192,86218,1,0,0:0:0:0:
192,192,86317,1,0,0:0:0:0:
64,192,86317,1,0,0:0:0:0:
448,192,86317,1,0,0:0:0:0:
320,192,86317,1,0,0:0:0:0:
64,192,86467,1,0,0:0:0:0:
448,192,86467,1,0,0:0:0:0:
448,192,86616,1,0,0:0:0:0:
64,192,86616,1,0,0:0:0:0:
64,192,86766,1,0,0:0:0:0:
448,192,86766,1,0,0:0:0:0:
64,192,86915,1,0,0:0:0:0:
448,192,86915,1,0,0:0:0:0:
320,192,87015,1,0,0:0:0:0:
448,192,87015,1,0,0:0:0:0:
64,192,87015,1,0,0:0:0:0:
192,192,87015,1,0,0:0:0:0:
320,192,87214,1,0,0:0:0:0:
64,192,87214,1,0,0:0:0:0:
448,192,87214,1,0,0:0:0:0:
192,192,87414,1,0,0:0:0:0:
64,192,87414,1,0,0:0:0:0:
448,192,87513,1,0,0:0:0:0:
192,192,87513,1,0,0:0:0:0:
64,192,87513,1,0,0:0:0:0:
320,192,87513,1,0,0:0:0:0:
64,192,87713,1,0,0:0:0:0:
192,192,87713,1,0,0:0:0:0:
64,192,87912,1,0,0:0:0:0:
192,192,87912,1,0,0:0:0:0:
64,192,88111,1,0,0:0:0:0:
192,192,88111,1,0,0:0:0:0:
448,192,88211,1,0,0:0:0:0:
192,192,88211,1,0,0:0:0:0:
64,192,88211,1,0,0:0:0:0:
320,192,88211,1,0,0:0:0:0:
64,192,88410,1,0,0:0:0:0:
192,192,88460,1,0,0:0:0:0:
320,192,88510,1,0,0:0:0:0:
64,192,88510,1,0,0:0:0:0:
64,192,88610,1,0,0:0:0:0:
192,192,88610,1,0,0:0:0:0:
448,192,88709,1,0,0:0:0:0:
192,192,88709,1,0,0:0:0:0:
64,192,88709,1,0,0:0:0:0:
320,192,88709,1,0,0:0:0:0:
192,192,88859,1,0,0:0:0:0:
320,192,88859,1,0,0:0:0:0:
192,192,89008,1,0,0:0:0:0:
320,192,89008,1,0,0:0:0:0:
192,192,89158,1,0,0:0:0:0:
320,192,89158,1,0,0:0:0:0:
192,192,89307,1,0,0:0:0:0:
320,192,89307,1,0,0:0:0:0:
64,192,89407,1,0,0:0:0:0:
192,192,89407,1,0,0:0:0:0:
448,192,89407,1,0,0:0:0:0:
320,192,89407,1,0,0:0:0:0:
448,192,89606,1,0,0:0:0:0:
320,192,89606,1,0,0:0:0:0:
320,192,89806,1,0,0:0:0:0:
448,192,89806,1,0,0:0:0:0:
64,192,89905,1,0,0:0:0:0:
192,192,89905,1,0,0:0:0:0:
448,192,89905,1,0,0:0:0:0:
320,192,89905,1,0,0:0:0:0:
320,192,90105,1,0,0:0:0:0:
448,192,90105,1,0,0:0:0:0:
448,192,90304,1,0,0:0:0:0:
320,192,90304,1,0,0:0:0:0:
64,192,90503,1,0,0:0:0:0:
192,192,90503,1,0,0:0:0:0:
448,192,90503,1,0,0:0:0:0:
320,192,90503,1,0,0:0:0:0:
320,192,90653,1,0,0:0:0:0:
448,192,90653,1,0,0:0:0:0:
192,192,90653,1,0,0:0:0:0:
64,192,90653,1,0,0:0:0:0:
448,192,90802,1,0,0:0:0:0:
320,192,90802,1,0,0:0:0:0:
64,192,90802,1,0,0:0:0:0:
448,192,91334,128,0,91401:0:0:0:0:
192,192,91434,128,0,91500:0:0:0:0:
320,192,91533,128,0,91600:0:0:0:0:
64,192,91600,128,0,91666:0:0:0:0:
192,192,91766,128,0,91832:0:0:0:0:
448,192,91866,128,0,91932:0:0:0:0:
192,192,91999,1,0,0:0:0:0:
448,192,91999,1,0,0:0:0:0:
320,192,92048,1,0,0:0:0:0:
448,192,92098,1,0,0:0:0:0:
320,192,92198,1,0,0:0:0:0:
64,192,92198,1,0,0:0:0:0:
192,192,92248,1,0,0:0:0:0:
64,192,92298,1,0,0:0:0:0:
192,192,92397,1,0,0:0:0:0:
448,192,92397,1,0,0:0:0:0:
320,192,92447,1,0,0:0:0:0:
448,192,92497,1,0,0:0:0:0:
320,192,92597,1,0,0:0:0:0:
64,192,92597,1,0,0:0:0:0:
192,192,92646,1,0,0:0:0:0:
64,192,92696,1,0,0:0:0:0:
192,192,92796,1,0,0:0:0:0:
448,192,92796,1,0,0:0:0:0:
320,192,92846,1,0,0:0:0:0:
448,192,92896,1,0,0:0:0:0:
64,192,92945,1,0,0:0:0:0:
192,192,92995,1,0,0:0:0:0:
448,192,92995,1,0,0:0:0:0:
320,192,93095,1,0,0:0:0:0:
64,192,93095,1,0,0:0:0:0:
192,192,93145,1,0,0:0:0:0:
64,192,93195,1,0,0:0:0:0:
448,192,93244,1,0,0:0:0:0:
320,192,93294,1,0,0:0:0:0:
64,192,93294,1,0,0:0:0:0:
448,192,93394,1,0,0:0:0:0:
64,192,93444,1,0,0:0:0:0:
192,192,93494,1,0,0:0:0:0:
448,192,93543,1,0,0:0:0:0:
320,192,93593,1,0,0:0:0:0:
64,192,93593,1,0,0:0:0:0:
192,192,93643,1,0,0:0:0:0:
64,192,93693,1,0,0:0:0:0:
192,192,93793,1,0,0:0:0:0:
448,192,93793,1,0,0:0:0:0:
320,192,93842,1,0,0:0:0:0:
448,192,93892,1,0,0:0:0:0:
320,192,93992,1,0,0:0:0:0:
64,192,93992,1,0,0:0:0:0:
192,192,94042,1,0,0:0:0:0:
64,192,94092,1,0,0:0:0:0:
192,192,94191,1,0,0:0:0:0:
448,192,94191,1,0,0:0:0:0:
320,192,94241,1,0,0:0:0:0:
448,192,94291,1,0,0:0:0:0:
320,192,94391,1,0,0:0:0:0:
64,192,94391,1,0,0:0:0:0:
192,192,94440,1,0,0:0:0:0:
64,192,94490,1,0,0:0:0:0:
448,192,94540,1,0,0:0:0:0:
320,192,94590,1,0,0:0:0:0:
64,192,94590,1,0,0:0:0:0:
192,192,94690,1,0,0:0:0:0:
448,192,94690,1,0,0:0:0:0:
320,192,94739,1,0,0:0:0:0:
448,192,94789,1,0,0:0:0:0:
64,192,94839,1,0,0:0:0:0:
192,192,94889,1,0,0:0:0:0:
320,192,94889,1,0,0:0:0:0:
64,192,94989,128,0,95038:0:0:0:0:
448,192,94989,128,0,95038:0:0:0:0:
64,192,95188,1,0,0:0:0:0:
192,192,95188,1,0,0:0:0:0:
320,192,95188,1,0,0:0:0:0:
192,192,97680,1,0,0:0:0:0:
64,192,97729,1,0,0:0:0:0:
320,192,97779,1,0,0:0:0:0:
192,192,97779,1,0,0:0:0:0:
64,192,97879,1,0,0:0:0:0:
448,192,97879,1,0,0:0:0:0:
320,192,97979,1,0,0:0:0:0:
192,192,98078,1,0,0:0:0:0:
64,192,98178,1,0,0:0:0:0:
448,192,98178,1,0,0:0:0:0:
192,192,98278,1,0,0:0:0:0:
320,192,98278,1,0,0:0:0:0:
448,192,98327,1,0,0:0:0:0:
192,192,98377,1,0,0:0:0:0:
64,192,98377,1,0,0:0:0:0:
320,192,98377,1,0,0:0:0:0:
192,192,98577,1,0,0:0:0:0:
64,192,98776,1,0,0:0:0:0:
448,192,98776,1,0,0:0:0:0:
320,192,98975,1,0,0:0:0:0:
64,192,99175,1,0,0:0:0:0:
192,192,99175,1,0,0:0:0:0:
320,192,99374,1,0,0:0:0:0:
64,192,99573,1,0,0:0:0:0:
448,192,99573,1,0,0:0:0:0:
192,192,99773,1,0,0:0:0:0:
64,192,99972,5,0,0:0:0:0:
64,192,100072,1,0,0:0:0:0:
448,192,100171,1,0,0:0:0:0:
320,192,100171,1,0,0:0:0:0:
320,192,100271,1,0,0:0:0:0:
448,192,100271,1,0,0:0:0:0:
64,192,100371,1,0,0:0:0:0:
192,192,100371,1,0,0:0:0:0:
192,192,100470,1,0,0:0:0:0:
64,192,100470,1,0,0:0:0:0:
448,192,100570,1,0,0:0:0:0:
320,192,100570,1,0,0:0:0:0:
448,192,100670,1,0,0:0:0:0:
320,192,100670,1,0,0:0:0:0:
64,192,100769,1,0,0:0:0:0:
320,192,100769,1,0,0:0:0:0:
448,192,100769,1,0,0:0:0:0:
64,192,100869,1,0,0:0:0:0:
448,192,100869,1,0,0:0:0:0:
320,192,100869,1,0,0:0:0:0:
64,192,100969,128,0,101268:0:0:0:0:
448,192,100969,1,0,0:0:0:0:
192,192,100981,1,0,0:0:0:0:
192,192,101118,1,0,0:0:0:0:
320,192,101268,1,0,0:0:0:0:
448,192,101280,1,0,0:0:0:0:
192,192,101355,1,0,0:0:0:0:
320,192,101380,1,0,0:0:0:0:
64,192,101567,1,0,0:0:0:0:
192,192,101567,1,0,0:0:0:0:
192,192,101666,1,0,0:0:0:0:
64,192,101700,1,0,0:0:0:0:
448,192,101766,1,0,0:0:0:0:
320,192,101766,1,0,0:0:0:0:
192,192,101886,1,0,0:0:0:0:
320,192,101925,1,0,0:0:0:0:
64,192,101965,1,0,0:0:0:0:
448,192,101965,1,0,0:0:0:0:
320,192,102065,1,0,0:0:0:0:
192,192,102065,1,0,0:0:0:0:
64,192,102165,1,0,0:0:0:0:
448,192,102165,1,0,0:0:0:0:
192,192,102214,1,0,0:0:0:0:
64,192,102264,128,0,102364:0:0:0:0:
320,192,102264,128,0,102364:0:0:0:0:
448,192,102364,128,0,102464:0:0:0:0:
320,192,102421,1,0,0:0:0:0:
192,192,102464,128,0,102563:0:0:0:0:
64,192,102523,1,0,0:0:0:0:
448,192,102563,128,0,102663:0:0:0:0:
320,192,102563,128,0,102638:0:0:0:0:
64,192,102663,128,0,102763:0:0:0:0:
192,192,102688,128,0,102763:0:0:0:0:
448,192,102763,1,0,0:0:0:0:
320,192,102763,1,0,0:0:0:0:
192,192,102862,1,0,0:0:0:0:
320,192,102862,1,0,0:0:0:0:
64,192,102962,1,0,0:0:0:0:
192,192,102962,1,0,0:0:0:0:
448,192,103062,1,0,0:0:0:0:
320,192,103062,1,0,0:0:0:0:
320,192,103161,1,0,0:0:0:0:
448,192,103161,1,0,0:0:0:0:
64,192,103241,1,0,0:0:0:0:
448,192,103281,1,0,0:0:0:0:
320,192,103321,1,0,0:0:0:0:
64,192,103361,1,0,0:0:0:0:
192,192,103361,1,0,0:0:0:0:
448,192,103460,1,0,0:0:0:0:
192,192,103480,1,0,0:0:0:0:
320,192,103518,1,0,0:0:0:0:
448,192,103560,1,0,0:0:0:0:
64,192,103560,1,0,0:0:0:0:
320,192,103660,1,0,0:0:0:0:
192,192,103731,1,0,0:0:0:0:
448,192,103759,1,0,0:0:0:0:
64,192,103759,1,0,0:0:0:0:
320,192,103809,1,0,0:0:0:0:
192,192,103859,1,0,0:0:0:0:
64,192,103859,1,0,0:0:0:0:
448,192,103959,128,0,104158:0:0:0:0:
320,192,103959,1,0,0:0:0:0:
320,192,104058,128,0,104108:0:0:0:0:
64,192,104158,128,0,104357:0:0:0:0:
192,192,104158,1,0,0:0:0:0:
192,192,104258,128,0,104307:0:0:0:0:
320,192,104357,1,0,0:0:0:0:
448,192,104357,1,0,0:0:0:0:
448,192,104457,1,0,0:0:0:0:
64,192,104457,1,0,0:0:0:0:
64,192,104557,1,0,0:0:0:0:
192,192,104557,1,0,0:0:0:0:
192,192,104656,1,0,0:0:0:0:
320,192,104656,1,0,0:0:0:0:
448,192,104756,1,0,0:0:0:0:
320,192,104756,1,0,0:0:0:0:
64,192,104856,1,0,0:0:0:0:
320,192,104898,1,0,0:0:0:0:
64,192,104955,1,0,0:0:0:0:
192,192,104955,1,0,0:0:0:0:
192,192,105055,1,0,0:0:0:0:
64,192,105088,1,0,0:0:0:0:
320,192,105155,128,0,105304:0:0:0:0:
448,192,105155,1,0,0:0:0:0:
64,192,105242,1,0,0:0:0:0:
448,192,105265,1,0,0:0:0:0:
192,192,105354,1,0,0:0:0:0:
320,192,105354,1,0,0:0:0:0:
448,192,105404,1,0,0:0:0:0:
64,192,105454,1,0,0:0:0:0:
320,192,105454,1,0,0:0:0:0:
64,192,105553,1,0,0:0:0:0:
192,192,105553,1,0,0:0:0:0:
320,192,105653,128,0,105703:0:0:0:0:
448,192,105753,128,0,105886:0:0:0:0:
64,192,105753,128,0,105865:0:0:0:0:
192,192,105838,128,0,105924:0:0:0:0:
320,192,105865,1,0,0:0:0:0:
64,192,105952,1,0,0:0:0:0:
448,192,105952,1,0,0:0:0:0:
192,192,106052,1,0,0:0:0:0:
64,192,106052,1,0,0:0:0:0:
320,192,106151,1,0,0:0:0:0:
448,192,106151,1,0,0:0:0:0:
64,192,106251,1,0,0:0:0:0:
448,192,106251,1,0,0:0:0:0:
192,192,106351,128,0,106417:0:0:0:0:
320,192,106351,128,0,106417:0:0:0:0:
64,192,106351,128,0,106493:0:0:0:0:
448,192,106450,128,0,106550:0:0:0:0:
64,192,106550,1,0,0:0:0:0:
192,192,106583,1,0,0:0:0:0:
320,192,106616,1,0,0:0:0:0:
64,192,106650,1,0,0:0:0:0:
448,192,106650,1,0,0:0:0:0:
320,192,106749,1,0,0:0:0:0:
448,192,106799,128,0,106999:0:0:0:0:
192,192,106799,128,0,106999:0:0:0:0:
320,192,106949,128,0,106993:0:0:0:0:
64,192,106949,128,0,106993:0:0:0:0:
64,192,107048,1,0,0:0:0:0:
192,192,107048,1,0,0:0:0:0:
448,192,107148,128,0,107281:0:0:0:0:
320,192,107148,1,0,0:0:0:0:
192,192,107148,1,0,0:0:0:0:
192,192,107298,1,0,0:0:0:0:
320,192,107298,1,0,0:0:0:0:
64,192,107298,128,0,107422:0:0:0:0:
448,192,107447,128,0,107522:0:0:0:0:
192,192,107447,1,0,0:0:0:0:
320,192,107447,1,0,0:0:0:0:
64,192,107597,128,0,107646:0:0:0:0:
192,192,107597,1,0,0:0:0:0:
320,192,107597,1,0,0:0:0:0:
448,192,107746,128,0,107888:0:0:0:0:
64,192,107746,1,0,0:0:0:0:
320,192,107803,128,0,107888:0:0:0:0:
192,192,107831,128,0,107888:0:0:0:0:
64,192,107888,1,0,0:0:0:0:
448,192,107945,1,0,0:0:0:0:
320,192,107945,1,0,0:0:0:0:
320,192,108045,1,0,0:0:0:0:
448,192,108088,1,0,0:0:0:0:
64,192,108145,1,0,0:0:0:0:
192,192,108145,1,0,0:0:0:0:
320,192,108264,1,0,0:0:0:0:
192,192,108304,1,0,0:0:0:0:
448,192,108344,1,0,0:0:0:0:
64,192,108344,1,0,0:0:0:0:
192,192,108444,1,0,0:0:0:0:
320,192,108444,1,0,0:0:0:0:
448,192,108543,1,0,0:0:0:0:
64,192,108543,1,0,0:0:0:0:
320,192,108593,1,0,0:0:0:0:
448,192,108643,128,0,108743:0:0:0:0:
192,192,108643,128,0,108743:0:0:0:0:
64,192,108743,128,0,108842:0:0:0:0:
192,192,108800,1,0,0:0:0:0:
320,192,108842,128,0,108942:0:0:0:0:
448,192,108902,1,0,0:0:0:0:
64,192,108942,128,0,109042:0:0:0:0:
192,192,108942,128,0,109017:0:0:0:0:
448,192,109042,128,0,109141:0:0:0:0:
320,192,109067,128,0,109141:0:0:0:0:
64,192,109141,1,0,0:0:0:0:
192,192,109141,1,0,0:0:0:0:
448,192,109241,1,0,0:0:0:0:
64,192,109241,1,0,0:0:0:0:
448,192,109341,1,0,0:0:0:0:
320,192,109341,1,0,0:0:0:0:
192,192,109440,128,0,109490:0:0:0:0:
64,192,109440,1,0,0:0:0:0:
320,192,109512,1,0,0:0:0:0:
448,192,109540,1,0,0:0:0:0:
64,192,109540,1,0,0:0:0:0:
320,192,109640,1,0,0:0:0:0:
64,192,109660,1,0,0:0:0:0:
192,192,109700,1,0,0:0:0:0:
448,192,109739,1,0,0:0:0:0:
320,192,109739,1,0,0:0:0:0:
192,192,109819,1,0,0:0:0:0:
64,192,109859,1,0,0:0:0:0:
448,192,109899,1,0,0:0:0:0:
320,192,109939,1,0,0:0:0:0:
192,192,109939,1,0,0:0:0:0:
64,192,110049,1,0,0:0:0:0:
320,192,110094,1,0,0:0:0:0:
64,192,110138,1,0,0:0:0:0:
448,192,110138,1,0,0:0:0:0:
192,192,110188,1,0,0:0:0:0:
320,192,110238,1,0,0:0:0:0:
448,192,110238,1,0,0:0:0:0:
64,192,110337,128,0,110537:0:0:0:0:
192,192,110337,1,0,0:0:0:0:
192,192,110437,128,0,110487:0:0:0:0:
448,192,110537,128,0,110736:0:0:0:0:
320,192,110537,1,0,0:0:0:0:
320,192,110636,128,0,110686:0:0:0:0:
192,192,110736,1,0,0:0:0:0:
64,192,110736,1,0,0:0:0:0:
192,192,110836,1,0,0:0:0:0:
320,192,110836,1,0,0:0:0:0:
64,192,110935,1,0,0:0:0:0:
448,192,110935,1,0,0:0:0:0:
320,192,111035,1,0,0:0:0:0:
192,192,111035,1,0,0:0:0:0:
448,192,111135,128,0,111533:0:0:0:0:
320,192,111135,128,0,111434:0:0:0:0:
192,192,111434,1,0,0:0:0:0:
64,192,111484,1,0,0:0:0:0:
320,192,111533,1,0,0:0:0:0:
192,192,111533,1,0,0:0:0:0:
448,192,111683,1,0,0:0:0:0:
64,192,111683,1,0,0:0:0:0:
320,192,111783,128,0,111832:0:0:0:0:
192,192,111832,128,0,111882:0:0:0:0:
64,192,111832,1,0,0:0:0:0:
320,192,111882,128,0,111932:0:0:0:0:
448,192,111932,128,0,112231:0:0:0:0:
64,192,111932,128,0,112331:0:0:0:0:
320,192,112231,1,0,0:0:0:0:
448,192,112281,1,0,0:0:0:0:
320,192,112331,1,0,0:0:0:0:
192,192,112331,1,0,0:0:0:0:
64,192,112480,1,0,0:0:0:0:
448,192,112480,1,0,0:0:0:0:
192,192,112530,128,0,112580:0:0:0:0:
448,192,112580,128,0,112630:0:0:0:0:
192,192,112630,1,0,0:0:0:0:
64,192,112630,128,0,112680:0:0:0:0:
320,192,112680,128,0,112729:0:0:0:0:
64,192,112729,128,0,112879:0:0:0:0:
192,192,112729,128,0,112879:0:0:0:0:
448,192,112829,1,0,0:0:0:0:
320,192,112829,1,0,0:0:0:0:
448,192,112929,1,0,0:0:0:0:
64,192,112929,128,0,113078:0:0:0:0:
192,192,112929,128,0,113078:0:0:0:0:
64,192,113128,128,0,113278:0:0:0:0:
192,192,113128,128,0,113278:0:0:0:0:
448,192,113128,1,0,0:0:0:0:
64,192,113327,1,0,0:0:0:0:
320,192,113327,1,0,0:0:0:0:
448,192,113327,1,0,0:0:0:0:
64,192,113427,128,0,113577:0:0:0:0:
192,192,113427,128,0,113577:0:0:0:0:
448,192,113427,1,0,0:0:0:0:
64,192,113626,128,0,113776:0:0:0:0:
192,192,113626,128,0,113776:0:0:0:0:
448,192,113626,1,0,0:0:0:0:
448,192,113826,1,0,0:0:0:0:
320,192,113826,1,0,0:0:0:0:
64,192,113826,1,0,0:0:0:0:
448,192,113925,1,0,0:0:0:0:
64,192,113925,1,0,0:0:0:0:
192,192,113925,1,0,0:0:0:0:
192,192,114025,128,0,114075:0:0:0:0:
64,192,114025,1,0,0:0:0:0:
320,192,114075,128,0,114125:0:0:0:0:
448,192,114125,128,0,114175:0:0:0:0:
64,192,114175,128,0,114241:0:0:0:0:
192,192,114224,128,0,114274:0:0:0:0:
320,192,114274,128,0,114324:0:0:0:0:
448,192,114324,128,0,114407:0:0:0:0:
64,192,114324,128,0,114391:0:0:0:0:
192,192,114324,128,0,114374:0:0:0:0:
448,192,114523,128,0,114573:0:0:0:0:
320,192,114523,128,0,114573:0:0:0:0:
64,192,114523,128,0,114590:0:0:0:0:
320,192,114723,128,0,114789:0:0:0:0:
192,192,114723,128,0,114789:0:0:0:0:
64,192,114922,128,0,114989:0:0:0:0:
192,192,114922,128,0,114972:0:0:0:0:
448,192,114922,1,0,0:0:0:0:
320,192,114972,1,0,0:0:0:0:
448,192,115022,128,0,115072:0:0:0:0:
192,192,115121,128,0,115204:0:0:0:0:
64,192,115121,128,0,115188:0:0:0:0:
64,192,115321,128,0,115371:0:0:0:0:
448,192,115321,1,0,0:0:0:0:
192,192,115454,128,0,115520:0:0:0:0:
64,192,115520,1,0,0:0:0:0:
448,192,115520,1,0,0:0:0:0:
320,192,115587,128,0,115636:0:0:0:0:
64,192,115620,1,0,0:0:0:0:
192,192,115653,128,0,115703:0:0:0:0:
320,192,115719,128,0,115769:0:0:0:0:
448,192,115719,128,0,115769:0:0:0:0:
192,192,115786,128,0,115852:0:0:0:0:
448,192,115819,1,0,0:0:0:0:
320,192,115852,128,0,115952:0:0:0:0:
64,192,115919,128,0,115969:0:0:0:0:
192,192,115919,128,0,115969:0:0:0:0:
448,192,116118,128,0,116168:0:0:0:0:
64,192,116118,128,0,116201:0:0:0:0:
192,192,116118,128,0,116168:0:0:0:0:
320,192,116317,128,0,116367:0:0:0:0:
192,192,116317,128,0,116367:0:0:0:0:
448,192,116517,128,0,116567:0:0:0:0:
320,192,116517,128,0,116583:0:0:0:0:
64,192,116517,128,0,116567:0:0:0:0:
192,192,116567,1,0,0:0:0:0:
64,192,116616,1,0,0:0:0:0:
448,192,116716,128,0,116799:0:0:0:0:
320,192,116716,128,0,116816:0:0:0:0:
192,192,116716,128,0,116799:0:0:0:0:
448,192,116915,128,0,116965:0:0:0:0:
320,192,116915,128,0,116965:0:0:0:0:
192,192,116982,128,0,117048:0:0:0:0:
448,192,117048,128,0,117115:0:0:0:0:
320,192,117115,128,0,117165:0:0:0:0:
64,192,117115,1,0,0:0:0:0:
192,192,117148,128,0,117214:0:0:0:0:
448,192,117181,128,0,117231:0:0:0:0:
320,192,117248,128,0,117298:0:0:0:0:
192,192,117314,128,0,117364:0:0:0:0:
64,192,117314,1,0,0:0:0:0:
320,192,117381,128,0,117447:0:0:0:0:
192,192,117447,128,0,117513:0:0:0:0:
448,192,117513,128,0,117597:0:0:0:0:
64,192,117513,128,0,117580:0:0:0:0:
448,192,117713,1,0,0:0:0:0:
320,192,117713,1,0,0:0:0:0:
64,192,117779,128,0,117846:0:0:0:0:
192,192,117846,128,0,117929:0:0:0:0:
64,192,117912,128,0,117962:0:0:0:0:
448,192,117912,1,0,0:0:0:0:
320,192,118045,128,0,118111:0:0:0:0:
448,192,118111,1,0,0:0:0:0:
64,192,118111,1,0,0:0:0:0:
192,192,118111,1,0,0:0:0:0:
320,192,118161,128,0,118211:0:0:0:0:
448,192,118211,1,0,0:0:0:0:
320,192,118311,128,0,118377:0:0:0:0:
448,192,118311,128,0,118394:0:0:0:0:
192,192,118444,128,0,118527:0:0:0:0:
320,192,118510,1,0,0:0:0:0:
64,192,118510,1,0,0:0:0:0:
448,192,118577,128,0,118643:0:0:0:0:
192,192,118709,128,0,118759:0:0:0:0:
64,192,118709,1,0,0:0:0:0:
192,192,118809,1,0,0:0:0:0:
448,192,118842,128,0,118909:0:0:0:0:
64,192,118909,1,0,0:0:0:0:
320,192,118909,1,0,0:0:0:0:
192,192,118975,128,0,119042:0:0:0:0:
320,192,119008,1,0,0:0:0:0:
448,192,119108,128,0,119175:0:0:0:0:
192,192,119108,1,0,0:0:0:0:
64,192,119141,128,0,119191:0:0:0:0:
64,192,119307,128,0,119357:0:0:0:0:
192,192,119341,128,0,119391:0:0:0:0:
320,192,119374,128,0,119424:0:0:0:0:
448,192,119407,128,0,119457:0:0:0:0:
192,192,119440,128,0,119507:0:0:0:0:
320,192,119474,128,0,119523:0:0:0:0:
448,192,119507,128,0,119590:0:0:0:0:
64,192,119507,1,0,0:0:0:0:
320,192,119573,128,0,119623:0:0:0:0:
192,192,119640,128,0,119706:0:0:0:0:
448,192,119706,128,0,119756:0:0:0:0:
64,192,119706,128,0,119756:0:0:0:0:
192,192,119756,128,0,119806:0:0:0:0:
64,192,119806,1,0,0:0:0:0:
320,192,119839,128,0,119905:0:0:0:0:
192,192,119905,128,0,119955:0:0:0:0:
448,192,119905,128,0,119955:0:0:0:0:
320,192,120005,128,0,120171:0:0:0:0:
64,192,120105,1,0,0:0:0:0:
192,192,120105,1,0,0:0:0:0:
192,192,120204,128,0,120271:0:0:0:0:
448,192,120304,1,0,0:0:0:0:
320,192,120304,1,0,0:0:0:0:
192,192,120404,1,0,0:0:0:0:
448,192,120404,1,0,0:0:0:0:
320,192,120454,1,0,0:0:0:0:
64,192,120503,128,0,120553:0:0:0:0:
448,192,120503,1,0,0:0:0:0:
192,192,120570,128,0,120620:0:0:0:0:
320,192,120636,128,0,120703:0:0:0:0:
64,192,120703,128,0,120753:0:0:0:0:
448,192,120703,1,0,0:0:0:0:
192,192,120703,128,0,120753:0:0:0:0:
320,192,120753,1,0,0:0:0:0:
64,192,120802,1,0,0:0:0:0:
192,192,120802,1,0,0:0:0:0:
64,192,120902,1,0,0:0:0:0:
448,192,120902,1,0,0:0:0:0:
448,192,121002,1,0,0:0:0:0:
320,192,121002,1,0,0:0:0:0:
192,192,121101,128,0,121168:0:0:0:0:
64,192,121101,128,0,121151:0:0:0:0:
448,192,121201,1,0,0:0:0:0:
64,192,121201,1,0,0:0:0:0:
448,192,121301,1,0,0:0:0:0:
192,192,121301,1,0,0:0:0:0:
320,192,121351,1,0,0:0:0:0:
64,192,121401,1,0,0:0:0:0:
192,192,121401,1,0,0:0:0:0:
448,192,121500,128,0,121567:0:0:0:0:
320,192,121500,128,0,121550:0:0:0:0:
448,192,121600,1,0,0:0:0:0:
64,192,121600,1,0,0:0:0:0:
320,192,121700,1,0,0:0:0:0:
192,192,121700,1,0,0:0:0:0:
448,192,121799,1,0,0:0:0:0:
64,192,121799,1,0,0:0:0:0:
64,192,121899,128,0,121965:0:0:0:0:
320,192,121899,128,0,121965:0:0:0:0:
192,192,121949,1,0,0:0:0:0:
448,192,121999,1,0,0:0:0:0:
320,192,121999,1,0,0:0:0:0:
192,192,122098,1,0,0:0:0:0:
64,192,122098,1,0,0:0:0:0:
320,192,122148,1,0,0:0:0:0:
448,192,122198,1,0,0:0:0:0:
192,192,122198,1,0,0:0:0:0:
320,192,122298,128,0,122347:0:0:0:0:
64,192,122298,128,0,122381:0:0:0:0:
192,192,122347,1,0,0:0:0:0:
448,192,122397,1,0,0:0:0:0:
320,192,122397,1,0,0:0:0:0:
192,192,122497,1,0,0:0:0:0:
64,192,122497,1,0,0:0:0:0:
320,192,122597,1,0,0:0:0:0:
192,192,122597,1,0,0:0:0:0:
448,192,122696,128,0,122779:0:0:0:0:
320,192,122696,128,0,122746:0:0:0:0:
192,192,122796,1,0,0:0:0:0:
64,192,122796,1,0,0:0:0:0:
448,192,122896,1,0,0:0:0:0:
320,192,122896,1,0,0:0:0:0:
192,192,122945,1,0,0:0:0:0:
320,192,122995,1,0,0:0:0:0:
64,192,122995,1,0,0:0:0:0:
448,192,123095,128,0,123161:0:0:0:0:
192,192,123095,128,0,123145:0:0:0:0:
192,192,123228,128,0,123294:0:0:0:0:
320,192,123228,128,0,123278:0:0:0:0:
320,192,123361,128,0,123427:0:0:0:0:
64,192,123361,128,0,123427:0:0:0:0:
448,192,123494,128,0,123543:0:0:0:0:
320,192,123494,128,0,123543:0:0:0:0:
64,192,123543,1,0,0:0:0:0:
192,192,123593,1,0,0:0:0:0:
448,192,123643,1,0,0:0:0:0:
64,192,123693,1,0,0:0:0:0:
320,192,123743,1,0,0:0:0:0:
192,192,123793,1,0,0:0:0:0:
320,192,123842,1,0,0:0:0:0:
64,192,123892,1,0,0:0:0:0:
192,192,123892,1,0,0:0:0:0:
448,192,123992,1,0,0:0:0:0:
64,192,123992,1,0,0:0:0:0:
320,192,124042,1,0,0:0:0:0:
448,192,124092,1,0,0:0:0:0:
192,192,124092,1,0,0:0:0:0:
64,192,124141,1,0,0:0:0:0:
320,192,124191,1,0,0:0:0:0:
448,192,124291,128,0,124440:0:0:0:0:
320,192,124348,1,0,0:0:0:0:
192,192,124405,1,0,0:0:0:0:
64,192,124462,1,0,0:0:0:0:
320,192,124490,1,0,0:0:0:0:
448,192,124490,1,0,0:0:0:0:
64,192,124590,1,0,0:0:0:0:
448,192,124590,1,0,0:0:0:0:
192,192,124640,1,0,0:0:0:0:
320,192,124690,1,0,0:0:0:0:
64,192,124690,1,0,0:0:0:0:
448,192,124739,1,0,0:0:0:0:
64,192,124789,128,0,125038:0:0:0:0:
320,192,124889,128,0,125038:0:0:0:0:
64,192,125088,128,0,125138:0:0:0:0:
192,192,125088,128,0,125155:0:0:0:0:
320,192,125188,128,0,125238:0:0:0:0:
64,192,125188,128,0,125238:0:0:0:0:
448,192,125288,128,0,125337:0:0:0:0:
192,192,125288,128,0,125337:0:0:0:0:
64,192,125337,1,0,0:0:0:0:
448,192,125387,128,0,125437:0:0:0:0:
192,192,125387,128,0,125454:0:0:0:0:
320,192,125437,1,0,0:0:0:0:
64,192,125487,128,0,125537:0:0:0:0:
448,192,125487,128,0,125537:0:0:0:0:
64,192,125587,128,0,125636:0:0:0:0:
192,192,125587,128,0,125636:0:0:0:0:
320,192,125587,128,0,125636:0:0:0:0:
448,192,125786,128,0,125852:0:0:0:0:
320,192,125786,128,0,125852:0:0:0:0:
192,192,125786,128,0,125836:0:0:0:0:
448,192,125985,128,0,126068:0:0:0:0:
320,192,125985,128,0,126068:0:0:0:0:
192,192,125985,1,0,0:0:0:0:
320,192,126185,128,0,126251:0:0:0:0:
448,192,126185,128,0,126234:0:0:0:0:
64,192,126185,128,0,126234:0:0:0:0:
192,192,126234,1,0,0:0:0:0:
448,192,126284,128,0,126351:0:0:0:0:
64,192,126284,128,0,126334:0:0:0:0:
320,192,126384,128,0,126434:0:0:0:0:
192,192,126384,128,0,126450:0:0:0:0:
448,192,126434,128,0,126484:0:0:0:0:
64,192,126434,128,0,126484:0:0:0:0:
64,192,126533,128,0,126583:0:0:0:0:
448,192,126533,128,0,126583:0:0:0:0:
320,192,126583,128,0,126633:0:0:0:0:
192,192,126583,128,0,126633:0:0:0:0:
448,192,126683,128,0,126733:0:0:0:0:
64,192,126683,128,0,126749:0:0:0:0:
192,192,126783,128,0,126832:0:0:0:0:
64,192,126783,128,0,126832:0:0:0:0:
448,192,126832,128,0,126882:0:0:0:0:
320,192,126832,128,0,126882:0:0:0:0:
448,192,126932,128,0,126982:0:0:0:0:
320,192,126932,128,0,126999:0:0:0:0:
64,192,126982,128,0,127032:0:0:0:0:
192,192,126982,128,0,127032:0:0:0:0:
320,192,127082,1,0,0:0:0:0:
64,192,127082,1,0,0:0:0:0:
192,192,127082,1,0,0:0:0:0:
64,192,127680,128,0,127729:0:0:0:0:
320,192,127879,128,0,127936:0:0:0:0:
192,192,127907,128,0,127964:0:0:0:0:
64,192,128477,128,0,128527:0:0:0:0:
320,192,128676,128,0,128726:0:0:0:0:
448,192,128701,128,0,128751:0:0:0:0:
192,192,129274,128,0,129324:0:0:0:0:
448,192,129474,128,0,129518:0:0:0:0:
64,192,129872,1,0,0:0:0:0:
448,192,129872,1,0,0:0:0:0:
192,192,130072,1,0,0:0:0:0:
320,192,130138,1,0,0:0:0:0:
448,192,130204,1,0,0:0:0:0:
64,192,130271,128,0,130311:0:0:0:0:
448,192,130271,1,0,0:0:0:0:
64,192,130869,128,0,130919:0:0:0:0:
320,192,131068,128,0,131125:0:0:0:0:
192,192,131097,128,0,131155:0:0:0:0:
64,192,131467,1,0,0:0:0:0:
448,192,131467,1,0,0:0:0:0:
64,192,131666,128,0,131716:0:0:0:0:
320,192,131866,128,0,131915:0:0:0:0:
64,192,131891,128,0,131940:0:0:0:0:
64,192,132065,1,0,0:0:0:0:
448,192,132065,1,0,0:0:0:0:
192,192,132131,1,0,0:0:0:0:
64,192,132198,1,0,0:0:0:0:
320,192,132264,1,0,0:0:0:0:
192,192,132331,1,0,0:0:0:0:
448,192,132397,1,0,0:0:0:0:
320,192,132464,128,0,132513:0:0:0:0:
448,192,132530,1,0,0:0:0:0:
64,192,132597,1,0,0:0:0:0:
192,192,132663,1,0,0:0:0:0:
320,192,132663,1,0,0:0:0:0:
448,192,132663,128,0,132713:0:0:0:0:
64,192,133111,1,0,0:0:0:0:
192,192,133178,1,0,0:0:0:0:
320,192,133244,1,0,0:0:0:0:
192,192,133278,1,0,0:0:0:0:
448,192,133361,1,0,0:0:0:0:
448,192,135568,128,0,135625:0:0:0:0:
64,192,135587,128,0,135786:0:0:0:0:
320,192,135653,128,0,135728:0:0:0:0:
192,192,135678,1,0,0:0:0:0:
448,192,135703,128,0,135769:0:0:0:0:
320,192,135802,1,0,0:0:0:0:
448,192,135852,128,0,135902:0:0:0:0:
64,192,135852,128,0,135902:0:0:0:0:
192,192,135952,1,0,0:0:0:0:
64,192,135952,1,0,0:0:0:0:
320,192,136052,128,0,136101:0:0:0:0:
192,192,136052,128,0,136101:0:0:0:0:
448,192,136151,1,0,0:0:0:0:
320,192,136151,1,0,0:0:0:0:
64,192,136251,128,0,136301:0:0:0:0:
192,192,136251,128,0,136301:0:0:0:0:
64,192,136351,1,0,0:0:0:0:
448,192,136351,1,0,0:0:0:0:
320,192,136450,128,0,136500:0:0:0:0:
192,192,136450,128,0,136500:0:0:0:0:
448,192,136550,1,0,0:0:0:0:
320,192,136600,1,0,0:0:0:0:
64,192,136650,128,0,136700:0:0:0:0:
192,192,136650,128,0,136700:0:0:0:0:
192,192,136749,1,0,0:0:0:0:
320,192,136749,1,0,0:0:0:0:
448,192,136849,128,0,136899:0:0:0:0:
64,192,136849,128,0,136899:0:0:0:0:
320,192,136949,128,0,136999:0:0:0:0:
64,192,136999,1,0,0:0:0:0:
192,192,137048,128,0,137098:0:0:0:0:
448,192,137048,128,0,137098:0:0:0:0:
448,192,137148,1,0,0:0:0:0:
320,192,137148,1,0,0:0:0:0:
64,192,137248,128,0,137298:0:0:0:0:
192,192,137248,128,0,137298:0:0:0:0:
320,192,137298,1,0,0:0:0:0:
192,192,137347,1,0,0:0:0:0:
448,192,137397,1,0,0:0:0:0:
320,192,137447,128,0,137497:0:0:0:0:
64,192,137447,128,0,137497:0:0:0:0:
320,192,137547,1,0,0:0:0:0:
192,192,137547,1,0,0:0:0:0:
448,192,137646,128,0,137696:0:0:0:0:
192,192,137646,128,0,137696:0:0:0:0:
320,192,137746,1,0,0:0:0:0:
64,192,137746,1,0,0:0:0:0:
448,192,137846,128,0,137896:0:0:0:0:
320,192,137846,128,0,137896:0:0:0:0:
64,192,137945,1,0,0:0:0:0:
192,192,137945,1,0,0:0:0:0:
64,192,138045,128,0,138095:0:0:0:0:
320,192,138045,128,0,138095:0:0:0:0:
192,192,138145,1,0,0:0:0:0:
320,192,138195,1,0,0:0:0:0:
448,192,138244,128,0,138294:0:0:0:0:
192,192,138244,128,0,138294:0:0:0:0:
64,192,138311,1,0,0:0:0:0:
320,192,138344,1,0,0:0:0:0:
448,192,138377,1,0,0:0:0:0:
320,192,138444,128,0,138494:0:0:0:0:
192,192,138444,128,0,138494:0:0:0:0:
64,192,138494,1,0,0:0:0:0:
448,192,138543,1,0,0:0:0:0:
192,192,138593,1,0,0:0:0:0:
64,192,138643,128,0,138693:0:0:0:0:
320,192,138643,128,0,138693:0:0:0:0:
448,192,138743,1,0,0:0:0:0:
320,192,138743,1,0,0:0:0:0:
64,192,138842,128,0,138892:0:0:0:0:
192,192,138842,128,0,138892:0:0:0:0:
448,192,139042,1,0,0:0:0:0:
192,192,139042,1,0,0:0:0:0:
64,192,139042,1,0,0:0:0:0:
320,192,139092,1,0,0:0:0:0:
64,192,139141,1,0,0:0:0:0:
448,192,139141,1,0,0:0:0:0:
192,192,139191,1,0,0:0:0:0:
320,192,139241,1,0,0:0:0:0:
448,192,139241,1,0,0:0:0:0:
320,192,139341,1,0,0:0:0:0:
64,192,139341,1,0,0:0:0:0:
192,192,139391,1,0,0:0:0:0:
448,192,139440,1,0,0:0:0:0:
64,192,139440,1,0,0:0:0:0:
320,192,139490,1,0,0:0:0:0:
192,192,139540,1,0,0:0:0:0:
64,192,139540,1,0,0:0:0:0:
448,192,139640,1,0,0:0:0:0:
320,192,139690,1,0,0:0:0:0:
448,192,139739,1,0,0:0:0:0:
192,192,139739,1,0,0:0:0:0:
64,192,139839,1,0,0:0:0:0:
192,192,139889,1,0,0:0:0:0:
320,192,139939,1,0,0:0:0:0:
64,192,139939,1,0,0:0:0:0:
448,192,140038,1,0,0:0:0:0:
320,192,140088,1,0,0:0:0:0:
448,192,140138,1,0,0:0:0:0:
192,192,140138,1,0,0:0:0:0:
64,192,140238,1,0,0:0:0:0:
320,192,140238,1,0,0:0:0:0:
448,192,140337,128,0,140387:0:0:0:0:
192,192,140337,128,0,140420:0:0:0:0:
448,192,140437,128,0,140537:0:0:0:0:
192,192,140470,128,0,140537:0:0:0:0:
64,192,140537,1,0,0:0:0:0:
320,192,140537,1,0,0:0:0:0:
448,192,140636,1,0,0:0:0:0:
64,192,140636,1,0,0:0:0:0:
192,192,140686,1,0,0:0:0:0:
64,192,140736,1,0,0:0:0:0:
320,192,140736,1,0,0:0:0:0:
448,192,140786,1,0,0:0:0:0:
192,192,140836,1,0,0:0:0:0:
64,192,140836,1,0,0:0:0:0:
192,192,140935,1,0,0:0:0:0:
448,192,140935,1,0,0:0:0:0:
320,192,140985,1,0,0:0:0:0:
448,192,141035,1,0,0:0:0:0:
64,192,141035,1,0,0:0:0:0:
192,192,141085,1,0,0:0:0:0:
320,192,141135,1,0,0:0:0:0:
448,192,141135,1,0,0:0:0:0:
64,192,141234,1,0,0:0:0:0:
192,192,141284,1,0,0:0:0:0:
320,192,141334,1,0,0:0:0:0:
64,192,141334,1,0,0:0:0:0:
192,192,141434,1,0,0:0:0:0:
448,192,141434,1,0,0:0:0:0:
320,192,141500,1,0,0:0:0:0:
448,192,141567,1,0,0:0:0:0:
192,192,141567,1,0,0:0:0:0:
320,192,141633,1,0,0:0:0:0:
64,192,141633,1,0,0:0:0:0:
192,192,141700,1,0,0:0:0:0:
64,192,141766,1,0,0:0:0:0:
320,192,141766,1,0,0:0:0:0:
448,192,141832,128,0,141882:0:0:0:0:
192,192,141832,128,0,141949:0:0:0:0:
448,192,141932,128,0,142131:0:0:0:0:
192,192,141999,128,0,142131:0:0:0:0:
448,192,142231,128,0,142281:0:0:0:0:
64,192,142231,128,0,142281:0:0:0:0:
192,192,142331,1,0,0:0:0:0:
320,192,142331,1,0,0:0:0:0:
448,192,142430,128,0,142480:0:0:0:0:
192,192,142430,128,0,142480:0:0:0:0:
448,192,142530,1,0,0:0:0:0:
320,192,142530,1,0,0:0:0:0:
64,192,142630,128,0,142680:0:0:0:0:
192,192,142630,128,0,142680:0:0:0:0:
64,192,142729,1,0,0:0:0:0:
448,192,142729,1,0,0:0:0:0:
320,192,142829,128,0,142879:0:0:0:0:
192,192,142829,128,0,142879:0:0:0:0:
448,192,142929,1,0,0:0:0:0:
320,192,142979,1,0,0:0:0:0:
64,192,143028,128,0,143078:0:0:0:0:
192,192,143028,128,0,143078:0:0:0:0:
320,192,143128,1,0,0:0:0:0:
192,192,143128,1,0,0:0:0:0:
448,192,143228,128,0,143278:0:0:0:0:
64,192,143228,128,0,143278:0:0:0:0:
320,192,143327,128,0,143377:0:0:0:0:
64,192,143377,1,0,0:0:0:0:
192,192,143427,128,0,143477:0:0:0:0:
448,192,143427,128,0,143477:0:0:0:0:
448,192,143527,1,0,0:0:0:0:
320,192,143527,1,0,0:0:0:0:
64,192,143626,128,0,143676:0:0:0:0:
192,192,143626,128,0,143676:0:0:0:0:
448,192,143693,1,0,0:0:0:0:
448,192,143759,1,0,0:0:0:0:
320,192,143826,128,0,143876:0:0:0:0:
64,192,143826,128,0,143876:0:0:0:0:
192,192,143876,1,0,0:0:0:0:
320,192,143925,1,0,0:0:0:0:
448,192,144025,128,0,144075:0:0:0:0:
192,192,144025,128,0,144075:0:0:0:0:
320,192,144075,1,0,0:0:0:0:
192,192,144125,1,0,0:0:0:0:
448,192,144224,128,0,144274:0:0:0:0:
320,192,144224,128,0,144274:0:0:0:0:
192,192,144274,1,0,0:0:0:0:
320,192,144324,1,0,0:0:0:0:
64,192,144424,128,0,144474:0:0:0:0:
320,192,144424,128,0,144474:0:0:0:0:
64,192,144523,1,0,0:0:0:0:
320,192,144573,1,0,0:0:0:0:
448,192,144623,128,0,144673:0:0:0:0:
192,192,144623,128,0,144673:0:0:0:0:
64,192,144673,1,0,0:0:0:0:
448,192,144723,1,0,0:0:0:0:
192,192,144773,1,0,0:0:0:0:
320,192,144822,128,0,144872:0:0:0:0:
448,192,144822,128,0,144872:0:0:0:0:
192,192,144922,1,0,0:0:0:0:
64,192,144955,1,0,0:0:0:0:
448,192,144989,1,0,0:0:0:0:
192,192,145022,128,0,145072:0:0:0:0:
320,192,145022,128,0,145072:0:0:0:0:
64,192,145121,1,0,0:0:0:0:
448,192,145155,1,0,0:0:0:0:
320,192,145188,1,0,0:0:0:0:
64,192,145221,128,0,145271:0:0:0:0:
192,192,145221,128,0,145271:0:0:0:0:
64,192,145321,1,0,0:0:0:0:
448,192,145321,1,0,0:0:0:0:
192,192,145420,1,0,0:0:0:0:
320,192,145420,1,0,0:0:0:0:
448,192,145420,1,0,0:0:0:0:
320,192,145620,1,0,0:0:0:0:
64,192,145620,1,0,0:0:0:0:
448,192,145670,1,0,0:0:0:0:
320,192,145719,1,0,0:0:0:0:
448,192,145919,1,0,0:0:0:0:
192,192,145919,1,0,0:0:0:0:
64,192,145969,1,0,0:0:0:0:
192,192,146018,1,0,0:0:0:0:
64,192,146218,1,0,0:0:0:0:
448,192,146218,1,0,0:0:0:0:
192,192,146268,1,0,0:0:0:0:
64,192,146317,1,0,0:0:0:0:
320,192,146317,1,0,0:0:0:0:
448,192,146367,1,0,0:0:0:0:
192,192,146417,1,0,0:0:0:0:
320,192,146417,1,0,0:0:0:0:
64,192,146467,1,0,0:0:0:0:
448,192,146517,1,0,0:0:0:0:
192,192,146517,1,0,0:0:0:0:
320,192,146567,1,0,0:0:0:0:
448,192,146616,1,0,0:0:0:0:
64,192,146616,1,0,0:0:0:0:
320,192,146716,1,0,0:0:0:0:
448,192,146716,1,0,0:0:0:0:
192,192,146816,1,0,0:0:0:0:
320,192,146816,1,0,0:0:0:0:
64,192,146915,1,0,0:0:0:0:
192,192,146915,1,0,0:0:0:0:
320,192,147015,1,0,0:0:0:0:
192,192,147015,1,0,0:0:0:0:
64,192,147015,1,0,0:0:0:0:
192,192,147214,1,0,0:0:0:0:
448,192,147214,1,0,0:0:0:0:
64,192,147264,1,0,0:0:0:0:
192,192,147314,1,0,0:0:0:0:
64,192,147513,1,0,0:0:0:0:
320,192,147513,1,0,0:0:0:0:
448,192,147563,1,0,0:0:0:0:
320,192,147613,1,0,0:0:0:0:
64,192,147812,128,0,147862:0:0:0:0:
448,192,147812,128,0,147862:0:0:0:0:
192,192,147812,128,0,148012:0:0:0:0:
448,192,147962,128,0,148012:0:0:0:0:
320,192,147962,128,0,148012:0:0:0:0:
64,192,147962,128,0,148161:0:0:0:0:
448,192,148111,128,0,148161:0:0:0:0:
192,192,148111,128,0,148161:0:0:0:0:
320,192,148111,128,0,148261:0:0:0:0:
192,192,148211,128,0,148261:0:0:0:0:
64,192,148211,128,0,148261:0:0:0:0:
448,192,148211,128,0,148410:0:0:0:0:
64,192,148361,128,0,148560:0:0:0:0:
320,192,148361,128,0,148410:0:0:0:0:
192,192,148361,128,0,148410:0:0:0:0:
448,192,148510,128,0,148560:0:0:0:0:
320,192,148510,128,0,148560:0:0:0:0:
192,192,148510,128,0,148560:0:0:0:0:
64,192,148610,1,0,0:0:0:0:
192,192,148610,1,0,0:0:0:0:
192,192,148709,1,0,0:0:0:0:
448,192,148809,1,0,0:0:0:0:
192,192,148909,1,0,0:0:0:0:
64,192,148909,1,0,0:0:0:0:
192,192,149108,1,0,0:0:0:0:
320,192,149208,1,0,0:0:0:0:
448,192,149208,1,0,0:0:0:0:
192,192,149307,1,0,0:0:0:0:
64,192,149307,1,0,0:0:0:0:
448,192,149407,1,0,0:0:0:0:
320,192,149407,1,0,0:0:0:0:
192,192,149507,1,0,0:0:0:0:
448,192,149606,1,0,0:0:0:0:
192,192,149706,1,0,0:0:0:0:
64,192,149706,1,0,0:0:0:0:
192,192,149905,1,0,0:0:0:0:
320,192,150005,1,0,0:0:0:0:
448,192,150005,1,0,0:0:0:0:
192,192,150105,1,0,0:0:0:0:
64,192,150105,1,0,0:0:0:0:
192,192,150204,1,0,0:0:0:0:
448,192,150204,1,0,0:0:0:0:
320,192,150254,1,0,0:0:0:0:
448,192,150304,1,0,0:0:0:0:
320,192,150404,1,0,0:0:0:0:
64,192,150404,1,0,0:0:0:0:
192,192,150454,1,0,0:0:0:0:
64,192,150503,1,0,0:0:0:0:
192,192,150603,1,0,0:0:0:0:
448,192,150603,1,0,0:0:0:0:
320,192,150653,1,0,0:0:0:0:
448,192,150703,1,0,0:0:0:0:
320,192,150802,1,0,0:0:0:0:
64,192,150802,1,0,0:0:0:0:
192,192,150852,1,0,0:0:0:0:
64,192,150902,1,0,0:0:0:0:
448,192,151002,1,0,0:0:0:0:
64,192,151052,1,0,0:0:0:0:
320,192,151052,1,0,0:0:0:0:
448,192,151101,1,0,0:0:0:0:
192,192,151101,1,0,0:0:0:0:
64,192,151151,1,0,0:0:0:0:
320,192,151201,1,0,0:0:0:0:
448,192,151201,1,0,0:0:0:0:
64,192,151301,1,0,0:0:0:0:
192,192,151351,1,0,0:0:0:0:
448,192,151351,1,0,0:0:0:0:
320,192,151401,1,0,0:0:0:0:
64,192,151401,1,0,0:0:0:0:
448,192,151450,1,0,0:0:0:0:
192,192,151500,1,0,0:0:0:0:
64,192,151500,1,0,0:0:0:0:
448,192,151600,128,0,151650:0:0:0:0:
64,192,151600,128,0,151650:0:0:0:0:
448,192,151799,1,0,0:0:0:0:
320,192,151799,1,0,0:0:0:0:
320,192,151899,1,0,0:0:0:0:
64,192,151999,1,0,0:0:0:0:
320,192,152098,1,0,0:0:0:0:
448,192,152098,1,0,0:0:0:0:
320,192,152298,1,0,0:0:0:0:
192,192,152397,1,0,0:0:0:0:
64,192,152397,1,0,0:0:0:0:
320,192,152497,1,0,0:0:0:0:
448,192,152497,1,0,0:0:0:0:
64,192,152597,1,0,0:0:0:0:
192,192,152597,1,0,0:0:0:0:
320,192,152696,1,0,0:0:0:0:
64,192,152796,1,0,0:0:0:0:
320,192,152896,1,0,0:0:0:0:
448,192,152896,1,0,0:0:0:0:
320,192,153095,1,0,0:0:0:0:
192,192,153195,1,0,0:0:0:0:
64,192,153195,1,0,0:0:0:0:
320,192,153294,1,0,0:0:0:0:
448,192,153294,1,0,0:0:0:0:
320,192,153394,1,0,0:0:0:0:
64,192,153394,1,0,0:0:0:0:
192,192,153444,1,0,0:0:0:0:
64,192,153494,1,0,0:0:0:0:
192,192,153593,1,0,0:0:0:0:
448,192,153593,1,0,0:0:0:0:
320,192,153643,1,0,0:0:0:0:
448,192,153693,1,0,0:0:0:0:
320,192,153793,1,0,0:0:0:0:
64,192,153793,1,0,0:0:0:0:
192,192,153842,1,0,0:0:0:0:
64,192,153892,1,0,0:0:0:0:
192,192,153992,1,0,0:0:0:0:
448,192,153992,1,0,0:0:0:0:
320,192,154042,1,0,0:0:0:0:
448,192,154092,1,0,0:0:0:0:
64,192,154191,1,0,0:0:0:0:
448,192,154241,1,0,0:0:0:0:
192,192,154241,1,0,0:0:0:0:
64,192,154291,1,0,0:0:0:0:
320,192,154291,1,0,0:0:0:0:
448,192,154341,1,0,0:0:0:0:
192,192,154391,1,0,0:0:0:0:
64,192,154391,1,0,0:0:0:0:
448,192,154490,1,0,0:0:0:0:
320,192,154540,1,0,0:0:0:0:
64,192,154540,1,0,0:0:0:0:
192,192,154590,1,0,0:0:0:0:
448,192,154590,1,0,0:0:0:0:
64,192,154640,1,0,0:0:0:0:
448,192,154690,1,0,0:0:0:0:
320,192,154690,1,0,0:0:0:0:
192,192,154789,1,0,0:0:0:0:
320,192,154839,1,0,0:0:0:0:
64,192,154889,1,0,0:0:0:0:
448,192,154889,1,0,0:0:0:0:
192,192,154939,1,0,0:0:0:0:
320,192,154939,1,0,0:0:0:0:
64,192,154989,1,0,0:0:0:0:
448,192,154989,1,0,0:0:0:0:
64,192,158178,5,0,0:0:0:0:
64,192,159773,1,0,0:0:0:0:
320,192,161367,5,0,0:0:0:0:
448,192,161367,1,0,0:0:0:0:
64,192,161367,1,0,0:0:0:0:
192,192,161447,1,0,0:0:0:0:
448,192,161467,1,0,0:0:0:0:
64,192,161567,1,0,0:0:0:0:
320,192,161666,1,0,0:0:0:0:
192,192,161766,1,0,0:0:0:0:
448,192,161866,1,0,0:0:0:0:
64,192,161965,1,0,0:0:0:0:
320,192,162065,1,0,0:0:0:0:
192,192,162165,1,0,0:0:0:0:
448,192,162264,1,0,0:0:0:0:
64,192,162364,1,0,0:0:0:0:
448,192,162464,1,0,0:0:0:0:
320,192,162563,1,0,0:0:0:0:
192,192,162663,1,0,0:0:0:0:
64,192,162763,1,0,0:0:0:0:
64,192,162862,1,0,0:0:0:0:
192,192,162962,1,0,0:0:0:0:
448,192,163028,1,0,0:0:0:0:
64,192,163062,1,0,0:0:0:0:
448,192,163161,1,0,0:0:0:0:
192,192,163261,1,0,0:0:0:0:
320,192,163361,1,0,0:0:0:0:
64,192,163460,1,0,0:0:0:0:
448,192,163560,1,0,0:0:0:0:
192,192,163660,1,0,0:0:0:0:
320,192,163759,1,0,0:0:0:0:
64,192,163859,1,0,0:0:0:0:
192,192,163959,1,0,0:0:0:0:
448,192,164058,1,0,0:0:0:0:
320,192,164158,1,0,0:0:0:0:
192,192,164258,1,0,0:0:0:0:
64,192,164357,1,0,0:0:0:0:
64,192,164457,1,0,0:0:0:0:
320,192,164557,1,0,0:0:0:0:
448,192,164606,1,0,0:0:0:0:
64,192,164656,1,0,0:0:0:0:
448,192,164756,1,0,0:0:0:0:
192,192,164856,1,0,0:0:0:0:
320,192,164955,1,0,0:0:0:0:
64,192,165055,1,0,0:0:0:0:
448,192,165155,1,0,0:0:0:0:
192,192,165254,1,0,0:0:0:0:
320,192,165354,1,0,0:0:0:0:
64,192,165454,1,0,0:0:0:0:
192,192,165553,1,0,0:0:0:0:
448,192,165653,1,0,0:0:0:0:
320,192,165753,1,0,0:0:0:0:
192,192,165852,1,0,0:0:0:0:
64,192,165952,1,0,0:0:0:0:
64,192,166052,1,0,0:0:0:0:
448,192,166151,1,0,0:0:0:0:
64,192,166185,1,0,0:0:0:0:
320,192,166251,1,0,0:0:0:0:
192,192,166351,1,0,0:0:0:0:
448,192,166450,1,0,0:0:0:0:
64,192,166550,1,0,0:0:0:0:
320,192,166650,1,0,0:0:0:0:
192,192,166749,1,0,0:0:0:0:
448,192,166849,1,0,0:0:0:0:
320,192,166949,1,0,0:0:0:0:
192,192,166949,1,0,0:0:0:0:
64,192,166949,1,0,0:0:0:0:
192,192,167248,1,0,0:0:0:0:
64,192,167248,1,0,0:0:0:0:
448,192,167248,1,0,0:0:0:0:
448,192,167547,1,0,0:0:0:0:
320,192,167547,1,0,0:0:0:0:
192,192,167547,1,0,0:0:0:0:
320,192,167746,5,0,0:0:0:0:
448,192,167746,1,0,0:0:0:0:
64,192,167746,1,0,0:0:0:0:
192,192,167826,1,0,0:0:0:0:
448,192,167846,1,0,0:0:0:0:
64,192,167945,1,0,0:0:0:0:
320,192,168045,1,0,0:0:0:0:
192,192,168145,1,0,0:0:0:0:
448,192,168244,1,0,0:0:0:0:
64,192,168344,1,0,0:0:0:0:
320,192,168444,1,0,0:0:0:0:
192,192,168543,1,0,0:0:0:0:
448,192,168643,1,0,0:0:0:0:
64,192,168743,1,0,0:0:0:0:
448,192,168842,1,0,0:0:0:0:
320,192,168942,1,0,0:0:0:0:
192,192,169042,1,0,0:0:0:0:
64,192,169141,1,0,0:0:0:0:
64,192,169241,1,0,0:0:0:0:
192,192,169341,1,0,0:0:0:0:
448,192,169407,1,0,0:0:0:0:
64,192,169440,1,0,0:0:0:0:
448,192,169540,1,0,0:0:0:0:
192,192,169640,1,0,0:0:0:0:
320,192,169739,1,0,0:0:0:0:
64,192,169839,1,0,0:0:0:0:
448,192,169939,1,0,0:0:0:0:
192,192,170038,1,0,0:0:0:0:
320,192,170138,1,0,0:0:0:0:
64,192,170238,1,0,0:0:0:0:
192,192,170337,1,0,0:0:0:0:
448,192,170437,1,0,0:0:0:0:
320,192,170537,128,0,170587:0:0:0:0:
448,192,170603,128,0,170670:0:0:0:0:
192,192,170636,1,0,0:0:0:0:
320,192,170670,128,0,170736:0:0:0:0:
64,192,170736,128,0,170786:0:0:0:0:
448,192,170802,128,0,170869:0:0:0:0:
64,192,170869,128,0,170935:0:0:0:0:
192,192,170935,1,0,0:0:0:0:
320,192,170935,1,0,0:0:0:0:
448,192,171002,1,0,0:0:0:0:
64,192,171035,1,0,0:0:0:0:
320,192,171135,1,0,0:0:0:0:
192,192,171135,1,0,0:0:0:0:
192,192,171234,1,0,0:0:0:0:
320,192,171334,1,0,0:0:0:0:
64,192,171434,1,0,0:0:0:0:
448,192,171533,1,0,0:0:0:0:
192,192,171633,1,0,0:0:0:0:
320,192,171733,1,0,0:0:0:0:
64,192,171832,1,0,0:0:0:0:
64,192,171932,1,0,0:0:0:0:
448,192,171932,1,0,0:0:0:0:
64,192,172131,1,0,0:0:0:0:
448,192,172131,1,0,0:0:0:0:
64,192,172264,128,0,172331:0:0:0:0:
192,192,172331,128,0,172414:0:0:0:0:
320,192,172397,128,0,172497:0:0:0:0:
192,192,172464,1,0,0:0:0:0:
448,192,172530,1,0,0:0:0:0:
64,192,172530,1,0,0:0:0:0:
448,192,172663,1,0,0:0:0:0:
64,192,172663,1,0,0:0:0:0:
64,192,172796,1,0,0:0:0:0:
448,192,172796,1,0,0:0:0:0:
64,192,173062,1,0,0:0:0:0:
448,192,173062,1,0,0:0:0:0:
64,192,173327,1,0,0:0:0:0:
448,192,173327,1,0,0:0:0:0:
64,192,173460,1,0,0:0:0:0:
448,192,173460,1,0,0:0:0:0:
64,192,173593,1,0,0:0:0:0:
448,192,173593,1,0,0:0:0:0:
448,192,173726,128,0,173813:0:0:0:0:
320,192,173739,128,0,173813:0:0:0:0:
192,192,173776,128,0,173842:0:0:0:0:
64,192,173826,128,0,173876:0:0:0:0:
448,192,173876,128,0,173925:0:0:0:0:
320,192,173925,128,0,173975:0:0:0:0:
192,192,173975,128,0,174025:0:0:0:0:
64,192,174025,128,0,174075:0:0:0:0:
320,192,174075,128,0,174125:0:0:0:0:
64,192,174125,1,0,0:0:0:0:
448,192,174125,1,0,0:0:0:0:
192,192,174224,1,0,0:0:0:0:
320,192,174324,1,0,0:0:0:0:
64,192,174324,1,0,0:0:0:0:
192,192,174424,1,0,0:0:0:0:
320,192,174424,1,0,0:0:0:0:
64,192,174523,1,0,0:0:0:0:
448,192,174523,1,0,0:0:0:0:
192,192,174573,1,0,0:0:0:0:
448,192,174623,1,0,0:0:0:0:
320,192,174623,1,0,0:0:0:0:
64,192,174723,1,0,0:0:0:0:
192,192,174723,1,0,0:0:0:0:
320,192,174822,1,0,0:0:0:0:
192,192,174872,1,0,0:0:0:0:
320,192,174922,1,0,0:0:0:0:
448,192,174922,1,0,0:0:0:0:
192,192,175022,1,0,0:0:0:0:
64,192,175121,1,0,0:0:0:0:
320,192,175121,1,0,0:0:0:0:
192,192,175171,1,0,0:0:0:0:
448,192,175221,1,0,0:0:0:0:
320,192,175221,1,0,0:0:0:0:
64,192,175321,1,0,0:0:0:0:
192,192,175321,1,0,0:0:0:0:
320,192,175420,1,0,0:0:0:0:
448,192,175420,1,0,0:0:0:0:
192,192,175520,1,0,0:0:0:0:
320,192,175520,1,0,0:0:0:0:
64,192,175620,1,0,0:0:0:0:
192,192,175620,1,0,0:0:0:0:
320,192,175719,1,0,0:0:0:0:
448,192,175719,1,0,0:0:0:0:
448,192,175819,1,0,0:0:0:0:
64,192,175919,1,0,0:0:0:0:
320,192,175919,1,0,0:0:0:0:
320,192,176018,1,0,0:0:0:0:
192,192,176018,1,0,0:0:0:0:
64,192,176118,1,0,0:0:0:0:
448,192,176118,1,0,0:0:0:0:
192,192,176168,1,0,0:0:0:0:
320,192,176218,1,0,0:0:0:0:
448,192,176218,1,0,0:0:0:0:
64,192,176317,1,0,0:0:0:0:
192,192,176317,1,0,0:0:0:0:
320,192,176417,1,0,0:0:0:0:
192,192,176467,1,0,0:0:0:0:
448,192,176517,1,0,0:0:0:0:
320,192,176517,1,0,0:0:0:0:
192,192,176616,1,0,0:0:0:0:
64,192,176716,1,0,0:0:0:0:
320,192,176716,1,0,0:0:0:0:
192,192,176766,1,0,0:0:0:0:
448,192,176816,1,0,0:0:0:0:
320,192,176816,1,0,0:0:0:0:
64,192,176915,1,0,0:0:0:0:
448,192,176915,1,0,0:0:0:0:
320,192,177015,1,0,0:0:0:0:
64,192,177015,1,0,0:0:0:0:
448,192,177115,1,0,0:0:0:0:
192,192,177115,1,0,0:0:0:0:
64,192,177214,1,0,0:0:0:0:
192,192,177214,1,0,0:0:0:0:
448,192,177314,1,0,0:0:0:0:
320,192,177314,1,0,0:0:0:0:
64,192,177414,1,0,0:0:0:0:
320,192,177464,1,0,0:0:0:0:
448,192,177513,1,0,0:0:0:0:
64,192,177513,1,0,0:0:0:0:
320,192,177613,1,0,0:0:0:0:
192,192,177613,1,0,0:0:0:0:
64,192,177713,1,0,0:0:0:0:
192,192,177713,1,0,0:0:0:0:
320,192,177763,1,0,0:0:0:0:
64,192,177812,1,0,0:0:0:0:
448,192,177912,1,0,0:0:0:0:
192,192,177912,1,0,0:0:0:0:
320,192,177962,1,0,0:0:0:0:
448,192,178012,1,0,0:0:0:0:
320,192,178111,1,0,0:0:0:0:
64,192,178111,1,0,0:0:0:0:
192,192,178161,1,0,0:0:0:0:
448,192,178211,1,0,0:0:0:0:
64,192,178211,1,0,0:0:0:0:
320,192,178311,1,0,0:0:0:0:
192,192,178311,1,0,0:0:0:0:
192,192,178410,1,0,0:0:0:0:
448,192,178410,1,0,0:0:0:0:
64,192,178510,1,0,0:0:0:0:
320,192,178510,1,0,0:0:0:0:
320,192,178610,1,0,0:0:0:0:
64,192,178660,1,0,0:0:0:0:
192,192,178660,1,0,0:0:0:0:
192,192,178759,1,0,0:0:0:0:
320,192,178809,1,0,0:0:0:0:
64,192,178809,1,0,0:0:0:0:
448,192,178909,1,0,0:0:0:0:
320,192,178909,1,0,0:0:0:0:
192,192,179008,1,0,0:0:0:0:
320,192,179058,1,0,0:0:0:0:
448,192,179108,1,0,0:0:0:0:
64,192,179108,1,0,0:0:0:0:
448,192,179208,1,0,0:0:0:0:
320,192,179208,1,0,0:0:0:0:
64,192,179307,1,0,0:0:0:0:
192,192,179307,1,0,0:0:0:0:
320,192,179407,1,0,0:0:0:0:
64,192,179407,1,0,0:0:0:0:
192,192,179507,1,0,0:0:0:0:
448,192,179507,1,0,0:0:0:0:
320,192,179557,1,0,0:0:0:0:
64,192,179606,1,0,0:0:0:0:
448,192,179606,1,0,0:0:0:0:
192,192,179656,1,0,0:0:0:0:
320,192,179706,1,0,0:0:0:0:
64,192,179706,1,0,0:0:0:0:
320,192,179806,1,0,0:0:0:0:
448,192,179856,1,0,0:0:0:0:
64,192,179856,1,0,0:0:0:0:
192,192,179856,1,0,0:0:0:0:
192,192,179955,1,0,0:0:0:0:
64,192,180005,1,0,0:0:0:0:
448,192,180005,1,0,0:0:0:0:
320,192,180005,1,0,0:0:0:0:
192,192,180105,1,0,0:0:0:0:
320,192,180133,1,0,0:0:0:0:
448,192,180204,1,0,0:0:0:0:
320,192,180254,1,0,0:0:0:0:
64,192,180254,1,0,0:0:0:0:
192,192,180267,1,0,0:0:0:0:
64,192,180354,1,0,0:0:0:0:
448,192,180404,1,0,0:0:0:0:
192,192,180404,1,0,0:0:0:0:
320,192,180416,1,0,0:0:0:0:
64,192,180503,1,0,0:0:0:0:
192,192,180503,1,0,0:0:0:0:
448,192,180603,1,0,0:0:0:0:
320,192,180703,1,0,0:0:0:0:
64,192,180703,1,0,0:0:0:0:
192,192,180802,1,0,0:0:0:0:
320,192,180802,1,0,0:0:0:0:
64,192,180902,1,0,0:0:0:0:
448,192,180902,1,0,0:0:0:0:
192,192,180952,1,0,0:0:0:0:
448,192,181002,1,0,0:0:0:0:
320,192,181002,1,0,0:0:0:0:
64,192,181101,1,0,0:0:0:0:
192,192,181101,1,0,0:0:0:0:
320,192,181201,1,0,0:0:0:0:
192,192,181251,1,0,0:0:0:0:
320,192,181301,1,0,0:0:0:0:
448,192,181301,1,0,0:0:0:0:
192,192,181401,1,0,0:0:0:0:
64,192,181500,1,0,0:0:0:0:
320,192,181500,1,0,0:0:0:0:
192,192,181550,1,0,0:0:0:0:
448,192,181600,1,0,0:0:0:0:
320,192,181600,1,0,0:0:0:0:
64,192,181700,128,0,181749:0:0:0:0:
448,192,181700,1,0,0:0:0:0:
448,192,181799,128,0,181849:0:0:0:0:
320,192,181799,128,0,181899:0:0:0:0:
64,192,181899,128,0,181949:0:0:0:0:
192,192,181899,128,0,181999:0:0:0:0:
320,192,181999,128,0,182048:0:0:0:0:
64,192,181999,128,0,182098:0:0:0:0:
320,192,182098,1,0,0:0:0:0:
448,192,182098,1,0,0:0:0:0:
448,192,182198,1,0,0:0:0:0:
64,192,182298,1,0,0:0:0:0:
320,192,182298,1,0,0:0:0:0:
320,192,182397,1,0,0:0:0:0:
64,192,182497,1,0,0:0:0:0:
192,192,182497,1,0,0:0:0:0:
448,192,182597,1,0,0:0:0:0:
320,192,182646,1,0,0:0:0:0:
192,192,182696,1,0,0:0:0:0:
448,192,182696,1,0,0:0:0:0:
320,192,182796,1,0,0:0:0:0:
64,192,182796,1,0,0:0:0:0:
448,192,182896,1,0,0:0:0:0:
320,192,182896,1,0,0:0:0:0:
192,192,182995,1,0,0:0:0:0:
64,192,182995,1,0,0:0:0:0:
448,192,183095,1,0,0:0:0:0:
64,192,183095,1,0,0:0:0:0:
192,192,183145,1,0,0:0:0:0:
320,192,183195,1,0,0:0:0:0:
64,192,183195,1,0,0:0:0:0:
448,192,183244,1,0,0:0:0:0:
192,192,183294,128,0,183494:0:0:0:0:
320,192,183294,128,0,183394:0:0:0:0:
448,192,183394,128,0,183494:0:0:0:0:
320,192,183494,128,0,183593:0:0:0:0:
192,192,183593,128,0,183693:0:0:0:0:
320,192,183693,1,0,0:0:0:0:
448,192,183693,1,0,0:0:0:0:
64,192,183693,1,0,0:0:0:0:
320,192,183793,1,0,0:0:0:0:
192,192,183842,1,0,0:0:0:0:
448,192,183892,1,0,0:0:0:0:
64,192,183892,1,0,0:0:0:0:
320,192,183942,1,0,0:0:0:0:
192,192,183992,1,0,0:0:0:0:
64,192,183992,1,0,0:0:0:0:
448,192,183992,1,0,0:0:0:0:
448,192,184191,1,0,0:0:0:0:
320,192,184191,1,0,0:0:0:0:
192,192,184391,1,0,0:0:0:0:
320,192,184391,1,0,0:0:0:0:
192,192,184540,1,0,0:0:0:0:
320,192,184590,1,0,0:0:0:0:
64,192,184590,1,0,0:0:0:0:
192,192,184640,1,0,0:0:0:0:
320,192,184690,1,0,0:0:0:0:
192,192,184739,1,0,0:0:0:0:
448,192,184739,1,0,0:0:0:0:
320,192,184789,1,0,0:0:0:0:
64,192,184839,1,0,0:0:0:0:
448,192,184889,1,0,0:0:0:0:
192,192,184889,1,0,0:0:0:0:
448,192,184989,1,0,0:0:0:0:
320,192,184989,1,0,0:0:0:0:
192,192,185038,1,0,0:0:0:0:
64,192,185038,1,0,0:0:0:0:
192,192,185138,1,0,0:0:0:0:
64,192,185138,1,0,0:0:0:0:
448,192,185188,1,0,0:0:0:0:
320,192,185188,1,0,0:0:0:0:
64,192,185288,1,0,0:0:0:0:
448,192,185288,1,0,0:0:0:0:
192,192,185288,1,0,0:0:0:0:
64,192,185387,1,0,0:0:0:0:
320,192,185437,1,0,0:0:0:0:
448,192,185487,1,0,0:0:0:0:
192,192,185487,1,0,0:0:0:0:
64,192,185487,1,0,0:0:0:0:
192,192,185587,1,0,0:0:0:0:
64,192,185615,1,0,0:0:0:0:
448,192,185644,1,0,0:0:0:0:
320,192,185672,1,0,0:0:0:0:
64,192,185736,1,0,0:0:0:0:
320,192,185786,1,0,0:0:0:0:
448,192,185786,1,0,0:0:0:0:
64,192,185886,1,0,0:0:0:0:
192,192,185886,1,0,0:0:0:0:
320,192,185985,1,0,0:0:0:0:
448,192,186035,1,0,0:0:0:0:
192,192,186035,1,0,0:0:0:0:
320,192,186085,128,0,186234:0:0:0:0:
64,192,186234,1,0,0:0:0:0:
448,192,186234,1,0,0:0:0:0:
192,192,186384,1,0,0:0:0:0:
448,192,186384,1,0,0:0:0:0:
320,192,186484,1,0,0:0:0:0:
448,192,186484,1,0,0:0:0:0:
448,192,186633,1,0,0:0:0:0:
320,192,186633,1,0,0:0:0:0:
192,192,186783,1,0,0:0:0:0:
448,192,186783,1,0,0:0:0:0:
64,192,186882,1,0,0:0:0:0:
448,192,186882,1,0,0:0:0:0:
192,192,186982,1,0,0:0:0:0:
320,192,186982,1,0,0:0:0:0:
448,192,187082,1,0,0:0:0:0:
64,192,187082,1,0,0:0:0:0:
320,192,187131,1,0,0:0:0:0:
448,192,187181,1,0,0:0:0:0:
192,192,187181,1,0,0:0:0:0:
64,192,187231,1,0,0:0:0:0:
448,192,187381,1,0,0:0:0:0:
64,192,187381,1,0,0:0:0:0:
320,192,187480,1,0,0:0:0:0:
192,192,187480,1,0,0:0:0:0:
448,192,187580,1,0,0:0:0:0:
64,192,187580,1,0,0:0:0:0:
192,192,187630,1,0,0:0:0:0:
64,192,187680,1,0,0:0:0:0:
320,192,187680,1,0,0:0:0:0:
448,192,187729,1,0,0:0:0:0:
192,192,187779,1,0,0:0:0:0:
64,192,187779,1,0,0:0:0:0:
320,192,187879,1,0,0:0:0:0:
448,192,187879,1,0,0:0:0:0:
320,192,188078,1,0,0:0:0:0:
64,192,188078,1,0,0:0:0:0:
192,192,188128,1,0,0:0:0:0:
64,192,188178,1,0,0:0:0:0:
448,192,188178,1,0,0:0:0:0:
320,192,188228,1,0,0:0:0:0:
448,192,188278,1,0,0:0:0:0:
192,192,188278,1,0,0:0:0:0:
320,192,188377,1,0,0:0:0:0:
192,192,188377,1,0,0:0:0:0:
448,192,188477,1,0,0:0:0:0:
64,192,188477,1,0,0:0:0:0:
192,192,188527,1,0,0:0:0:0:
320,192,188577,1,0,0:0:0:0:
64,192,188577,1,0,0:0:0:0:
448,192,188676,1,0,0:0:0:0:
192,192,188676,1,0,0:0:0:0:
320,192,188726,1,0,0:0:0:0:
64,192,188776,1,0,0:0:0:0:
448,192,188776,1,0,0:0:0:0:
192,192,188876,1,0,0:0:0:0:
320,192,188876,1,0,0:0:0:0:
448,192,188975,1,0,0:0:0:0:
64,192,188975,1,0,0:0:0:0:
448,192,189175,1,0,0:0:0:0:
64,192,189175,1,0,0:0:0:0:
192,192,189274,1,0,0:0:0:0:
320,192,189274,1,0,0:0:0:0:
320,192,189474,1,0,0:0:0:0:
64,192,189474,1,0,0:0:0:0:
192,192,189523,1,0,0:0:0:0:
448,192,189573,1,0,0:0:0:0:
64,192,189573,1,0,0:0:0:0:
64,192,189673,1,0,0:0:0:0:
192,192,189673,1,0,0:0:0:0:
448,192,189773,1,0,0:0:0:0:
320,192,189773,1,0,0:0:0:0:
64,192,189872,1,0,0:0:0:0:
192,192,189872,1,0,0:0:0:0:
448,192,190072,1,0,0:0:0:0:
320,192,190072,1,0,0:0:0:0:
448,192,190171,1,0,0:0:0:0:
320,192,190171,1,0,0:0:0:0:
192,192,190221,1,0,0:0:0:0:
64,192,190271,1,0,0:0:0:0:
320,192,190271,1,0,0:0:0:0:
64,192,190371,1,0,0:0:0:0:
192,192,190371,1,0,0:0:0:0:
320,192,190420,1,0,0:0:0:0:
448,192,190470,1,0,0:0:0:0:
192,192,190470,1,0,0:0:0:0:
448,192,190570,1,0,0:0:0:0:
320,192,190570,1,0,0:0:0:0:
192,192,190769,1,0,0:0:0:0:
64,192,190769,1,0,0:0:0:0:
320,192,190819,1,0,0:0:0:0:
448,192,190869,1,0,0:0:0:0:
64,192,190869,1,0,0:0:0:0:
192,192,190919,1,0,0:0:0:0:
320,192,190969,1,0,0:0:0:0:
64,192,190969,1,0,0:0:0:0:
448,192,191018,1,0,0:0:0:0:
192,192,191168,1,0,0:0:0:0:
448,192,191168,1,0,0:0:0:0:
64,192,191268,1,0,0:0:0:0:
320,192,191268,1,0,0:0:0:0:
448,192,191367,1,0,0:0:0:0:
192,192,191367,1,0,0:0:0:0:
64,192,191467,1,0,0:0:0:0:
320,192,191467,1,0,0:0:0:0:
320,192,191666,1,0,0:0:0:0:
448,192,191666,1,0,0:0:0:0:
64,192,191716,1,0,0:0:0:0:
192,192,191716,1,0,0:0:0:0:
448,192,191766,1,0,0:0:0:0:
320,192,191816,1,0,0:0:0:0:
192,192,191866,1,0,0:0:0:0:
448,192,191866,1,0,0:0:0:0:
64,192,191965,1,0,0:0:0:0:
320,192,191965,1,0,0:0:0:0:
192,192,192015,1,0,0:0:0:0:
448,192,192065,1,0,0:0:0:0:
64,192,192065,1,0,0:0:0:0:
192,192,192165,1,0,0:0:0:0:
448,192,192165,1,0,0:0:0:0:
64,192,192364,1,0,0:0:0:0:
320,192,192364,1,0,0:0:0:0:
448,192,192464,1,0,0:0:0:0:
64,192,192464,1,0,0:0:0:0:
320,192,192513,1,0,0:0:0:0:
448,192,192563,1,0,0:0:0:0:
192,192,192563,1,0,0:0:0:0:
320,192,192663,1,0,0:0:0:0:
64,192,192663,1,0,0:0:0:0:
192,192,192713,1,0,0:0:0:0:
448,192,192763,1,0,0:0:0:0:
64,192,192763,1,0,0:0:0:0:
192,192,192862,1,0,0:0:0:0:
320,192,192862,1,0,0:0:0:0:
192,192,192962,1,0,0:0:0:0:
320,192,192962,1,0,0:0:0:0:
448,192,193012,1,0,0:0:0:0:
64,192,193012,1,0,0:0:0:0:
64,192,193111,1,0,0:0:0:0:
448,192,193111,1,0,0:0:0:0:
320,192,193161,1,0,0:0:0:0:
192,192,193161,1,0,0:0:0:0:
64,192,193261,1,0,0:0:0:0:
448,192,193261,1,0,0:0:0:0:
320,192,193381,1,0,0:0:0:0:
192,192,193420,1,0,0:0:0:0:
448,192,193460,1,0,0:0:0:0:
64,192,193460,1,0,0:0:0:0:
320,192,193560,1,0,0:0:0:0:
192,192,193560,1,0,0:0:0:0:
64,192,193660,1,0,0:0:0:0:
448,192,193660,1,0,0:0:0:0:
320,192,193709,1,0,0:0:0:0:
192,192,193709,1,0,0:0:0:0:
64,192,193809,1,0,0:0:0:0:
448,192,193809,1,0,0:0:0:0:
192,192,193859,1,0,0:0:0:0:
320,192,193909,1,0,0:0:0:0:
64,192,193959,1,0,0:0:0:0:
448,192,193959,1,0,0:0:0:0:
64,192,194058,1,0,0:0:0:0:
192,192,194058,1,0,0:0:0:0:
448,192,194158,1,0,0:0:0:0:
320,192,194158,1,0,0:0:0:0:
192,192,194208,1,0,0:0:0:0:
64,192,194258,1,0,0:0:0:0:
320,192,194258,1,0,0:0:0:0:
64,192,194457,1,0,0:0:0:0:
192,192,194457,1,0,0:0:0:0:
64,192,194557,1,0,0:0:0:0:
192,192,194557,1,0,0:0:0:0:
448,192,194606,1,0,0:0:0:0:
320,192,194606,1,0,0:0:0:0:
320,192,194706,1,0,0:0:0:0:
448,192,194706,1,0,0:0:0:0:
64,192,194756,1,0,0:0:0:0:
192,192,194756,1,0,0:0:0:0:
448,192,194856,1,0,0:0:0:0:
320,192,194856,1,0,0:0:0:0:
192,192,194955,1,0,0:0:0:0:
64,192,194955,1,0,0:0:0:0:
320,192,195005,1,0,0:0:0:0:
192,192,195055,1,0,0:0:0:0:
64,192,195088,1,0,0:0:0:0:
448,192,195121,1,0,0:0:0:0:
320,192,195155,1,0,0:0:0:0:
192,192,195188,1,0,0:0:0:0:
64,192,195221,1,0,0:0:0:0:
448,192,195354,1,0,0:0:0:0:
64,192,195354,1,0,0:0:0:0:
320,192,195454,1,0,0:0:0:0:
192,192,195454,1,0,0:0:0:0:
320,192,195553,1,0,0:0:0:0:
192,192,195553,1,0,0:0:0:0:
448,192,195603,1,0,0:0:0:0:
64,192,195603,1,0,0:0:0:0:
64,192,195703,1,0,0:0:0:0:
448,192,195703,1,0,0:0:0:0:
448,192,195802,1,0,0:0:0:0:
64,192,195802,1,0,0:0:0:0:
192,192,195852,1,0,0:0:0:0:
320,192,195852,1,0,0:0:0:0:
64,192,195952,1,0,0:0:0:0:
448,192,195952,1,0,0:0:0:0:
320,192,196052,1,0,0:0:0:0:
192,192,196052,1,0,0:0:0:0:
448,192,196118,1,0,0:0:0:0:
64,192,196118,1,0,0:0:0:0:
320,192,196185,1,0,0:0:0:0:
192,192,196185,1,0,0:0:0:0:
448,192,196251,1,0,0:0:0:0:
64,192,196251,1,0,0:0:0:0:
448,192,196450,1,0,0:0:0:0:
64,192,196450,1,0,0:0:0:0:
192,192,196500,1,0,0:0:0:0:
320,192,196500,1,0,0:0:0:0:
448,192,196550,1,0,0:0:0:0:
64,192,196600,1,0,0:0:0:0:
192,192,196650,1,0,0:0:0:0:
320,192,196650,1,0,0:0:0:0:
64,192,196849,1,0,0:0:0:0:
320,192,196849,1,0,0:0:0:0:
192,192,196999,1,0,0:0:0:0:
448,192,197048,1,0,0:0:0:0:
64,192,197048,1,0,0:0:0:0:
320,192,197098,1,0,0:0:0:0:
192,192,197098,1,0,0:0:0:0:
448,192,197148,1,0,0:0:0:0:
64,192,197148,1,0,0:0:0:0:
448,192,197248,1,0,0:0:0:0:
192,192,197248,1,0,0:0:0:0:
64,192,197381,1,0,0:0:0:0:
320,192,197381,1,0,0:0:0:0:
192,192,197513,1,0,0:0:0:0:
448,192,197513,1,0,0:0:0:0:
448,192,197646,1,0,0:0:0:0:
320,192,197713,1,0,0:0:0:0:
64,192,197713,1,0,0:0:0:0:
192,192,197779,1,0,0:0:0:0:
448,192,197779,1,0,0:0:0:0:
320,192,197846,1,0,0:0:0:0:
64,192,197846,1,0,0:0:0:0:
192,192,197912,1,0,0:0:0:0:
448,192,197912,1,0,0:0:0:0:
64,192,197979,1,0,0:0:0:0:
320,192,198045,1,0,0:0:0:0:
448,192,198045,1,0,0:0:0:0:
192,192,199640,1,0,0:0:0:0:
448,192,199640,1,0,0:0:0:0:
320,192,199690,1,0,0:0:0:0:
448,192,199739,1,0,0:0:0:0:
320,192,199839,1,0,0:0:0:0:
64,192,199839,1,0,0:0:0:0:
192,192,199889,1,0,0:0:0:0:
64,192,199939,1,0,0:0:0:0:
192,192,200038,1,0,0:0:0:0:
448,192,200038,1,0,0:0:0:0:
320,192,200088,1,0,0:0:0:0:
448,192,200138,1,0,0:0:0:0:
320,192,200238,1,0,0:0:0:0:
64,192,200238,1,0,0:0:0:0:
192,192,200288,1,0,0:0:0:0:
64,192,200337,1,0,0:0:0:0:
320,192,200437,1,0,0:0:0:0:
192,192,200487,1,0,0:0:0:0:
448,192,200537,1,0,0:0:0:0:
64,192,200537,1,0,0:0:0:0:
320,192,200587,1,0,0:0:0:0:
192,192,200587,1,0,0:0:0:0:
448,192,200636,1,0,0:0:0:0:
64,192,200636,1,0,0:0:0:0:
192,192,200736,1,0,0:0:0:0:
320,192,200786,1,0,0:0:0:0:
64,192,200836,1,0,0:0:0:0:
448,192,200836,1,0,0:0:0:0:
320,192,200886,1,0,0:0:0:0:
192,192,200886,1,0,0:0:0:0:
64,192,200935,1,0,0:0:0:0:
448,192,200935,1,0,0:0:0:0:
320,192,201035,1,0,0:0:0:0:
192,192,201035,1,0,0:0:0:0:
448,192,201234,1,0,0:0:0:0:
64,192,201234,1,0,0:0:0:0:
192,192,201234,1,0,0:0:0:0:
320,192,204424,5,0,0:0:0:0:
64,192,204424,1,0,0:0:0:0:
192,192,204424,1,0,0:0:0:0:
64,192,205221,1,0,0:0:0:0:
192,192,205221,1,0,0:0:0:0:
64,192,206018,5,0,0:0:0:0:
320,192,207052,128,0,207177:0:0:0:0:
192,192,207052,128,0,207165:0:0:0:0:
448,192,207152,128,0,207389:0:0:0:0:
64,192,207152,128,0,207364:0:0:0:0:
192,192,207351,128,0,207451:0:0:0:0:
320,192,207351,128,0,207464:0:0:0:0:
192,192,207613,1,0,0:0:0:0:
64,192,207613,1,0,0:0:0:0:
320,192,207613,128,0,207713:0:0:0:0:
448,192,207613,128,0,207713:0:0:0:0:
192,192,207713,128,0,207812:0:0:0:0:
448,192,207812,1,0,0:0:0:0:
64,192,207812,128,0,207912:0:0:0:0:
320,192,207862,128,0,207962:0:0:0:0:
192,192,207912,128,0,208012:0:0:0:0:
448,192,208012,1,0,0:0:0:0:
320,192,208012,128,0,208062:0:0:0:0:
192,192,208062,1,0,0:0:0:0:
64,192,208111,128,0,208211:0:0:0:0:
320,192,208161,128,0,208211:0:0:0:0:
192,192,208211,128,0,208311:0:0:0:0:
448,192,208211,128,0,208261:0:0:0:0:
320,192,208311,128,0,208361:0:0:0:0:
448,192,208361,128,0,208460:0:0:0:0:
64,192,208410,1,0,0:0:0:0:
192,192,208410,128,0,208460:0:0:0:0:
192,192,208510,128,0,208560:0:0:0:0:
320,192,208560,128,0,208660:0:0:0:0:
448,192,208610,128,0,208759:0:0:0:0:
64,192,208610,1,0,0:0:0:0:
320,192,208709,128,0,208809:0:0:0:0:
192,192,208809,128,0,208859:0:0:0:0:
64,192,208809,128,0,208909:0:0:0:0:
192,192,208909,1,0,0:0:0:0:
64,192,208959,1,0,0:0:0:0:
448,192,209008,1,0,0:0:0:0:
320,192,209008,1,0,0:0:0:0:
192,192,209058,128,0,209158:0:0:0:0:
320,192,209108,128,0,209158:0:0:0:0:
192,192,209208,128,0,209258:0:0:0:0:
320,192,209208,128,0,209307:0:0:0:0:
64,192,209307,1,0,0:0:0:0:
448,192,209357,1,0,0:0:0:0:
192,192,209407,1,0,0:0:0:0:
320,192,209407,1,0,0:0:0:0:
64,192,209457,128,0,209507:0:0:0:0:
448,192,209507,128,0,209606:0:0:0:0:
192,192,209606,1,0,0:0:0:0:
64,192,209606,1,0,0:0:0:0:
320,192,209656,1,0,0:0:0:0:
192,192,209706,1,0,0:0:0:0:
448,192,209756,128,0,209806:0:0:0:0:
64,192,209806,128,0,209905:0:0:0:0:
320,192,209806,1,0,0:0:0:0:
192,192,209905,128,0,209955:0:0:0:0:
320,192,209955,128,0,210005:0:0:0:0:
448,192,210005,128,0,210105:0:0:0:0:
64,192,210005,128,0,210105:0:0:0:0:
320,192,210105,1,0,0:0:0:0:
192,192,210155,128,0,210204:0:0:0:0:
448,192,210204,1,0,0:0:0:0:
320,192,210204,1,0,0:0:0:0:
64,192,210254,1,0,0:0:0:0:
192,192,210304,128,0,210404:0:0:0:0:
320,192,210404,1,0,0:0:0:0:
448,192,210404,128,0,210503:0:0:0:0:
64,192,210503,1,0,0:0:0:0:
320,192,210553,128,0,210603:0:0:0:0:
448,192,210603,1,0,0:0:0:0:
192,192,210603,1,0,0:0:0:0:
320,192,210653,1,0,0:0:0:0:
192,192,210703,128,0,210802:0:0:0:0:
64,192,210703,128,0,210802:0:0:0:0:
320,192,210802,128,0,210852:0:0:0:0:
448,192,210802,128,0,210902:0:0:0:0:
320,192,210902,1,0,0:0:0:0:
448,192,210952,1,0,0:0:0:0:
64,192,211002,1,0,0:0:0:0:
192,192,211002,128,0,211052:0:0:0:0:
320,192,211052,128,0,211101:0:0:0:0:
64,192,211101,128,0,211201:0:0:0:0:
448,192,211201,1,0,0:0:0:0:
320,192,211201,128,0,211251:0:0:0:0:
192,192,211251,128,0,211351:0:0:0:0:
64,192,211301,128,0,211351:0:0:0:0:
320,192,211351,128,0,211401:0:0:0:0:
192,192,211401,128,0,211500:0:0:0:0:
448,192,211401,128,0,211500:0:0:0:0:
64,192,211500,128,0,211550:0:0:0:0:
320,192,211550,1,0,0:0:0:0:
192,192,211600,128,0,211700:0:0:0:0:
64,192,211600,128,0,211700:0:0:0:0:
320,192,211700,1,0,0:0:0:0:
448,192,211749,1,0,0:0:0:0:
320,192,211799,1,0,0:0:0:0:
192,192,211799,128,0,211849:0:0:0:0:
64,192,211849,128,0,211899:0:0:0:0:
192,192,211899,128,0,211949:0:0:0:0:
320,192,211949,1,0,0:0:0:0:
64,192,211999,128,0,212048:0:0:0:0:
448,192,211999,128,0,212098:0:0:0:0:
320,192,212098,128,0,212298:0:0:0:0:
192,192,212198,128,0,212298:0:0:0:0:
64,192,212198,1,0,0:0:0:0:
448,192,212298,128,0,212347:0:0:0:0:
64,192,212298,128,0,212397:0:0:0:0:
192,192,212397,1,0,0:0:0:0:
448,192,212397,128,0,212547:0:0:0:0:
64,192,212497,128,0,212597:0:0:0:0:
192,192,212547,128,0,212597:0:0:0:0:
320,192,212597,128,0,212746:0:0:0:0:
448,192,212597,1,0,0:0:0:0:
64,192,212696,128,0,212796:0:0:0:0:
448,192,212746,128,0,212796:0:0:0:0:
192,192,212796,128,0,212945:0:0:0:0:
320,192,212796,1,0,0:0:0:0:
320,192,212896,128,0,212995:0:0:0:0:
448,192,212945,128,0,212995:0:0:0:0:
64,192,212995,128,0,213145:0:0:0:0:
192,192,212995,1,0,0:0:0:0:
192,192,213095,128,0,213195:0:0:0:0:
320,192,213145,128,0,213195:0:0:0:0:
448,192,213195,128,0,213344:0:0:0:0:
64,192,213195,1,0,0:0:0:0:
192,192,213294,128,0,213394:0:0:0:0:
64,192,213344,128,0,213394:0:0:0:0:
320,192,213394,128,0,213543:0:0:0:0:
448,192,213394,1,0,0:0:0:0:
192,192,213494,128,0,213543:0:0:0:0:
448,192,213543,128,0,213593:0:0:0:0:
64,192,213593,1,0,0:0:0:0:
192,192,213593,128,0,213743:0:0:0:0:
448,192,213643,1,0,0:0:0:0:
320,192,213643,1,0,0:0:0:0:
320,192,213743,1,0,0:0:0:0:
448,192,213743,1,0,0:0:0:0:
192,192,213793,1,0,0:0:0:0:
64,192,213793,128,0,213892:0:0:0:0:
448,192,213892,1,0,0:0:0:0:
320,192,213892,1,0,0:0:0:0:
192,192,213992,1,0,0:0:0:0:
64,192,213992,1,0,0:0:0:0:
320,192,213992,128,0,214092:0:0:0:0:
448,192,213992,128,0,214092:0:0:0:0:
192,192,214092,128,0,214191:0:0:0:0:
448,192,214191,1,0,0:0:0:0:
64,192,214191,128,0,214291:0:0:0:0:
320,192,214241,128,0,214341:0:0:0:0:
192,192,214291,128,0,214391:0:0:0:0:
448,192,214391,1,0,0:0:0:0:
320,192,214391,128,0,214440:0:0:0:0:
192,192,214440,1,0,0:0:0:0:
64,192,214490,128,0,214590:0:0:0:0:
320,192,214540,128,0,214590:0:0:0:0:
192,192,214590,128,0,214690:0:0:0:0:
448,192,214590,128,0,214640:0:0:0:0:
320,192,214690,128,0,214739:0:0:0:0:
448,192,214739,128,0,214839:0:0:0:0:
64,192,214789,1,0,0:0:0:0:
192,192,214789,128,0,214839:0:0:0:0:
192,192,214889,128,0,214939:0:0:0:0:
320,192,214939,128,0,215038:0:0:0:0:
448,192,214989,128,0,215138:0:0:0:0:
64,192,214989,1,0,0:0:0:0:
320,192,215088,128,0,215188:0:0:0:0:
192,192,215188,128,0,215238:0:0:0:0:
64,192,215188,128,0,215288:0:0:0:0:
192,192,215288,1,0,0:0:0:0:
320,192,215288,1,0,0:0:0:0:
64,192,215337,1,0,0:0:0:0:
448,192,215387,1,0,0:0:0:0:
320,192,215387,1,0,0:0:0:0:
192,192,215437,128,0,215537:0:0:0:0:
320,192,215487,128,0,215537:0:0:0:0:
64,192,215487,1,0,0:0:0:0:
192,192,215587,128,0,215636:0:0:0:0:
448,192,215587,128,0,215686:0:0:0:0:
64,192,215686,1,0,0:0:0:0:
448,192,215736,1,0,0:0:0:0:
192,192,215786,1,0,0:0:0:0:
320,192,215786,1,0,0:0:0:0:
64,192,215836,128,0,215886:0:0:0:0:
448,192,215886,128,0,215985:0:0:0:0:
192,192,215985,1,0,0:0:0:0:
64,192,215985,1,0,0:0:0:0:
320,192,216035,1,0,0:0:0:0:
192,192,216085,1,0,0:0:0:0:
448,192,216135,128,0,216185:0:0:0:0:
64,192,216185,128,0,216284:0:0:0:0:
320,192,216185,1,0,0:0:0:0:
192,192,216284,128,0,216334:0:0:0:0:
320,192,216334,128,0,216384:0:0:0:0:
448,192,216384,128,0,216484:0:0:0:0:
64,192,216384,128,0,216484:0:0:0:0:
320,192,216533,128,0,216583:0:0:0:0:
192,192,216583,1,0,0:0:0:0:
448,192,216583,1,0,0:0:0:0:
64,192,216633,1,0,0:0:0:0:
448,192,216683,1,0,0:0:0:0:
192,192,216683,128,0,216733:0:0:0:0:
320,192,216733,1,0,0:0:0:0:
64,192,216783,128,0,216832:0:0:0:0:
448,192,216783,1,0,0:0:0:0:
64,192,216882,1,0,0:0:0:0:
192,192,216882,1,0,0:0:0:0:
320,192,216932,128,0,216982:0:0:0:0:
192,192,216982,1,0,0:0:0:0:
64,192,216982,1,0,0:0:0:0:
320,192,217082,1,0,0:0:0:0:
448,192,217082,128,0,217181:0:0:0:0:
320,192,217181,1,0,0:0:0:0:
192,192,217181,128,0,217381:0:0:0:0:
64,192,217181,128,0,217281:0:0:0:0:
320,192,217381,1,0,0:0:0:0:
64,192,217381,1,0,0:0:0:0:
192,192,217480,1,0,0:0:0:0:
448,192,217480,128,0,217580:0:0:0:0:
320,192,217480,128,0,217680:0:0:0:0:
64,192,217680,1,0,0:0:0:0:
192,192,217680,1,0,0:0:0:0:
448,192,217729,1,0,0:0:0:0:
320,192,217729,1,0,0:0:0:0:
320,192,217829,1,0,0:0:0:0:
448,192,217829,1,0,0:0:0:0:
192,192,217879,128,0,218028:0:0:0:0:
64,192,217879,1,0,0:0:0:0:
448,192,217979,128,0,218078:0:0:0:0:
320,192,217979,128,0,218028:0:0:0:0:
192,192,218078,1,0,0:0:0:0:
320,192,218078,1,0,0:0:0:0:
192,192,218178,128,0,218228:0:0:0:0:
64,192,218178,1,0,0:0:0:0:
64,192,218278,128,0,218377:0:0:0:0:
192,192,218311,1,0,0:0:0:0:
320,192,218344,1,0,0:0:0:0:
448,192,218377,1,0,0:0:0:0:
192,192,218427,1,0,0:0:0:0:
320,192,218477,1,0,0:0:0:0:
64,192,218477,1,0,0:0:0:0:
448,192,218527,1,0,0:0:0:0:
192,192,218577,1,0,0:0:0:0:
64,192,218577,1,0,0:0:0:0:
320,192,218676,1,0,0:0:0:0:
448,192,218676,1,0,0:0:0:0:
64,192,218776,1,0,0:0:0:0:
320,192,218776,1,0,0:0:0:0:
192,192,218826,1,0,0:0:0:0:
64,192,218876,1,0,0:0:0:0:
192,192,218975,1,0,0:0:0:0:
448,192,218975,1,0,0:0:0:0:
320,192,219025,1,0,0:0:0:0:
448,192,219075,1,0,0:0:0:0:
64,192,219175,1,0,0:0:0:0:
320,192,219175,1,0,0:0:0:0:
192,192,219224,1,0,0:0:0:0:
64,192,219274,1,0,0:0:0:0:
192,192,219374,1,0,0:0:0:0:
448,192,219374,1,0,0:0:0:0:
320,192,219424,1,0,0:0:0:0:
448,192,219474,1,0,0:0:0:0:
64,192,219573,1,0,0:0:0:0:
192,192,219573,1,0,0:0:0:0:
448,192,219623,1,0,0:0:0:0:
320,192,219623,1,0,0:0:0:0:
192,192,219673,1,0,0:0:0:0:
320,192,219723,1,0,0:0:0:0:
448,192,219773,1,0,0:0:0:0:
64,192,219773,1,0,0:0:0:0:
320,192,219872,1,0,0:0:0:0:
448,192,219872,1,0,0:0:0:0:
64,192,219922,1,0,0:0:0:0:
192,192,219922,1,0,0:0:0:0:
320,192,219972,1,0,0:0:0:0:
192,192,220022,1,0,0:0:0:0:
64,192,220072,1,0,0:0:0:0:
448,192,220072,1,0,0:0:0:0:
320,192,220171,1,0,0:0:0:0:
64,192,220171,1,0,0:0:0:0:
192,192,220221,1,0,0:0:0:0:
448,192,220271,1,0,0:0:0:0:
64,192,220271,1,0,0:0:0:0:
320,192,220321,1,0,0:0:0:0:
448,192,220371,128,0,220520:0:0:0:0:
64,192,220570,128,0,220670:0:0:0:0:
448,192,220570,128,0,220670:0:0:0:0:
320,192,220620,128,0,220719:0:0:0:0:
192,192,220670,128,0,220769:0:0:0:0:
448,192,220769,1,0,0:0:0:0:
320,192,220769,128,0,220819:0:0:0:0:
192,192,220819,1,0,0:0:0:0:
64,192,220869,128,0,220969:0:0:0:0:
320,192,220919,128,0,220969:0:0:0:0:
192,192,220969,128,0,221068:0:0:0:0:
448,192,220969,128,0,221018:0:0:0:0:
320,192,221068,128,0,221118:0:0:0:0:
448,192,221118,128,0,221218:0:0:0:0:
64,192,221168,1,0,0:0:0:0:
192,192,221168,128,0,221218:0:0:0:0:
192,192,221268,128,0,221317:0:0:0:0:
320,192,221317,128,0,221417:0:0:0:0:
448,192,221367,128,0,221517:0:0:0:0:
64,192,221367,1,0,0:0:0:0:
320,192,221467,128,0,221567:0:0:0:0:
192,192,221567,128,0,221616:0:0:0:0:
64,192,221567,128,0,221666:0:0:0:0:
192,192,221666,1,0,0:0:0:0:
64,192,221716,1,0,0:0:0:0:
448,192,221766,1,0,0:0:0:0:
320,192,221766,1,0,0:0:0:0:
192,192,221816,128,0,221915:0:0:0:0:
320,192,221866,128,0,221915:0:0:0:0:
192,192,221965,128,0,222015:0:0:0:0:
320,192,221965,128,0,222065:0:0:0:0:
64,192,222065,1,0,0:0:0:0:
448,192,222115,1,0,0:0:0:0:
192,192,222165,1,0,0:0:0:0:
320,192,222165,1,0,0:0:0:0:
64,192,222214,128,0,222264:0:0:0:0:
448,192,222264,128,0,222364:0:0:0:0:
192,192,222364,1,0,0:0:0:0:
64,192,222364,1,0,0:0:0:0:
320,192,222414,1,0,0:0:0:0:
192,192,222464,1,0,0:0:0:0:
448,192,222513,128,0,222563:0:0:0:0:
64,192,222563,128,0,222663:0:0:0:0:
320,192,222563,1,0,0:0:0:0:
192,192,222663,128,0,222713:0:0:0:0:
320,192,222713,128,0,222763:0:0:0:0:
448,192,222763,128,0,222862:0:0:0:0:
64,192,222763,128,0,222862:0:0:0:0:
320,192,222862,1,0,0:0:0:0:
192,192,222912,128,0,222962:0:0:0:0:
448,192,222962,1,0,0:0:0:0:
320,192,222962,1,0,0:0:0:0:
64,192,223012,1,0,0:0:0:0:
192,192,223062,128,0,223161:0:0:0:0:
320,192,223161,1,0,0:0:0:0:
448,192,223161,128,0,223261:0:0:0:0:
64,192,223261,1,0,0:0:0:0:
320,192,223311,128,0,223361:0:0:0:0:
448,192,223361,1,0,0:0:0:0:
192,192,223361,1,0,0:0:0:0:
320,192,223410,1,0,0:0:0:0:
192,192,223460,128,0,223560:0:0:0:0:
64,192,223460,128,0,223560:0:0:0:0:
320,192,223560,128,0,223610:0:0:0:0:
448,192,223560,128,0,223660:0:0:0:0:
320,192,223660,1,0,0:0:0:0:
448,192,223709,1,0,0:0:0:0:
64,192,223759,1,0,0:0:0:0:
192,192,223759,128,0,223809:0:0:0:0:
320,192,223809,128,0,223859:0:0:0:0:
64,192,223859,128,0,223959:0:0:0:0:
448,192,223959,1,0,0:0:0:0:
320,192,223959,128,0,224008:0:0:0:0:
192,192,224008,128,0,224108:0:0:0:0:
64,192,224058,128,0,224108:0:0:0:0:
320,192,224108,128,0,224158:0:0:0:0:
192,192,224158,128,0,224258:0:0:0:0:
448,192,224158,128,0,224258:0:0:0:0:
64,192,224258,128,0,224307:0:0:0:0:
320,192,224307,1,0,0:0:0:0:
192,192,224357,128,0,224457:0:0:0:0:
64,192,224357,128,0,224457:0:0:0:0:
320,192,224457,1,0,0:0:0:0:
448,192,224507,1,0,0:0:0:0:
320,192,224557,1,0,0:0:0:0:
192,192,224557,128,0,224606:0:0:0:0:
64,192,224606,128,0,224656:0:0:0:0:
192,192,224656,128,0,224706:0:0:0:0:
320,192,224706,1,0,0:0:0:0:
64,192,224756,128,0,224806:0:0:0:0:
448,192,224756,128,0,224856:0:0:0:0:
320,192,224856,128,0,225055:0:0:0:0:
192,192,224955,128,0,225055:0:0:0:0:
64,192,224955,1,0,0:0:0:0:
448,192,225055,128,0,225105:0:0:0:0:
64,192,225055,128,0,225155:0:0:0:0:
192,192,225155,1,0,0:0:0:0:
448,192,225155,128,0,225304:0:0:0:0:
64,192,225254,128,0,225354:0:0:0:0:
192,192,225304,128,0,225354:0:0:0:0:
320,192,225354,128,0,225503:0:0:0:0:
448,192,225354,1,0,0:0:0:0:
64,192,225454,128,0,225553:0:0:0:0:
448,192,225503,128,0,225553:0:0:0:0:
192,192,225553,128,0,225703:0:0:0:0:
320,192,225553,1,0,0:0:0:0:
320,192,225653,128,0,225753:0:0:0:0:
448,192,225703,128,0,225753:0:0:0:0:
64,192,225753,128,0,225902:0:0:0:0:
192,192,225753,1,0,0:0:0:0:
192,192,225852,128,0,225952:0:0:0:0:
320,192,225902,128,0,225952:0:0:0:0:
448,192,225952,128,0,226101:0:0:0:0:
64,192,225952,1,0,0:0:0:0:
192,192,226052,128,0,226151:0:0:0:0:
64,192,226101,128,0,226151:0:0:0:0:
320,192,226151,128,0,226301:0:0:0:0:
448,192,226151,1,0,0:0:0:0:
448,192,226251,128,0,226351:0:0:0:0:
64,192,226301,128,0,226351:0:0:0:0:
320,192,226351,1,0,0:0:0:0:
192,192,226351,128,0,226500:0:0:0:0:
448,192,226450,128,0,226550:0:0:0:0:
320,192,226500,128,0,226550:0:0:0:0:
64,192,226550,128,0,226749:0:0:0:0:
192,192,226550,1,0,0:0:0:0:
320,192,226650,1,0,0:0:0:0:
448,192,226650,1,0,0:0:0:0:
192,192,226749,1,0,0:0:0:0:
448,192,226749,1,0,0:0:0:0:
320,192,226749,1,0,0:0:0:0:
192,192,226849,1,0,0:0:0:0:
64,192,226849,1,0,0:0:0:0:
448,192,226949,1,0,0:0:0:0:
64,192,226949,1,0,0:0:0:0:
320,192,227048,1,0,0:0:0:0:
192,192,227048,1,0,0:0:0:0:
448,192,227148,1,0,0:0:0:0:
64,192,227148,1,0,0:0:0:0:
320,192,227248,1,0,0:0:0:0:
448,192,227248,1,0,0:0:0:0:
64,192,227347,1,0,0:0:0:0:
192,192,227347,1,0,0:0:0:0:
64,192,227447,1,0,0:0:0:0:
320,192,227447,1,0,0:0:0:0:
192,192,227497,1,0,0:0:0:0:
64,192,227547,1,0,0:0:0:0:
448,192,227547,1,0,0:0:0:0:
320,192,227646,1,0,0:0:0:0:
448,192,227646,1,0,0:0:0:0:
64,192,227746,1,0,0:0:0:0:
192,192,227746,1,0,0:0:0:0:
192,192,227846,1,0,0:0:0:0:
448,192,227846,1,0,0:0:0:0:
320,192,227896,1,0,0:0:0:0:
448,192,227945,1,0,0:0:0:0:
64,192,227945,1,0,0:0:0:0:
64,192,228045,1,0,0:0:0:0:
192,192,228045,1,0,0:0:0:0:
448,192,228145,1,0,0:0:0:0:
320,192,228145,1,0,0:0:0:0:
64,192,228195,1,0,0:0:0:0:
448,192,228244,1,0,0:0:0:0:
64,192,228294,1,0,0:0:0:0:
320,192,228344,1,0,0:0:0:0:
192,192,228344,1,0,0:0:0:0:
64,192,228444,1,0,0:0:0:0:
448,192,228444,1,0,0:0:0:0:
320,192,228543,1,0,0:0:0:0:
192,192,228543,1,0,0:0:0:0:
64,192,228643,1,0,0:0:0:0:
192,192,228643,1,0,0:0:0:0:
448,192,228743,1,0,0:0:0:0:
320,192,228743,1,0,0:0:0:0:
192,192,228842,1,0,0:0:0:0:
320,192,228842,1,0,0:0:0:0:
64,192,228942,1,0,0:0:0:0:
448,192,228942,1,0,0:0:0:0:
192,192,229042,1,0,0:0:0:0:
64,192,229042,1,0,0:0:0:0:
320,192,229092,1,0,0:0:0:0:
192,192,229141,128,0,229291:0:0:0:0:
448,192,229141,1,0,0:0:0:0:
64,192,229191,1,0,0:0:0:0:
320,192,229241,1,0,0:0:0:0:
448,192,229291,128,0,229391:0:0:0:0:
192,192,229341,128,0,229391:0:0:0:0:
64,192,229341,1,0,0:0:0:0:
320,192,229440,128,0,229540:0:0:0:0:
448,192,229440,1,0,0:0:0:0:
192,192,229490,1,0,0:0:0:0:
64,192,229540,128,0,229590:0:0:0:0:
448,192,229540,1,0,0:0:0:0:
64,192,229640,1,0,0:0:0:0:
320,192,229690,128,0,229789:0:0:0:0:
192,192,229739,128,0,229789:0:0:0:0:
64,192,229739,1,0,0:0:0:0:
320,192,229839,128,0,229889:0:0:0:0:
192,192,229839,128,0,229939:0:0:0:0:
320,192,229939,128,0,229989:0:0:0:0:
448,192,229939,128,0,229989:0:0:0:0:
64,192,229939,128,0,229989:0:0:0:0:
192,192,229989,1,0,0:0:0:0:
448,192,230038,1,0,0:0:0:0:
320,192,230088,1,0,0:0:0:0:
192,192,230138,128,0,230238:0:0:0:0:
64,192,230138,1,0,0:0:0:0:
320,192,230238,128,0,230337:0:0:0:0:
448,192,230238,1,0,0:0:0:0:
192,192,230337,1,0,0:0:0:0:
64,192,230337,1,0,0:0:0:0:
448,192,230437,1,0,0:0:0:0:
64,192,230437,1,0,0:0:0:0:
320,192,230537,1,0,0:0:0:0:
64,192,230587,1,0,0:0:0:0:
448,192,230636,1,0,0:0:0:0:
320,192,230636,1,0,0:0:0:0:
64,192,230686,1,0,0:0:0:0:
448,192,230736,1,0,0:0:0:0:
192,192,230736,1,0,0:0:0:0:
64,192,230836,1,0,0:0:0:0:
192,192,230836,1,0,0:0:0:0:
64,192,230935,1,0,0:0:0:0:
448,192,230935,1,0,0:0:0:0:
320,192,231035,1,0,0:0:0:0:
192,192,231035,1,0,0:0:0:0:
448,192,231085,1,0,0:0:0:0:
192,192,231135,1,0,0:0:0:0:
64,192,231135,128,0,231284:0:0:0:0:
320,192,231185,1,0,0:0:0:0:
448,192,231234,1,0,0:0:0:0:
192,192,231284,128,0,231484:0:0:0:0:
448,192,231334,1,0,0:0:0:0:
64,192,231384,1,0,0:0:0:0:
320,192,231434,128,0,231484:0:0:0:0:
320,192,231533,128,0,231583:0:0:0:0:
448,192,231533,128,0,231583:0:0:0:0:
64,192,231533,128,0,231583:0:0:0:0:
320,192,231633,1,0,0:0:0:0:
448,192,231633,1,0,0:0:0:0:
192,192,231733,128,0,231832:0:0:0:0:
64,192,231733,1,0,0:0:0:0:
320,192,231832,128,0,231932:0:0:0:0:
448,192,231832,1,0,0:0:0:0:
192,192,231882,1,0,0:0:0:0:
448,192,231932,1,0,0:0:0:0:
64,192,231932,1,0,0:0:0:0:
320,192,232032,1,0,0:0:0:0:
64,192,232032,1,0,0:0:0:0:
448,192,232082,1,0,0:0:0:0:
192,192,232131,1,0,0:0:0:0:
64,192,232131,1,0,0:0:0:0:
448,192,232231,1,0,0:0:0:0:
320,192,232231,1,0,0:0:0:0:
64,192,232281,1,0,0:0:0:0:
192,192,232281,1,0,0:0:0:0:
64,192,232381,1,0,0:0:0:0:
192,192,232381,1,0,0:0:0:0:
448,192,232430,128,0,232563:0:0:0:0:
320,192,232430,128,0,232530:0:0:0:0:
64,192,232530,1,0,0:0:0:0:
192,192,232563,1,0,0:0:0:0:
320,192,232597,1,0,0:0:0:0:
448,192,232630,1,0,0:0:0:0:
192,192,232680,1,0,0:0:0:0:
320,192,232729,128,0,232779:0:0:0:0:
64,192,232729,128,0,232879:0:0:0:0:
448,192,232779,1,0,0:0:0:0:
320,192,232829,1,0,0:0:0:0:
192,192,232879,128,0,233078:0:0:0:0:
320,192,232979,1,0,0:0:0:0:
448,192,233028,128,0,233128:0:0:0:0:
64,192,233128,1,0,0:0:0:0:
192,192,233128,1,0,0:0:0:0:
448,192,233178,1,0,0:0:0:0:
320,192,233228,1,0,0:0:0:0:
64,192,233278,1,0,0:0:0:0:
448,192,233327,1,0,0:0:0:0:
192,192,233327,1,0,0:0:0:0:
320,192,233377,1,0,0:0:0:0:
64,192,233427,1,0,0:0:0:0:
448,192,233427,1,0,0:0:0:0:
192,192,233477,1,0,0:0:0:0:
320,192,233527,1,0,0:0:0:0:
448,192,233577,1,0,0:0:0:0:
192,192,233626,1,0,0:0:0:0:
320,192,233676,1,0,0:0:0:0:
192,192,233726,1,0,0:0:0:0:
64,192,233776,1,0,0:0:0:0:
448,192,233826,1,0,0:0:0:0:
192,192,233876,1,0,0:0:0:0:
320,192,233925,1,0,0:0:0:0:
64,192,233975,1,0,0:0:0:0:
448,192,234025,1,0,0:0:0:0:
320,192,234075,1,0,0:0:0:0:
192,192,234125,1,0,0:0:0:0:
320,192,234175,1,0,0:0:0:0:
64,192,234224,1,0,0:0:0:0:
448,192,234274,1,0,0:0:0:0:
192,192,234324,1,0,0:0:0:0:
64,192,234374,1,0,0:0:0:0:
320,192,234424,128,0,234523:0:0:0:0:
64,192,234474,128,0,234573:0:0:0:0:
192,192,234523,1,0,0:0:0:0:
448,192,234573,1,0,0:0:0:0:
320,192,234606,1,0,0:0:0:0:
192,192,234640,1,0,0:0:0:0:
64,192,234673,1,0,0:0:0:0:
320,192,234723,1,0,0:0:0:0:
448,192,234723,1,0,0:0:0:0:
64,192,234773,1,0,0:0:0:0:
192,192,234822,1,0,0:0:0:0:
448,192,234872,1,0,0:0:0:0:
320,192,234922,1,0,0:0:0:0:
64,192,234922,1,0,0:0:0:0:
192,192,234972,1,0,0:0:0:0:
448,192,235022,1,0,0:0:0:0:
64,192,235022,1,0,0:0:0:0:
320,192,235072,1,0,0:0:0:0:
192,192,235121,1,0,0:0:0:0:
320,192,235171,1,0,0:0:0:0:
448,192,235221,1,0,0:0:0:0:
64,192,235271,1,0,0:0:0:0:
192,192,235321,1,0,0:0:0:0:
320,192,235371,1,0,0:0:0:0:
448,192,235420,1,0,0:0:0:0:
64,192,235470,1,0,0:0:0:0:
448,192,235520,1,0,0:0:0:0:
320,192,235520,1,0,0:0:0:0:
192,192,235520,1,0,0:0:0:0:
192,192,235670,1,0,0:0:0:0:
64,192,235719,1,0,0:0:0:0:
448,192,235769,1,0,0:0:0:0:
320,192,235819,1,0,0:0:0:0:
192,192,235819,1,0,0:0:0:0:
64,192,235819,1,0,0:0:0:0:
192,192,235969,1,0,0:0:0:0:
64,192,236018,128,0,236068:0:0:0:0:
320,192,236068,128,0,236168:0:0:0:0:
448,192,236118,1,0,0:0:0:0:
64,192,236218,128,0,236268:0:0:0:0:
192,192,236218,128,0,236268:0:0:0:0:
320,192,236317,128,0,236367:0:0:0:0:
448,192,236317,128,0,236367:0:0:0:0:
64,192,236317,1,0,0:0:0:0:
192,192,236317,1,0,0:0:0:0:
448,192,236417,1,0,0:0:0:0:
192,192,236417,1,0,0:0:0:0:
64,192,236517,1,0,0:0:0:0:
448,192,236517,1,0,0:0:0:0:
320,192,236517,1,0,0:0:0:0:
320,192,236616,1,0,0:0:0:0:
192,192,236616,1,0,0:0:0:0:
64,192,236716,1,0,0:0:0:0:
192,192,236716,1,0,0:0:0:0:
64,192,236816,1,0,0:0:0:0:
320,192,236816,1,0,0:0:0:0:
448,192,236816,1,0,0:0:0:0:
64,192,236915,1,0,0:0:0:0:
192,192,236915,1,0,0:0:0:0:
448,192,236965,1,0,0:0:0:0:
320,192,237015,1,0,0:0:0:0:
192,192,237065,1,0,0:0:0:0:
448,192,237115,1,0,0:0:0:0:
320,192,237115,1,0,0:0:0:0:
448,192,237214,1,0,0:0:0:0:
64,192,237214,1,0,0:0:0:0:
320,192,237314,1,0,0:0:0:0:
192,192,237314,1,0,0:0:0:0:
64,192,237414,1,0,0:0:0:0:
448,192,237414,1,0,0:0:0:0:
320,192,237513,1,0,0:0:0:0:
64,192,237513,1,0,0:0:0:0:
192,192,237513,1,0,0:0:0:0:
448,192,237613,1,0,0:0:0:0:
192,192,237613,1,0,0:0:0:0:
64,192,237713,1,0,0:0:0:0:
320,192,237713,1,0,0:0:0:0:
192,192,237763,1,0,0:0:0:0:
448,192,237812,1,0,0:0:0:0:
64,192,237812,1,0,0:0:0:0:
320,192,237862,1,0,0:0:0:0:
448,192,237912,1,0,0:0:0:0:
192,192,237912,1,0,0:0:0:0:
64,192,237962,1,0,0:0:0:0:
320,192,238012,1,0,0:0:0:0:
448,192,238111,1,0,0:0:0:0:
64,192,238111,1,0,0:0:0:0:
192,192,238111,1,0,0:0:0:0:
64,192,238211,1,0,0:0:0:0:
320,192,238211,1,0,0:0:0:0:
448,192,238311,1,0,0:0:0:0:
320,192,238311,1,0,0:0:0:0:
64,192,238410,1,0,0:0:0:0:
192,192,238410,1,0,0:0:0:0:
448,192,238410,1,0,0:0:0:0:
192,192,238510,1,0,0:0:0:0:
320,192,238510,1,0,0:0:0:0:
64,192,238610,1,0,0:0:0:0:
448,192,238660,1,0,0:0:0:0:
320,192,238709,1,0,0:0:0:0:
192,192,238709,1,0,0:0:0:0:
64,192,238709,1,0,0:0:0:0:
192,192,238809,1,0,0:0:0:0:
64,192,238836,1,0,0:0:0:0:
448,192,238909,1,0,0:0:0:0:
320,192,238909,1,0,0:0:0:0:
192,192,238909,1,0,0:0:0:0:
64,192,238959,1,0,0:0:0:0:
448,192,239008,1,0,0:0:0:0:
192,192,239058,1,0,0:0:0:0:
448,192,239108,1,0,0:0:0:0:
320,192,239108,1,0,0:0:0:0:
64,192,239108,1,0,0:0:0:0:
320,192,239208,1,0,0:0:0:0:
192,192,239208,1,0,0:0:0:0:
64,192,239208,1,0,0:0:0:0:
448,192,239258,1,0,0:0:0:0:
64,192,239307,1,0,0:0:0:0:
192,192,239357,1,0,0:0:0:0:
448,192,239407,1,0,0:0:0:0:
320,192,239407,1,0,0:0:0:0:
448,192,239507,1,0,0:0:0:0:
320,192,239507,1,0,0:0:0:0:
64,192,239507,1,0,0:0:0:0:
192,192,239606,1,0,0:0:0:0:
64,192,239606,1,0,0:0:0:0:
448,192,239706,1,0,0:0:0:0:
320,192,239706,1,0,0:0:0:0:
192,192,239706,1,0,0:0:0:0:
64,192,239806,1,0,0:0:0:0:
448,192,239806,1,0,0:0:0:0:
320,192,239905,1,0,0:0:0:0:
64,192,239905,1,0,0:0:0:0:
192,192,240005,1,0,0:0:0:0:
320,192,240005,1,0,0:0:0:0:
448,192,240005,1,0,0:0:0:0:
64,192,240105,1,0,0:0:0:0:
448,192,240155,1,0,0:0:0:0:
192,192,240204,1,0,0:0:0:0:
320,192,240254,1,0,0:0:0:0:
448,192,240304,1,0,0:0:0:0:
192,192,240304,1,0,0:0:0:0:
64,192,240304,1,0,0:0:0:0:
448,192,240404,1,0,0:0:0:0:
64,192,240454,1,0,0:0:0:0:
192,192,240503,1,0,0:0:0:0:
320,192,240503,1,0,0:0:0:0:
192,192,240603,1,0,0:0:0:0:
64,192,240603,1,0,0:0:0:0:
448,192,240603,1,0,0:0:0:0:
320,192,240653,1,0,0:0:0:0:
64,192,240703,128,0,240817:0:0:0:0:
320,192,240760,128,0,240817:0:0:0:0:
192,192,240817,128,0,240874:0:0:0:0:
64,192,240874,128,0,240931:0:0:0:0:
320,192,240902,1,0,0:0:0:0:
448,192,240902,1,0,0:0:0:0:
64,192,240989,1,0,0:0:0:0:
192,192,241016,1,0,0:0:0:0:
320,192,241045,1,0,0:0:0:0:
448,192,241073,1,0,0:0:0:0:
64,192,241101,1,0,0:0:0:0:
320,192,241201,1,0,0:0:0:0:
192,192,241251,1,0,0:0:0:0:
448,192,241301,1,0,0:0:0:0:
192,192,241351,1,0,0:0:0:0:
448,192,241401,1,0,0:0:0:0:
320,192,241401,1,0,0:0:0:0:
64,192,241401,1,0,0:0:0:0:
192,192,241500,1,0,0:0:0:0:
320,192,241550,1,0,0:0:0:0:
64,192,241600,1,0,0:0:0:0:
320,192,241650,1,0,0:0:0:0:
192,192,241700,1,0,0:0:0:0:
448,192,241700,1,0,0:0:0:0:
64,192,241700,1,0,0:0:0:0:
320,192,241799,1,0,0:0:0:0:
64,192,241849,1,0,0:0:0:0:
448,192,241899,1,0,0:0:0:0:
64,192,241999,1,0,0:0:0:0:
192,192,241999,1,0,0:0:0:0:
448,192,241999,1,0,0:0:0:0:
320,192,241999,1,0,0:0:0:0:
64,192,242098,1,0,0:0:0:0:
192,192,242148,1,0,0:0:0:0:
320,192,242198,1,0,0:0:0:0:
64,192,242248,1,0,0:0:0:0:
448,192,242298,128,0,242364:0:0:0:0:
320,192,242347,128,0,242397:0:0:0:0:
192,192,242397,128,0,242447:0:0:0:0:
64,192,242447,128,0,242513:0:0:0:0:
448,192,242497,128,0,242547:0:0:0:0:
320,192,242547,128,0,242597:0:0:0:0:
192,192,242597,128,0,242646:0:0:0:0:
64,192,242646,128,0,242696:0:0:0:0:
448,192,242696,128,0,242746:0:0:0:0:
320,192,242696,128,0,242746:0:0:0:0:
64,192,242746,1,0,0:0:0:0:
448,192,242796,1,0,0:0:0:0:
192,192,242796,1,0,0:0:0:0:
64,192,242896,1,0,0:0:0:0:
448,192,242896,1,0,0:0:0:0:
320,192,242896,1,0,0:0:0:0:
320,192,242995,1,0,0:0:0:0:
192,192,242995,1,0,0:0:0:0:
64,192,243095,1,0,0:0:0:0:
192,192,243095,1,0,0:0:0:0:
64,192,243195,1,0,0:0:0:0:
320,192,243195,1,0,0:0:0:0:
448,192,243195,1,0,0:0:0:0:
64,192,243294,1,0,0:0:0:0:
192,192,243294,1,0,0:0:0:0:
448,192,243344,1,0,0:0:0:0:
320,192,243394,1,0,0:0:0:0:
192,192,243444,1,0,0:0:0:0:
64,192,243494,1,0,0:0:0:0:
448,192,243494,1,0,0:0:0:0:
320,192,243494,1,0,0:0:0:0:
448,192,243593,1,0,0:0:0:0:
320,192,243593,1,0,0:0:0:0:
64,192,243693,1,0,0:0:0:0:
320,192,243693,1,0,0:0:0:0:
192,192,243693,1,0,0:0:0:0:
448,192,243793,1,0,0:0:0:0:
64,192,243842,1,0,0:0:0:0:
448,192,243892,1,0,0:0:0:0:
320,192,243892,1,0,0:0:0:0:
192,192,243892,1,0,0:0:0:0:
192,192,243992,1,0,0:0:0:0:
64,192,243992,1,0,0:0:0:0:
320,192,243992,1,0,0:0:0:0:
64,192,244092,1,0,0:0:0:0:
448,192,244092,1,0,0:0:0:0:
192,192,244191,1,0,0:0:0:0:
320,192,244241,1,0,0:0:0:0:
64,192,244291,1,0,0:0:0:0:
192,192,244291,1,0,0:0:0:0:
448,192,244291,1,0,0:0:0:0:
448,192,244391,1,0,0:0:0:0:
320,192,244391,1,0,0:0:0:0:
64,192,244391,1,0,0:0:0:0:
64,192,244590,1,0,0:0:0:0:
192,192,244590,1,0,0:0:0:0:
320,192,244590,1,0,0:0:0:0:
448,192,244690,1,0,0:0:0:0:
320,192,244690,1,0,0:0:0:0:
192,192,244690,1,0,0:0:0:0:
64,192,244889,1,0,0:0:0:0:
320,192,244889,1,0,0:0:0:0:
448,192,244889,1,0,0:0:0:0:
64,192,244989,1,0,0:0:0:0:
192,192,244989,1,0,0:0:0:0:
448,192,244989,1,0,0:0:0:0:
320,192,245188,1,0,0:0:0:0:
448,192,245188,1,0,0:0:0:0:
192,192,245188,1,0,0:0:0:0:
64,192,245288,1,0,0:0:0:0:
192,192,245288,1,0,0:0:0:0:
320,192,245288,1,0,0:0:0:0:
64,192,245487,1,0,0:0:0:0:
320,192,245553,1,0,0:0:0:0:
448,192,245620,1,0,0:0:0:0:
64,192,245686,1,0,0:0:0:0:
192,192,245753,1,0,0:0:0:0:
448,192,245819,1,0,0:0:0:0:
192,192,245886,1,0,0:0:0:0:
320,192,245886,1,0,0:0:0:0:
64,192,245935,1,0,0:0:0:0:
448,192,245985,1,0,0:0:0:0:
64,192,246035,1,0,0:0:0:0:
320,192,246085,1,0,0:0:0:0:
448,192,246085,1,0,0:0:0:0:
192,192,246135,1,0,0:0:0:0:
64,192,246185,1,0,0:0:0:0:
192,192,246218,1,0,0:0:0:0:
320,192,246251,1,0,0:0:0:0:
448,192,246284,1,0,0:0:0:0:
320,192,246334,1,0,0:0:0:0:
192,192,246384,1,0,0:0:0:0:
64,192,246384,1,0,0:0:0:0:
448,192,246434,1,0,0:0:0:0:
320,192,246484,1,0,0:0:0:0:
192,192,246533,1,0,0:0:0:0:
320,192,246583,1,0,0:0:0:0:
192,192,246633,1,0,0:0:0:0:
64,192,246683,1,0,0:0:0:0:
448,192,246683,1,0,0:0:0:0:
320,192,246711,1,0,0:0:0:0:
192,192,246740,1,0,0:0:0:0:
448,192,246783,1,0,0:0:0:0:
64,192,246832,1,0,0:0:0:0:
320,192,246882,1,0,0:0:0:0:
192,192,246911,1,0,0:0:0:0:
64,192,246939,1,0,0:0:0:0:
448,192,246982,1,0,0:0:0:0:
320,192,247032,1,0,0:0:0:0:
192,192,247082,128,0,247430:0:0:0:0:
64,192,247148,128,0,247364:0:0:0:0:
320,192,247214,128,0,247298:0:0:0:0:
448,192,247281,128,0,247430:0:0:0:0:
320,192,247347,128,0,247430:0:0:0:0:
64,192,247414,128,0,247480:0:0:0:0:
192,192,247480,1,0,0:0:0:0:
320,192,247480,1,0,0:0:0:0:
448,192,247480,1,0,0:0:0:0:
448,192,247580,1,0,0:0:0:0:
64,192,247580,1,0,0:0:0:0:
192,192,247580,1,0,0:0:0:0:
192,192,247779,1,0,0:0:0:0:
320,192,247779,1,0,0:0:0:0:
448,192,247779,1,0,0:0:0:0:
192,192,247879,1,0,0:0:0:0:
448,192,247879,1,0,0:0:0:0:
64,192,247879,1,0,0:0:0:0:
448,192,248078,1,0,0:0:0:0:
320,192,248078,1,0,0:0:0:0:
192,192,248078,1,0,0:0:0:0:
192,192,248178,1,0,0:0:0:0:
320,192,248178,1,0,0:0:0:0:
448,192,248178,1,0,0:0:0:0:
192,192,248377,1,0,0:0:0:0:
320,192,248377,1,0,0:0:0:0:
448,192,248377,1,0,0:0:0:0:
448,192,248477,1,0,0:0:0:0:
320,192,248477,1,0,0:0:0:0:
192,192,248477,1,0,0:0:0:0:
192,192,248876,1,0,0:0:0:0:
320,192,248876,1,0,0:0:0:0:
448,192,248876,1,0,0:0:0:0:
448,192,248975,1,0,0:0:0:0:
192,192,248975,1,0,0:0:0:0:
64,192,248975,1,0,0:0:0:0:
192,192,249175,1,0,0:0:0:0:
320,192,249175,1,0,0:0:0:0:
448,192,249175,1,0,0:0:0:0:
448,192,249274,1,0,0:0:0:0:
192,192,249274,1,0,0:0:0:0:
64,192,249274,1,0,0:0:0:0:
192,192,249474,1,0,0:0:0:0:
448,192,249474,1,0,0:0:0:0:
320,192,249474,1,0,0:0:0:0:
448,192,249573,1,0,0:0:0:0:
320,192,249573,1,0,0:0:0:0:
192,192,249573,1,0,0:0:0:0:
192,192,249773,1,0,0:0:0:0:
320,192,249773,1,0,0:0:0:0:
448,192,249773,1,0,0:0:0:0:
448,192,249872,1,0,0:0:0:0:
320,192,249872,1,0,0:0:0:0:
192,192,249872,1,0,0:0:0:0:
192,192,250271,1,0,0:0:0:0:
320,192,250271,1,0,0:0:0:0:
448,192,250271,1,0,0:0:0:0:
448,192,250371,1,0,0:0:0:0:
192,192,250371,1,0,0:0:0:0:
64,192,250371,1,0,0:0:0:0:
192,192,250570,1,0,0:0:0:0:
320,192,250570,1,0,0:0:0:0:
448,192,250570,1,0,0:0:0:0:
448,192,250670,1,0,0:0:0:0:
192,192,250670,1,0,0:0:0:0:
64,192,250670,1,0,0:0:0:0:
192,192,250869,1,0,0:0:0:0:
448,192,250869,1,0,0:0:0:0:
320,192,250869,1,0,0:0:0:0:
448,192,250969,1,0,0:0:0:0:
320,192,250969,1,0,0:0:0:0:
192,192,250969,1,0,0:0:0:0:
192,192,251168,1,0,0:0:0:0:
320,192,251168,1,0,0:0:0:0:
448,192,251168,1,0,0:0:0:0:
448,192,251268,1,0,0:0:0:0:
320,192,251268,1,0,0:0:0:0:
192,192,251268,1,0,0:0:0:0:
448,192,251666,1,0,0:0:0:0:
64,192,251666,1,0,0:0:0:0:
192,192,251666,1,0,0:0:0:0:
320,192,251666,1,0,0:0:0:0:
64,192,251766,1,0,0:0:0:0:
192,192,251766,1,0,0:0:0:0:
448,192,251766,1,0,0:0:0:0:
448,192,251965,1,0,0:0:0:0:
64,192,251965,1,0,0:0:0:0:
192,192,251965,1,0,0:0:0:0:
320,192,251965,1,0,0:0:0:0:
64,192,252065,1,0,0:0:0:0:
192,192,252065,1,0,0:0:0:0:
448,192,252065,1,0,0:0:0:0:
320,192,252264,1,0,0:0:0:0:
64,192,252264,1,0,0:0:0:0:
192,192,252264,1,0,0:0:0:0:
448,192,252264,1,0,0:0:0:0:
192,192,252364,1,0,0:0:0:0:
320,192,252364,1,0,0:0:0:0:
448,192,252364,1,0,0:0:0:0:
448,192,252563,1,0,0:0:0:0:
64,192,252563,1,0,0:0:0:0:
192,192,252563,1,0,0:0:0:0:
320,192,252563,1,0,0:0:0:0:
192,192,252663,1,0,0:0:0:0:
320,192,252663,1,0,0:0:0:0:
448,192,252663,1,0,0:0:0:0:
64,192,253062,1,0,0:0:0:0:
192,192,253062,1,0,0:0:0:0:
448,192,254656,1,0,0:0:0:0:
320,192,254656,1,0,0:0:0:0:
64,192,256251,1,0,0:0:0:0:
448,192,256251,1,0,0:0:0:0:
320,192,259440,5,0,0:0:0:0:
192,192,260238,1,0,0:0:0:0:
64,192,261035,128,0,261583:0:0:0:0:
64,192,262094,128,0,262393:0:0:0:0:
448,192,262119,128,0,262393:0:0:0:0:
192,192,262219,128,0,262268:0:0:0:0:
320,192,262231,128,0,262281:0:0:0:0:
192,192,262381,128,0,262455:0:0:0:0:
320,192,262381,128,0,262455:0:0:0:0:
64,192,262630,1,0,0:0:0:0:
192,192,262630,1,0,0:0:0:0:
192,192,262729,1,0,0:0:0:0:
320,192,262779,1,0,0:0:0:0:
64,192,262829,1,0,0:0:0:0:
448,192,262879,1,0,0:0:0:0:
192,192,262929,1,0,0:0:0:0:
448,192,262979,1,0,0:0:0:0:
320,192,263028,1,0,0:0:0:0:
64,192,263028,1,0,0:0:0:0:
192,192,263078,1,0,0:0:0:0:
448,192,263128,1,0,0:0:0:0:
64,192,263128,1,0,0:0:0:0:
448,192,263228,1,0,0:0:0:0:
320,192,263228,1,0,0:0:0:0:
64,192,263327,1,0,0:0:0:0:
192,192,263327,1,0,0:0:0:0:
448,192,263377,1,0,0:0:0:0:
64,192,263427,1,0,0:0:0:0:
192,192,263460,1,0,0:0:0:0:
320,192,263494,1,0,0:0:0:0:
448,192,263527,1,0,0:0:0:0:
64,192,263560,1,0,0:0:0:0:
192,192,263626,1,0,0:0:0:0:
320,192,263626,1,0,0:0:0:0:
64,192,263726,1,0,0:0:0:0:
448,192,263726,1,0,0:0:0:0:
320,192,263776,1,0,0:0:0:0:
192,192,263826,1,0,0:0:0:0:
448,192,263826,1,0,0:0:0:0:
64,192,263925,1,0,0:0:0:0:
320,192,263925,1,0,0:0:0:0:
64,192,264025,1,0,0:0:0:0:
192,192,264047,1,0,0:0:0:0:
320,192,264125,1,0,0:0:0:0:
448,192,264150,1,0,0:0:0:0:
64,192,264224,1,0,0:0:0:0:
192,192,264224,1,0,0:0:0:0:
320,192,264274,1,0,0:0:0:0:
64,192,264324,1,0,0:0:0:0:
448,192,264374,1,0,0:0:0:0:
320,192,264424,1,0,0:0:0:0:
192,192,264424,1,0,0:0:0:0:
192,192,264523,1,0,0:0:0:0:
448,192,264523,1,0,0:0:0:0:
320,192,264573,1,0,0:0:0:0:
64,192,264623,1,0,0:0:0:0:
448,192,264623,1,0,0:0:0:0:
192,192,264723,1,0,0:0:0:0:
320,192,264723,1,0,0:0:0:0:
64,192,264773,1,0,0:0:0:0:
320,192,264822,1,0,0:0:0:0:
448,192,264822,1,0,0:0:0:0:
192,192,264856,1,0,0:0:0:0:
64,192,264889,1,0,0:0:0:0:
448,192,264922,1,0,0:0:0:0:
320,192,264972,1,0,0:0:0:0:
64,192,265022,1,0,0:0:0:0:
192,192,265022,1,0,0:0:0:0:
320,192,265088,1,0,0:0:0:0:
64,192,265155,1,0,0:0:0:0:
192,192,265155,1,0,0:0:0:0:
448,192,265221,1,0,0:0:0:0:
320,192,265221,1,0,0:0:0:0:
192,192,265288,1,0,0:0:0:0:
448,192,265354,1,0,0:0:0:0:
320,192,265354,1,0,0:0:0:0:
192,192,265420,1,0,0:0:0:0:
64,192,265420,1,0,0:0:0:0:
320,192,265520,1,0,0:0:0:0:
448,192,265520,1,0,0:0:0:0:
64,192,265570,1,0,0:0:0:0:
192,192,265570,1,0,0:0:0:0:
192,192,265670,1,0,0:0:0:0:
64,192,265670,1,0,0:0:0:0:
448,192,265719,1,0,0:0:0:0:
320,192,265719,1,0,0:0:0:0:
320,192,265819,1,0,0:0:0:0:
448,192,265819,1,0,0:0:0:0:
64,192,265919,1,0,0:0:0:0:
320,192,265969,1,0,0:0:0:0:
448,192,266018,1,0,0:0:0:0:
64,192,266018,1,0,0:0:0:0:
192,192,266118,1,0,0:0:0:0:
448,192,266168,1,0,0:0:0:0:
192,192,266218,1,0,0:0:0:0:
320,192,266218,1,0,0:0:0:0:
64,192,266268,1,0,0:0:0:0:
320,192,266317,1,0,0:0:0:0:
64,192,266367,1,0,0:0:0:0:
192,192,266417,1,0,0:0:0:0:
448,192,266417,1,0,0:0:0:0:
448,192,266517,128,0,266616:0:0:0:0:
320,192,266517,128,0,266616:0:0:0:0:
64,192,266616,1,0,0:0:0:0:
192,192,266616,1,0,0:0:0:0:
64,192,266683,1,0,0:0:0:0:
192,192,266683,1,0,0:0:0:0:
320,192,266749,1,0,0:0:0:0:
448,192,266749,1,0,0:0:0:0:
320,192,266816,1,0,0:0:0:0:
448,192,266816,1,0,0:0:0:0:
64,192,266915,128,0,266965:0:0:0:0:
192,192,266915,128,0,266965:0:0:0:0:
320,192,267015,1,0,0:0:0:0:
448,192,267015,1,0,0:0:0:0:
64,192,267065,1,0,0:0:0:0:
192,192,267065,1,0,0:0:0:0:
448,192,267115,1,0,0:0:0:0:
320,192,267115,1,0,0:0:0:0:
64,192,267165,1,0,0:0:0:0:
192,192,267165,1,0,0:0:0:0:
448,192,267214,1,0,0:0:0:0:
320,192,267264,1,0,0:0:0:0:
192,192,267314,1,0,0:0:0:0:
64,192,267364,1,0,0:0:0:0:
320,192,267414,1,0,0:0:0:0:
448,192,267414,1,0,0:0:0:0:
64,192,267464,1,0,0:0:0:0:
448,192,267513,128,0,267563:0:0:0:0:
320,192,267526,128,0,267563:0:0:0:0:
192,192,267613,1,0,0:0:0:0:
64,192,267613,1,0,0:0:0:0:
448,192,267663,1,0,0:0:0:0:
64,192,267713,128,0,267763:0:0:0:0:
192,192,267725,128,0,267763:0:0:0:0:
320,192,267812,1,0,0:0:0:0:
448,192,267812,1,0,0:0:0:0:
192,192,267862,1,0,0:0:0:0:
448,192,267912,128,0,267962:0:0:0:0:
320,192,267925,128,0,267962:0:0:0:0:
192,192,268012,1,0,0:0:0:0:
64,192,268012,1,0,0:0:0:0:
448,192,268062,1,0,0:0:0:0:
320,192,268062,1,0,0:0:0:0:
64,192,268111,128,0,268161:0:0:0:0:
192,192,268124,128,0,268161:0:0:0:0:
320,192,268211,1,0,0:0:0:0:
448,192,268211,1,0,0:0:0:0:
192,192,268261,1,0,0:0:0:0:
320,192,268311,1,0,0:0:0:0:
448,192,268361,1,0,0:0:0:0:
64,192,268410,128,0,268460:0:0:0:0:
192,192,268460,1,0,0:0:0:0:
320,192,268510,128,0,268560:0:0:0:0:
448,192,268560,1,0,0:0:0:0:
64,192,268610,1,0,0:0:0:0:
192,192,268660,128,0,268759:0:0:0:0:
320,192,268709,1,0,0:0:0:0:
448,192,268759,128,0,268859:0:0:0:0:
64,192,268809,128,0,268959:0:0:0:0:
192,192,268859,1,0,0:0:0:0:
320,192,268909,128,0,269008:0:0:0:0:
448,192,268959,1,0,0:0:0:0:
64,192,269008,1,0,0:0:0:0:
192,192,269008,1,0,0:0:0:0:
320,192,269058,1,0,0:0:0:0:
64,192,269108,1,0,0:0:0:0:
448,192,269158,1,0,0:0:0:0:
192,192,269208,1,0,0:0:0:0:
448,192,269258,1,0,0:0:0:0:
64,192,269307,1,0,0:0:0:0:
320,192,269357,1,0,0:0:0:0:
64,192,269407,1,0,0:0:0:0:
448,192,269457,1,0,0:0:0:0:
320,192,269507,1,0,0:0:0:0:
192,192,269557,1,0,0:0:0:0:
320,192,269606,1,0,0:0:0:0:
448,192,269656,1,0,0:0:0:0:
64,192,269706,1,0,0:0:0:0:
192,192,269739,1,0,0:0:0:0:
320,192,269773,1,0,0:0:0:0:
64,192,269806,1,0,0:0:0:0:
448,192,269806,1,0,0:0:0:0:
448,192,269905,1,0,0:0:0:0:
320,192,269905,1,0,0:0:0:0:
192,192,269955,1,0,0:0:0:0:
320,192,270005,1,0,0:0:0:0:
64,192,270055,1,0,0:0:0:0:
448,192,270105,1,0,0:0:0:0:
192,192,270155,1,0,0:0:0:0:
320,192,270204,1,0,0:0:0:0:
448,192,270238,1,0,0:0:0:0:
192,192,270271,1,0,0:0:0:0:
64,192,270304,1,0,0:0:0:0:
320,192,270337,1,0,0:0:0:0:
448,192,270371,1,0,0:0:0:0:
192,192,270404,1,0,0:0:0:0:
64,192,270437,1,0,0:0:0:0:
320,192,270470,1,0,0:0:0:0:
448,192,270503,1,0,0:0:0:0:
192,192,270537,1,0,0:0:0:0:
64,192,270570,1,0,0:0:0:0:
64,192,270802,1,0,0:0:0:0:
192,192,270802,1,0,0:0:0:0:
448,192,270852,1,0,0:0:0:0:
320,192,270852,1,0,0:0:0:0:
64,192,270902,1,0,0:0:0:0:
448,192,271002,1,0,0:0:0:0:
192,192,271002,1,0,0:0:0:0:
64,192,271101,1,0,0:0:0:0:
320,192,271101,1,0,0:0:0:0:
192,192,271201,1,0,0:0:0:0:
64,192,271201,1,0,0:0:0:0:
320,192,271251,1,0,0:0:0:0:
192,192,271301,1,0,0:0:0:0:
64,192,271351,1,0,0:0:0:0:
448,192,271401,1,0,0:0:0:0:
320,192,271401,1,0,0:0:0:0:
64,192,271500,1,0,0:0:0:0:
192,192,271500,1,0,0:0:0:0:
448,192,271600,1,0,0:0:0:0:
320,192,271600,1,0,0:0:0:0:
192,192,271650,1,0,0:0:0:0:
320,192,271700,1,0,0:0:0:0:
448,192,271749,1,0,0:0:0:0:
64,192,271799,128,0,272148:0:0:0:0:
192,192,271799,128,0,272148:0:0:0:0:
64,192,272198,1,0,0:0:0:0:
192,192,272198,1,0,0:0:0:0:
64,192,272298,1,0,0:0:0:0:
448,192,272298,1,0,0:0:0:0:
320,192,272347,1,0,0:0:0:0:
192,192,272397,1,0,0:0:0:0:
448,192,272397,1,0,0:0:0:0:
64,192,272447,1,0,0:0:0:0:
320,192,272497,1,0,0:0:0:0:
448,192,272497,1,0,0:0:0:0:
448,192,272796,1,0,0:0:0:0:
320,192,272796,1,0,0:0:0:0:
448,192,272896,1,0,0:0:0:0:
64,192,272896,1,0,0:0:0:0:
192,192,272945,1,0,0:0:0:0:
64,192,272995,1,0,0:0:0:0:
320,192,272995,1,0,0:0:0:0:
448,192,273045,1,0,0:0:0:0:
192,192,273095,1,0,0:0:0:0:
64,192,273095,1,0,0:0:0:0:
64,192,273394,1,0,0:0:0:0:
192,192,273394,1,0,0:0:0:0:
64,192,273494,1,0,0:0:0:0:
448,192,273494,1,0,0:0:0:0:
320,192,273543,1,0,0:0:0:0:
192,192,273543,1,0,0:0:0:0:
64,192,273593,1,0,0:0:0:0:
448,192,273593,1,0,0:0:0:0:
192,192,273643,1,0,0:0:0:0:
448,192,273693,1,0,0:0:0:0:
320,192,273693,1,0,0:0:0:0:
320,192,273992,1,0,0:0:0:0:
448,192,273992,1,0,0:0:0:0:
64,192,274092,1,0,0:0:0:0:
448,192,274092,1,0,0:0:0:0:
320,192,274141,1,0,0:0:0:0:
192,192,274141,1,0,0:0:0:0:
448,192,274191,1,0,0:0:0:0:
64,192,274191,1,0,0:0:0:0:
320,192,274241,1,0,0:0:0:0:
64,192,274291,1,0,0:0:0:0:
192,192,274291,1,0,0:0:0:0:
448,192,274590,1,0,0:0:0:0:
320,192,274590,1,0,0:0:0:0:
64,192,274690,1,0,0:0:0:0:
320,192,274690,1,0,0:0:0:0:
192,192,274739,1,0,0:0:0:0:
64,192,274789,1,0,0:0:0:0:
448,192,274789,1,0,0:0:0:0:
320,192,274839,1,0,0:0:0:0:
192,192,274889,1,0,0:0:0:0:
448,192,274889,1,0,0:0:0:0:
320,192,274989,1,0,0:0:0:0:
192,192,275038,1,0,0:0:0:0:
320,192,275088,1,0,0:0:0:0:
448,192,275088,1,0,0:0:0:0:
192,192,275138,1,0,0:0:0:0:
64,192,275188,1,0,0:0:0:0:
448,192,275188,1,0,0:0:0:0:
64,192,275288,1,0,0:0:0:0:
320,192,275288,1,0,0:0:0:0:
192,192,275337,1,0,0:0:0:0:
448,192,275387,1,0,0:0:0:0:
64,192,275387,1,0,0:0:0:0:
320,192,275437,1,0,0:0:0:0:
448,192,275487,1,0,0:0:0:0:
192,192,275487,1,0,0:0:0:0:
320,192,275587,1,0,0:0:0:0:
448,192,275587,1,0,0:0:0:0:
320,192,275653,1,0,0:0:0:0:
448,192,275653,1,0,0:0:0:0:
64,192,275719,1,0,0:0:0:0:
192,192,275719,1,0,0:0:0:0:
192,192,275786,1,0,0:0:0:0:
64,192,275786,1,0,0:0:0:0:
320,192,275886,1,0,0:0:0:0:
448,192,275886,1,0,0:0:0:0:
64,192,275935,1,0,0:0:0:0:
192,192,275935,1,0,0:0:0:0:
320,192,275985,1,0,0:0:0:0:
448,192,275985,1,0,0:0:0:0:
64,192,276035,1,0,0:0:0:0:
192,192,276035,1,0,0:0:0:0:
320,192,276085,1,0,0:0:0:0:
448,192,276085,1,0,0:0:0:0:
192,192,276185,1,0,0:0:0:0:
64,192,276185,1,0,0:0:0:0:
64,192,276284,1,0,0:0:0:0:
448,192,276284,1,0,0:0:0:0:
320,192,276384,1,0,0:0:0:0:
448,192,276384,1,0,0:0:0:0:
192,192,276484,1,0,0:0:0:0:
64,192,276484,1,0,0:0:0:0:
320,192,276533,1,0,0:0:0:0:
448,192,276533,1,0,0:0:0:0:
64,192,276583,1,0,0:0:0:0:
192,192,276583,1,0,0:0:0:0:
320,192,276633,1,0,0:0:0:0:
448,192,276633,1,0,0:0:0:0:
64,192,276683,1,0,0:0:0:0:
192,192,276683,1,0,0:0:0:0:
320,192,276783,1,0,0:0:0:0:
448,192,276783,1,0,0:0:0:0:
64,192,276832,1,0,0:0:0:0:
192,192,276832,1,0,0:0:0:0:
448,192,276882,1,0,0:0:0:0:
320,192,276882,1,0,0:0:0:0:
192,192,276932,1,0,0:0:0:0:
64,192,276932,1,0,0:0:0:0:
320,192,276982,1,0,0:0:0:0:
448,192,276982,1,0,0:0:0:0:
320,192,278577,5,0,0:0:0:0:
64,192,278577,1,0,0:0:0:0:
192,192,278626,1,0,0:0:0:0:
64,192,278676,1,0,0:0:0:0:
192,192,278776,1,0,0:0:0:0:
448,192,278776,1,0,0:0:0:0:
320,192,278826,1,0,0:0:0:0:
448,192,278876,1,0,0:0:0:0:
320,192,278975,1,0,0:0:0:0:
64,192,278975,1,0,0:0:0:0:
192,192,279025,1,0,0:0:0:0:
64,192,279075,1,0,0:0:0:0:
320,192,279175,1,0,0:0:0:0:
448,192,279175,1,0,0:0:0:0:
192,192,279224,1,0,0:0:0:0:
320,192,279274,1,0,0:0:0:0:
448,192,279374,1,0,0:0:0:0:
192,192,279374,1,0,0:0:0:0:
320,192,279424,1,0,0:0:0:0:
192,192,279474,1,0,0:0:0:0:
448,192,279474,1,0,0:0:0:0:
320,192,279523,1,0,0:0:0:0:
64,192,279573,1,0,0:0:0:0:
192,192,279573,1,0,0:0:0:0:
64,192,279673,1,0,0:0:0:0:
320,192,279673,1,0,0:0:0:0:
192,192,279723,1,0,0:0:0:0:
320,192,279773,1,0,0:0:0:0:
64,192,279773,1,0,0:0:0:0:
192,192,279822,1,0,0:0:0:0:
448,192,279872,1,0,0:0:0:0:
320,192,279872,1,0,0:0:0:0:
320,192,279972,128,0,280022:0:0:0:0:
192,192,279972,128,0,280022:0:0:0:0:
64,192,280171,1,0,0:0:0:0:
448,192,280171,1,0,0:0:0:0:
320,192,280221,1,0,0:0:0:0:
192,192,280221,1,0,0:0:0:0:
448,192,280271,1,0,0:0:0:0:
64,192,280271,1,0,0:0:0:0:
64,192,280371,1,0,0:0:0:0:
192,192,280371,1,0,0:0:0:0:
320,192,280420,1,0,0:0:0:0:
448,192,280420,1,0,0:0:0:0:
64,192,280470,1,0,0:0:0:0:
192,192,280470,1,0,0:0:0:0:
448,192,280570,1,0,0:0:0:0:
320,192,280570,1,0,0:0:0:0:
64,192,280620,1,0,0:0:0:0:
192,192,280620,1,0,0:0:0:0:
320,192,280670,1,0,0:0:0:0:
448,192,280670,1,0,0:0:0:0:
448,192,280769,1,0,0:0:0:0:
64,192,280769,1,0,0:0:0:0:
192,192,280819,1,0,0:0:0:0:
320,192,280819,1,0,0:0:0:0:
448,192,280869,1,0,0:0:0:0:
64,192,280869,1,0,0:0:0:0:
64,192,280969,1,0,0:0:0:0:
192,192,280969,1,0,0:0:0:0:
448,192,281018,1,0,0:0:0:0:
320,192,281018,1,0,0:0:0:0:
64,192,281068,1,0,0:0:0:0:
192,192,281068,1,0,0:0:0:0:
320,192,281118,5,0,0:0:0:0:
448,192,281118,1,0,0:0:0:0:
64,192,281168,1,0,0:0:0:0:
192,192,281168,1,0,0:0:0:0:
320,192,281268,1,0,0:0:0:0:
448,192,281268,1,0,0:0:0:0:
64,192,281317,1,0,0:0:0:0:
192,192,281317,1,0,0:0:0:0:
448,192,281367,1,0,0:0:0:0:
320,192,281367,1,0,0:0:0:0:
64,192,281417,1,0,0:0:0:0:
192,192,281417,1,0,0:0:0:0:
448,192,281467,1,0,0:0:0:0:
320,192,281467,1,0,0:0:0:0:
64,192,281567,1,0,0:0:0:0:
192,192,281567,1,0,0:0:0:0:
448,192,281616,1,0,0:0:0:0:
320,192,281616,1,0,0:0:0:0:
64,192,281666,1,0,0:0:0:0:
192,192,281666,1,0,0:0:0:0:
448,192,281716,1,0,0:0:0:0:
320,192,281716,1,0,0:0:0:0:
64,192,281766,1,0,0:0:0:0:
192,192,281766,1,0,0:0:0:0:
192,192,282298,5,0,0:0:0:0:
64,192,282331,1,0,0:0:0:0:
320,192,282613,1,0,0:0:0:0:
448,192,282630,1,0,0:0:0:0:
448,192,283028,1,0,0:0:0:0:
192,192,283460,1,0,0:0:0:0:
192,192,284955,1,0,0:0:0:0:
64,192,284955,1,0,0:0:0:0:
320,192,285005,1,0,0:0:0:0:
448,192,285005,1,0,0:0:0:0:
192,192,285055,1,0,0:0:0:0:
64,192,285055,1,0,0:0:0:0:
320,192,285105,1,0,0:0:0:0:
448,192,285105,1,0,0:0:0:0:
192,192,285155,1,0,0:0:0:0:
64,192,285155,1,0,0:0:0:0:
320,192,285204,1,0,0:0:0:0:
448,192,285204,1,0,0:0:0:0:
192,192,285254,1,0,0:0:0:0:
64,192,285257,1,0,0:0:0:0:
320,192,285304,1,0,0:0:0:0:
448,192,285304,1,0,0:0:0:0:
192,192,285354,1,0,0:0:0:0:
64,192,285357,1,0,0:0:0:0:
320,192,285404,1,0,0:0:0:0:
448,192,285404,1,0,0:0:0:0:
192,192,285454,1,0,0:0:0:0:
64,192,285458,1,0,0:0:0:0:
320,192,285503,1,0,0:0:0:0:
448,192,285503,1,0,0:0:0:0:
192,192,285553,1,0,0:0:0:0:
64,192,285559,1,0,0:0:0:0:
320,192,285603,1,0,0:0:0:0:
448,192,285603,1,0,0:0:0:0:
192,192,285653,1,0,0:0:0:0:
64,192,285659,1,0,0:0:0:0:
320,192,285703,1,0,0:0:0:0:
448,192,285703,1,0,0:0:0:0:
192,192,285753,1,0,0:0:0:0:
64,192,285760,1,0,0:0:0:0:
448,192,285802,1,0,0:0:0:0:
320,192,285802,1,0,0:0:0:0:
192,192,285852,1,0,0:0:0:0:
64,192,285861,1,0,0:0:0:0:
448,192,285902,1,0,0:0:0:0:
320,192,285902,1,0,0:0:0:0:
192,192,285952,1,0,0:0:0:0:
64,192,285961,1,0,0:0:0:0:
448,192,286002,1,0,0:0:0:0:
320,192,286002,1,0,0:0:0:0:
192,192,286052,1,0,0:0:0:0:
64,192,286062,1,0,0:0:0:0:
448,192,286101,1,0,0:0:0:0:
320,192,286101,1,0,0:0:0:0:
192,192,286151,1,0,0:0:0:0:
64,192,286164,1,0,0:0:0:0:
448,192,286201,1,0,0:0:0:0:
320,192,286201,1,0,0:0:0:0:
192,192,286251,1,0,0:0:0:0:
64,192,286263,1,0,0:0:0:0:
448,192,286301,1,0,0:0:0:0:
320,192,286301,1,0,0:0:0:0:
192,192,286351,1,0,0:0:0:0:
64,192,286363,1,0,0:0:0:0:
448,192,286401,1,0,0:0:0:0:
320,192,286401,1,0,0:0:0:0:
192,192,286450,1,0,0:0:0:0:
64,192,286465,1,0,0:0:0:0:
448,192,286500,1,0,0:0:0:0:
320,192,286500,1,0,0:0:0:0:
64,192,286550,128,0,286849:0:0:0:0:
192,192,286550,128,0,286749:0:0:0:0:
