osu file format v14

[General]
AudioFilename: audio.mp3
AudioLeadIn: 0
PreviewTime: 71707
Countdown: 0
SampleSet: Normal
StackLeniency: 0.7
Mode: 1
LetterboxInBreaks: 0
WidescreenStoryboard: 1

[Editor]
Bookmarks: 19123
DistanceSpacing: 1.4
BeatDivisor: 4
GridSize: 32
TimelineZoom: 3.099999

[Metadata]
Title:Xeroa
TitleUnicode:Xéroa
Artist:Camellia
ArtistUnicode:かめりあ
Creator:_DUSK_
Version:Kantan
Source:SOUND VOLTEX IV HEAVENLY HAVEN
Tags:sdvx 4 The 7th KACオリジナル楽曲コンテスト original song contest xroniàl xéro xronial xero かめるかめりあ cametek kamelcamellia masaya oya 大箭将也 electronic instrumental rhythm video game genjuro komasy speedcore
BeatmapID:2758434
BeatmapSetID:1331332

[Difficulty]
HPDrainRate:8
CircleSize:5
OverallDifficulty:3
ApproachRate:9
SliderMultiplier:1
SliderTickRate:1

[Events]
//Background and Video events
0,0,"xeroap.jpg",0,85
//Break Periods
//Storyboard Layer 0 (Background)
//Storyboard Layer 1 (Fail)
//Storyboard Layer 2 (Pass)
//Storyboard Layer 3 (Foreground)
//Storyboard Layer 4 (Overlay)
//Storyboard Sound Samples

[TimingPoints]
794,199.335548172757,4,1,0,90,1,0
13601,-100,4,1,0,60,0,0
15893,-100,4,1,0,90,0,0
71757,-100,4,1,0,90,0,1
82521,-100,4,1,0,90,0,0
82920,-100,4,1,0,90,0,1
84116,-100,4,1,0,90,0,0
84514,-100,4,1,0,90,0,1
87704,-100,4,1,0,90,0,0
92438,-100,4,1,0,70,0,0
94033,-100,4,1,0,90,0,0
94083,-100,4,1,0,90,0,1
99664,-100,4,1,0,90,0,0
100461,-100,4,1,0,90,0,1
103252,-100,4,1,0,90,0,0
103651,-100,4,1,0,90,0,1
108435,-100,4,1,0,90,0,0
113269,-100,4,1,0,70,0,0
116408,-100,4,1,0,90,0,1
118003,-100,4,1,0,90,0,0

[HitObjects]
256,192,1591,5,0,0:0:0:0:
256,192,4780,1,4,0:0:0:0:
256,192,6375,1,8,0:0:0:0:
256,192,6574,1,8,0:0:0:0:
256,192,6774,1,8,0:0:0:0:
256,192,7172,1,8,0:0:0:0:
256,192,7471,1,8,0:0:0:0:
256,192,7770,1,8,0:0:0:0:
256,192,7970,1,4,0:0:0:0:
256,192,9564,1,8,0:0:0:0:
256,192,9764,1,8,0:0:0:0:
256,192,9963,1,8,0:0:0:0:
256,192,10162,1,8,0:0:0:0:
256,192,10362,1,8,0:0:0:0:
256,192,10661,1,8,0:0:0:0:
256,192,10960,1,8,0:0:0:0:
256,192,11159,1,4,0:0:0:0:
256,192,11956,1,0,0:0:0:0:
256,192,12754,1,0,0:0:0:0:
256,192,13551,1,8,0:0:0:0:
256,192,14149,12,0,15744,0:0:0:0:
256,192,15943,5,8,0:0:0:0:
256,192,17538,1,0,0:0:0:0:
256,192,17936,1,0,0:0:0:0:
256,192,18335,1,8,0:0:0:0:
256,192,19132,1,12,0:0:0:0:
256,192,19531,1,0,0:0:0:0:
256,192,19930,1,8,0:0:0:0:
256,192,20328,1,8,0:0:0:0:
256,192,20727,1,0,0:0:0:0:
256,192,21126,1,0,0:0:0:0:
256,192,21524,1,8,0:0:0:0:
256,192,21724,1,8,0:0:0:0:
256,192,21923,1,0,0:0:0:0:
256,192,22322,1,8,0:0:0:0:
256,192,23119,1,0,0:0:0:0:
256,192,23518,1,8,0:0:0:0:
256,192,23916,1,0,0:0:0:0:
256,192,24714,1,0,0:0:0:0:
256,192,25112,1,0,0:0:0:0:
256,192,25511,1,12,0:0:0:0:
256,192,25910,1,0,0:0:0:0:
256,192,26109,1,0,0:0:0:0:
256,192,26308,1,8,0:0:0:0:
256,192,26707,1,8,0:0:0:0:
256,192,27305,1,8,0:0:0:0:
256,192,27903,1,0,0:0:0:0:
256,192,28302,1,0,0:0:0:0:
256,192,28700,1,8,0:0:0:0:
256,192,29298,1,8,0:0:0:0:
256,192,29896,1,8,0:0:0:0:
256,192,30295,1,0,0:0:0:0:
256,192,31093,1,0,0:0:0:0:
256,192,31292,1,8,0:0:0:0:
256,192,31491,1,0,0:0:0:0:
256,192,31890,1,12,0:0:0:0:
256,192,35079,1,0,0:0:0:0:
256,192,35279,1,0,0:0:0:0:
256,192,38269,1,12,0:0:0:0:
256,192,38667,1,0,0:0:0:0:
256,192,39066,1,8,0:0:0:0:
256,192,39265,1,8,0:0:0:0:
256,192,39465,1,0,0:0:0:0:
256,192,39863,1,0,0:0:0:0:
256,192,40262,1,0,0:0:0:0:
256,192,40461,1,8,0:0:0:0:
256,192,40661,1,0,0:0:0:0:
256,192,41458,1,8,0:0:0:0:
256,192,41857,1,0,0:0:0:0:
256,192,42255,1,0,0:0:0:0:
256,192,42654,1,8,0:0:0:0:
256,192,42853,1,0,0:0:0:0:
256,192,43053,1,0,0:0:0:0:
256,192,43451,1,8,0:0:0:0:
256,192,43651,1,0,0:0:0:0:
256,192,43850,1,8,0:0:0:0:
256,192,44647,1,12,0:0:0:0:
256,192,45046,1,0,0:0:0:0:
256,192,45445,1,8,0:0:0:0:
256,192,45644,1,0,0:0:0:0:
256,192,45843,1,8,0:0:0:0:
256,192,46242,1,0,0:0:0:0:
256,192,46641,1,0,0:0:0:0:
256,192,47039,1,0,0:0:0:0:
256,192,47239,1,8,0:0:0:0:
256,192,47438,1,0,0:0:0:0:
256,192,47837,1,8,0:0:0:0:
256,192,48335,1,8,0:0:0:0:
256,192,48734,1,0,0:0:0:0:
256,192,49033,1,8,0:0:0:0:
256,192,49431,1,0,0:0:0:0:
256,192,49631,1,0,0:0:0:0:
256,192,49830,1,8,0:0:0:0:
256,192,50029,1,8,0:0:0:0:
256,192,50229,1,0,0:0:0:0:
256,192,51026,1,8,0:0:0:0:
256,192,51225,1,8,0:0:0:0:
256,192,51624,1,0,0:0:0:0:
256,192,51823,1,8,0:0:0:0:
256,192,52222,1,0,0:0:0:0:
256,192,52421,1,8,0:0:0:0:
256,192,52621,1,0,0:0:0:0:
256,192,52820,1,0,0:0:0:0:
256,192,53019,1,0,0:0:0:0:
256,192,53418,1,8,0:0:0:0:
256,192,54215,1,0,0:0:0:0:
256,192,54415,1,0,0:0:0:0:
256,192,54614,1,8,0:0:0:0:
256,192,55013,1,0,0:0:0:0:
256,192,55411,1,8,0:0:0:0:
256,192,55810,1,0,0:0:0:0:
256,192,56009,1,0,0:0:0:0:
256,192,56209,1,0,0:0:0:0:
256,192,56607,1,8,0:0:0:0:
256,192,57405,1,0,0:0:0:0:
256,192,57803,1,8,0:0:0:0:
256,192,58003,1,8,0:0:0:0:
256,192,58202,1,0,0:0:0:0:
256,192,58601,1,0,0:0:0:0:
256,192,58800,1,8,0:0:0:0:
256,192,58999,1,0,0:0:0:0:
256,192,59199,1,8,0:0:0:0:
256,192,59398,1,0,0:0:0:0:
256,192,59797,1,0,0:0:0:0:
256,192,59996,1,0,0:0:0:0:
256,192,60195,1,8,0:0:0:0:
256,192,60594,1,0,0:0:0:0:
256,192,60993,1,8,0:0:0:0:
256,192,61392,1,0,0:0:0:0:
256,192,61591,1,8,0:0:0:0:
256,192,61790,1,0,0:0:0:0:
256,192,61990,1,0,0:0:0:0:
256,192,62189,1,12,0:0:0:0:
256,192,63784,1,8,0:0:0:0:
256,192,63983,1,8,0:0:0:0:
256,192,64182,1,8,0:0:0:0:
256,192,64382,1,8,0:0:0:0:
256,192,64581,1,8,0:0:0:0:
256,192,64880,1,8,0:0:0:0:
256,192,65179,1,8,0:0:0:0:
256,192,65378,1,0,0:0:0:0:
256,192,68568,1,0,0:0:0:0:
256,192,69365,1,8,0:0:0:0:
256,192,70162,1,0,0:0:0:0:
256,192,70362,1,8,0:0:0:0:
256,192,70561,1,0,0:0:0:0:
256,192,70760,1,0,0:0:0:0:
256,192,71757,1,12,0:0:0:0:
256,192,72056,1,8,0:0:0:0:
256,192,72355,1,0,0:0:0:0:
256,192,72554,1,8,0:0:0:0:
256,192,72754,1,0,0:0:0:0:
256,192,72953,1,8,0:0:0:0:
256,192,73352,1,0,0:0:0:0:
256,192,73551,1,8,0:0:0:0:
256,192,73950,1,8,0:0:0:0:
256,192,74149,1,0,0:0:0:0:
256,192,74548,1,0,0:0:0:0:
256,192,74747,1,8,0:0:0:0:
256,192,74946,1,0,0:0:0:0:
256,192,75544,1,0,0:0:0:0:
256,192,75744,1,8,0:0:0:0:
256,192,75943,1,0,0:0:0:0:
256,192,76142,1,8,0:0:0:0:
256,192,76541,1,0,0:0:0:0:
256,192,76740,1,0,0:0:0:0:
256,192,76940,1,8,0:0:0:0:
256,192,77338,1,8,0:0:0:0:
256,192,77538,1,8,0:0:0:0:
256,192,77737,1,0,0:0:0:0:
256,192,77936,1,0,0:0:0:0:
256,192,78136,1,8,0:0:0:0:
256,192,78435,1,8,0:0:0:0:
256,192,78734,1,0,0:0:0:0:
256,192,78933,1,8,0:0:0:0:
256,192,79132,1,8,0:0:0:0:
256,192,79332,1,0,0:0:0:0:
256,192,79730,1,0,0:0:0:0:
256,192,79930,1,8,0:0:0:0:
256,192,80328,1,8,0:0:0:0:
256,192,80528,1,0,0:0:0:0:
256,192,81325,1,8,0:0:0:0:
256,192,81624,1,8,0:0:0:0:
256,192,82122,1,0,0:0:0:0:
256,192,82322,1,8,0:0:0:0:
256,192,82521,1,0,0:0:0:0:
256,192,82920,1,8,0:0:0:0:
256,192,83219,1,8,0:0:0:0:
256,192,83717,1,8,0:0:0:0:
256,192,83916,1,0,0:0:0:0:
256,192,84116,1,8,0:0:0:0:
256,192,84514,1,8,0:0:0:0:
256,192,84813,1,8,0:0:0:0:
256,192,85312,1,0,0:0:0:0:
256,192,85511,1,0,0:0:0:0:
256,192,85710,1,8,0:0:0:0:
256,192,85910,1,0,0:0:0:0:
256,192,86109,1,8,0:0:0:0:
256,192,86408,1,8,0:0:0:0:
256,192,86707,1,8,0:0:0:0:
256,192,86906,1,0,0:0:0:0:
256,192,87305,1,0,0:0:0:0:
256,192,87704,1,12,0:0:0:0:
256,192,89298,1,4,0:0:0:0:
256,192,90893,1,4,0:0:0:0:
256,192,92488,12,0,93684,0:0:0:0:
256,192,94083,5,0,0:0:0:0:
256,192,94282,1,8,0:0:0:0:
256,192,94481,1,0,0:0:0:0:
256,192,94880,1,0,0:0:0:0:
256,192,95179,1,8,0:0:0:0:
256,192,95677,1,0,0:0:0:0:
256,192,95877,1,0,0:0:0:0:
256,192,96076,1,8,0:0:0:0:
256,192,96275,1,8,0:0:0:0:
256,192,96475,1,0,0:0:0:0:
256,192,97272,1,0,0:0:0:0:
256,192,97471,1,8,0:0:0:0:
256,192,97671,1,8,0:0:0:0:
256,192,98069,1,0,0:0:0:0:
256,192,98368,1,8,0:0:0:0:
256,192,98867,1,8,0:0:0:0:
256,192,99066,1,0,0:0:0:0:
256,192,99265,1,8,0:0:0:0:
256,192,99465,1,8,0:0:0:0:
256,192,99664,1,0,0:0:0:0:
256,192,100461,1,0,0:0:0:0:
256,192,100661,1,0,0:0:0:0:
256,192,100860,1,8,0:0:0:0:
256,192,101259,1,0,0:0:0:0:
256,192,101558,1,8,0:0:0:0:
256,192,101857,1,8,0:0:0:0:
256,192,102056,1,0,0:0:0:0:
256,192,102255,1,0,0:0:0:0:
256,192,102455,1,8,0:0:0:0:
256,192,102654,1,8,0:0:0:0:
256,192,102853,1,0,0:0:0:0:
256,192,103651,1,8,0:0:0:0:
256,192,103850,1,0,0:0:0:0:
256,192,104249,1,8,0:0:0:0:
256,192,104448,1,0,0:0:0:0:
256,192,104847,1,8,0:0:0:0:
256,192,105046,1,0,0:0:0:0:
256,192,105445,1,8,0:0:0:0:
256,192,105644,1,0,0:0:0:0:
256,192,106043,1,8,0:0:0:0:
256,192,106242,1,8,0:0:0:0:
256,192,106441,1,0,0:0:0:0:
256,192,106840,1,0,0:0:0:0:
256,192,107039,1,0,0:0:0:0:
256,192,107239,1,8,0:0:0:0:
256,192,107637,1,0,0:0:0:0:
256,192,107837,1,8,0:0:0:0:
256,192,108036,1,0,0:0:0:0:
256,192,108235,1,0,0:0:0:0:
256,192,108435,1,12,0:0:0:0:
256,192,110029,1,8,0:0:0:0:
256,192,110229,1,8,0:0:0:0:
256,192,110428,1,8,0:0:0:0:
256,192,110827,1,8,0:0:0:0:
256,192,111126,1,8,0:0:0:0:
256,192,111624,1,0,0:0:0:0:
256,192,111823,1,0,0:0:0:0:
256,192,112023,1,0,0:0:0:0:
256,192,112421,1,0,0:0:0:0:
256,192,112720,1,0,0:0:0:0:
256,192,113019,1,0,0:0:0:0:
256,192,113219,1,12,0:0:0:0:
256,192,113418,12,0,116209,0:0:0:0:
256,192,116408,5,0,0:0:0:0:
256,192,116607,1,0,0:0:0:0:
256,192,116807,1,0,0:0:0:0:
256,192,117205,1,8,0:0:0:0:
256,192,117405,1,8,0:0:0:0:
256,192,117604,1,8,0:0:0:0:
256,192,117803,1,8,0:0:0:0:
256,192,118003,1,4,0:0:0:0:
