osu file format v14

[General]
AudioFilename: audio.mp3
AudioLeadIn: 0
PreviewTime: 71033
Countdown: 0
SampleSet: Soft
StackLeniency: 0.5
Mode: 0
LetterboxInBreaks: 0
WidescreenStoryboard: 1

[Editor]
DistanceSpacing: 1
BeatDivisor: 4
GridSize: 8
TimelineZoom: 2.500006

[Metadata]
Title:Xeroa
TitleUnicode:Xéroa
Artist:Camellia
ArtistUnicode:かめりあ
Creator:ScubDomino
Version:ADVANCED
Source:SOUND VOLTEX IV HEAVENLY HAVEN
Tags:4988013864528 Xroniàl Xéro Xronial Xero Cametek かめるかめりあ Kamelcamellia Masaya Oya 大箭将也 The 7th KAC Original Song Contest KACオリジナル楽曲コンテスト Excellence Award Ω Omega Dimension Phase 4 SDVX III GRAVITY WARS Voltenizer Maxima ZÉRO CROIRE コナステ Konasute Purity Electronic Instrumental Rhythm Video Game Speedcore honne BlastTheKidd -BlastTheKidd- 3988240 Regou 419954 tonogamikun indonesian_btmc 15381937 PaRaDogi 2054596 atlas atlas- Croden Mobile aeniko 9074780 Anxient AncientMU 4561368 s0m3guy 11141924 Kawashiro mykh0002 UnLock- 1533796 Cynplytholowazy -GN Junior 3901754 SenpaiKunOsu CookieGame enri kieg 8640970 anime girl anime_girl jungkyuyoung natsume shiki natsume_shiki scub domino [keqing] 8972308 PCCA-04883 PONY CANYON EXIT TUNES EXITTUNES DANCE PRODUCTION EDP
BeatmapID:4437052
BeatmapSetID:1540170

[Difficulty]
HPDrainRate:4
CircleSize:3.5
OverallDifficulty:6
ApproachRate:8.5
SliderMultiplier:0.999999999999999
SliderTickRate:0.5

[Events]
//Background and Video events
0,0,"bg.jpg",0,0
//Break Periods
2,65617,67931
2,113457,115772
//Storyboard Layer 0 (Background)
//Storyboard Layer 1 (Fail)
//Storyboard Layer 2 (Pass)
//Storyboard Layer 3 (Foreground)
//Storyboard Layer 4 (Overlay)
//Storyboard Sound Samples

[TimingPoints]
1630,199.335548172757,4,2,2,70,1,0
1729,-100,4,2,2,60,0,0
2128,-100,4,2,2,50,0,0
2527,-100,4,2,2,40,0,0
2925,-100,4,2,2,30,0,0
3324,-100,4,2,2,40,0,0
3723,-100,4,2,2,50,0,0
4520,-100,4,2,2,60,0,0
4794,-100,4,2,2,70,0,0
4819,-107.52688172043,4,2,2,70,0,0
16181,-107.52688172043,4,2,2,55,0,0
16779,-153.846153846153,4,2,2,55,0,0
17576,-307.692307692308,4,2,2,75,0,0
18573,-307.692307692308,4,2,2,55,0,0
19171,-100,4,2,2,70,0,0
31953,-100,4,2,2,50,0,0
34719,-100,4,2,2,60,0,0
35317,-100,4,2,2,50,0,0
36713,-100,4,2,2,70,0,0
36912,-100,4,2,2,60,0,0
37111,-100,4,2,2,50,0,0
37510,-83.3333333333333,4,2,2,60,0,0
37610,-83.3333333333333,4,2,2,65,0,0
37709,-83.3333333333333,4,2,2,70,0,0
37809,-83.3333333333333,4,2,2,75,0,0
37909,-83.3333333333333,4,2,2,60,0,0
38307,-100,4,2,2,85,0,0
38407,-100,4,2,2,75,0,0
51065,199.335548172757,7,2,2,70,1,0
62228,199.335548172757,4,2,2,70,1,0
65417,-100,4,2,2,60,0,0
68606,-107.52688172043,4,2,2,60,0,0
69304,-153.846153846153,4,2,2,60,0,0
69404,-153.846153846153,4,2,2,75,0,0
70101,-307.692307692308,4,2,2,75,0,0
70201,-307.692307692308,4,2,2,40,0,0
70301,-307.692307692308,4,2,2,45,0,0
70388,-307.692307692308,4,2,2,50,0,0
70488,-307.692307692308,4,2,2,55,0,0
70587,-307.692307692308,4,2,2,60,0,0
70687,-307.692307692308,4,2,2,65,0,0
70786,-307.692307692308,4,2,2,70,0,0
70886,-307.692307692308,4,2,2,75,0,0
70998,-100,4,2,2,75,0,1
71796,-100,4,2,2,80,0,0
84603,-100,4,2,2,70,0,0
84653,-100,4,2,2,60,0,0
85948,-100,4,2,2,70,0,0
86048,-100,4,2,2,80,0,0
86148,-63.1591773687873,4,2,2,80,0,0
86247,-63.1591773687873,4,2,2,70,0,0
86347,-63.1591773687873,4,2,2,65,0,0
86546,-63.1591773687873,4,2,2,55,0,0
86945,-63.1591773687873,4,2,2,75,0,0
93424,-63.1591773687873,4,2,1,80,0,0
93436,-63.1591773687873,4,2,2,5,0,0
93523,-100,4,2,2,80,0,0
93536,-100,4,2,2,5,0,0
93556,-100,4,2,1,10,0,0
93590,-100,4,2,2,15,0,0
93623,-100,4,2,1,20,0,0
93656,-100,4,2,2,25,0,0
93689,-100,4,2,1,30,0,0
93723,-100,4,2,2,35,0,0
93756,-100,4,2,1,40,0,0
93789,-100,4,2,2,45,0,0
93822,-100,4,2,1,50,0,0
93855,-100,4,2,2,55,0,0
93889,-100,4,2,1,60,0,0
93922,-100,4,2,2,65,0,0
93955,-100,4,2,1,70,0,0
93988,-100,4,2,2,75,0,0
94022,-100,4,2,1,80,0,0
94055,-100,4,2,2,85,0,0
94088,-100,4,2,1,90,0,0
94121,-83.3333333333333,4,2,2,80,0,0
110068,-83.3333333333333,4,2,2,70,0,0
116447,-41.1522633744856,4,2,2,75,0,0
116546,-41.1522633744856,4,2,2,70,0,0
116646,-41.1522633744856,4,2,2,65,0,0
116745,-41.1522633744856,4,2,2,60,0,0
116845,-41.1522633744856,4,2,2,55,0,0
116944,-41.1522633744856,4,2,2,50,0,0
117045,-41.1522633744856,4,2,2,45,0,0
117144,-41.1522633744856,4,2,2,50,0,0
117244,-41.1522633744856,4,2,2,55,0,0
117343,-41.1522633744856,4,2,2,60,0,0
117443,-41.1522633744856,4,2,2,65,0,0
117542,-41.1522633744856,4,2,2,70,0,0
117643,-41.1522633744856,4,2,2,75,0,0
117742,-41.1522633744856,4,2,2,70,0,0
117842,-41.1522633744856,4,2,2,75,0,0
117941,-41.1522633744856,4,2,2,70,0,0
118041,-41.1522633744856,4,2,2,100,0,0

[Colours]
Combo1 : 255,204,136
Combo2 : 255,179,255
Combo3 : 192,147,255
Combo4 : 137,227,254
Combo5 : 157,255,180
Combo6 : 189,255,123
Combo7 : 255,242,168

[HitObjects]
272,160,1630,5,4,3:3:0:0:
256,192,1679,12,0,4420,0:0:0:0:
0,269,4819,6,0,B|485:362|485:362|396:347|368:268,1,651.000020363617,4|0,1:1|0:0,0:0:0:0:
368,269,6414,6,0,L|360:229,2,23.250000727272,10|8|8,1:3|3:3|3:3,0:0:0:0:
427,189,6613,2,0,L|435:149,2,23.250000727272,6|4|4,1:3|3:3|3:3,0:0:0:0:
315,178,6812,6,0,L|307:138,2,23.250000727272,2|0|0,1:3|3:3|3:3,0:0:0:0:
380,98,7012,2,0,L|388:58,2,23.250000727272,6|4|4,1:3|3:3|3:3,0:0:0:0:
337,0,7211,6,0,L|190:34,2,139.500004363632,2|2|0,1:3|1:3|1:0,0:0:0:0:
512,115,8008,6,0,B|27:22|27:22|116:37|144:116,1,651.000020363617,4|0,1:2|0:0,0:0:0:0:
144,115,9603,6,0,L|152:155,2,23.250000727272,6|8|8,1:3|3:3|3:3,0:0:0:0:
85,195,9802,2,0,L|77:235,2,23.250000727272,6|4|4,1:3|3:3|3:3,0:0:0:0:
197,206,10001,6,0,L|205:246,2,23.250000727272,2|0|0,1:3|3:3|3:3,0:0:0:0:
132,286,10201,2,0,L|124:326,2,23.250000727272,6|4|4,1:3|3:3|3:3,0:0:0:0:
175,384,10400,6,0,L|322:350,2,139.500004363632,2|2|2,1:3|1:3|1:3,0:0:0:0:
127,308,11198,5,4,1:1:0:0:
127,308,11796,2,0,P|76:310|29:294,1,93.0000029090881,2|2,0:0|0:0,0:0:0:0:
306,162,12593,2,0,P|255:160|208:176,1,93.0000029090881,2|2,0:0|0:0,0:0:0:0:
512,378,13390,2,0,P|461:380|414:364,1,93.0000029090881,2|2,0:0|0:0,0:0:0:0:
256,192,13639,12,0,15583,0:0:0:0:
24,352,15982,6,0,B|40:348|40:348|56:289|56:289|51:279|51:279|60:274|60:274|78:207|78:207|65:196,1,186.000005818176,2|0,3:2|3:0,0:0:0:0:
363,179,16779,2,0,B|350:175|350:175|328:136|328:136|331:123|331:123|308:84|308:84|296:81,1,129.999994049072,2|0,3:2|3:0,0:0:0:0:
424,42,17576,2,0,L|369:-5,2,64.9999970245362,8|8|0,1:2|1:2|1:0,0:0:0:0:
424,42,19171,6,0,B|403:79|403:79|445:250,1,200,4|4,1:0|3:0,0:0:0:0:
456,326,19669,2,0,L|403:312,1,50,4|4,3:0|3:0,0:0:0:0:
360,239,19869,2,0,L|244:261,1,99.9999999999999,0|4,1:0|3:0,0:0:0:0:
203,327,20168,1,4,3:0:0:0:
203,327,20267,2,0,L|161:318,2,25,0|0|0,1:0|1:0|1:0,0:0:0:0:
231,169,20566,2,0,L|240:116,1,50,0|0,1:0|1:0,0:0:0:0:
170,79,20766,6,0,P|289:84|360:16,1,200,0|4,1:0|3:0,0:0:0:0:
418,0,21264,2,0,B|436:24|436:24|437:66,1,50,4|4,3:0|3:0,0:0:0:0:
492,111,21463,2,0,B|468:131|468:131|439:272|439:272|415:304,1,200,0|4,1:0|3:3,0:0:0:0:
334,288,21962,2,0,L|362:393,1,99.9999999999999,4|6,3:3|3:3,0:0:0:0:
359,384,22360,6,0,B|329:354|329:354|175:303,1,200,4|4,1:0|3:0,0:0:0:0:
108,258,22859,2,0,P|95:291|94:321,1,50,4|4,3:0|3:0,0:0:0:0:
22,252,23058,2,0,P|2:191|51:111,1,150,0|4,1:0|3:0,0:0:0:0:
90,46,23457,2,0,L|122:40,2,25,0|0|0,1:0|1:0|1:0,0:0:0:0:
121,124,23656,1,4,3:0:0:0:
121,124,23756,2,0,L|180:134,1,50,0|0,1:0|1:0,0:0:0:0:
241,189,23955,5,0,1:0:0:0:
241,189,24055,2,0,B|267:94|267:94|341:162|341:162|372:54,1,300,4|4,1:2|1:2,0:0:0:0:
449,28,24752,2,0,P|386:80|394:248,1,250,0|4,1:3|3:3,0:0:0:0:
458,382,25550,6,0,B|425:340|425:340|269:296,1,200,4|4,1:0|3:0,0:0:0:0:
220,248,26048,2,0,P|203:280|201:307,1,50,4|4,3:0|3:0,0:0:0:0:
156,185,26247,2,0,B|115:160|115:160|86:45,1,150,0|4,1:0|3:0,0:0:0:0:
173,45,26646,2,0,B|215:21|215:21|329:54,1,150,0|0,1:0|1:0,0:0:0:0:
302,219,27144,1,2,3:2:0:0:
302,219,27344,6,0,L|253:229,1,50,4|4,1:0|3:0,0:0:0:0:
270,310,27543,2,0,L|221:320,1,50,4|4,3:0|3:0,0:0:0:0:
163,256,27742,2,0,L|114:266,1,50,0|0,1:0|1:0,0:0:0:0:
43,317,27942,2,0,L|26:386,2,66.6666666666666,4|4|4,1:2|1:2|1:2,0:0:0:0:
38,230,28340,2,0,L|4:73,1,150,4|0,1:2|0:0,0:0:0:0:
4,72,28739,6,0,P|27:61|72:58,1,50,4|8,1:0|3:3,0:0:0:0:
124,31,28938,1,8,3:3:0:0:
124,31,29038,2,0,P|151:70|214:98,1,99.9999999999999,8|0,3:3|0:0,0:0:0:0:
182,175,29337,6,0,P|205:186|250:189,1,50,0|4,1:0|3:3,0:0:0:0:
300,227,29536,1,4,3:3:0:0:
300,227,29636,2,0,P|327:188|390:160,1,99.9999999999999,4|0,3:3|0:0,0:0:0:0:
460,156,29935,6,0,L|451:205,1,50,0|4,1:0|3:0,0:0:0:0:
408,277,30134,2,0,L|429:344,2,50,4|4|4,3:0|3:0|3:0,0:0:0:0:
493,278,30433,5,8,3:0:0:0:
256,192,30483,12,4,31929,1:0:0:0:
263,152,35118,5,4,1:2:0:0:
249,233,35317,1,0,1:2:0:0:
234,160,36713,6,0,B|206:280|297:234|274:358,1,200,2|2,3:2|3:0,0:0:0:0:
184,382,37311,1,2,3:0:0:0:
184,382,37510,6,0,B|158:245|265:299|232:158,1,239.999992675781,2|2,1:3|1:3,0:0:0:0:
233,159,38307,6,0,L|75:133,1,150,4|0,1:1|3:0,0:0:0:0:
76,133,38706,6,0,L|58:70,1,50,0|0,1:3|3:0,0:0:0:0:
115,20,38905,2,0,L|164:27,1,50,0|0,1:3|3:0,0:0:0:0:
155,109,39105,6,0,L|205:118,1,50,0|0,1:3|3:0,0:0:0:0:
233,199,39304,2,0,L|201:237,1,50,0|0,1:3|3:0,0:0:0:0:
121,205,39503,6,0,P|82:267|93:340,1,150,0|0,1:3|3:0,0:0:0:0:
163,384,39902,6,0,P|225:344|298:355,1,150,0|0,1:1|3:0,0:0:0:0:
389,374,40301,6,0,L|371:311,1,50,0|0,1:3|3:0,0:0:0:0:
428,261,40500,2,0,L|477:268,1,50,0|0,1:3|3:0,0:0:0:0:
437,144,40699,6,0,L|391:191,1,50,0|0,1:3|3:0,0:0:0:0:
319,166,40898,2,0,L|300:120,1,50,0|0,1:3|3:0,0:0:0:0:
365,61,41098,6,0,P|312:72|222:18,1,150,0|0,1:3|1:0,0:0:0:0:
144,18,41497,2,0,P|138:71|58:140,1,150,0|0,1:1|3:0,0:0:0:0:
14,198,41895,6,0,L|-4:258,1,50,0|0,1:3|3:0,0:0:0:0:
32,321,42095,2,0,L|14:381,1,50,0|0,1:3|3:0,0:0:0:0:
109,349,42294,6,0,L|123:301,1,50,0|0,1:3|3:0,0:0:0:0:
92,226,42494,2,0,L|106:178,1,50,0|0,1:3|3:0,0:0:0:0:
189,148,42693,6,0,B|226:146|226:146|270:184,2,74.9999999999999,0|0|0,1:3|1:3|1:3,0:0:0:0:
194,234,43091,6,0,P|274:205|357:206,1,150,0|0,1:3|3:0,0:0:0:0:
358,290,43490,2,0,P|278:319|195:318,1,150,0|0,1:3|1:3,0:0:0:0:
131,303,43889,6,0,L|54:331,2,74.9999999999999,2|2|2,1:3|1:3|1:3,0:0:0:0:
213,320,44287,2,0,L|232:240,2,74.9999999999999,2|2|2,1:3|1:3|1:3,0:0:0:0:
158,384,44686,6,0,B|199:211|86:246|149:80,1,300,4|0,1:2|1:3,0:0:0:0:
211,40,45384,1,0,3:0:0:0:
211,40,45483,2,0,L|274:29,1,50,0|0,1:3|3:0,0:0:0:0:
327,89,45683,2,0,L|390:78,1,50,0|0,1:3|3:0,0:0:0:0:
354,0,45882,1,2,1:2:0:0:
354,0,46281,6,0,B|313:173|426:138|363:304,1,300,4|0,1:1|1:3,0:0:0:0:
301,344,46978,1,0,3:0:0:0:
301,344,47077,2,0,L|238:355,1,50,0|0,1:3|3:0,0:0:0:0:
185,295,47277,2,0,L|122:306,1,50,0|0,1:3|3:0,0:0:0:0:
158,384,47476,1,2,2:3:0:0:
158,384,47875,6,0,P|126:324|-5:289,1,200,4|0,1:2|0:0,0:0:0:0:
0,200,48374,2,0,L|20:129,1,50,0|0,1:0|0:0,0:0:0:0:
90,116,48573,6,0,L|120:235,1,99.9999999999999,0|0,1:0|1:0,0:0:0:0:
217,252,48872,1,0,1:0:0:0:
217,252,48972,1,0,1:0:0:0:
217,252,49071,2,0,L|178:107,1,150,0|0,1:0|1:0,0:0:0:0:
156,27,49470,6,0,P|107:13|59:20,2,99.9999999999999,2|2|0,1:3|1:3|1:0,0:0:0:0:
219,90,49968,1,2,1:3:0:0:
219,90,50068,2,0,L|289:70,1,50,0|2,1:0|1:3,0:0:0:0:
333,26,50267,6,0,P|307:115|443:43,1,350,2|2,1:2|0:0,0:0:0:0:
454,46,51065,6,0,B|495:86|495:86|439:339,1,300,4|2,1:2|1:3,0:0:0:0:
366,364,51762,2,0,P|278:315|164:323,1,200,0|0,1:3|0:0,0:0:0:0:
110,380,52261,2,0,B|179:306|144:285|217:208,1,200,2|2,1:3|1:3,0:0:0:0:
281,164,52759,1,0,1:3:0:0:
211,125,52859,2,0,P|160:85|134:59,1,99.9999999999999,2|2,1:3|1:3,0:0:0:0:
103,232,53357,2,0,L|49:216,2,50,0|2|0,1:3|1:3|0:0,0:0:0:0:
164,288,53656,6,0,L|270:314,1,99.9999999999999,2|2,1:3|1:3,0:0:0:0:
330,364,53955,2,0,L|427:340,1,99.9999999999999,0|0,1:3|0:0,0:0:0:0:
500,384,54254,1,2,1:3:0:0:
500,384,54354,2,0,B|470:352|470:352|441:233|441:233|409:196,1,200,0|0,1:3|1:3,0:0:0:0:
343,91,54952,6,0,B|227:-5|227:-5|189:147,1,300,2|2,1:3|1:3,0:0:0:0:
251,204,55649,2,0,L|357:170,2,99.9999999999999,2|2|2,1:3|1:3|1:3,0:0:0:0:
277,282,56148,2,0,L|266:346,1,50,0|2,1:3|3:3,0:0:0:0:
439,349,56546,6,0,L|333:383,2,99.9999999999999,0|0|0,1:3|3:3|1:3,0:0:0:0:
496,283,57045,2,0,L|516:224,1,50,2|2,1:3|1:3,0:0:0:0:
409,264,57244,2,0,L|386:208,1,50,0|2,3:0|1:3,0:0:0:0:
417,137,57443,2,0,B|362:131|362:131|281:189,1,150,0|2,1:3|1:3,0:0:0:0:
310,268,57842,2,0,B|255:273|255:273|174:215,1,150,0|0,1:3|1:3,0:0:0:0:
135,147,58241,6,0,L|152:95,1,50,2|0,1:3|1:3,0:0:0:0:
343,107,58639,1,2,1:3:0:0:
343,107,58739,2,0,L|375:17,2,74.9999999999999,2|2|2,1:3|3:3|1:3,0:0:0:0:
272,158,59138,6,0,B|392:134|352:198|478:183,1,200,0|0,1:3|1:3,0:0:0:0:
512,267,59636,5,2,1:3:0:0:
512,267,59736,2,0,L|492:331,1,50,0|0,1:3|0:0,0:0:0:0:
424,361,59935,2,0,L|339:385,2,74.9999999999999,0|0|2,0:0|0:0|3:3,0:0:0:0:
422,274,60334,1,0,0:0:0:0:
262,367,60633,6,0,B|227:328|227:328|231:280,1,99.9999999999999,2|0,1:3|1:3,0:0:0:0:
76,195,61031,6,0,B|127:184|127:184|166:211,1,99.9999999999999,2|2,1:3|3:3,0:0:0:0:
315,125,61430,6,0,B|298:174|298:174|255:194,1,99.9999999999999,2|0,1:3|0:0,0:0:0:0:
146,98,61829,6,0,L|167:-15,2,99.9999999999999,10|4|0,3:0|3:0|1:0,0:0:0:0:
146,98,63822,6,0,L|138:144,2,25,10|8|8,1:3|3:3|3:3,0:0:0:0:
218,156,64022,2,0,L|213:181,2,25,6|4|4,1:3|3:3|3:3,0:0:0:0:
298,202,64221,2,0,L|290:245,2,25,2|0|0,1:3|3:3|3:3,0:0:0:0:
370,261,64420,2,0,L|366:286,2,25,6|4|4,1:3|3:3|3:3,0:0:0:0:
452,324,64620,6,0,B|431:296|431:296|397:173,2,150,2|2|8,1:3|1:3|1:3,0:0:0:0:
512,384,65417,5,4,2:2:0:0:
361,214,68606,6,0,B|377:218|377:218|393:276|393:276|387:287|387:287|397:292|397:292|415:359|415:359|402:370,1,186.000005818176,4|0,3:2|3:2,0:0:0:0:
139,120,69405,2,0,B|144:132|144:132|125:173|125:173|113:178|113:178|93:219|93:219|98:232,1,129.999994049072,4|0,3:2|3:2,0:0:0:0:
51,18,70201,2,0,L|2:61,2,64.9999970245362,12|4|2,0:0|0:2|0:0,0:0:0:0:
52,19,71796,6,0,B|90:17|90:17|159:57,2,99.9999999999999,4|2|2,1:2|1:3|1:3,0:0:0:0:
1,91,72294,1,0,3:0:0:0:
1,91,72394,2,0,L|10:140,1,50,2|0,1:3|3:0,0:0:0:0:
92,176,72593,6,0,P|135:217|189:220,1,99.9999999999999,2|2,1:3|1:3,0:0:0:0:
244,269,72892,2,0,P|258:210|233:162,1,99.9999999999999,0|0,3:0|3:0,0:0:0:0:
170,136,73191,1,2,1:3:0:0:
282,27,73390,6,0,L|434:-1,1,150,2|2,1:3|3:0,0:0:0:0:
509,23,73789,2,0,L|495:72,1,50,0|2,1:3|3:0,0:0:0:0:
490,159,73988,2,0,L|476:208,1,50,0|2,1:3|3:0,0:0:0:0:
481,288,74188,6,0,P|441:222|364:183,1,150,0|2,1:3|3:0,0:0:0:0:
262,319,74586,2,0,P|307:299|332:257,1,99.9999999999999,0|0,1:3|1:3,0:0:0:0:
295,179,74885,1,2,1:3:0:0:
295,179,74985,2,0,B|246:194|246:194|206:218|206:218|134:242,1,150,2|0,1:3|3:0,0:0:0:0:
88,176,75384,6,0,L|108:115,1,50,2|0,1:3|3:0,0:0:0:0:
156,234,75583,2,0,L|217:254,1,50,2|0,1:3|3:0,0:0:0:0:
262,319,75782,6,0,L|282:380,1,50,2|0,1:3|3:0,0:0:0:0:
332,257,75982,2,0,L|393:237,1,50,2|0,1:3|3:0,0:0:0:0:
459,288,76181,5,2,1:3:0:0:
511,148,76380,1,2,1:3:0:0:
511,148,76480,1,0,3:0:0:0:
511,148,76580,5,2,1:3:0:0:
433,172,76779,1,0,1:3:0:0:
354,147,76978,1,0,1:3:0:0:
303,84,77178,1,0,1:3:0:0:
226,171,77377,6,0,L|238:236,1,50,2|0,1:3|3:0,0:0:0:0:
142,185,77577,2,0,L|152:235,1,50,2|0,1:3|3:0,0:0:0:0:
172,321,77776,5,2,1:3:0:0:
172,321,77875,2,0,P|235:344|260:375,1,99.9999999999999,0|2,3:0|1:3,0:0:0:0:
352,307,78174,6,0,B|352:328|352:328|341:355,1,50,4|0,1:1|1:3,0:0:0:0:
424,243,78374,2,0,B|445:243|445:243|472:255,1,50,2|0,1:3|1:3,0:0:0:0:
357,163,78573,2,0,B|357:142|357:142|369:116,1,50,2|0,1:3|1:3,0:0:0:0:
282,231,78773,2,0,B|261:231|261:231|235:220,1,50,2|0,1:3|1:3,0:0:0:0:
274,140,78972,5,2,1:3:0:0:
260,315,79171,1,2,1:3:0:0:
435,329,79370,1,2,1:3:0:0:
449,154,79569,1,2,1:3:0:0:
449,154,79669,1,0,1:3:0:0:
449,154,79769,6,0,L|506:141,1,50,2|0,1:3|1:3,0:0:0:0:
369,116,79968,2,0,L|329:73,1,50,2|0,1:3|1:3,0:0:0:0:
377,205,80168,2,0,L|359:260,1,50,2|0,1:3|1:3,0:0:0:0:
463,246,80367,5,2,1:3:0:0:
290,169,80566,1,2,3:3:0:0:
443,57,80766,2,0,P|366:43|301:-9,1,150,0|0,1:3|1:3,0:0:0:0:
240,39,81164,2,0,L|257:104,1,50,0|2,1:3|3:3,0:0:0:0:
157,69,81364,6,0,L|-1:32,2,150,4|0|0,1:2|1:3|1:3,0:0:0:0:
185,146,82061,1,0,1:3:0:0:
185,146,82161,2,0,L|173:186,8,25,0|0|0|0|0|0|0|0|0,1:3|0:0|1:3|0:0|1:3|0:0|1:3|1:3|1:3,0:0:0:0:
355,314,82958,6,0,L|513:351,2,150,4|2|0,1:2|1:3|1:3,0:0:0:0:
327,238,83655,1,0,1:3:0:0:
327,238,83755,2,0,L|339:198,8,25,0|0|0|0|0|0|0|0|0,0:0|1:3|1:3|1:3|1:3|1:3|1:3|1:3|1:3,0:0:0:0:
260,8,84553,6,0,B|260:16|260:16|252:24|252:24|252:32|252:32|260:24|260:24|260:32|260:32|252:40|252:40|252:48|252:48|260:40|260:40|260:48|260:48|252:56|252:56|252:64|252:64|260:56|260:56|260:64|260:64|252:72|252:72|252:80|252:80|260:72|260:72|260:80|260:80|252:88|252:88|252:96|252:96|260:88|260:88|260:96|260:96|252:104|252:104|252:112|252:112|260:104|260:104|260:112|260:112|252:120|252:120|252:128|252:128|260:120|260:120|260:128|260:128|252:136|252:136|252:144|252:144|260:136|260:136|260:144|260:144|252:152|252:152|252:160|252:160|260:152|260:152|260:160|260:160|252:168|252:168|252:176|252:176|260:168|260:168|260:176|260:176|252:184,1,400,4|0,1:1|1:0,0:0:0:0:
176,216,85450,1,0,1:0:0:0:
176,216,85550,6,0,L|124:228,1,50,0|0,1:0|1:0,0:0:0:0:
256,264,85749,2,0,L|256:316,1,50,2|0,1:3|1:0,0:0:0:0:
336,216,85948,2,0,L|388:228,1,50,0|2,1:0|1:3,0:0:0:0:
398,372,86148,6,0,B|396:376|396:376|381:368|381:368|383:363|383:363|376:360|376:360|379:355|379:355|371:351|371:351|369:356|369:356|361:353|361:353|359:357|359:357|351:354|351:354|352:349|352:349|351:349|345:346|345:346|347:342|347:342|339:339|339:339|337:344|337:344|330:342|329:341|329:341|328:346|328:346|319:344|319:344|320:339|320:339|315:338|312:337|312:337|314:332|314:332|310:330|305:330|305:330|304:335|304:335|301:335|296:334|296:334|295:339|295:339|291:340|286:338|286:338|287:333|287:333|286:333|279:332|279:332|279:327|279:327|270:327|270:327|270:332|270:332|262:331|262:331|262:336|262:336|253:336|253:336|253:331|253:331|245:332|245:332|245:327|245:327|236:327|236:327|236:332|236:332|235:332|228:333|228:333|229:338|229:338|219:339|219:339|218:334|218:334|211:335|211:335|210:330|210:330|202:332|202:332|203:337|203:337|197:338|195:338|195:338|196:343|196:343|187:345|187:345|186:341|186:341|182:342|178:343|178:343|177:338|177:338|172:338|168:341|168:341|170:345|170:345|168:346|162:348|162:348|164:353|164:353|160:355|156:356|156:356|154:352|154:352|146:355|146:355|144:350|144:350|136:354|136:354|139:358|139:358|131:362|131:362|134:366|134:366|126:371|126:371|123:366|123:366|120:368|116:370|116:370|115:368|115:368|114:366|114:366|111:367,2,474.990353734811,4|0|2,1:1|1:3|0:3,0:0:0:0:
398,372,87742,5,4,1:2:0:0:
256,192,87792,12,0,90533,0:0:0:0:
160,192,90932,5,4,1:1:0:0:
256,192,91729,1,0,0:0:0:0:
352,192,92527,1,0,0:0:0:0:
132,193,93523,6,2,B|273:232|238:149|375:189,1,250,2|0,0:0|0:0,1:3:0:0:
444,243,94121,6,0,L|429:317,1,59.9999981689453,4|0,1:1|1:3,0:0:0:0:
362,384,94321,2,0,B|346:306|346:306,1,59.9999981689453,6|2,1:3|1:3,0:0:0:0:
265,315,94520,2,0,P|229:328|201:326,2,59.9999981689453,4|2|6,1:3|1:3|1:3,0:0:0:0:
288,236,94819,6,0,B|242:226|220:183|220:183|180:205|128:191,1,179.999994506836,2|2,1:3|1:3,0:0:0:0:
82,118,95218,1,6,1:3:0:0:
82,118,95317,2,0,B|70:88|70:88|89:9,2,89.999997253418,2|2|2,1:3|2:3|0:3,0:0:0:0:
131,192,95716,6,0,P|79:248|100:364,1,179.999994506836,4|2,1:2|1:3,0:0:0:0:
165,368,96115,2,0,L|245:354,1,59.9999981689453,6|2,1:3|1:3,0:0:0:0:
291,300,96314,1,4,1:3:0:0:
291,300,96414,6,0,B|349:295|349:295|416:336,1,119.999996337891,6|0,1:3|0:0,0:0:0:0:
469,273,96713,2,0,P|465:241|448:205,1,59.9999981689453,6|0,1:3|0:0,0:0:0:0:
510,141,96912,2,0,P|471:173|327:165,1,179.999994506836,2|2,1:3|1:3,0:0:0:0:
280,116,97311,6,0,L|249:-8,1,119.999996337891,4|6,1:1|1:3,0:0:0:0:
180,96,97610,1,2,1:3:0:0:
180,96,97709,6,0,L|264:-20,1,119.999996337891,6|6,1:3|1:3,0:0:0:0:
74,33,98008,1,2,1:3:0:0:
74,33,98108,6,0,L|263:-3,1,179.999994506836,6|0,1:3|1:0,0:0:0:0:
317,54,98507,2,0,B|348:39|348:39|422:53,2,89.999997253418,6|2|2,1:3|1:3|1:3,0:0:0:0:
273,131,98905,1,2,1:3:0:0:
273,131,99005,6,0,L|287:211,1,59.9999981689453,4|2,3:0|1:3,0:0:0:0:
375,193,99204,2,0,L|361:273,1,59.9999981689453,4|2,3:0|1:3,0:0:0:0:
226,257,99404,6,0,L|240:337,1,59.9999981689453,4|2,3:0|1:3,0:0:0:0:
410,325,99603,2,0,L|396:405,1,59.9999981689453,4|2,3:0|3:2,0:0:0:0:
399,384,100500,6,0,B|365:351|365:351|227:314,1,179.999994506836,4|4,1:2|1:3,0:0:0:0:
160,284,100899,2,0,P|133:313|69:328,2,89.999997253418,6|0|6,1:3|3:3|1:3,0:0:0:0:
226,231,101297,6,0,P|213:207|207:166,1,59.9999981689453,4|6,1:3|1:3,0:0:0:0:
286,143,101497,2,0,P|299:167|305:208,1,59.9999981689453,6|6,1:3|1:3,0:0:0:0:
315,286,101696,2,0,L|377:30,1,239.999992675781,4|0,1:3|3:3,0:0:0:0:
301,0,102194,5,0,0:0:0:0:
301,0,102294,2,0,L|224:23,1,59.9999981689453,4|6,1:1|1:3,0:0:0:0:
171,59,102493,2,0,L|103:48,2,59.9999981689453,6|6|4,1:3|1:3|1:3,0:0:0:0:
247,105,102792,6,0,P|160:94|78:164,1,179.999994506836,6|6,1:3|1:3,0:0:0:0:
39,219,103191,1,6,1:3:0:0:
39,219,103291,1,6,3:3:0:0:
39,219,103689,6,0,B|81:287|81:287|194:315,1,179.999994506836,4|4,1:2|1:3,0:0:0:0:
342,384,104188,1,0,3:0:0:0:
342,384,104287,6,0,L|298:189,1,179.999994506836,4|4,1:2|1:3,0:0:0:0:
450,65,104786,1,0,3:0:0:0:
450,65,104885,6,0,P|384:84|304:-2,1,179.999994506836,4|4,1:2|1:3,0:0:0:0:
200,145,105384,1,0,3:0:0:0:
200,145,105483,2,0,L|221:227,1,59.9999981689453,4|4,1:2|1:3,0:0:0:0:
284,135,105683,2,0,P|327:191|307:299,1,179.999994506836,4|0,1:3|3:0,0:0:0:0:
363,365,106081,6,0,L|182:284,1,179.999994506836,4|2,1:2|1:3,0:0:0:0:
140,232,106480,2,0,P|121:263|115:295,1,59.9999981689453,6|6,1:3|1:3,0:0:0:0:
118,377,106679,6,0,L|37:196,1,179.999994506836,10|10,1:3|1:3,0:0:0:0:
125,127,107078,2,0,L|206:308,1,179.999994506836,6|4,1:3|1:3,0:0:0:0:
268,350,107477,5,4,1:3:0:0:
268,350,107576,2,0,P|315:361|384:330,1,119.999996337891,10|6,1:3|1:3,0:0:0:0:
441,272,107875,1,10,1:3:0:0:
441,272,107975,2,0,L|458:206,1,59.9999981689453,6|4,1:3|1:3,0:0:0:0:
479,135,108174,1,10,1:3:0:0:
479,135,108274,2,0,L|470:107,2,29.9999990844727,6|6|6,1:3|3:0|1:3,0:0:0:0:
443,29,108473,5,4,1:0:0:0:
63,15,110068,6,0,L|33:22,2,29.9999990844727,10|8|8,1:3|3:3|3:3,0:0:0:0:
95,90,110267,2,0,L|65:97,2,29.9999990844727,6|4|4,1:3|3:3|3:3,0:0:0:0:
177,85,110467,2,0,L|207:92,2,29.9999990844727,2|0|0,1:3|3:3|3:3,0:0:0:0:
145,160,110666,2,0,L|175:167,2,29.9999990844727,6|4|4,1:3|3:3|3:3,0:0:0:0:
253,196,110865,6,0,B|209:207|209:207|101:288,2,179.999994506836,2|2|0,1:3|1:3|1:0,0:0:0:0:
448,368,111663,6,0,L|478:361,2,29.9999990844727,10|8|8,1:3|3:3|3:3,0:0:0:0:
416,293,111862,2,0,L|446:286,2,29.9999990844727,6|4|4,1:3|3:3|3:3,0:0:0:0:
334,298,112062,2,0,L|304:291,2,29.9999990844727,2|0|0,1:3|3:3|3:3,0:0:0:0:
366,223,112261,2,0,L|336:216,2,29.9999990844727,6|4|4,1:3|3:3|3:3,0:0:0:0:
259,188,112460,6,0,B|303:177|303:177|410:95,2,179.999994506836,2|2|2,1:3|1:3|1:3,0:0:0:0:
256,0,113257,5,2,3:2:0:0:
256,16,116447,6,0,B|262:16|266:22|266:22|268:26|268:31|268:31|267:35|263:36|263:36|261:37|259:36|259:36|256:35|256:31|256:31|255:27|252:26|252:26|250:25|248:26|248:26|244:27|243:31|243:31|243:36|245:40|245:40|249:46|256:46|256:46|262:46|266:52|266:52|268:56|268:61|268:61|267:65|263:66|263:66|261:67|259:66|259:66|256:65|256:61|256:61|255:57|252:56|252:56|250:55|248:56|248:56|244:57|243:61|243:61|243:66|245:70|245:70|249:76|256:76|256:76|262:76|266:82|266:82|268:86|268:91|268:91|267:95|263:96|263:96|261:97|259:96|259:96|256:95|256:91|256:91|255:87|252:86|252:86|250:85|248:86|248:86|244:87|243:91|243:91|243:96|245:100|245:100|249:106|256:106|256:106|262:106|266:112|266:112|268:116|268:121|268:121|267:125|263:126|263:126|261:127|259:126|259:126|256:125|256:121|256:121|255:117|252:116|252:116|250:115|248:116|248:116|244:117|243:121|243:121|243:126|245:130|245:130|249:136|256:136|256:136|262:136|266:142|266:142|268:146|268:151|268:151|267:155|263:156|263:156|261:157|259:156|259:156|256:155|256:151|256:151|255:147|252:146|252:146|250:145|248:146|248:146|244:147|243:151|243:151|243:156|245:160|245:160|249:166|256:166|256:166|262:166|266:172|266:172|268:176|268:181|268:181|267:185|263:186|263:186|261:187|259:186|259:186|256:185|256:181|256:181|255:177|252:176|252:176|250:175|248:176|248:176|244:177|243:181|243:181|243:186|245:190|245:190|249:195|256:195|256:195|262:195|266:201|266:201|269:205|267:211|267:211|266:213|264:215|264:215|262:216|258:215|258:215|256:213|256:210|256:210|255:206|252:205|252:205|250:204|248:205|248:205|244:206|243:210|243:210|243:215|245:219|245:219|249:225|256:225|256:225|262:225|266:231|266:231|268:235|268:240|268:240|267:244|263:245|263:245|261:246|259:245|259:245|256:244|256:240|256:240|255:236|252:235|252:235|250:234|248:235|248:235|244:236|243:240|243:240|243:245|245:249|245:249|249:255|256:255|256:255|262:255|266:261|266:261|268:265|268:270|268:270|267:274|263:275|263:275|261:276|259:275|259:275|256:274|256:270|256:270|255:266|252:265|252:265|250:264|248:265|248:265|244:266|243:270|243:270|243:275|245:279|245:279|249:285|256:285|256:285|262:285|266:291|266:291|269:295|267:301|267:301|266:303|264:305|264:305|262:306|258:305|258:305|256:303|256:300|256:300|255:296|252:295|252:295|250:294|248:295|248:295|244:296|243:300|243:300|243:305|245:309|245:309|249:315|256:315|256:315|262:315|266:321|266:321|268:325|268:330|268:330|267:334|263:335|263:335|261:336|259:335|259:335|256:334|256:330|256:330|255:327|253:325|253:325|249:324|247:325|247:325|245:327|244:329|244:329|242:335|245:339|245:339|249:345|256:345|256:345|262:345|266:351|266:351|269:355|267:361|267:361|266:363|264:365|264:365|262:366|258:365|258:365|256:363|256:360|256:360|256:357|253:355|253:355|250:354|248:355|248:355|245:356|243:360|243:360|242:365|246:370|246:370|250:375|256:375,2,971.999993696593,4|0|4,1:0|1:0|1:2,0:0:0:0:
