osu file format v14

[General]
AudioFilename: audio.mp3
AudioLeadIn: 0
PreviewTime: 35175
Countdown: 0
SampleSet: Normal
StackLeniency: 0.7
Mode: 1
LetterboxInBreaks: 0
WidescreenStoryboard: 1

[Editor]
Bookmarks: 20440,36147,56251,76356,86408,96461,110283,120335,144210,154262,164314
DistanceSpacing: 3.8
BeatDivisor: 2
GridSize: 32
TimelineZoom: 1.4

[Metadata]
Title:Wolves Standing Towards Enemies
TitleUnicode:Wolves Standing Towards Enemies
Artist:Camellia
ArtistUnicode:かめりあ
Creator:Raytoly
Version:Whisper
Source:Lanota
Tags:Rhytoly Blackener Ph0eNiiXZ wolf Main Story Chapter VI 6 The Sound of Life かめるかめりあ kamelcamellia cametek EDP Instrumental Video Game Electronic
BeatmapID:2650370
BeatmapSetID:1236029

[Difficulty]
HPDrainRate:7
CircleSize:2
OverallDifficulty:3
ApproachRate:10
SliderMultiplier:1.2
SliderTickRate:1

[Events]
//Background and Video events
0,0,"8cda34776c0e470f0c1af63466671a87f9fa66c9_s2_n2.jpg",0,-134
//Break Periods
//Storyboard Layer 0 (Background)
//Storyboard Layer 1 (Fail)
//Storyboard Layer 2 (Pass)
//Storyboard Layer 3 (Foreground)
//Storyboard Layer 4 (Overlay)
//Storyboard Sound Samples

[TimingPoints]
2505,314.13612565445,4,1,0,60,1,0
12557,-100,4,1,0,100,0,0
36431,-100,4,1,0,100,0,1
40829,-100,4,1,0,100,0,0
41457,-100,4,1,0,100,0,1
45227,-100,4,1,0,100,0,0
46484,-100,4,1,0,100,0,1
50881,-100,4,1,0,100,0,0
52452,-100,4,1,0,100,0,1
55279,-100,4,1,0,100,0,0
56536,-100,4,1,0,100,0,1
66274,-100,4,1,0,100,0,0
66588,-100,4,1,0,100,0,1
76641,-100,4,1,0,100,0,0
81667,-100,4,1,0,100,0,1
86693,-100,4,1,0,100,0,0
87007,-100,4,1,0,60,0,0
96745,-100,4,1,0,100,0,0
110567,-100,4,1,0,100,0,1
119363,-100,4,1,0,100,0,0
120620,-100,4,1,0,100,0,1
129415,-100,4,1,0,100,0,0
130672,-100,4,1,0,100,0,1
133185,-100,4,1,0,100,0,0
133499,-100,4,1,0,100,0,1
135698,-100,4,1,0,100,0,0
136641,-100,4,1,0,100,0,1
139468,-100,4,1,0,100,0,0
144494,-100,4,1,0,100,0,1
147007,-100,4,1,0,100,0,0
149520,-100,4,1,0,100,0,1
154546,-100,4,1,0,100,0,0
159573,-100,4,1,0,100,0,1
164599,-100,4,1,0,100,0,0
165227,-100,4,1,0,20,0,0

[HitObjects]
319,212,2504,5,4,0:0:0:0:
248,215,5018,1,8,0:0:0:0:
248,208,6274,1,8,0:0:0:0:
248,208,7531,1,0,0:0:0:0:
211,182,10044,1,8,0:0:0:0:
215,155,12557,1,4,0:0:0:0:
250,147,13813,1,8,0:0:0:0:
231,142,15070,1,0,0:0:0:0:
231,142,16326,5,8,0:0:0:0:
255,191,17583,5,4,0:0:0:0:
227,178,18840,1,8,0:0:0:0:
227,178,20096,1,8,0:0:0:0:
256,191,21353,1,4,0:0:0:0:
256,191,21824,1,4,0:0:0:0:
256,191,22609,1,4,0:0:0:0:
256,191,23080,1,4,0:0:0:0:
256,191,23866,1,12,0:0:0:0:
256,191,24337,1,12,0:0:0:0:
256,191,25122,1,12,0:0:0:0:
256,191,25594,1,12,0:0:0:0:
226,193,26379,1,4,0:0:0:0:
242,159,27007,1,0,0:0:0:0:
242,159,27635,1,8,0:0:0:0:
242,159,28264,1,0,0:0:0:0:
246,185,28892,1,4,0:0:0:0:
242,159,29520,1,0,0:0:0:0:
242,159,30148,1,8,0:0:0:0:
242,159,30777,1,0,0:0:0:0:
249,191,31405,1,4,0:0:0:0:
222,154,32033,1,8,0:0:0:0:
222,154,32662,1,0,0:0:0:0:
222,154,32976,1,0,0:0:0:0:
222,154,33290,1,8,0:0:0:0:
249,191,33918,1,8,0:0:0:0:
222,160,34232,1,8,0:0:0:0:
222,160,34546,1,8,0:0:0:0:
222,160,34861,1,8,0:0:0:0:
222,160,35175,1,0,0:0:0:0:
345,212,36431,1,4,0:0:0:0:
204,190,37059,1,8,0:0:0:0:
236,192,37374,1,8,0:0:0:0:
236,192,37688,1,0,0:0:0:0:
236,192,38002,1,0,0:0:0:0:
236,192,38316,1,8,0:0:0:0:
236,192,38630,1,8,0:0:0:0:
236,192,38944,1,0,0:0:0:0:
251,186,39573,1,8,0:0:0:0:
248,185,39887,1,8,0:0:0:0:
251,186,40201,1,0,0:0:0:0:
245,207,41457,1,4,0:0:0:0:
238,204,42086,1,8,0:0:0:0:
238,204,42400,1,0,0:0:0:0:
238,204,42714,1,0,0:0:0:0:
238,204,43028,1,0,0:0:0:0:
238,204,43342,1,8,0:0:0:0:
238,204,43656,1,8,0:0:0:0:
238,204,43970,1,0,0:0:0:0:
238,204,44599,1,8,0:0:0:0:
238,204,44913,1,8,0:0:0:0:
238,204,45227,1,0,0:0:0:0:
235,184,46484,1,4,0:0:0:0:
237,193,47112,1,8,0:0:0:0:
237,193,47426,1,8,0:0:0:0:
237,193,47740,1,8,0:0:0:0:
237,193,48054,1,8,0:0:0:0:
237,193,48368,1,0,0:0:0:0:
237,193,48683,1,0,0:0:0:0:
237,193,48997,1,0,0:0:0:0:
230,202,49625,1,8,0:0:0:0:
230,202,49939,1,8,0:0:0:0:
230,202,50253,1,0,0:0:0:0:
228,173,51510,5,4,0:0:0:0:
211,173,52138,1,8,0:0:0:0:
211,173,52452,1,4,0:0:0:0:
211,173,53080,1,0,0:0:0:0:
211,173,53395,1,8,0:0:0:0:
222,177,54023,1,0,0:0:0:0:
222,177,54651,1,8,0:0:0:0:
222,177,54965,1,8,0:0:0:0:
222,177,55279,1,0,0:0:0:0:
242,184,56536,1,4,0:0:0:0:
270,188,57164,1,8,0:0:0:0:
270,188,57478,1,0,0:0:0:0:
270,188,57792,1,8,0:0:0:0:
270,188,58421,1,8,0:0:0:0:
270,188,58735,1,8,0:0:0:0:
270,188,59049,1,0,0:0:0:0:
270,188,59677,1,0,0:0:0:0:
270,188,59991,1,0,0:0:0:0:
270,188,60306,1,8,0:0:0:0:
270,188,60934,1,8,0:0:0:0:
270,188,61562,1,0,0:0:0:0:
230,181,62819,1,0,0:0:0:0:
230,181,63447,1,8,0:0:0:0:
218,167,64075,1,0,0:0:0:0:
217,167,64389,1,0,0:0:0:0:
218,167,64703,1,8,0:0:0:0:
218,167,65018,1,8,0:0:0:0:
217,167,65332,1,0,0:0:0:0:
259,180,66274,1,8,0:0:0:0:
259,180,66588,1,4,0:0:0:0:
232,219,67217,1,0,0:0:0:0:
232,219,67531,1,0,0:0:0:0:
232,219,67845,1,8,0:0:0:0:
232,219,68473,1,8,0:0:0:0:
232,219,68787,1,8,0:0:0:0:
232,219,69101,1,0,0:0:0:0:
232,219,69730,1,8,0:0:0:0:
232,219,70044,1,0,0:0:0:0:
232,219,70358,1,8,0:0:0:0:
232,219,70986,1,8,0:0:0:0:
232,219,71614,1,0,0:0:0:0:
212,206,72871,1,0,0:0:0:0:
212,206,74128,1,4,0:0:0:0:
245,184,74442,1,8,0:0:0:0:
245,184,75070,1,8,0:0:0:0:
245,184,75384,1,0,0:0:0:0:
238,176,76326,1,8,0:0:0:0:
245,184,76641,1,4,0:0:0:0:
199,173,77112,1,4,0:0:0:0:
236,156,77897,1,8,0:0:0:0:
236,156,78211,1,8,0:0:0:0:
236,156,78525,1,8,0:0:0:0:
236,172,79154,1,4,0:0:0:0:
236,172,79625,1,4,0:0:0:0:
241,187,80410,1,8,0:0:0:0:
236,172,81667,1,4,0:0:0:0:
236,172,82138,1,4,0:0:0:0:
241,187,82923,1,8,0:0:0:0:
241,187,83237,1,0,0:0:0:0:
241,187,83552,1,8,0:0:0:0:
236,172,84180,1,4,0:0:0:0:
236,172,84651,1,4,0:0:0:0:
230,152,85436,1,8,0:0:0:0:
172,165,85751,1,0,0:0:0:0:
172,165,86065,1,8,0:0:0:0:
172,165,86379,1,8,0:0:0:0:
236,172,86693,1,4,0:0:0:0:
204,162,89206,1,8,0:0:0:0:
204,162,90463,1,8,0:0:0:0:
204,162,91719,1,0,0:0:0:0:
226,177,94232,1,8,0:0:0:0:
203,161,95489,1,0,0:0:0:0:
203,161,96745,1,4,0:0:0:0:
229,202,98002,1,8,0:0:0:0:
229,202,99258,1,0,0:0:0:0:
229,202,100515,5,8,0:0:0:0:
239,204,101772,5,4,0:0:0:0:
218,167,103028,1,8,0:0:0:0:
218,167,104285,1,8,0:0:0:0:
251,193,105541,1,4,0:0:0:0:
251,193,106012,1,4,0:0:0:0:
251,193,106798,1,4,0:0:0:0:
251,193,107269,1,4,0:0:0:0:
251,193,108054,1,12,0:0:0:0:
251,193,108525,1,12,0:0:0:0:
251,193,109311,1,12,0:0:0:0:
251,193,109782,1,12,0:0:0:0:
248,167,110567,1,4,0:0:0:0:
226,155,111196,1,0,0:0:0:0:
226,155,111824,1,8,0:0:0:0:
226,155,112452,1,0,0:0:0:0:
226,155,112766,1,0,0:0:0:0:
226,155,113080,1,8,0:0:0:0:
226,155,113709,1,0,0:0:0:0:
226,155,114337,1,8,0:0:0:0:
226,155,114965,1,8,0:0:0:0:
226,155,115594,1,4,0:0:0:0:
226,155,115908,1,0,0:0:0:0:
226,155,116222,1,8,0:0:0:0:
226,155,116850,1,0,0:0:0:0:
226,155,117164,1,0,0:0:0:0:
226,155,117478,1,8,0:0:0:0:
226,155,118107,1,0,0:0:0:0:
251,157,118421,1,0,0:0:0:0:
251,157,118735,1,0,0:0:0:0:
251,157,119049,1,0,0:0:0:0:
256,163,119363,1,8,0:0:0:0:
250,192,120620,1,4,0:0:0:0:
211,156,121248,1,8,0:0:0:0:
217,161,121876,1,0,0:0:0:0:
217,161,122190,1,0,0:0:0:0:
217,161,122504,1,8,0:0:0:0:
217,161,123133,1,8,0:0:0:0:
217,161,123447,1,8,0:0:0:0:
217,161,123761,1,0,0:0:0:0:
217,161,124389,1,8,0:0:0:0:
217,161,124703,1,0,0:0:0:0:
217,161,125018,1,8,0:0:0:0:
217,161,125332,1,8,0:0:0:0:
217,161,125646,1,0,0:0:0:0:
85,161,126274,1,8,0:0:0:0:
217,161,126902,1,0,0:0:0:0:
248,130,127217,1,0,0:0:0:0:
248,130,127531,1,8,0:0:0:0:
248,130,128159,1,8,0:0:0:0:
248,130,128473,1,8,0:0:0:0:
248,130,128787,1,0,0:0:0:0:
248,130,129101,1,8,0:0:0:0:
248,130,129415,1,0,0:0:0:0:
278,172,130672,1,4,0:0:0:0:
236,161,131300,1,0,0:0:0:0:
236,161,131614,1,8,0:0:0:0:
236,161,131929,1,0,0:0:0:0:
236,161,132243,1,0,0:0:0:0:
236,161,132557,1,8,0:0:0:0:
229,170,133185,1,0,0:0:0:0:
288,187,133499,1,4,0:0:0:0:
281,152,133813,1,8,0:0:0:0:
263,161,134285,1,0,0:0:0:0:
270,148,134599,1,0,0:0:0:0:
263,161,134913,1,0,0:0:0:0:
185,161,135227,1,0,0:0:0:0:
263,161,135698,1,4,0:0:0:0:
263,161,136641,1,12,0:0:0:0:
227,132,137583,1,0,0:0:0:0:
227,132,137897,1,8,0:0:0:0:
227,132,138211,1,0,0:0:0:0:
223,148,139468,1,0,0:0:0:0:
223,148,139939,1,0,0:0:0:0:
223,148,140724,1,0,0:0:0:0:
223,148,141196,1,0,0:0:0:0:
223,151,141981,1,0,0:0:0:0:
223,151,142609,1,0,0:0:0:0:
218,165,143237,1,8,0:0:0:0:
275,166,144494,1,4,0:0:0:0:
239,156,145122,1,0,0:0:0:0:
239,156,145436,1,0,0:0:0:0:
239,156,145751,1,8,0:0:0:0:
239,156,146379,1,8,0:0:0:0:
239,156,146693,1,8,0:0:0:0:
239,156,147007,1,0,0:0:0:0:
254,164,147950,1,12,0:0:0:0:
254,164,148578,1,12,0:0:0:0:
231,160,149520,1,4,0:0:0:0:
231,160,150148,1,8,0:0:0:0:
231,160,150463,1,0,0:0:0:0:
231,160,150777,1,8,0:0:0:0:
231,160,151405,1,8,0:0:0:0:
231,160,151719,1,8,0:0:0:0:
231,160,152033,1,0,0:0:0:0:
203,177,152347,1,0,0:0:0:0:
224,149,152819,1,0,0:0:0:0:
224,149,153290,1,8,0:0:0:0:
224,149,153761,1,8,0:0:0:0:
216,179,154546,1,4,0:0:0:0:
267,197,155018,1,4,0:0:0:0:
238,170,155803,1,8,0:0:0:0:
238,170,156117,1,8,0:0:0:0:
238,170,156431,1,8,0:0:0:0:
238,170,157059,1,4,0:0:0:0:
238,170,157531,1,4,0:0:0:0:
238,170,158316,1,8,0:0:0:0:
208,174,159573,1,4,0:0:0:0:
208,174,160044,1,4,0:0:0:0:
208,174,160829,1,8,0:0:0:0:
208,174,161143,1,0,0:0:0:0:
208,174,161457,1,8,0:0:0:0:
208,174,162086,1,4,0:0:0:0:
208,174,162557,1,4,0:0:0:0:
208,174,163342,1,8,0:0:0:0:
263,168,163656,1,8,0:0:0:0:
289,168,163970,1,0,0:0:0:0:
208,174,164285,1,8,0:0:0:0:
208,174,164599,1,4,0:0:0:0:
256,192,165227,12,0,168997,0:0:0:0:
