osu file format v14

[General]
AudioFilename: audio.mp3
AudioLeadIn: 0
PreviewTime: 35175
Countdown: 0
SampleSet: Normal
StackLeniency: 0.7
Mode: 1
LetterboxInBreaks: 0
WidescreenStoryboard: 0

[Editor]
DistanceSpacing: 0.8
BeatDivisor: 4
GridSize: 32
TimelineZoom: 2.299999

[Metadata]
Title:Wolves Standing Towards Enemies
TitleUnicode:Wolves Standing Towards Enemies
Artist:Camellia
ArtistUnicode:かめりあ
Creator:Raytoly
Version:The Sound of Life
Source:Lanota
Tags:Rhytoly Blackener Ph0eNiiXZ wolf Main Story Chapter VI 6 The Sound of Life かめるかめりあ kamelcamellia cametek EDP Instrumental Video Game Electronic
BeatmapID:2572019
BeatmapSetID:1236029

[Difficulty]
HPDrainRate:5
CircleSize:5
OverallDifficulty:7
ApproachRate:10
SliderMultiplier:1.4
SliderTickRate:1

[Events]
//Background and Video events
0,0,"8cda34776c0e470f0c1af63466671a87f9fa66c9_s2_n2.jpg",0,-134
//Break Periods
//Storyboard Layer 0 (Background)
//Storyboard Layer 1 (Fail)
//Storyboard Layer 2 (Pass)
//Storyboard Layer 3 (Foreground)
//Storyboard Layer 4 (Overlay)
//Storyboard Sound Samples

[TimingPoints]
2505,314.13612565445,4,1,0,60,1,0
2714,-200,4,1,0,60,0,0
11929,-105.263157894737,4,1,0,60,0,0
11981,-107.142895408177,4,1,0,60,0,0
12033,-109.090869421502,4,1,0,60,0,0
12086,-111.111111111111,4,1,0,60,0,0
12164,-114.285714285714,4,1,0,60,0,0
12243,-117.647058823529,4,1,0,60,0,0
12321,-121.212121212121,4,1,0,60,0,0
12400,-125,4,1,0,60,0,0
12557,-66.6666666666667,4,1,0,100,0,0
12714,-133.333333333333,4,1,0,100,0,0
13342,-105.263157894737,4,1,0,100,0,0
13421,-108.108108108108,4,1,0,100,0,0
13499,-111.111111111111,4,1,0,100,0,0
13578,-114.285714285714,4,1,0,100,0,0
13656,-117.647058823529,4,1,0,100,0,0
13735,-121.212121212121,4,1,0,100,0,0
13813,-125,4,1,0,100,0,0
13970,-133.333333333333,4,1,0,100,0,0
17426,-117.647058823529,4,1,0,100,0,0
17504,-111.111111111111,4,1,0,100,0,0
17583,-100,4,1,0,100,0,0
17662,-133.333333333333,4,1,0,100,0,0
18368,-105.263157894737,4,1,0,100,0,0
18447,-108.077963119476,4,1,0,100,0,0
18525,-111.047567225421,4,1,0,100,0,0
18604,-114.184840135515,4,1,0,100,0,0
18683,-117.50453273735,4,1,0,100,0,0
18761,-121.0230318932,4,1,0,100,0,0
18840,-124.758903419143,4,1,0,100,0,0
18997,-132.967760636756,4,1,0,100,0,0
19625,-111.111111111111,4,1,0,100,0,0
19703,-114.285714285714,4,1,0,100,0,0
19782,-117.647058823529,4,1,0,100,0,0
19861,-121.212121212121,4,1,0,100,0,0
19939,-125,4,1,0,100,0,0
20018,-129.032258064516,4,1,0,100,0,0
20096,-133.333333333333,4,1,0,100,0,0
20724,-125,4,1,0,100,0,0
20803,-114.38676682372,4,1,0,100,0,0
20881,-105.434739059564,4,1,0,100,0,0
20960,-97.7822974928619,4,1,0,100,0,0
21039,-91.1654315270119,4,1,0,100,0,0
21117,-85.38732544696,4,1,0,100,0,0
21196,-80.2980019448176,4,1,0,100,0,0
21274,-75.7812286865294,4,1,0,100,0,0
21353,-66.6666666666667,4,1,0,100,0,0
22138,-111.111111111111,4,1,0,100,0,0
22217,-102.564102564103,4,1,0,100,0,0
22295,-95.2380952380952,4,1,0,100,0,0
22374,-88.8888888888889,4,1,0,100,0,0
22452,-83.3333333333333,4,1,0,100,0,0
22531,-78.4313725490196,4,1,0,100,0,0
22609,-66.6666666666667,4,1,0,100,0,0
23395,-105.263157894737,4,1,0,100,0,0
23473,-97.5609756097561,4,1,0,100,0,0
23552,-90.9090909090909,4,1,0,100,0,0
23630,-85.1063829787234,4,1,0,100,0,0
23709,-80,4,1,0,100,0,0
23787,-75.4716981132076,4,1,0,100,0,0
23866,-66.6666666666667,4,1,0,100,0,0
24651,-100,4,1,0,100,0,0
24730,-93.0232558139535,4,1,0,100,0,0
24808,-86.9565217391304,4,1,0,100,0,0
24887,-81.6326530612245,4,1,0,100,0,0
24965,-76.9230769230769,4,1,0,100,0,0
25044,-72.7272727272727,4,1,0,100,0,0
25122,-66.6666666666667,4,1,0,100,0,0
25908,-125,4,1,0,100,0,0
26065,-111.111111111111,4,1,0,100,0,0
26143,-105.263157894737,4,1,0,100,0,0
26222,-100,4,1,0,100,0,0
26300,-95.2380952380952,4,1,0,100,0,0
26379,-80,4,1,0,100,0,0
26536,-125,4,1,0,100,0,0
28892,-80,4,1,0,100,0,0
29049,-111.111111111111,4,1,0,100,0,0
31405,-100,4,1,0,100,0,0
33211,-100,4,1,0,100,0,0
33290,-98.9110878340351,4,1,0,100,0,0
33368,-97.8456348126941,4,1,0,100,0,0
33447,-96.8027972136283,4,1,0,100,0,0
33525,-95.7820460385982,4,1,0,100,0,0
33604,-94.7825971569012,4,1,0,100,0,0
33656,-94.1278350127308,4,1,0,100,0,0
33709,-93.4819696651008,4,1,0,100,0,0
33761,-92.8449934265745,4,1,0,100,0,0
33840,-91.9055982457059,4,1,0,100,0,0
33918,-90.9849392630038,4,1,0,100,0,0
33997,-88.8991616809054,4,1,0,100,0,0
34075,-86.9761102717917,4,1,0,100,0,0
34154,-85.1345679548378,4,1,0,100,0,0
34232,-83.3693210902706,4,1,0,100,0,0
34311,-81.6758579232116,4,1,0,100,0,0
34389,-80.049758930151,4,1,0,100,0,0
34468,-78.4872061929545,4,1,0,100,0,0
34546,-76.9844275899871,4,1,0,100,0,0
34625,-75.5381717043073,4,1,0,100,0,0
34703,-74.1451985423054,4,1,0,100,0,0
34782,-72.8027228218335,4,1,0,100,0,0
34861,-71.5079452477965,4,1,0,100,0,0
34939,-70.2584668478398,4,1,0,100,0,0
35018,-69.0518558722044,4,1,0,100,0,0
35096,-67.886035638811,4,1,0,100,0,0
35175,-66.6666666666667,4,1,0,100,0,0
35253,-68.9655172413793,4,1,0,100,0,0
35410,-74.0740740740741,4,1,0,100,0,0
35489,-76.9230769230769,4,1,0,100,0,0
35646,-83.3333333333333,4,1,0,100,0,0
35803,-90.9090909090909,4,1,0,100,0,0
35881,-95.2380952380952,4,1,0,100,0,0
36039,-105.263157894737,4,1,0,100,0,0
36117,-111.111111111111,4,1,0,100,0,0
36431,-66.6666666666667,4,1,0,100,0,1
36588,-80,4,1,0,100,0,1
40829,-80,4,1,0,100,0,0
41457,-66.6666666666667,4,1,0,100,0,1
41614,-80,4,1,0,100,0,1
45227,-80,4,1,0,100,0,0
45384,-125,4,1,0,100,0,0
46484,-66.6666666666667,4,1,0,100,0,1
46641,-74.0740740740741,4,1,0,100,0,1
50724,-71.4285714285714,4,1,0,100,0,1
50777,-70.1754385964912,4,1,0,100,0,1
50829,-68.9655172413793,4,1,0,100,0,1
50881,-66.6666666666667,4,1,0,100,0,0
51091,-76.9230769230769,4,1,0,100,0,0
51300,-90.9090909090909,4,1,0,100,0,0
51510,-111.111111111111,4,1,0,100,0,0
51981,-133.333333333333,4,1,0,100,0,0
52138,-125,4,1,0,100,0,0
52217,-121.212121212121,4,1,0,100,0,0
52295,-117.647058823529,4,1,0,100,0,0
52374,-114.285714285714,4,1,0,100,0,0
52452,-100,4,1,0,100,0,1
52609,-142.857142857143,4,1,0,100,0,1
54337,-125,4,1,0,100,0,1
54415,-117.647058823529,4,1,0,100,0,1
54494,-111.111111111111,4,1,0,100,0,1
54573,-105.263157894737,4,1,0,100,0,1
54651,-100,4,1,0,100,0,1
54730,-95.2380952380952,4,1,0,100,0,1
54808,-90.9090909090909,4,1,0,100,0,1
54887,-86.9565217391304,4,1,0,100,0,1
54965,-83.3333333333333,4,1,0,100,0,1
55044,-80,4,1,0,100,0,1
55122,-76.9230769230769,4,1,0,100,0,1
55201,-74.0740740740741,4,1,0,100,0,1
55279,-71.4285714285714,4,1,0,100,0,0
55332,-72.7203973442511,4,1,0,100,0,0
55384,-74.0598655517201,4,1,0,100,0,0
55436,-75.4495472649916,4,1,0,100,0,0
55515,-77.6347486924367,4,1,0,100,0,0
55594,-79.9503028917225,4,1,0,100,0,0
55672,-82.4081643416577,4,1,0,100,0,0
55751,-85.0220121989583,4,1,0,100,0,0
55829,-87.807105350965,4,1,0,100,0,0
55908,-90.7808423372799,4,1,0,100,0,0
55986,-93.962972950879,4,1,0,100,0,0
56065,-97.3763879786902,4,1,0,100,0,0
56143,-101.047151632366,4,1,0,100,0,0
56222,-105.00539727742,4,1,0,100,0,0
56300,-109.286512077252,4,1,0,100,0,0
56379,-113.931549924805,4,1,0,100,0,0
56457,-118.988832898033,4,1,0,100,0,0
56536,-80,4,1,0,100,0,1
56693,-90.9090909090909,4,1,0,100,0,1
66274,-90.9090909090909,4,1,0,100,0,0
66588,-80,4,1,0,100,0,1
66667,-90.9090909090909,4,1,0,100,0,1
71850,-100,4,1,0,100,0,1
71929,-97.9786994307438,4,1,0,100,0,1
72007,-96.0374008053696,4,1,0,100,0,1
72086,-94.1716240179077,4,1,0,100,0,1
72164,-92.3769608164645,4,1,0,100,0,1
72243,-90.6493393476148,4,1,0,100,0,1
72321,-88.9852302314862,4,1,0,100,0,1
72400,-87.3810416344449,4,1,0,100,0,1
72478,-85.8337417588879,4,1,0,100,0,1
72557,-84.3402860653823,4,1,0,100,0,1
72635,-82.8978433297079,4,1,0,100,0,1
72714,-81.5039765790173,4,1,0,100,0,1
72792,-80.1562084189669,4,1,0,100,0,1
72871,-78.8522269840206,4,1,0,100,0,1
72950,-77.5900529552111,4,1,0,100,0,1
73028,-76.367590816339,4,1,0,100,0,1
73107,-75.1831084606559,4,1,0,100,0,1
73185,-74.0348082054259,4,1,0,100,0,1
73264,-72.9210039472139,4,1,0,100,0,1
73342,-71.8402674756839,4,1,0,100,0,1
73421,-70.7910975947309,4,1,0,100,0,1
73499,-69.7720825152557,4,1,0,100,0,1
73578,-68.7820352329097,4,1,0,100,0,1
73656,-67.8196458593733,4,1,0,100,0,1
73735,-66.8838608574912,4,1,0,100,0,1
73813,-65.9735485654382,4,1,0,100,0,1
73892,-65.0876405079439,4,1,0,100,0,1
73970,-64.2252507996044,4,1,0,100,0,1
74049,-63.3854150160048,4,1,0,100,0,1
74128,-62.5672206576941,4,1,0,100,0,1
74442,-57.1428571428571,4,1,0,100,0,1
74494,-57.9710144927536,4,1,0,100,0,1
74546,-58.8235294117647,4,1,0,100,0,1
74599,-59.7014925373134,4,1,0,100,0,1
74651,-60.6060606060606,4,1,0,100,0,1
74703,-61.5384615384615,4,1,0,100,0,1
74756,-62.5,4,1,0,100,0,1
74861,-64.5161290322581,4,1,0,100,0,1
74965,-66.6666666666667,4,1,0,100,0,1
75070,-68.9655172413793,4,1,0,100,0,1
75175,-71.4285714285714,4,1,0,100,0,1
75279,-74.0740740740741,4,1,0,100,0,1
75384,-76.9230769230769,4,1,0,100,0,1
75489,-80,4,1,0,100,0,1
75594,-83.3333333333333,4,1,0,100,0,1
75698,-86.9565217391304,4,1,0,100,0,1
75803,-90.9090909090909,4,1,0,100,0,1
75855,-93.0232558139535,4,1,0,100,0,1
75908,-95.2380952380952,4,1,0,100,0,1
76012,-100,4,1,0,100,0,1
76326,-117.647058823529,4,1,0,100,0,1
76379,-121.137236375089,4,1,0,100,0,1
76431,-124.840827944371,4,1,0,100,0,1
76484,-128.777859480175,4,1,0,100,0,1
76641,-50,4,1,0,100,0,0
77583,-55.5555555555556,4,1,0,100,0,0
77635,-56.5993417496555,4,1,0,100,0,0
77688,-57.6831005820225,4,1,0,100,0,0
77740,-58.8091730548131,4,1,0,100,0,0
77792,-59.9800866112451,4,1,0,100,0,0
77845,-61.1985740732241,4,1,0,100,0,0
77897,-62.4675949351274,4,1,0,100,0,0
77976,-64.4729945191507,4,1,0,100,0,0
78054,-66.6113792219125,4,1,0,100,0,0
78133,-68.8965256860027,4,1,0,100,0,0
78211,-71.3439778548293,4,1,0,100,0,0
78290,-73.9717738505341,4,1,0,100,0,0
78368,-76.8004915231457,4,1,0,100,0,0
78447,-79.8542181393648,4,1,0,100,0,0
78525,-83.1607747257773,4,1,0,100,0,0
78604,-86.7530669377989,4,1,0,100,0,0
78683,-90.6696406308794,4,1,0,100,0,0
78761,-94.9566617795638,4,1,0,100,0,0
78840,-99.6690985926723,4,1,0,100,0,0
78918,-104.873800112634,4,1,0,100,0,0
78997,-110.652028141024,4,1,0,100,0,0
79075,-117.10397193252,4,1,0,100,0,0
79154,-50,4,1,0,100,0,0
80096,-55.5555555555556,4,1,0,100,0,0
80148,-56.5993417496555,4,1,0,100,0,0
80201,-57.6831005820225,4,1,0,100,0,0
80253,-58.8091730548131,4,1,0,100,0,0
80332,-60.5832225670081,4,1,0,100,0,0
80410,-62.4675949351274,4,1,0,100,0,0
80489,-64.4729945191507,4,1,0,100,0,0
80567,-66.6113792219125,4,1,0,100,0,0
80646,-68.8965256860027,4,1,0,100,0,0
80724,-71.3439778548293,4,1,0,100,0,0
80803,-73.9717738505341,4,1,0,100,0,0
80881,-76.8004915231457,4,1,0,100,0,0
80960,-79.8542181393648,4,1,0,100,0,0
81039,-83.1607747257773,4,1,0,100,0,0
81117,-86.7530669377989,4,1,0,100,0,0
81196,-90.6696406308794,4,1,0,100,0,0
81274,-94.9566617795638,4,1,0,100,0,0
81353,-99.6690985926723,4,1,0,100,0,0
81405,-103.079606318368,4,1,0,100,0,0
81457,-106.731673371195,4,1,0,100,0,0
81510,-110.652028141024,4,1,0,100,0,0
81588,-117.10397193252,4,1,0,100,0,0
81667,-50,4,1,0,100,0,1
81824,-80,4,1,0,100,0,1
82138,-50,4,1,0,100,0,1
82295,-80,4,1,0,100,0,1
82609,-55.5555555555556,4,1,0,100,0,1
82662,-56.5993417496555,4,1,0,100,0,1
82714,-57.6831005820225,4,1,0,100,0,1
82766,-58.8091730548131,4,1,0,100,0,1
82819,-59.9800866112451,4,1,0,100,0,1
82871,-61.1985740732241,4,1,0,100,0,1
82923,-62.4675949351274,4,1,0,100,0,1
83002,-64.4729945191507,4,1,0,100,0,1
83080,-66.6113792219125,4,1,0,100,0,1
83159,-68.8965256860027,4,1,0,100,0,1
83237,-71.3439778548293,4,1,0,100,0,1
83316,-73.9717738505341,4,1,0,100,0,1
83395,-76.8004915231457,4,1,0,100,0,1
83473,-79.8542181393648,4,1,0,100,0,1
83552,-83.1607747257773,4,1,0,100,0,1
83630,-86.7530669377989,4,1,0,100,0,1
83709,-90.6696406308794,4,1,0,100,0,1
83787,-94.9566617795638,4,1,0,100,0,1
83866,-99.6690985926723,4,1,0,100,0,1
83944,-104.873800112634,4,1,0,100,0,1
84023,-110.652028141024,4,1,0,100,0,1
84101,-117.10397193252,4,1,0,100,0,1
84180,-50,4,1,0,100,0,1
84337,-80,4,1,0,100,0,1
84651,-50,4,1,0,100,0,1
84808,-80,4,1,0,100,0,1
85122,-76.9230769230769,4,1,0,100,0,1
85175,-75.9533281988884,4,1,0,100,0,1
85227,-75.0077820573885,4,1,0,100,0,1
85279,-74.0854338405963,4,1,0,100,0,1
85332,-73.1855473181156,4,1,0,100,0,1
85384,-72.3072072931942,4,1,0,100,0,1
85436,-71.4497511762415,4,1,0,100,0,1
85515,-70.2010065420318,4,1,0,100,0,1
85594,-68.9951137660431,4,1,0,100,0,1
85672,-67.8299963236142,4,1,0,100,0,1
85751,-66.7035759787082,4,1,0,100,0,1
85829,-65.6139563509717,4,1,0,100,0,1
85908,-64.559321300767,4,1,0,100,0,1
85986,-63.5380933107731,4,1,0,100,0,1
86065,-62.5486706843763,4,1,0,100,0,1
86143,-61.5895903737934,4,1,0,100,0,1
86222,-60.6060606060606,4,1,0,100,0,1
86300,-59.7014925373134,4,1,0,100,0,1
86379,-58.8235294117647,4,1,0,100,0,1
86431,-58.2524158733173,4,1,0,100,0,1
86484,-57.6923187869844,4,1,0,100,0,1
86536,-57.1428571428571,4,1,0,100,0,1
86588,-56.6037629049504,4,1,0,100,0,1
86641,-56.0747768364069,4,1,0,100,0,1
86693,-50,4,1,0,100,0,0
87007,-100,4,1,0,60,0,0
88892,-200,4,1,0,60,0,0
95489,-133.333333333333,4,1,0,60,0,0
96117,-105.263157894737,4,1,0,60,0,0
96169,-107.142895408177,4,1,0,60,0,0
96222,-109.090869421502,4,1,0,60,0,0
96274,-111.111111111111,4,1,0,60,0,0
96353,-114.285714285714,4,1,0,60,0,0
96431,-117.647058823529,4,1,0,60,0,0
96510,-121.212121212121,4,1,0,60,0,0
96588,-125,4,1,0,60,0,0
96745,-66.6666666666667,4,1,0,100,0,0
96902,-133.333333333333,4,1,0,100,0,0
97531,-105.263157894737,4,1,0,100,0,0
97609,-108.108108108108,4,1,0,100,0,0
97688,-111.111111111111,4,1,0,100,0,0
97766,-114.285714285714,4,1,0,100,0,0
97845,-117.647058823529,4,1,0,100,0,0
97923,-121.212121212121,4,1,0,100,0,0
98002,-125,4,1,0,100,0,0
98159,-133.333333333333,4,1,0,100,0,0
101614,-117.647058823529,4,1,0,100,0,0
101693,-111.111111111111,4,1,0,100,0,0
101772,-100,4,1,0,100,0,0
101929,-133.333333333333,4,1,0,100,0,0
102557,-105.263157894737,4,1,0,100,0,0
102635,-108.108108108108,4,1,0,100,0,0
102714,-111.111111111111,4,1,0,100,0,0
102792,-114.285714285714,4,1,0,100,0,0
102871,-117.647058823529,4,1,0,100,0,0
102950,-121.212121212121,4,1,0,100,0,0
103028,-125,4,1,0,100,0,0
103185,-133.333333333333,4,1,0,100,0,0
103813,-111.111111111111,4,1,0,100,0,0
103892,-114.241062350487,4,1,0,100,0,0
103970,-117.552325478879,4,1,0,100,0,0
104049,-121.061418089239,4,1,0,100,0,0
104128,-124.786303455333,4,1,0,100,0,0
104206,-128.747849910906,4,1,0,100,0,0
104285,-132.968998278051,4,1,0,100,0,0
104913,-125,4,1,0,100,0,0
104991,-114.285714285714,4,1,0,100,0,0
105070,-105.263157894737,4,1,0,100,0,0
105148,-97.5609756097561,4,1,0,100,0,0
105227,-90.9090909090909,4,1,0,100,0,0
105306,-85.1063829787234,4,1,0,100,0,0
105384,-80,4,1,0,100,0,0
105463,-75.4716981132076,4,1,0,100,0,0
105541,-66.6666666666667,4,1,0,100,0,0
106326,-111.111111111111,4,1,0,100,0,0
106405,-102.67225066814,4,1,0,100,0,0
106484,-95.4248553120631,4,1,0,100,0,0
106562,-89.1330738966662,4,1,0,100,0,0
106641,-83.6197309117059,4,1,0,100,0,0
106719,-78.7486524136856,4,1,0,100,0,0
106798,-66.6666666666667,4,1,0,100,0,0
107583,-105.263157894737,4,1,0,100,0,0
107662,-97.5609756097561,4,1,0,100,0,0
107740,-90.9090909090909,4,1,0,100,0,0
107819,-85.1063829787234,4,1,0,100,0,0
107897,-80,4,1,0,100,0,0
107976,-75.4716981132076,4,1,0,100,0,0
108054,-66.6666666666667,4,1,0,100,0,0
108840,-100,4,1,0,100,0,0
108918,-93.0232558139535,4,1,0,100,0,0
108997,-86.9565217391304,4,1,0,100,0,0
109075,-81.6326530612245,4,1,0,100,0,0
109154,-76.9230769230769,4,1,0,100,0,0
109232,-72.7272727272727,4,1,0,100,0,0
109311,-66.6666666666667,4,1,0,100,0,0
110096,-125,4,1,0,100,0,0
110253,-111.111111111111,4,1,0,100,0,0
110332,-105.263157894737,4,1,0,100,0,0
110410,-100,4,1,0,100,0,0
110489,-95.2380952380952,4,1,0,100,0,0
110567,-80,4,1,0,100,0,1
110724,-100,4,1,0,100,0,1
115594,-80,4,1,0,100,0,1
115751,-98.7654320987654,4,1,0,100,0,1
115829,-98.159509202454,4,1,0,100,0,1
115908,-97.5609756097561,4,1,0,100,0,1
115986,-96.969696969697,4,1,0,100,0,1
116065,-96.3855421686747,4,1,0,100,0,1
116143,-95.8083832335329,4,1,0,100,0,1
116222,-95.2380952380952,4,1,0,100,0,1
116300,-94.6745562130178,4,1,0,100,0,1
116379,-94.1176470588235,4,1,0,100,0,1
116457,-93.5672514619883,4,1,0,100,0,1
116536,-93.0232558139535,4,1,0,100,0,1
116614,-92.485549132948,4,1,0,100,0,1
116693,-91.9540229885058,4,1,0,100,0,1
116772,-91.4285714285714,4,1,0,100,0,1
116850,-90.9090909090909,4,1,0,100,0,1
116929,-90.3954802259887,4,1,0,100,0,1
117007,-89.8876404494382,4,1,0,100,0,1
117086,-89.3854748603352,4,1,0,100,0,1
117164,-88.8888888888889,4,1,0,100,0,1
117243,-88.3977900552486,4,1,0,100,0,1
117321,-87.9120879120879,4,1,0,100,0,1
117400,-87.431693989071,4,1,0,100,0,1
117478,-86.9565217391304,4,1,0,100,0,1
117557,-86.4864864864865,4,1,0,100,0,1
117635,-86.0215053763441,4,1,0,100,0,1
117714,-85.5614973262032,4,1,0,100,0,1
117792,-85.1063829787234,4,1,0,100,0,1
117871,-84.6560846560847,4,1,0,100,0,1
117950,-84.2105263157895,4,1,0,100,0,1
118028,-83.7696335078534,4,1,0,100,0,1
118107,-83.3333333333333,4,1,0,100,0,1
118185,-81.6326530612245,4,1,0,100,0,1
118264,-80,4,1,0,100,0,1
118342,-78.4313725490196,4,1,0,100,0,1
118421,-76.9230769230769,4,1,0,100,0,1
118499,-75.4716981132076,4,1,0,100,0,1
118578,-74.0740740740741,4,1,0,100,0,1
118656,-72.7272727272727,4,1,0,100,0,1
118735,-71.4285714285714,4,1,0,100,0,1
118813,-70.1754385964912,4,1,0,100,0,1
118892,-68.9655172413793,4,1,0,100,0,1
118970,-67.7966101694915,4,1,0,100,0,1
119049,-66.6666666666667,4,1,0,100,0,1
119128,-65.5737704918033,4,1,0,100,0,1
119206,-64.5161290322581,4,1,0,100,0,1
119285,-63.4920634920635,4,1,0,100,0,1
119363,-62.5,4,1,0,100,0,0
119442,-64.5161290322581,4,1,0,100,0,0
119599,-68.9655172413793,4,1,0,100,0,0
119677,-71.4285714285714,4,1,0,100,0,0
119834,-76.9230769230769,4,1,0,100,0,0
119991,-83.3333333333333,4,1,0,100,0,0
120070,-86.9565217391304,4,1,0,100,0,0
120227,-95.2380952380952,4,1,0,100,0,0
120306,-100,4,1,0,100,0,0
120620,-66.6666666666667,4,1,0,100,0,1
120699,-80,4,1,0,100,0,1
129415,-80,4,1,0,100,0,0
130201,-133.333333333333,4,1,0,100,0,0
130279,-117.647058823529,4,1,0,100,0,0
130358,-105.263157894737,4,1,0,100,0,0
130436,-95.2380952380952,4,1,0,100,0,0
130515,-86.9565217391304,4,1,0,100,0,0
130594,-80,4,1,0,100,0,0
130672,-66.6666666666667,4,1,0,100,0,1
130751,-74.0740740740741,4,1,0,100,0,1
133185,-74.0740740740741,4,1,0,100,0,0
133499,-66.6666666666667,4,1,0,100,0,1
133656,-74.0740740740741,4,1,0,100,0,1
134285,-66.6666666666667,4,1,0,100,0,1
135384,-100,4,1,0,100,0,1
135463,-90.9090909090909,4,1,0,100,0,1
135541,-83.3333333333333,4,1,0,100,0,1
135620,-76.9230769230769,4,1,0,100,0,1
135698,-50,4,1,0,100,0,0
136169,-105.263157894737,4,1,0,100,0,0
136326,-111.111111111111,4,1,0,100,0,0
136641,-66.6666666666667,4,1,0,100,0,1
136798,-133.333333333333,4,1,0,100,0,1
139154,-131.578947368421,4,1,0,100,0,1
139232,-129.87012987013,4,1,0,100,0,1
139311,-128.205128205128,4,1,0,100,0,1
139389,-126.582278481013,4,1,0,100,0,1
139468,-125,4,1,0,100,0,0
139546,-123.35049549894,4,1,0,100,0,0
139625,-121.74380963164,4,1,0,100,0,0
139703,-120.178585377872,4,1,0,100,0,0
139782,-118.653097498437,4,1,0,100,0,0
139861,-117.16571449996,4,1,0,100,0,0
139939,-115.71529409042,4,1,0,100,0,0
140018,-114.300214084301,4,1,0,100,0,0
140096,-112.919453424678,4,1,0,100,0,0
140175,-111.571654105558,4,1,0,100,0,0
140253,-110.255528212185,4,1,0,100,0,0
140332,-108.970209724066,4,1,0,100,0,0
140410,-107.714513453543,4,1,0,100,0,0
140489,-106.48731363389,4,1,0,100,0,0
140567,-105.287872837519,4,1,0,100,0,0
140646,-104.115151357401,4,1,0,100,0,0
140724,-102.968160185507,4,1,0,100,0,0
140803,-101.846269167468,4,1,0,100,0,0
140881,-100.748460311655,4,1,0,100,0,0
140960,-99.6741651541112,4,1,0,100,0,0
141039,-98.6225389978175,4,1,0,100,0,0
141117,-97.5927765730492,4,1,0,100,0,0
141196,-96.5843896446081,4,1,0,100,0,0
141274,-95.5966281157331,4,1,0,100,0,0
141353,-94.628776043022,4,1,0,100,0,0
141431,-93.6804130182049,4,1,0,100,0,0
141510,-92.7507842078805,4,1,0,100,0,0
141588,-91.8395086218931,4,1,0,100,0,0
141667,-90.9459653641386,4,1,0,100,0,0
141745,-90.0695607217454,4,1,0,100,0,0
141824,-89.2099654668224,4,1,0,100,0,0
141902,-88.366622512811,4,1,0,100,0,0
141981,-87.538998623887,4,1,0,100,0,0
142059,-86.7268088176881,4,1,0,100,0,0
142138,-85.9295515164847,4,1,0,100,0,0
142217,-85.1467461596689,4,1,0,100,0,0
142295,-84.3781457227452,4,1,0,100,0,0
142374,-83.6232271875836,4,1,0,100,0,0
142452,-82.8817658457504,4,1,0,100,0,0
142531,-82.1533375614918,4,1,0,100,0,0
142609,-81.4375353744294,4,1,0,100,0,0
142688,-80.7341641955285,4,1,0,100,0,0
142766,-80.0428389273939,4,1,0,100,0,0
142845,-79.363189765323,4,1,0,100,0,0
142923,-78.6950472485064,4,1,0,100,0,0
143002,-78.0380607229758,4,1,0,100,0,0
143080,-77.3918931991874,4,1,0,100,0,0
143159,-76.7563974538368,4,1,0,100,0,0
143237,-76.1311953663509,4,1,0,100,0,0
143316,-75.5161529051064,4,1,0,100,0,0
143395,-74.9109683141586,4,1,0,100,0,0
143473,-74.3153512477919,4,1,0,100,0,0
143552,-73.7291853293667,4,1,0,100,0,0
143630,-73.1521938708703,4,1,0,100,0,0
143709,-72.5841104672094,4,1,0,100,0,0
143787,-72.0248341628193,4,1,0,100,0,0
143866,-71.4285714285714,4,1,0,100,0,0
143944,-75.4716981132076,4,1,0,100,0,0
144023,-80,4,1,0,100,0,0
144101,-85.1063829787234,4,1,0,100,0,0
144180,-90.9090909090909,4,1,0,100,0,0
144258,-97.5609756097561,4,1,0,100,0,0
144337,-105.263157894737,4,1,0,100,0,0
144415,-114.285714285714,4,1,0,100,0,0
144494,-80,4,1,0,100,0,1
144573,-90.9090909090909,4,1,0,100,0,1
147007,-90.9090909090909,4,1,0,100,0,0
147086,-133.333333333333,4,1,0,100,0,0
147950,-100,4,1,0,100,0,0
148264,-133.333333333333,4,1,0,100,0,0
148499,-100,4,1,0,100,0,0
148656,-133.333333333333,4,1,0,100,0,0
149049,-125,4,1,0,100,0,0
149128,-117.647058823529,4,1,0,100,0,0
149206,-111.111111111111,4,1,0,100,0,0
149285,-105.263157894737,4,1,0,100,0,0
149363,-100,4,1,0,100,0,0
149442,-95.2380952380952,4,1,0,100,0,0
149520,-80,4,1,0,100,0,1
149677,-90.9090909090909,4,1,0,100,0,1
152347,-64.5161290322581,4,1,0,100,0,1
152819,-58.8235294117647,4,1,0,100,0,1
153290,-54.054054054054,4,1,0,100,0,1
153761,-50,4,1,0,100,0,1
154232,-117.647058823529,4,1,0,100,0,1
154285,-121.212121212121,4,1,0,100,0,1
154337,-125,4,1,0,100,0,1
154389,-129.032258064516,4,1,0,100,0,1
154546,-50,4,1,0,100,0,0
155489,-55.5555555555556,4,1,0,100,0,0
155541,-56.6037629049504,4,1,0,100,0,0
155594,-57.6923187869844,4,1,0,100,0,0
155646,-58.8235294117647,4,1,0,100,0,0
155698,-59.9999880000024,4,1,0,100,0,0
155751,-61.2245022907148,4,1,0,100,0,0
155803,-62.5,4,1,0,100,0,0
155881,-64.5161290322581,4,1,0,100,0,0
155960,-66.6666666666667,4,1,0,100,0,0
156039,-68.9655172413793,4,1,0,100,0,0
156117,-71.4285714285714,4,1,0,100,0,0
156196,-74.0740740740741,4,1,0,100,0,0
156274,-76.9230769230769,4,1,0,100,0,0
156353,-80,4,1,0,100,0,0
156431,-83.3333333333333,4,1,0,100,0,0
156510,-86.9565217391304,4,1,0,100,0,0
156588,-90.9090909090909,4,1,0,100,0,0
156667,-95.2380952380952,4,1,0,100,0,0
156745,-100,4,1,0,100,0,0
156824,-105.263157894737,4,1,0,100,0,0
156902,-111.111111111111,4,1,0,100,0,0
156981,-117.647058823529,4,1,0,100,0,0
157059,-50,4,1,0,100,0,0
158002,-55.5555555555556,4,1,0,100,0,0
158054,-56.5993417496555,4,1,0,100,0,0
158107,-57.6831005820225,4,1,0,100,0,0
158159,-58.8091730548131,4,1,0,100,0,0
158237,-60.5832225670081,4,1,0,100,0,0
158316,-62.4675949351274,4,1,0,100,0,0
158395,-64.4729945191507,4,1,0,100,0,0
158473,-66.6113792219125,4,1,0,100,0,0
158552,-68.8965256860027,4,1,0,100,0,0
158630,-71.3439778548293,4,1,0,100,0,0
158709,-73.9717738505341,4,1,0,100,0,0
158787,-76.8004915231457,4,1,0,100,0,0
158866,-79.8542181393648,4,1,0,100,0,0
158944,-83.1607747257773,4,1,0,100,0,0
159023,-86.7530669377989,4,1,0,100,0,0
159101,-90.6696406308794,4,1,0,100,0,0
159180,-94.9566617795638,4,1,0,100,0,0
159258,-99.6690985926723,4,1,0,100,0,0
159311,-103.079606318368,4,1,0,100,0,0
159363,-106.731673371195,4,1,0,100,0,0
159415,-110.652028141024,4,1,0,100,0,0
159494,-117.10397193252,4,1,0,100,0,0
159573,-50,4,1,0,100,0,1
159651,-80,4,1,0,100,0,1
160044,-50,4,1,0,100,0,1
160122,-80,4,1,0,100,0,1
160515,-55.5555555555556,4,1,0,100,0,1
160567,-56.5993417496555,4,1,0,100,0,1
160620,-57.6831005820225,4,1,0,100,0,1
160672,-58.8091730548131,4,1,0,100,0,1
160724,-59.9800866112451,4,1,0,100,0,1
160777,-61.1985740732241,4,1,0,100,0,1
160829,-62.4675949351274,4,1,0,100,0,1
160908,-64.4729945191507,4,1,0,100,0,1
160986,-66.6113792219125,4,1,0,100,0,1
161065,-68.8965256860027,4,1,0,100,0,1
161143,-71.3439778548293,4,1,0,100,0,1
161222,-73.9717738505341,4,1,0,100,0,1
161300,-76.8004915231457,4,1,0,100,0,1
161379,-79.8542181393648,4,1,0,100,0,1
161457,-83.1607747257773,4,1,0,100,0,1
161536,-86.7530669377989,4,1,0,100,0,1
161614,-90.6696406308794,4,1,0,100,0,1
161693,-94.9566617795638,4,1,0,100,0,1
161772,-99.6690985926723,4,1,0,100,0,1
161850,-104.873800112634,4,1,0,100,0,1
161929,-110.652028141024,4,1,0,100,0,1
162007,-117.10397193252,4,1,0,100,0,1
162086,-50,4,1,0,100,0,1
162243,-80,4,1,0,100,0,1
162557,-50,4,1,0,100,0,1
162714,-80,4,1,0,100,0,1
163028,-76.9230769230769,4,1,0,100,0,1
163080,-75.9493478609246,4,1,0,100,0,1
163133,-75.0000187500047,4,1,0,100,0,1
163185,-74.0740740740741,4,1,0,100,0,1
163237,-73.1707138608015,4,1,0,100,0,1
163290,-72.2891740455841,4,1,0,100,0,1
163342,-66.6666666666667,4,1,0,100,0,1
164285,-62.5,4,1,0,100,0,1
164337,-60.6060606060606,4,1,0,100,0,1
164389,-58.8235294117647,4,1,0,100,0,1
164442,-57.1428571428571,4,1,0,100,0,1
164494,-55.5555555555556,4,1,0,100,0,1
164546,-54.054054054054,4,1,0,100,0,1
164599,-50,4,1,0,100,0,0
165227,-66.6666666666667,4,1,0,20,0,0
165855,-57.1428571428571,4,1,0,20,0,0
167112,-100,4,1,0,20,0,0
168368,-200,4,1,0,20,0,0

[HitObjects]
218,200,2505,5,4,0:0:0:0:
219,215,2819,1,0,0:0:0:0:
219,219,3133,1,0,0:0:0:0:
219,220,3447,1,0,0:0:0:0:
221,220,3761,1,0,0:0:0:0:
238,215,4075,1,0,0:0:0:0:
246,201,4389,1,0,0:0:0:0:
251,200,4703,1,0,0:0:0:0:
252,200,5018,1,8,0:0:0:0:
252,200,5332,1,0,0:0:0:0:
251,200,5646,1,0,0:0:0:0:
252,200,5960,1,0,0:0:0:0:
252,200,6274,1,8,0:0:0:0:
251,200,6588,1,0,0:0:0:0:
252,200,6902,1,0,0:0:0:0:
252,200,7217,1,0,0:0:0:0:
251,200,7531,1,8,0:0:0:0:
252,200,7845,1,0,0:0:0:0:
252,200,8159,1,0,0:0:0:0:
257,195,8473,1,0,0:0:0:0:
256,194,8787,1,0,0:0:0:0:
256,194,9101,1,0,0:0:0:0:
257,195,9415,1,0,0:0:0:0:
256,194,9730,1,0,0:0:0:0:
256,194,10044,1,8,0:0:0:0:
257,195,10358,1,0,0:0:0:0:
256,194,10672,1,0,0:0:0:0:
256,194,10986,1,0,0:0:0:0:
257,195,11300,1,0,0:0:0:0:
256,194,11614,1,0,0:0:0:0:
256,194,11929,1,8,0:0:0:0:
362,136,11981,1,8,0:0:0:0:
361,141,12033,1,8,0:0:0:0:
283,178,12086,1,0,0:0:0:0:
283,178,12164,1,0,0:0:0:0:
257,195,12243,1,0,0:0:0:0:
283,178,12321,1,0,0:0:0:0:
283,178,12400,1,8,0:0:0:0:
256,194,12557,1,4,0:0:0:0:
261,190,12871,1,8,0:0:0:0:
261,190,13028,1,0,0:0:0:0:
261,190,13342,1,8,0:0:0:0:
170,190,13421,1,8,0:0:0:0:
195,195,13499,1,8,0:0:0:0:
261,190,13578,1,8,0:0:0:0:
194,180,13656,1,8,0:0:0:0:
232,150,13735,1,8,0:0:0:0:
262,147,13813,1,0,0:0:0:0:
232,203,13970,1,8,0:0:0:0:
245,140,14128,1,8,0:0:0:0:
266,140,14206,1,8,0:0:0:0:
245,140,14285,1,8,0:0:0:0:
245,140,14442,1,0,0:0:0:0:
266,170,14756,1,8,0:0:0:0:
209,164,15070,1,8,0:0:0:0:
272,174,15384,1,0,0:0:0:0:
272,174,15541,1,0,0:0:0:0:
226,195,15855,1,0,0:0:0:0:
226,195,16169,1,8,0:0:0:0:
226,195,16484,1,0,0:0:0:0:
226,195,16798,1,0,0:0:0:0:
226,195,17112,1,8,0:0:0:0:
281,197,17426,1,0,0:0:0:0:
281,197,17504,1,0,0:0:0:0:
281,197,17583,1,12,0:0:0:0:
252,165,17897,1,0,0:0:0:0:
287,177,17976,1,0,0:0:0:0:
252,165,18054,1,8,0:0:0:0:
275,196,18368,1,8,0:0:0:0:
275,196,18447,1,8,0:0:0:0:
275,196,18525,1,8,0:0:0:0:
275,196,18604,1,8,0:0:0:0:
275,196,18683,1,8,0:0:0:0:
275,196,18761,1,8,0:0:0:0:
271,195,18840,1,0,0:0:0:0:
250,143,18997,1,8,0:0:0:0:
253,145,19154,1,8,0:0:0:0:
253,145,19232,1,8,0:0:0:0:
253,145,19311,1,8,0:0:0:0:
235,131,19468,1,0,0:0:0:0:
257,201,19625,1,8,0:0:0:0:
257,201,19703,1,0,0:0:0:0:
261,161,19782,1,8,0:0:0:0:
257,201,19861,1,8,0:0:0:0:
257,201,19939,1,0,0:0:0:0:
257,201,20018,1,8,0:0:0:0:
101,142,20096,1,0,0:0:0:0:
86,138,20410,1,0,0:0:0:0:
237,174,20567,1,8,0:0:0:0:
258,206,20724,1,0,0:0:0:0:
258,206,20803,1,0,0:0:0:0:
258,206,20881,1,0,0:0:0:0:
258,206,20960,1,0,0:0:0:0:
257,207,21039,1,8,0:0:0:0:
255,207,21117,1,8,0:0:0:0:
255,207,21196,1,8,0:0:0:0:
255,207,21274,1,8,0:0:0:0:
238,205,21353,1,4,0:0:0:0:
250,205,21824,1,4,0:0:0:0:
282,197,22138,1,0,0:0:0:0:
282,197,22217,1,0,0:0:0:0:
282,197,22295,1,8,0:0:0:0:
282,197,22374,1,0,0:0:0:0:
278,195,22452,1,8,0:0:0:0:
278,195,22531,1,8,0:0:0:0:
269,195,22609,1,4,0:0:0:0:
214,184,23080,1,4,0:0:0:0:
272,190,23395,1,8,0:0:0:0:
272,190,23473,1,8,0:0:0:0:
272,190,23552,1,0,0:0:0:0:
272,190,23630,1,8,0:0:0:0:
272,190,23709,1,0,0:0:0:0:
269,187,23787,1,0,0:0:0:0:
256,178,23866,1,12,0:0:0:0:
238,194,24337,1,12,0:0:0:0:
303,187,24651,1,0,0:0:0:0:
303,187,24730,1,0,0:0:0:0:
303,187,24808,1,8,0:0:0:0:
303,187,24887,1,8,0:0:0:0:
303,187,24965,1,0,0:0:0:0:
303,187,25044,1,0,0:0:0:0:
296,185,25122,1,12,0:0:0:0:
239,167,25594,1,12,0:0:0:0:
327,167,25908,1,8,0:0:0:0:
327,167,26065,1,8,0:0:0:0:
327,167,26143,1,8,0:0:0:0:
327,167,26222,1,8,0:0:0:0:
326,155,26300,1,8,0:0:0:0:
261,158,26379,5,4,0:0:0:0:
258,166,26614,1,8,0:0:0:0:
258,166,26693,1,0,0:0:0:0:
274,166,26850,1,8,0:0:0:0:
274,166,26929,1,8,0:0:0:0:
274,166,27007,1,0,0:0:0:0:
274,166,27086,1,8,0:0:0:0:
274,166,27243,1,8,0:0:0:0:
274,166,27321,1,0,0:0:0:0:
216,163,27400,1,0,0:0:0:0:
274,166,27478,1,8,0:0:0:0:
274,166,27635,1,0,0:0:0:0:
274,166,27714,1,8,0:0:0:0:
260,285,27871,5,8,0:0:0:0:
260,285,27950,1,8,0:0:0:0:
270,195,28028,1,0,0:0:0:0:
258,180,28107,1,8,0:0:0:0:
274,166,28264,1,8,0:0:0:0:
274,166,28342,1,0,0:0:0:0:
274,166,28499,1,0,0:0:0:0:
274,166,28578,1,8,0:0:0:0:
274,166,28656,1,0,0:0:0:0:
274,166,28735,1,0,0:0:0:0:
275,165,28892,1,12,0:0:0:0:
191,170,29128,1,0,0:0:0:0:
119,134,29206,1,8,0:0:0:0:
216,149,29363,1,0,0:0:0:0:
244,159,29442,1,0,0:0:0:0:
244,159,29520,1,8,0:0:0:0:
244,159,29599,1,0,0:0:0:0:
304,174,29756,1,0,0:0:0:0:
304,174,29834,1,8,0:0:0:0:
304,174,29991,1,0,0:0:0:0:
316,171,30070,1,0,0:0:0:0:
316,171,30148,1,8,0:0:0:0:
271,145,30306,1,8,0:0:0:0:
284,165,30384,1,8,0:0:0:0:
288,168,30463,1,0,0:0:0:0:
282,202,30541,1,8,0:0:0:0:
241,142,30698,1,8,0:0:0:0:
241,142,30777,1,0,0:0:0:0:
286,162,30934,1,0,0:0:0:0:
286,162,31012,1,0,0:0:0:0:
286,162,31091,1,8,0:0:0:0:
285,162,31169,1,0,0:0:0:0:
285,162,31248,5,0,0:0:0:0:
289,172,31405,1,12,0:0:0:0:
253,161,31562,1,0,0:0:0:0:
277,179,31641,1,0,0:0:0:0:
280,181,31719,1,8,0:0:0:0:
281,181,31798,1,0,0:0:0:0:
281,181,31955,1,0,0:0:0:0:
281,181,32033,1,8,0:0:0:0:
281,181,32112,1,0,0:0:0:0:
281,181,32269,1,0,0:0:0:0:
281,181,32347,1,8,0:0:0:0:
277,179,32426,1,8,0:0:0:0:
277,179,32504,1,0,0:0:0:0:
277,179,32662,1,8,0:0:0:0:
183,196,32740,1,0,0:0:0:0:
236,202,32897,1,0,0:0:0:0:
236,202,32976,1,8,0:0:0:0:
236,202,33054,1,0,0:0:0:0:
266,152,33211,1,0,0:0:0:0:
266,152,33290,1,8,0:0:0:0:
266,152,33368,1,8,0:0:0:0:
266,152,33447,1,0,0:0:0:0:
330,158,33525,1,0,0:0:0:0:
313,166,33604,1,8,0:0:0:0:
304,181,33656,1,8,0:0:0:0:
298,184,33709,1,8,0:0:0:0:
298,184,33761,1,0,0:0:0:0:
296,175,33840,1,0,0:0:0:0:
298,184,33918,1,8,0:0:0:0:
251,181,33997,1,8,0:0:0:0:
258,184,34075,1,0,0:0:0:0:
259,184,34154,1,0,0:0:0:0:
259,184,34232,1,8,0:0:0:0:
259,184,34311,1,8,0:0:0:0:
259,184,34389,1,0,0:0:0:0:
259,184,34468,1,8,0:0:0:0:
259,184,34546,1,0,0:0:0:0:
259,184,34625,1,8,0:0:0:0:
259,184,34703,1,8,0:0:0:0:
259,184,34782,1,0,0:0:0:0:
259,184,34861,1,8,0:0:0:0:
259,184,34939,1,0,0:0:0:0:
259,184,35018,1,8,0:0:0:0:
258,184,35096,1,8,0:0:0:0:
259,184,35175,1,0,0:0:0:0:
212,178,35253,1,8,0:0:0:0:
259,184,35410,1,8,0:0:0:0:
259,184,35489,1,0,0:0:0:0:
259,184,35646,1,8,0:0:0:0:
259,184,35803,1,0,0:0:0:0:
259,184,35881,1,8,0:0:0:0:
259,184,36039,1,8,0:0:0:0:
258,184,36117,1,0,0:0:0:0:
320,217,36431,5,4,0:0:0:0:
291,204,36588,1,8,0:0:0:0:
291,204,36667,1,8,0:0:0:0:
291,204,36745,1,0,0:0:0:0:
291,204,36902,1,8,0:0:0:0:
224,178,37059,1,0,0:0:0:0:
238,186,37138,1,0,0:0:0:0:
250,193,37217,1,8,0:0:0:0:
252,194,37295,1,8,0:0:0:0:
252,194,37374,1,0,0:0:0:0:
252,194,37452,1,8,0:0:0:0:
252,194,37531,1,8,0:0:0:0:
252,194,37609,1,8,0:0:0:0:
252,194,37688,1,0,0:0:0:0:
252,194,37766,1,8,0:0:0:0:
252,194,37845,1,0,0:0:0:0:
252,194,37923,1,0,0:0:0:0:
252,194,38002,1,8,0:0:0:0:
252,194,38080,1,0,0:0:0:0:
252,194,38159,1,8,0:0:0:0:
250,193,38237,1,8,0:0:0:0:
252,194,38316,1,0,0:0:0:0:
227,178,38395,1,0,0:0:0:0:
229,180,38473,1,8,0:0:0:0:
218,167,38525,1,0,0:0:0:0:
229,180,38578,1,0,0:0:0:0:
229,180,38630,1,8,0:0:0:0:
226,209,38709,1,0,0:0:0:0:
207,150,38787,1,8,0:0:0:0:
286,148,38840,1,8,0:0:0:0:
286,148,38892,1,8,0:0:0:0:
286,148,38944,1,0,0:0:0:0:
237,144,39101,1,0,0:0:0:0:
237,144,39258,1,8,0:0:0:0:
291,227,39337,1,8,0:0:0:0:
291,227,39415,1,8,0:0:0:0:
237,144,39494,1,8,0:0:0:0:
276,209,39573,1,0,0:0:0:0:
276,209,39651,1,8,0:0:0:0:
276,209,39730,1,8,0:0:0:0:
276,209,39808,1,0,0:0:0:0:
276,209,39887,1,8,0:0:0:0:
276,211,39965,1,8,0:0:0:0:
274,218,40044,1,0,0:0:0:0:
274,218,40122,1,8,0:0:0:0:
246,212,40201,1,0,0:0:0:0:
223,157,40279,1,0,0:0:0:0:
223,157,40358,1,8,0:0:0:0:
218,134,40410,1,8,0:0:0:0:
214,154,40463,1,8,0:0:0:0:
231,192,40515,1,0,0:0:0:0:
337,125,40672,1,8,0:0:0:0:
312,131,40711,1,8,0:0:0:0:
231,192,40829,1,0,0:0:0:0:
257,194,40881,1,0,0:0:0:0:
257,194,40934,1,0,0:0:0:0:
257,194,40986,1,8,0:0:0:0:
257,194,41143,1,8,0:0:0:0:
257,194,41196,1,8,0:0:0:0:
257,194,41248,1,8,0:0:0:0:
253,181,41300,1,0,0:0:0:0:
183,159,41457,1,4,0:0:0:0:
246,175,41614,5,8,0:0:0:0:
246,175,41693,1,0,0:0:0:0:
246,175,41772,1,8,0:0:0:0:
232,158,41929,1,8,0:0:0:0:
261,164,42086,1,0,0:0:0:0:
261,164,42164,1,8,0:0:0:0:
261,164,42243,1,8,0:0:0:0:
261,164,42321,1,8,0:0:0:0:
261,164,42400,1,0,0:0:0:0:
261,164,42478,1,0,0:0:0:0:
262,164,42557,1,8,0:0:0:0:
262,164,42635,1,8,0:0:0:0:
262,164,42714,1,0,0:0:0:0:
262,164,42792,1,8,0:0:0:0:
262,162,42871,1,8,0:0:0:0:
262,162,42950,1,0,0:0:0:0:
262,162,43028,1,8,0:0:0:0:
262,162,43107,1,0,0:0:0:0:
262,162,43185,1,0,0:0:0:0:
262,162,43264,1,8,0:0:0:0:
262,162,43342,1,0,0:0:0:0:
280,162,43421,1,0,0:0:0:0:
280,162,43499,1,8,0:0:0:0:
153,167,43552,1,0,0:0:0:0:
208,169,43604,1,0,0:0:0:0:
286,165,43656,1,8,0:0:0:0:
286,165,43735,1,0,0:0:0:0:
263,180,43813,1,8,0:0:0:0:
263,180,43866,1,8,0:0:0:0:
263,180,43918,1,8,0:0:0:0:
297,184,43970,1,0,0:0:0:0:
301,163,44128,1,0,0:0:0:0:
301,163,44285,1,8,0:0:0:0:
301,163,44363,1,8,0:0:0:0:
301,163,44442,1,8,0:0:0:0:
301,159,44520,1,8,0:0:0:0:
300,155,44599,1,0,0:0:0:0:
369,202,44756,1,8,0:0:0:0:
369,202,44834,1,0,0:0:0:0:
331,190,44991,1,0,0:0:0:0:
331,190,45070,1,8,0:0:0:0:
331,190,45148,1,8,0:0:0:0:
331,190,45227,1,4,0:0:0:0:
241,161,45541,1,8,0:0:0:0:
241,161,45698,1,0,0:0:0:0:
241,161,46012,1,8,0:0:0:0:
223,185,46484,1,4,0:0:0:0:
256,207,46641,1,8,0:0:0:0:
256,207,46719,1,0,0:0:0:0:
256,207,46798,1,8,0:0:0:0:
256,207,46955,1,0,0:0:0:0:
255,193,47112,1,8,0:0:0:0:
255,193,47190,1,8,0:0:0:0:
255,193,47269,1,8,0:0:0:0:
255,193,47347,1,0,0:0:0:0:
255,193,47426,1,8,0:0:0:0:
255,193,47504,1,8,0:0:0:0:
256,197,47583,1,8,0:0:0:0:
256,197,47662,1,8,0:0:0:0:
256,197,47740,1,0,0:0:0:0:
256,197,47819,1,8,0:0:0:0:
260,199,47897,1,8,0:0:0:0:
260,199,47976,1,8,0:0:0:0:
266,209,48054,1,0,0:0:0:0:
262,210,48133,1,8,0:0:0:0:
262,210,48211,1,0,0:0:0:0:
257,215,48290,1,8,0:0:0:0:
256,220,48368,1,8,0:0:0:0:
256,220,48447,1,0,0:0:0:0:
282,199,48525,1,8,0:0:0:0:
282,199,48578,1,0,0:0:0:0:
282,199,48630,1,0,0:0:0:0:
282,199,48683,1,8,0:0:0:0:
297,227,48761,1,0,0:0:0:0:
289,196,48840,1,8,0:0:0:0:
334,193,48892,1,8,0:0:0:0:
334,193,48944,1,8,0:0:0:0:
339,180,48997,1,0,0:0:0:0:
236,170,49154,1,0,0:0:0:0:
286,217,49311,1,8,0:0:0:0:
236,170,49389,1,8,0:0:0:0:
286,217,49468,1,8,0:0:0:0:
286,217,49546,1,8,0:0:0:0:
283,216,49625,1,0,0:0:0:0:
301,221,49703,1,8,0:0:0:0:
316,227,49782,1,8,0:0:0:0:
319,228,49861,1,8,0:0:0:0:
318,228,49939,1,0,0:0:0:0:
301,221,50018,1,0,0:0:0:0:
300,220,50096,1,8,0:0:0:0:
300,220,50175,1,0,0:0:0:0:
300,220,50253,1,8,0:0:0:0:
288,165,50332,1,8,0:0:0:0:
237,189,50410,1,0,0:0:0:0:
237,189,50463,1,0,0:0:0:0:
237,189,50515,1,0,0:0:0:0:
288,165,50567,1,8,0:0:0:0:
360,178,50724,1,8,0:0:0:0:
360,178,50777,1,8,0:0:0:0:
369,154,50829,1,8,0:0:0:0:
288,165,50881,1,4,0:0:0:0:
273,161,51091,1,12,0:0:0:0:
300,173,51300,1,12,0:0:0:0:
300,173,51510,1,4,0:0:0:0:
270,191,51981,1,0,0:0:0:0:
259,187,52138,1,8,0:0:0:0:
259,187,52217,1,8,0:0:0:0:
259,187,52295,1,8,0:0:0:0:
259,187,52374,1,8,0:0:0:0:
259,187,52452,1,4,0:0:0:0:
259,187,52766,1,8,0:0:0:0:
259,187,52845,1,8,0:0:0:0:
259,187,52923,1,0,0:0:0:0:
259,187,53002,1,0,0:0:0:0:
259,187,53080,1,8,0:0:0:0:
259,187,53159,1,8,0:0:0:0:
259,187,53237,1,0,0:0:0:0:
259,187,53316,1,0,0:0:0:0:
259,187,53395,1,8,0:0:0:0:
259,187,53473,1,0,0:0:0:0:
259,187,53552,1,0,0:0:0:0:
259,187,53630,1,0,0:0:0:0:
259,187,53709,1,8,0:0:0:0:
259,187,53787,1,0,0:0:0:0:
259,187,53866,1,0,0:0:0:0:
259,187,53944,1,0,0:0:0:0:
259,187,54023,1,8,0:0:0:0:
255,171,54337,1,8,0:0:0:0:
255,171,54415,1,8,0:0:0:0:
255,171,54494,1,8,0:0:0:0:
255,171,54573,1,8,0:0:0:0:
246,168,54651,1,0,0:0:0:0:
289,193,54730,1,8,0:0:0:0:
243,169,54808,1,0,0:0:0:0:
243,169,54887,1,0,0:0:0:0:
241,169,54965,1,8,0:0:0:0:
289,193,55044,1,0,0:0:0:0:
219,225,55122,1,8,0:0:0:0:
219,225,55201,1,8,0:0:0:0:
219,225,55279,1,0,0:0:0:0:
301,201,55332,1,0,0:0:0:0:
301,193,55384,1,0,0:0:0:0:
301,201,55436,1,8,0:0:0:0:
86,168,55515,1,0,0:0:0:0:
251,203,55594,1,8,0:0:0:0:
251,203,55672,1,8,0:0:0:0:
251,203,55751,1,0,0:0:0:0:
241,209,55829,1,8,0:0:0:0:
241,209,55908,1,0,0:0:0:0:
241,209,55986,1,0,0:0:0:0:
241,209,56065,1,8,0:0:0:0:
241,209,56143,1,0,0:0:0:0:
241,209,56222,1,8,0:0:0:0:
241,209,56300,1,8,0:0:0:0:
241,209,56379,1,8,0:0:0:0:
241,209,56457,1,8,0:0:0:0:
241,209,56536,1,4,0:0:0:0:
201,185,56693,1,8,0:0:0:0:
212,186,56772,1,8,0:0:0:0:
215,187,56850,1,0,0:0:0:0:
239,188,57007,1,0,0:0:0:0:
239,188,57086,1,8,0:0:0:0:
239,188,57164,1,0,0:0:0:0:
239,188,57321,1,8,0:0:0:0:
265,150,57400,1,0,0:0:0:0:
265,150,57478,1,8,0:0:0:0:
291,188,57557,1,8,0:0:0:0:
291,188,57635,1,0,0:0:0:0:
291,188,57714,1,8,0:0:0:0:
280,163,57792,1,0,0:0:0:0:
250,181,57950,1,8,0:0:0:0:
250,181,58028,1,0,0:0:0:0:
250,181,58107,1,8,0:0:0:0:
247,193,58264,1,0,0:0:0:0:
247,193,58342,1,0,0:0:0:0:
247,193,58421,1,8,0:0:0:0:
252,187,58578,1,0,0:0:0:0:
257,191,58656,1,8,0:0:0:0:
257,191,58735,1,0,0:0:0:0:
257,191,58813,1,0,0:0:0:0:
257,191,58892,1,8,0:0:0:0:
257,191,58970,1,8,0:0:0:0:
257,191,59049,1,0,0:0:0:0:
310,228,59206,1,8,0:0:0:0:
310,228,59285,1,8,0:0:0:0:
310,228,59363,1,0,0:0:0:0:
310,228,59442,1,8,0:0:0:0:
272,206,59599,1,8,0:0:0:0:
272,206,59677,1,0,0:0:0:0:
347,182,59756,1,0,0:0:0:0:
254,141,59834,1,8,0:0:0:0:
251,162,59991,1,0,0:0:0:0:
273,182,60070,1,8,0:0:0:0:
274,182,60148,1,8,0:0:0:0:
282,167,60306,1,0,0:0:0:0:
282,167,60384,1,0,0:0:0:0:
282,167,60463,1,0,0:0:0:0:
271,150,60541,1,0,0:0:0:0:
269,147,60620,1,8,0:0:0:0:
237,177,60777,1,8,0:0:0:0:
229,173,60855,1,8,0:0:0:0:
234,176,60934,1,0,0:0:0:0:
305,197,61012,1,8,0:0:0:0:
305,197,61091,1,0,0:0:0:0:
305,197,61169,1,0,0:0:0:0:
305,197,61248,1,8,0:0:0:0:
239,194,61405,1,8,0:0:0:0:
236,194,61484,1,8,0:0:0:0:
225,191,61562,1,0,0:0:0:0:
230,199,61719,1,8,0:0:0:0:
233,199,61876,1,0,0:0:0:0:
233,199,62033,1,8,0:0:0:0:
226,182,62086,1,8,0:0:0:0:
233,199,62138,1,8,0:0:0:0:
233,199,62190,1,0,0:0:0:0:
235,190,62269,1,8,0:0:0:0:
239,194,62347,1,0,0:0:0:0:
239,194,62426,1,8,0:0:0:0:
240,189,62504,1,8,0:0:0:0:
244,190,62583,1,8,0:0:0:0:
244,190,62662,1,0,0:0:0:0:
244,190,62740,1,0,0:0:0:0:
244,190,62819,1,8,0:0:0:0:
251,188,62923,1,0,0:0:0:0:
244,190,63028,1,8,0:0:0:0:
222,177,63133,1,0,0:0:0:0:
244,190,63237,1,8,0:0:0:0:
188,151,63342,1,8,0:0:0:0:
222,177,63447,1,0,0:0:0:0:
199,181,63552,1,8,0:0:0:0:
200,200,63656,1,0,0:0:0:0:
200,200,63761,1,8,0:0:0:0:
220,158,63866,1,0,0:0:0:0:
220,158,63970,1,0,0:0:0:0:
220,158,64075,1,8,0:0:0:0:
204,154,64232,1,0,0:0:0:0:
205,154,64285,1,0,0:0:0:0:
207,157,64337,1,0,0:0:0:0:
207,157,64389,1,8,0:0:0:0:
207,157,64468,1,8,0:0:0:0:
259,193,64546,1,0,0:0:0:0:
259,193,64625,1,0,0:0:0:0:
259,193,64703,1,8,0:0:0:0:
259,193,64782,1,0,0:0:0:0:
259,193,64861,1,0,0:0:0:0:
259,193,64939,1,0,0:0:0:0:
259,193,65018,1,8,0:0:0:0:
259,193,65096,1,8,0:0:0:0:
259,193,65175,1,0,0:0:0:0:
259,193,65253,1,0,0:0:0:0:
259,193,65332,1,8,0:0:0:0:
259,193,65410,1,0,0:0:0:0:
259,193,65489,1,8,0:0:0:0:
259,193,65567,1,8,0:0:0:0:
259,193,65646,1,0,0:0:0:0:
259,193,65724,1,8,0:0:0:0:
259,193,65803,1,0,0:0:0:0:
259,193,65881,1,8,0:0:0:0:
259,193,65960,1,8,0:0:0:0:
259,193,66039,1,0,0:0:0:0:
259,193,66117,1,8,0:0:0:0:
260,214,66196,1,0,0:0:0:0:
260,214,66274,1,8,0:0:0:0:
260,214,66326,1,8,0:0:0:0:
228,172,66379,1,8,0:0:0:0:
224,200,66431,1,8,0:0:0:0:
221,162,66588,1,4,0:0:0:0:
256,175,66745,1,0,0:0:0:0:
252,175,66824,1,0,0:0:0:0:
252,175,66902,1,8,0:0:0:0:
278,218,67059,1,8,0:0:0:0:
278,218,67138,1,8,0:0:0:0:
278,218,67217,1,0,0:0:0:0:
262,188,67374,1,8,0:0:0:0:
262,188,67452,1,0,0:0:0:0:
262,188,67531,1,0,0:0:0:0:
262,188,67609,1,0,0:0:0:0:
262,188,67688,1,8,0:0:0:0:
262,188,67766,1,8,0:0:0:0:
262,188,67845,1,0,0:0:0:0:
262,188,68002,1,0,0:0:0:0:
262,188,68080,1,8,0:0:0:0:
262,188,68159,1,8,0:0:0:0:
262,188,68316,1,8,0:0:0:0:
262,188,68395,1,0,0:0:0:0:
262,188,68473,1,8,0:0:0:0:
251,193,68630,1,0,0:0:0:0:
247,193,68709,1,8,0:0:0:0:
247,193,68787,1,0,0:0:0:0:
247,193,68866,1,0,0:0:0:0:
247,193,68944,1,8,0:0:0:0:
247,193,69023,1,0,0:0:0:0:
247,193,69101,1,8,0:0:0:0:
242,205,69258,1,0,0:0:0:0:
242,205,69337,1,0,0:0:0:0:
242,205,69415,1,8,0:0:0:0:
242,205,69494,1,0,0:0:0:0:
242,205,69651,1,0,0:0:0:0:
242,205,69730,1,8,0:0:0:0:
242,205,69808,1,8,0:0:0:0:
242,205,69887,1,0,0:0:0:0:
242,205,70044,1,8,0:0:0:0:
242,205,70122,1,8,0:0:0:0:
242,205,70201,1,8,0:0:0:0:
266,224,70358,1,0,0:0:0:0:
266,224,70463,1,0,0:0:0:0:
266,224,70567,1,8,0:0:0:0:
266,224,70672,1,0,0:0:0:0:
266,224,70777,1,8,0:0:0:0:
266,224,70881,1,0,0:0:0:0:
266,224,70986,1,8,0:0:0:0:
266,224,71091,1,8,0:0:0:0:
266,224,71196,1,0,0:0:0:0:
266,224,71300,1,8,0:0:0:0:
266,224,71405,1,0,0:0:0:0:
276,258,71510,1,8,0:0:0:0:
270,229,71614,1,4,0:0:0:0:
290,202,71850,1,8,0:0:0:0:
290,202,71929,1,0,0:0:0:0:
290,202,72007,1,0,0:0:0:0:
290,202,72086,1,8,0:0:0:0:
290,202,72164,1,0,0:0:0:0:
290,202,72243,1,0,0:0:0:0:
290,202,72321,1,8,0:0:0:0:
285,201,72400,1,0,0:0:0:0:
285,201,72478,1,0,0:0:0:0:
290,202,72557,1,8,0:0:0:0:
290,202,72635,1,0,0:0:0:0:
290,202,72714,1,8,0:0:0:0:
290,202,72792,1,8,0:0:0:0:
290,202,72871,1,8,0:0:0:0:
290,202,72950,1,0,0:0:0:0:
290,202,73028,1,0,0:0:0:0:
290,202,73107,1,8,0:0:0:0:
290,202,73185,1,8,0:0:0:0:
290,202,73264,1,0,0:0:0:0:
290,202,73342,1,8,0:0:0:0:
285,201,73421,1,8,0:0:0:0:
285,201,73499,1,0,0:0:0:0:
290,202,73578,1,8,0:0:0:0:
290,202,73656,1,8,0:0:0:0:
290,202,73735,1,0,0:0:0:0:
290,202,73813,1,8,0:0:0:0:
290,202,73892,1,8,0:0:0:0:
290,202,73970,1,0,0:0:0:0:
290,202,74049,1,0,0:0:0:0:
290,202,74128,1,8,0:0:0:0:
259,203,74442,1,8,0:0:0:0:
250,146,74494,1,8,0:0:0:0:
218,155,74546,1,8,0:0:0:0:
229,157,74599,1,8,0:0:0:0:
259,203,74651,1,8,0:0:0:0:
259,203,74703,1,8,0:0:0:0:
259,203,74756,1,0,0:0:0:0:
259,203,74861,1,0,0:0:0:0:
259,203,74965,1,8,0:0:0:0:
259,203,75070,1,0,0:0:0:0:
263,203,75175,1,8,0:0:0:0:
263,203,75279,1,8,0:0:0:0:
263,203,75384,1,0,0:0:0:0:
263,203,75489,1,0,0:0:0:0:
263,203,75594,1,8,0:0:0:0:
263,203,75698,1,0,0:0:0:0:
269,204,75803,1,8,0:0:0:0:
227,179,75855,1,8,0:0:0:0:
284,222,75908,1,8,0:0:0:0:
241,202,76012,1,0,0:0:0:0:
246,214,76326,1,8,0:0:0:0:
246,214,76379,1,8,0:0:0:0:
246,214,76431,1,8,0:0:0:0:
246,214,76484,1,8,0:0:0:0:
181,172,76641,1,4,0:0:0:0:
231,192,77112,1,4,0:0:0:0:
266,199,77583,1,0,0:0:0:0:
266,199,77635,1,0,0:0:0:0:
266,199,77688,1,0,0:0:0:0:
266,199,77740,1,8,0:0:0:0:
255,194,77792,1,8,0:0:0:0:
251,192,77845,1,8,0:0:0:0:
234,182,77897,1,0,0:0:0:0:
275,171,77976,1,8,0:0:0:0:
283,202,78054,1,0,0:0:0:0:
280,204,78133,1,8,0:0:0:0:
279,204,78211,1,8,0:0:0:0:
279,204,78290,1,0,0:0:0:0:
279,204,78368,1,8,0:0:0:0:
276,205,78447,1,0,0:0:0:0:
276,205,78525,1,8,0:0:0:0:
275,205,78604,1,8,0:0:0:0:
269,205,78683,1,0,0:0:0:0:
269,204,78761,1,8,0:0:0:0:
269,204,78840,1,0,0:0:0:0:
269,204,78918,1,8,0:0:0:0:
269,204,78997,1,8,0:0:0:0:
269,204,79075,1,8,0:0:0:0:
269,204,79154,1,4,0:0:0:0:
250,173,79625,1,4,0:0:0:0:
171,152,80096,1,8,0:0:0:0:
216,158,80148,1,8,0:0:0:0:
216,158,80201,1,8,0:0:0:0:
216,158,80253,1,0,0:0:0:0:
280,175,80332,1,8,0:0:0:0:
268,202,80410,1,8,0:0:0:0:
251,198,80489,1,0,0:0:0:0:
251,198,80567,1,8,0:0:0:0:
251,198,80646,1,8,0:0:0:0:
251,198,80724,1,8,0:0:0:0:
251,198,80803,1,0,0:0:0:0:
251,198,80881,1,8,0:0:0:0:
251,198,80960,1,0,0:0:0:0:
251,198,81039,1,8,0:0:0:0:
251,198,81117,1,8,0:0:0:0:
251,198,81196,1,0,0:0:0:0:
251,198,81274,1,8,0:0:0:0:
257,211,81353,1,0,0:0:0:0:
257,211,81405,1,0,0:0:0:0:
257,211,81457,1,0,0:0:0:0:
257,211,81510,1,8,0:0:0:0:
251,198,81588,1,8,0:0:0:0:
251,198,81667,1,4,0:0:0:0:
306,149,81824,1,8,0:0:0:0:
306,149,81902,1,8,0:0:0:0:
306,149,81981,1,8,0:0:0:0:
306,158,82138,1,4,0:0:0:0:
234,88,82295,1,8,0:0:0:0:
268,119,82374,1,8,0:0:0:0:
268,119,82452,1,8,0:0:0:0:
212,162,82609,1,0,0:0:0:0:
212,162,82662,1,0,0:0:0:0:
212,162,82714,1,0,0:0:0:0:
212,162,82766,1,8,0:0:0:0:
212,162,82819,1,8,0:0:0:0:
212,162,82871,1,8,0:0:0:0:
212,162,82923,1,0,0:0:0:0:
259,187,83002,1,8,0:0:0:0:
259,187,83080,1,8,0:0:0:0:
259,187,83159,1,0,0:0:0:0:
261,192,83237,1,8,0:0:0:0:
261,192,83316,1,0,0:0:0:0:
261,192,83395,1,8,0:0:0:0:
261,192,83473,1,8,0:0:0:0:
261,192,83552,1,0,0:0:0:0:
261,192,83630,1,8,0:0:0:0:
261,192,83709,1,0,0:0:0:0:
261,192,83787,1,8,0:0:0:0:
261,192,83866,1,8,0:0:0:0:
261,192,83944,1,0,0:0:0:0:
261,192,84023,1,8,0:0:0:0:
261,192,84101,1,8,0:0:0:0:
261,192,84180,1,4,0:0:0:0:
243,193,84337,1,8,0:0:0:0:
243,193,84415,1,0,0:0:0:0:
243,193,84494,1,8,0:0:0:0:
243,193,84651,1,4,0:0:0:0:
232,144,84808,1,8,0:0:0:0:
241,147,84887,1,0,0:0:0:0:
241,147,84965,1,8,0:0:0:0:
204,191,85122,1,0,0:0:0:0:
212,196,85175,1,0,0:0:0:0:
216,197,85227,1,0,0:0:0:0:
217,198,85279,1,0,0:0:0:0:
217,198,85332,1,0,0:0:0:0:
217,198,85384,1,0,0:0:0:0:
217,198,85436,1,8,0:0:0:0:
235,172,85515,1,0,0:0:0:0:
241,180,85594,1,8,0:0:0:0:
241,180,85672,1,8,0:0:0:0:
241,180,85751,1,0,0:0:0:0:
241,180,85829,1,8,0:0:0:0:
241,180,85908,1,0,0:0:0:0:
241,180,85986,1,8,0:0:0:0:
241,180,86065,1,8,0:0:0:0:
241,180,86143,1,0,0:0:0:0:
242,171,86222,1,8,0:0:0:0:
243,112,86300,1,0,0:0:0:0:
242,171,86379,1,8,0:0:0:0:
181,143,86431,1,8,0:0:0:0:
235,172,86484,1,8,0:0:0:0:
242,171,86536,1,8,0:0:0:0:
242,171,86588,1,8,0:0:0:0:
242,171,86641,1,8,0:0:0:0:
242,171,86693,1,4,0:0:0:0:
204,241,89206,5,8,0:0:0:0:
204,241,90463,1,8,0:0:0:0:
241,224,91719,5,8,0:0:0:0:
241,224,92033,1,0,0:0:0:0:
241,224,92347,1,0,0:0:0:0:
241,224,92662,1,0,0:0:0:0:
241,224,92976,1,0,0:0:0:0:
241,224,93290,1,0,0:0:0:0:
241,224,93604,1,0,0:0:0:0:
249,214,93918,1,0,0:0:0:0:
251,203,94232,1,8,0:0:0:0:
253,198,94546,1,0,0:0:0:0:
253,198,94861,1,0,0:0:0:0:
253,198,95175,1,0,0:0:0:0:
253,198,95489,1,0,0:0:0:0:
226,171,95803,1,8,0:0:0:0:
226,171,95960,1,8,0:0:0:0:
226,171,96117,1,8,0:0:0:0:
230,197,96169,1,8,0:0:0:0:
230,197,96222,1,8,0:0:0:0:
230,197,96274,1,0,0:0:0:0:
332,158,96353,1,8,0:0:0:0:
319,178,96431,1,0,0:0:0:0:
314,186,96510,1,0,0:0:0:0:
314,186,96588,1,8,0:0:0:0:
199,182,96745,1,4,0:0:0:0:
261,190,97059,1,8,0:0:0:0:
261,190,97217,1,0,0:0:0:0:
261,190,97531,1,8,0:0:0:0:
170,190,97609,1,8,0:0:0:0:
195,195,97688,1,8,0:0:0:0:
261,190,97766,1,8,0:0:0:0:
194,180,97845,1,8,0:0:0:0:
232,150,97923,1,8,0:0:0:0:
262,147,98002,1,0,0:0:0:0:
232,203,98159,1,8,0:0:0:0:
245,140,98316,1,8,0:0:0:0:
220,140,98395,1,8,0:0:0:0:
245,140,98473,1,8,0:0:0:0:
245,140,98630,1,0,0:0:0:0:
266,170,98944,1,8,0:0:0:0:
209,164,99258,1,8,0:0:0:0:
272,174,99573,1,0,0:0:0:0:
272,174,99730,1,0,0:0:0:0:
226,195,100044,1,0,0:0:0:0:
226,195,100358,1,8,0:0:0:0:
226,195,100672,1,0,0:0:0:0:
226,195,100986,1,0,0:0:0:0:
226,195,101300,1,8,0:0:0:0:
281,197,101614,1,0,0:0:0:0:
281,197,101693,1,0,0:0:0:0:
281,197,101772,1,12,0:0:0:0:
252,165,102086,1,0,0:0:0:0:
287,177,102164,1,0,0:0:0:0:
252,165,102243,1,8,0:0:0:0:
275,196,102557,1,8,0:0:0:0:
275,196,102635,1,8,0:0:0:0:
275,196,102714,1,8,0:0:0:0:
275,196,102792,1,8,0:0:0:0:
275,196,102871,1,8,0:0:0:0:
275,196,102950,1,8,0:0:0:0:
271,195,103028,1,0,0:0:0:0:
250,143,103185,1,8,0:0:0:0:
253,145,103342,1,8,0:0:0:0:
253,145,103421,1,8,0:0:0:0:
253,145,103499,1,8,0:0:0:0:
235,131,103656,1,0,0:0:0:0:
257,201,103813,1,8,0:0:0:0:
257,201,103892,1,0,0:0:0:0:
261,161,103970,1,8,0:0:0:0:
257,201,104049,1,8,0:0:0:0:
257,201,104128,1,0,0:0:0:0:
257,201,104206,1,8,0:0:0:0:
101,142,104285,1,0,0:0:0:0:
86,138,104599,1,0,0:0:0:0:
237,174,104756,1,8,0:0:0:0:
258,206,104913,1,0,0:0:0:0:
258,206,104991,1,0,0:0:0:0:
258,206,105070,1,0,0:0:0:0:
258,206,105148,1,0,0:0:0:0:
257,207,105227,1,8,0:0:0:0:
255,207,105306,1,8,0:0:0:0:
255,207,105384,1,8,0:0:0:0:
255,207,105463,1,8,0:0:0:0:
238,205,105541,1,4,0:0:0:0:
250,205,106012,1,4,0:0:0:0:
282,197,106326,1,0,0:0:0:0:
282,197,106405,1,0,0:0:0:0:
282,197,106484,1,8,0:0:0:0:
282,197,106562,1,0,0:0:0:0:
278,195,106641,1,8,0:0:0:0:
278,195,106719,1,8,0:0:0:0:
269,195,106798,1,4,0:0:0:0:
214,184,107269,1,4,0:0:0:0:
272,190,107583,1,8,0:0:0:0:
272,190,107662,1,8,0:0:0:0:
272,190,107740,1,0,0:0:0:0:
272,190,107819,1,8,0:0:0:0:
272,190,107897,1,0,0:0:0:0:
269,187,107976,1,0,0:0:0:0:
256,178,108054,1,12,0:0:0:0:
238,194,108525,1,12,0:0:0:0:
303,187,108840,1,0,0:0:0:0:
303,187,108918,1,0,0:0:0:0:
303,187,108997,1,8,0:0:0:0:
303,187,109075,1,8,0:0:0:0:
303,187,109154,1,0,0:0:0:0:
303,187,109232,1,0,0:0:0:0:
296,185,109311,1,12,0:0:0:0:
239,167,109782,1,12,0:0:0:0:
327,167,110096,1,8,0:0:0:0:
327,167,110253,1,8,0:0:0:0:
327,167,110332,1,8,0:0:0:0:
327,167,110410,1,8,0:0:0:0:
326,155,110489,1,8,0:0:0:0:
261,158,110567,5,4,0:0:0:0:
258,166,110803,1,8,0:0:0:0:
258,166,110881,1,0,0:0:0:0:
274,166,110960,1,8,0:0:0:0:
274,166,111117,1,8,0:0:0:0:
274,166,111196,1,0,0:0:0:0:
274,166,111274,1,0,0:0:0:0:
251,157,111353,1,8,0:0:0:0:
274,166,111431,1,0,0:0:0:0:
274,166,111510,1,8,0:0:0:0:
274,166,111667,1,0,0:0:0:0:
344,238,111745,1,8,0:0:0:0:
274,166,111824,1,8,0:0:0:0:
274,166,111902,1,0,0:0:0:0:
282,201,111981,1,8,0:0:0:0:
260,285,112059,5,0,0:0:0:0:
260,285,112138,1,0,0:0:0:0:
258,180,112217,1,8,0:0:0:0:
270,195,112374,1,8,0:0:0:0:
274,166,112452,1,0,0:0:0:0:
274,166,112531,1,8,0:0:0:0:
288,152,112609,1,8,0:0:0:0:
274,166,112688,1,0,0:0:0:0:
274,166,112766,1,8,0:0:0:0:
274,166,112845,1,0,0:0:0:0:
182,153,113002,1,0,0:0:0:0:
275,165,113080,1,8,0:0:0:0:
274,166,113159,1,8,0:0:0:0:
213,125,113237,1,0,0:0:0:0:
191,170,113316,1,0,0:0:0:0:
119,134,113395,1,8,0:0:0:0:
216,149,113552,1,0,0:0:0:0:
244,159,113630,1,0,0:0:0:0:
244,159,113709,1,8,0:0:0:0:
244,159,113787,1,0,0:0:0:0:
199,151,113866,5,0,0:0:0:0:
304,174,113944,1,0,0:0:0:0:
304,174,114023,1,8,0:0:0:0:
304,174,114180,1,0,0:0:0:0:
316,171,114258,1,8,0:0:0:0:
316,171,114337,1,0,0:0:0:0:
302,151,114415,1,0,0:0:0:0:
271,145,114494,1,8,0:0:0:0:
284,165,114573,1,0,0:0:0:0:
288,168,114651,1,8,0:0:0:0:
320,149,114730,1,8,0:0:0:0:
282,202,114887,1,8,0:0:0:0:
241,142,114965,1,0,0:0:0:0:
286,183,115044,1,0,0:0:0:0:
286,162,115122,1,8,0:0:0:0:
286,162,115201,1,0,0:0:0:0:
286,162,115279,1,8,0:0:0:0:
285,162,115358,1,8,0:0:0:0:
285,162,115436,5,0,0:0:0:0:
289,172,115594,1,12,0:0:0:0:
253,161,115751,1,0,0:0:0:0:
277,179,115829,1,8,0:0:0:0:
280,181,115908,1,8,0:0:0:0:
281,181,115986,1,0,0:0:0:0:
277,179,116065,1,8,0:0:0:0:
281,181,116143,1,8,0:0:0:0:
281,181,116222,1,0,0:0:0:0:
281,181,116300,1,8,0:0:0:0:
279,192,116379,1,0,0:0:0:0:
281,181,116457,1,0,0:0:0:0:
281,181,116536,1,8,0:0:0:0:
277,179,116614,1,8,0:0:0:0:
277,179,116693,1,0,0:0:0:0:
279,192,116772,1,8,0:0:0:0:
277,179,116850,1,8,0:0:0:0:
183,196,116929,1,0,0:0:0:0:
279,192,117007,1,8,0:0:0:0:
236,202,117086,1,0,0:0:0:0:
236,202,117164,1,8,0:0:0:0:
236,202,117243,1,8,0:0:0:0:
279,192,117321,1,0,0:0:0:0:
266,152,117400,1,0,0:0:0:0:
266,152,117478,1,8,0:0:0:0:
266,152,117557,1,8,0:0:0:0:
266,152,117635,1,0,0:0:0:0:
330,158,117714,1,8,0:0:0:0:
313,166,117792,1,8,0:0:0:0:
304,181,117871,1,0,0:0:0:0:
298,184,117950,1,0,0:0:0:0:
296,175,118028,1,8,0:0:0:0:
298,184,118107,1,8,0:0:0:0:
251,181,118185,1,0,0:0:0:0:
258,184,118264,1,8,0:0:0:0:
259,184,118342,1,0,0:0:0:0:
259,184,118421,1,8,0:0:0:0:
259,184,118499,1,8,0:0:0:0:
259,184,118578,1,0,0:0:0:0:
259,184,118656,1,8,0:0:0:0:
259,184,118735,1,0,0:0:0:0:
259,184,118813,1,8,0:0:0:0:
259,184,118892,1,8,0:0:0:0:
259,184,118970,1,0,0:0:0:0:
259,184,119049,1,8,0:0:0:0:
259,184,119128,1,0,0:0:0:0:
259,184,119206,1,8,0:0:0:0:
258,184,119285,1,8,0:0:0:0:
259,184,119363,1,0,0:0:0:0:
212,178,119442,1,8,0:0:0:0:
259,184,119599,1,8,0:0:0:0:
259,184,119677,1,0,0:0:0:0:
259,184,119834,1,8,0:0:0:0:
259,184,119991,1,0,0:0:0:0:
259,184,120070,1,8,0:0:0:0:
259,184,120227,1,8,0:0:0:0:
258,184,120306,1,0,0:0:0:0:
234,235,120620,1,4,0:0:0:0:
277,171,120777,1,8,0:0:0:0:
277,171,120855,1,0,0:0:0:0:
277,171,121012,1,0,0:0:0:0:
277,171,121091,1,8,0:0:0:0:
277,171,121248,1,0,0:0:0:0:
160,135,121326,1,8,0:0:0:0:
243,163,121405,1,0,0:0:0:0:
209,155,121484,1,0,0:0:0:0:
209,155,121562,1,8,0:0:0:0:
206,147,121641,1,0,0:0:0:0:
272,150,121719,1,8,0:0:0:0:
243,163,121798,1,8,0:0:0:0:
272,150,121876,1,0,0:0:0:0:
289,197,122033,1,0,0:0:0:0:
289,197,122112,1,8,0:0:0:0:
289,197,122269,1,8,0:0:0:0:
289,197,122347,1,0,0:0:0:0:
289,197,122426,1,0,0:0:0:0:
289,197,122504,1,8,0:0:0:0:
289,197,122583,1,0,0:0:0:0:
248,176,122740,1,8,0:0:0:0:
252,178,122819,1,8,0:0:0:0:
257,181,122897,1,0,0:0:0:0:
258,181,122976,1,8,0:0:0:0:
259,181,123054,1,8,0:0:0:0:
259,181,123133,1,0,0:0:0:0:
247,162,123290,1,8,0:0:0:0:
242,159,123368,1,0,0:0:0:0:
242,159,123525,1,8,0:0:0:0:
242,159,123604,1,8,0:0:0:0:
242,167,123683,1,0,0:0:0:0:
241,159,123761,1,0,0:0:0:0:
208,144,123840,1,8,0:0:0:0:
328,216,123997,1,8,0:0:0:0:
328,216,124075,1,0,0:0:0:0:
328,216,124154,1,0,0:0:0:0:
276,163,124232,1,8,0:0:0:0:
276,163,124311,1,0,0:0:0:0:
276,163,124389,1,8,0:0:0:0:
241,187,124546,1,0,0:0:0:0:
241,187,124625,1,8,0:0:0:0:
314,227,124703,1,0,0:0:0:0:
241,187,124782,1,0,0:0:0:0:
241,187,124861,1,8,0:0:0:0:
318,197,125018,1,0,0:0:0:0:
233,182,125096,1,8,0:0:0:0:
318,197,125175,1,0,0:0:0:0:
318,197,125253,1,0,0:0:0:0:
324,199,125332,1,8,0:0:0:0:
318,197,125410,1,8,0:0:0:0:
307,199,125489,1,8,0:0:0:0:
307,199,125567,1,8,0:0:0:0:
307,199,125646,1,0,0:0:0:0:
317,181,125803,1,8,0:0:0:0:
310,194,125881,1,0,0:0:0:0:
301,200,126039,1,0,0:0:0:0:
296,205,126117,1,8,0:0:0:0:
296,205,126274,1,0,0:0:0:0:
296,205,126353,1,8,0:0:0:0:
276,167,126431,1,8,0:0:0:0:
276,167,126510,1,8,0:0:0:0:
276,167,126588,1,0,0:0:0:0:
276,167,126667,1,0,0:0:0:0:
276,167,126745,1,8,0:0:0:0:
276,167,126824,1,8,0:0:0:0:
271,164,126902,1,0,0:0:0:0:
279,141,127059,1,8,0:0:0:0:
277,137,127138,1,0,0:0:0:0:
285,217,127295,1,0,0:0:0:0:
262,200,127374,1,8,0:0:0:0:
262,200,127452,1,8,0:0:0:0:
262,200,127531,1,0,0:0:0:0:
262,200,127609,1,8,0:0:0:0:
304,146,127766,1,0,0:0:0:0:
304,146,127845,1,8,0:0:0:0:
315,164,127923,1,0,0:0:0:0:
315,164,128002,1,8,0:0:0:0:
315,164,128080,1,8,0:0:0:0:
309,158,128159,1,0,0:0:0:0:
263,147,128316,1,8,0:0:0:0:
292,150,128395,1,8,0:0:0:0:
295,152,128473,1,0,0:0:0:0:
295,152,128552,1,8,0:0:0:0:
295,152,128630,1,8,0:0:0:0:
294,193,128787,1,0,0:0:0:0:
294,193,128866,1,8,0:0:0:0:
294,193,129023,1,8,0:0:0:0:
294,193,129101,1,0,0:0:0:0:
294,193,129180,1,0,0:0:0:0:
290,190,129258,1,8,0:0:0:0:
290,190,129337,1,8,0:0:0:0:
290,190,129415,1,4,0:0:0:0:
242,180,129651,1,4,0:0:0:0:
242,180,129887,1,12,0:0:0:0:
247,195,130201,1,8,0:0:0:0:
247,195,130279,1,8,0:0:0:0:
247,195,130358,1,8,0:0:0:0:
247,195,130436,1,8,0:0:0:0:
247,195,130515,1,8,0:0:0:0:
247,195,130594,1,8,0:0:0:0:
247,195,130672,1,4,0:0:0:0:
246,228,130829,1,8,0:0:0:0:
251,237,130908,1,8,0:0:0:0:
251,237,130986,1,0,0:0:0:0:
251,237,131065,1,0,0:0:0:0:
251,237,131143,1,8,0:0:0:0:
251,237,131300,1,0,0:0:0:0:
251,237,131379,1,8,0:0:0:0:
224,189,131457,1,8,0:0:0:0:
295,214,131536,1,0,0:0:0:0:
295,214,131614,1,8,0:0:0:0:
295,214,131693,1,0,0:0:0:0:
295,214,131772,1,8,0:0:0:0:
295,214,131850,1,8,0:0:0:0:
295,214,131929,1,0,0:0:0:0:
270,158,132086,1,8,0:0:0:0:
278,175,132164,1,8,0:0:0:0:
278,175,132243,1,0,0:0:0:0:
278,175,132321,1,8,0:0:0:0:
276,171,132400,1,0,0:0:0:0:
272,165,132478,1,0,0:0:0:0:
272,165,132557,1,8,0:0:0:0:
269,157,132635,1,0,0:0:0:0:
225,165,132714,1,8,0:0:0:0:
244,261,132766,1,0,0:0:0:0:
225,268,132819,1,0,0:0:0:0:
309,180,132871,1,8,0:0:0:0:
279,217,132950,1,0,0:0:0:0:
279,217,133028,1,8,0:0:0:0:
260,159,133107,1,8,0:0:0:0:
265,191,133185,1,0,0:0:0:0:
239,216,133499,1,12,0:0:0:0:
269,179,133656,1,0,0:0:0:0:
269,179,133735,1,8,0:0:0:0:
269,179,133813,1,0,0:0:0:0:
266,177,133892,1,8,0:0:0:0:
252,164,134049,1,8,0:0:0:0:
339,189,134128,1,4,0:0:0:0:
269,179,134285,1,12,0:0:0:0:
253,195,134599,1,12,0:0:0:0:
273,174,134913,1,4,0:0:0:0:
273,174,135227,1,4,0:0:0:0:
239,168,135384,1,8,0:0:0:0:
239,168,135463,1,8,0:0:0:0:
239,168,135541,1,8,0:0:0:0:
239,168,135620,1,8,0:0:0:0:
239,168,135698,1,4,0:0:0:0:
259,191,136169,1,0,0:0:0:0:
259,191,136326,1,8,0:0:0:0:
216,155,136641,1,12,0:0:0:0:
320,192,136798,1,8,0:0:0:0:
228,163,136876,1,8,0:0:0:0:
408,270,136955,1,0,0:0:0:0:
224,160,137112,1,8,0:0:0:0:
224,160,137269,1,0,0:0:0:0:
160,160,137347,1,8,0:0:0:0:
224,160,137426,1,0,0:0:0:0:
224,160,137504,1,0,0:0:0:0:
224,160,137583,1,8,0:0:0:0:
301,170,137740,1,8,0:0:0:0:
301,170,137897,1,0,0:0:0:0:
254,171,138054,1,8,0:0:0:0:
254,171,138133,1,8,0:0:0:0:
213,157,138211,1,0,0:0:0:0:
248,185,138368,1,8,0:0:0:0:
248,185,138525,1,0,0:0:0:0:
359,150,138604,1,0,0:0:0:0:
248,185,138683,1,8,0:0:0:0:
248,185,138761,1,0,0:0:0:0:
248,185,138840,1,8,0:0:0:0:
258,184,138997,1,0,0:0:0:0:
252,192,139154,1,0,0:0:0:0:
252,192,139232,1,0,0:0:0:0:
252,192,139311,1,0,0:0:0:0:
247,192,139389,1,0,0:0:0:0:
248,185,139468,1,8,0:0:0:0:
248,185,139546,1,0,0:0:0:0:
252,183,139625,1,0,0:0:0:0:
252,183,139703,1,8,0:0:0:0:
252,183,139782,1,0,0:0:0:0:
252,183,139861,1,0,0:0:0:0:
252,183,139939,1,8,0:0:0:0:
252,183,140018,1,0,0:0:0:0:
252,183,140096,1,0,0:0:0:0:
252,183,140175,1,8,0:0:0:0:
252,183,140253,1,0,0:0:0:0:
252,183,140332,1,0,0:0:0:0:
252,183,140410,1,8,0:0:0:0:
252,183,140489,1,0,0:0:0:0:
252,183,140567,1,8,0:0:0:0:
252,183,140646,1,8,0:0:0:0:
252,183,140724,1,8,0:0:0:0:
252,183,140803,1,0,0:0:0:0:
252,183,140881,1,0,0:0:0:0:
252,183,140960,1,8,0:0:0:0:
252,183,141039,1,8,0:0:0:0:
252,183,141117,1,0,0:0:0:0:
252,183,141196,1,8,0:0:0:0:
252,183,141274,1,8,0:0:0:0:
252,183,141353,1,0,0:0:0:0:
252,183,141431,1,8,0:0:0:0:
252,183,141510,1,8,0:0:0:0:
252,183,141588,1,0,0:0:0:0:
252,183,141667,1,8,0:0:0:0:
252,183,141745,1,0,0:0:0:0:
252,183,141824,1,8,0:0:0:0:
252,183,141902,1,8,0:0:0:0:
252,183,141981,1,8,0:0:0:0:
252,183,142059,1,0,0:0:0:0:
252,183,142138,1,0,0:0:0:0:
252,183,142217,1,8,0:0:0:0:
252,183,142295,1,0,0:0:0:0:
252,183,142374,1,0,0:0:0:0:
252,183,142452,1,8,0:0:0:0:
252,183,142531,1,8,0:0:0:0:
252,183,142609,1,8,0:0:0:0:
252,183,142688,1,0,0:0:0:0:
252,183,142766,1,0,0:0:0:0:
252,183,142845,1,8,0:0:0:0:
252,183,142923,1,0,0:0:0:0:
252,183,143002,1,0,0:0:0:0:
252,183,143080,1,8,0:0:0:0:
252,183,143159,1,8,0:0:0:0:
252,183,143237,1,8,0:0:0:0:
252,183,143316,1,0,0:0:0:0:
252,183,143395,1,0,0:0:0:0:
252,183,143473,1,8,0:0:0:0:
252,183,143552,1,8,0:0:0:0:
252,183,143630,1,0,0:0:0:0:
271,196,143709,1,8,0:0:0:0:
180,133,143787,1,8,0:0:0:0:
271,196,143866,1,8,0:0:0:0:
218,172,143944,1,8,0:0:0:0:
218,172,144023,1,8,0:0:0:0:
253,117,144101,1,8,0:0:0:0:
259,127,144180,1,8,0:0:0:0:
276,185,144258,1,8,0:0:0:0:
303,225,144337,1,8,0:0:0:0:
242,162,144415,1,8,0:0:0:0:
303,225,144494,1,4,0:0:0:0:
291,181,144651,1,8,0:0:0:0:
291,181,144730,1,8,0:0:0:0:
291,181,144808,1,0,0:0:0:0:
291,179,144887,1,8,0:0:0:0:
291,173,144965,1,0,0:0:0:0:
290,173,145044,1,0,0:0:0:0:
275,154,145122,1,8,0:0:0:0:
300,196,145279,1,0,0:0:0:0:
300,196,145358,1,8,0:0:0:0:
300,196,145436,1,0,0:0:0:0:
300,196,145515,1,0,0:0:0:0:
300,196,145594,1,8,0:0:0:0:
299,196,145672,1,0,0:0:0:0:
277,186,145751,1,8,0:0:0:0:
297,209,145908,1,0,0:0:0:0:
297,209,145986,1,0,0:0:0:0:
297,209,146065,1,8,0:0:0:0:
297,209,146143,1,0,0:0:0:0:
297,209,146222,1,8,0:0:0:0:
283,205,146300,1,8,0:0:0:0:
208,183,146379,1,0,0:0:0:0:
274,210,146536,1,8,0:0:0:0:
274,207,146614,1,0,0:0:0:0:
274,210,146693,1,8,0:0:0:0:
274,210,146772,1,8,0:0:0:0:
274,210,146850,1,0,0:0:0:0:
274,210,146929,1,8,0:0:0:0:
274,210,147007,1,0,0:0:0:0:
252,163,147478,1,0,0:0:0:0:
252,163,147557,1,0,0:0:0:0:
252,163,147635,1,8,0:0:0:0:
231,182,147688,1,8,0:0:0:0:
252,163,147740,1,8,0:0:0:0:
253,166,147792,1,0,0:0:0:0:
267,175,147871,1,0,0:0:0:0:
225,181,147950,1,12,0:0:0:0:
252,163,148264,1,0,0:0:0:0:
263,168,148578,1,12,0:0:0:0:
263,168,148735,1,0,0:0:0:0:
294,186,149049,1,8,0:0:0:0:
294,186,149128,1,0,0:0:0:0:
294,186,149206,1,8,0:0:0:0:
294,186,149285,1,8,0:0:0:0:
294,186,149363,1,0,0:0:0:0:
294,186,149442,1,8,0:0:0:0:
287,182,149520,1,4,0:0:0:0:
258,204,149677,1,8,0:0:0:0:
258,204,149756,1,0,0:0:0:0:
258,204,149834,1,0,0:0:0:0:
258,204,149913,1,0,0:0:0:0:
258,204,149991,1,8,0:0:0:0:
258,204,150070,1,8,0:0:0:0:
258,204,150148,1,0,0:0:0:0:
258,204,150306,1,0,0:0:0:0:
258,204,150384,1,8,0:0:0:0:
258,204,150463,1,0,0:0:0:0:
258,204,150541,1,0,0:0:0:0:
258,204,150620,1,8,0:0:0:0:
258,204,150698,1,8,0:0:0:0:
258,204,150777,1,0,0:0:0:0:
264,181,150934,1,8,0:0:0:0:
265,181,151012,1,8,0:0:0:0:
268,200,151091,1,0,0:0:0:0:
269,201,151169,1,8,0:0:0:0:
269,201,151248,1,8,0:0:0:0:
269,201,151326,1,0,0:0:0:0:
269,201,151405,1,0,0:0:0:0:
269,201,151562,1,8,0:0:0:0:
269,201,151641,1,8,0:0:0:0:
269,201,151719,1,8,0:0:0:0:
269,201,151798,1,0,0:0:0:0:
269,201,151876,1,8,0:0:0:0:
269,201,151955,1,8,0:0:0:0:
269,201,152033,1,0,0:0:0:0:
242,196,152347,1,4,0:0:0:0:
242,196,152819,1,4,0:0:0:0:
242,196,153290,1,12,0:0:0:0:
281,161,153761,1,12,0:0:0:0:
307,201,154232,1,8,0:0:0:0:
307,201,154285,1,8,0:0:0:0:
307,201,154337,1,8,0:0:0:0:
302,198,154389,1,8,0:0:0:0:
220,176,154546,1,4,0:0:0:0:
246,212,155018,1,4,0:0:0:0:
299,176,155489,1,8,0:0:0:0:
299,176,155541,1,8,0:0:0:0:
299,176,155594,1,8,0:0:0:0:
299,176,155646,1,8,0:0:0:0:
299,168,155698,1,8,0:0:0:0:
298,157,155751,1,8,0:0:0:0:
275,189,155803,1,0,0:0:0:0:
275,189,155881,1,0,0:0:0:0:
275,189,155960,1,8,0:0:0:0:
275,189,156039,1,0,0:0:0:0:
275,189,156117,1,8,0:0:0:0:
275,189,156196,1,8,0:0:0:0:
275,189,156274,1,0,0:0:0:0:
275,189,156353,1,8,0:0:0:0:
275,189,156431,1,0,0:0:0:0:
275,189,156510,1,8,0:0:0:0:
275,189,156588,1,8,0:0:0:0:
275,189,156667,1,0,0:0:0:0:
275,189,156745,1,8,0:0:0:0:
275,189,156824,1,0,0:0:0:0:
274,215,156902,1,8,0:0:0:0:
274,215,156981,1,8,0:0:0:0:
274,215,157059,1,4,0:0:0:0:
221,211,157531,1,4,0:0:0:0:
230,247,158002,1,8,0:0:0:0:
230,247,158054,1,8,0:0:0:0:
230,247,158107,1,8,0:0:0:0:
230,247,158159,1,0,0:0:0:0:
232,206,158237,1,0,0:0:0:0:
230,247,158316,1,8,0:0:0:0:
234,206,158395,1,8,0:0:0:0:
236,207,158473,1,0,0:0:0:0:
237,207,158552,1,8,0:0:0:0:
238,208,158630,1,0,0:0:0:0:
238,208,158709,1,8,0:0:0:0:
238,208,158787,1,8,0:0:0:0:
239,208,158866,1,0,0:0:0:0:
240,208,158944,1,8,0:0:0:0:
241,208,159023,1,0,0:0:0:0:
242,198,159101,1,8,0:0:0:0:
242,198,159180,1,8,0:0:0:0:
264,159,159258,1,0,0:0:0:0:
278,160,159311,1,0,0:0:0:0:
278,160,159363,1,0,0:0:0:0:
278,160,159415,1,8,0:0:0:0:
243,197,159494,1,8,0:0:0:0:
243,197,159573,1,4,0:0:0:0:
248,200,159730,1,8,0:0:0:0:
248,200,159808,1,8,0:0:0:0:
248,200,159887,1,8,0:0:0:0:
248,200,160044,1,4,0:0:0:0:
248,200,160201,1,8,0:0:0:0:
248,200,160279,1,8,0:0:0:0:
248,200,160358,1,8,0:0:0:0:
187,221,160515,1,0,0:0:0:0:
252,234,160567,1,0,0:0:0:0:
252,234,160620,1,0,0:0:0:0:
256,237,160672,1,8,0:0:0:0:
256,237,160724,1,8,0:0:0:0:
256,237,160777,1,8,0:0:0:0:
256,237,160829,1,0,0:0:0:0:
229,163,160908,1,8,0:0:0:0:
248,178,160986,1,0,0:0:0:0:
252,196,161065,1,8,0:0:0:0:
248,200,161143,1,8,0:0:0:0:
246,209,161222,1,0,0:0:0:0:
246,209,161300,1,8,0:0:0:0:
246,209,161379,1,0,0:0:0:0:
246,209,161457,1,8,0:0:0:0:
246,209,161536,1,8,0:0:0:0:
246,209,161614,1,0,0:0:0:0:
246,209,161693,1,8,0:0:0:0:
246,209,161772,1,0,0:0:0:0:
246,209,161850,1,8,0:0:0:0:
246,209,161929,1,8,0:0:0:0:
246,209,162007,1,8,0:0:0:0:
261,244,162086,1,4,0:0:0:0:
210,206,162243,1,8,0:0:0:0:
210,206,162321,1,0,0:0:0:0:
210,206,162400,1,8,0:0:0:0:
210,206,162557,1,4,0:0:0:0:
210,206,162714,1,8,0:0:0:0:
210,206,162792,1,0,0:0:0:0:
210,206,162871,1,8,0:0:0:0:
199,185,163028,1,8,0:0:0:0:
222,211,163080,1,8,0:0:0:0:
223,212,163133,1,8,0:0:0:0:
223,212,163185,1,8,0:0:0:0:
223,212,163237,1,8,0:0:0:0:
223,212,163290,1,8,0:0:0:0:
223,212,163342,1,4,0:0:0:0:
223,212,163447,1,8,0:0:0:0:
223,212,163552,1,0,0:0:0:0:
223,212,163656,1,8,0:0:0:0:
223,212,163761,1,0,0:0:0:0:
223,212,163866,1,8,0:0:0:0:
222,211,163970,1,0,0:0:0:0:
222,211,164075,1,8,0:0:0:0:
223,212,164180,1,0,0:0:0:0:
223,212,164285,1,8,0:0:0:0:
223,212,164337,1,8,0:0:0:0:
223,212,164389,1,8,0:0:0:0:
223,212,164442,1,8,0:0:0:0:
223,212,164494,1,8,0:0:0:0:
223,212,164546,1,8,0:0:0:0:
223,212,164599,1,4,0:0:0:0:
256,192,165227,12,0,168997,0:0:0:0:
