osu file format v14

[General]
AudioFilename: audio.mp3
AudioLeadIn: 0
PreviewTime: 109976
Countdown: 0
SampleSet: Normal
StackLeniency: 0.4
Mode: 1
LetterboxInBreaks: 0
WidescreenStoryboard: 0

[Editor]
Bookmarks: 29399,43113,56828,70542,97971,111690,139113,152827,166541,180256,207684,221404,248827,262547
DistanceSpacing: 1
BeatDivisor: 4
GridSize: 32
TimelineZoom: 1.3

[Metadata]
Title:Why do you hate me?
TitleUnicode:Why do you hate me?
Artist:Camellia
ArtistUnicode:かめりあ
Creator:Alchyr
Version:Enmity
Source:
Tags:PLANET//SHAPER featured artist fa osu! electronic cametek かめるかめりあ kamelcamellia instrumental Masaya Oya c88
BeatmapID:2229591
BeatmapSetID:1064873

[Difficulty]
HPDrainRate:7.7
CircleSize:7.7
OverallDifficulty:7.7
ApproachRate:7.7
SliderMultiplier:1.4
SliderTickRate:1

[Events]
//Background and Video events
0,0,"bg.jpg",0,0
//Break Periods
//Storyboard Layer 0 (Background)
//Storyboard Layer 1 (Fail)
//Storyboard Layer 2 (Pass)
//Storyboard Layer 3 (Foreground)
//Storyboard Layer 4 (Overlay)
//Storyboard Sound Samples

[TimingPoints]
262,428.571428571429,4,1,0,40,1,0
262,-303.030303030303,4,1,0,40,0,0
1976,428.571428571429,4,1,0,40,1,0
1976,-300.00300003,4,1,0,40,0,0
15687,-200,4,1,0,55,0,0
18740,-202.020202020202,4,1,0,55,0,0
18794,-204.081632653061,4,1,0,55,0,0
18848,-206.185567010309,4,1,0,55,0,0
18901,-208.333333333333,4,1,0,55,0,0
19115,-200,4,1,0,55,0,0
22187,-181.818181818182,4,1,0,55,0,0
22258,-166.666666666667,4,1,0,55,0,0
22330,-153.846153846154,4,1,0,55,0,0
22544,-200,4,1,0,55,0,0
25598,-202.020202020202,4,1,0,55,0,0
25651,-204.081632653061,4,1,0,55,0,0
25705,-206.185567010309,4,1,0,55,0,0
25758,-208.333333333333,4,1,0,55,0,0
25973,-200,4,1,0,55,0,0
26187,-192.307692307692,4,1,0,55,0,0
26401,-185.185185185185,4,1,0,55,0,0
26615,-178.571428571429,4,1,0,55,0,0
27044,-166.666666666667,4,1,0,55,0,0
27258,-161.290322580645,4,1,0,55,0,0
27473,-156.25,4,1,0,55,0,0
27687,-151.515151515152,4,1,0,55,0,0
28330,-133.333333333333,4,1,0,55,0,0
28758,-100,4,1,0,55,0,0
29297,-66.6666666666667,4,1,0,90,0,0
29615,-150.15015015015,4,1,0,70,0,0
32456,-151.515151515152,4,1,0,70,0,0
32509,-153.846153846154,4,1,0,70,0,0
32563,-156.25,4,1,0,70,0,0
32616,-158.730158730159,4,1,0,70,0,0
32831,-150.15015015015,4,1,0,70,0,0
39313,-151.515151515152,4,1,0,70,0,0
39367,-153.846153846154,4,1,0,70,0,0
39420,-156.25,4,1,0,70,0,0
39474,-158.730158730159,4,1,0,70,0,0
39688,-150.15015015015,4,1,0,70,0,0
43011,-66.6666666666667,4,1,0,90,0,0
43330,-150.15015015015,4,1,0,70,0,0
46170,-151.515151515152,4,1,0,70,0,0
46224,-153.846153846154,4,1,0,70,0,0
46277,-156.25,4,1,0,70,0,0
46331,-158.730158730159,4,1,0,70,0,0
46545,-150.15015015015,4,1,0,70,0,0
49617,-133.333333333333,4,1,0,70,0,0
49688,-120.481927710843,4,1,0,70,0,0
49760,-109.89010989011,4,1,0,70,0,0
49974,-149.253731343284,4,1,0,70,0,0
53027,-151.515151515152,4,1,0,70,0,0
53081,-153.846153846154,4,1,0,70,0,0
53135,-156.25,4,1,0,70,0,0
53188,-158.730158730159,4,1,0,70,0,0
53402,-150.15015015015,4,1,0,70,0,0
56830,-66.6666666666667,4,1,0,70,0,0
57258,-200,4,1,0,40,0,0
70044,-133.333333333333,4,1,0,70,0,0
70187,-114.619880359769,4,1,0,70,0,0
70258,-100.512816389218,4,1,0,70,0,0
70330,-89.4977119909929,4,1,0,70,0,0
70401,-80.6584309031486,4,1,0,70,0,0
70473,-73.4082342016304,4,1,0,70,0,0
70544,-66.6666666666667,4,1,0,90,0,0
72258,-100,4,1,0,90,0,0
73973,-66.6666666666667,4,1,0,90,0,0
74830,-58.8235294117647,4,1,0,90,0,0
75044,-66.6666666666667,4,1,0,90,0,0
76008,-58.8235294117647,4,1,0,90,0,0
76115,-66.6666666666667,4,1,0,90,0,0
76544,-58.8235294117647,4,1,0,90,0,0
76651,-66.6666666666667,4,1,0,90,0,0
76865,-58.8235294117647,4,1,0,90,0,0
76973,-66.6666666666667,4,1,0,90,0,0
77401,-50,4,1,0,90,0,0
79115,-100,4,1,0,90,0,0
80830,-66.6666666666667,4,1,0,90,0,0
81687,-58.8235294117647,4,1,0,90,0,0
81901,-66.6666666666667,4,1,0,90,0,0
82865,-58.8235294117647,4,1,0,90,0,0
82972,-66.6666666666667,4,1,0,90,0,0
83401,-58.8235294117647,4,1,0,90,0,0
83508,-66.6666666666667,4,1,0,90,0,0
83722,-58.8235294117647,4,1,0,90,0,0
83830,-66.6666666666667,4,1,0,90,0,0
84258,-50,4,1,0,90,0,0
84687,-66.6666666666667,4,1,0,90,0,0
85115,-58.8235294117647,4,1,0,90,0,0
85865,-66.6666666666667,4,1,0,90,0,0
86830,-58.8235294117647,4,1,0,90,0,0
87044,-66.6666666666667,4,1,0,90,0,0
88544,-58.8235294117647,4,1,0,90,0,0
88758,-66.6666666666667,4,1,0,90,0,0
89722,-58.8235294117647,4,1,0,90,0,0
89829,-66.6666666666667,4,1,0,90,0,0
90258,-58.8235294117647,4,1,0,90,0,0
90365,-66.6666666666667,4,1,0,90,0,0
90579,-58.8235294117647,4,1,0,90,0,0
90687,-66.6666666666667,4,1,0,90,0,0
91115,-50,4,1,0,90,0,0
91544,-66.6666666666667,4,1,0,90,0,0
91973,-58.8235294117647,4,1,0,90,0,0
92401,-66.6666666666667,4,1,0,90,0,0
93687,-58.8235294117647,4,1,0,90,0,0
93901,-66.6666666666667,4,1,0,90,0,0
94973,-62.5,4,1,0,90,0,0
95294,-66.6666666666667,4,1,0,90,0,0
95401,-60.3510135650973,4,1,0,90,0,0
95615,-59.3309838263738,4,1,0,90,0,0
96044,-57.3910158955897,4,1,0,90,0,0
96151,-58.1395348837209,4,1,0,90,0,0
96258,-58.8235294117647,4,1,0,90,0,0
96473,-55.5738640563252,4,1,0,90,0,0
96580,-56.1797752808989,4,1,0,90,0,0
96687,-56.8181818181818,4,1,0,90,0,0
96901,-53.8682812786175,4,1,0,90,0,0
97115,-57.1428571428571,4,1,0,90,0,0
97330,-52.2642711512199,4,1,0,90,0,0
97544,-51.4975487166811,4,1,0,90,0,0
97651,-51.122575064555,4,1,0,90,0,0
97758,-50.7530225962607,4,1,0,90,0,0
97865,-50.3887492000786,4,1,0,90,0,0
97973,-50.0296926225715,4,1,0,90,0,0
98187,-66.6666666666667,4,1,0,90,0,0
104938,-66.2251655629139,4,1,0,90,0,0
105045,-65.7549955714011,4,1,0,90,0,0
105153,-65.3084255705997,4,1,0,90,0,0
105260,-64.8679224231542,4,1,0,90,0,0
105367,-64.4332803047436,4,1,0,90,0,0
105474,-64.0044239857859,4,1,0,90,0,0
105581,-63.6942675159236,4,1,0,90,0,0
105688,-63.1636526024372,4,1,0,90,0,0
105795,-62.751476542243,4,1,0,90,0,0
105902,-62.3446838064671,4,1,0,90,0,0
106010,-61.9430928805706,4,1,0,90,0,0
106117,-61.5466803874733,4,1,0,90,0,0
106224,-61.1552720125344,4,1,0,90,0,0
106331,-60.7688105295333,4,1,0,90,0,0
106438,-60.2409638554217,4,1,0,90,0,0
106545,-60.0103938002062,4,1,0,90,0,0
106652,-59.6382581811763,4,1,0,90,0,0
106760,-59.2706743520974,4,1,0,90,0,0
106867,-58.9075940135747,4,1,0,90,0,0
106974,-58.5489691868485,4,1,0,90,0,0
107081,-58.1946506313247,4,1,0,90,0,0
107188,-57.8446281718379,4,1,0,90,0,0
107295,-57.4712643678161,4,1,0,90,0,0
107402,-57.1569994175702,4,1,0,90,0,0
107510,-56.8193117476768,4,1,0,90,0,0
107617,-56.4855589020111,4,1,0,90,0,0
107724,-56.1557040437161,4,1,0,90,0,0
107831,-55.8297104503727,4,1,0,90,0,0
107938,-55.5074490996692,4,1,0,90,0,0
108045,-55.1889171824071,4,1,0,90,0,0
108152,-54.9450549450549,4,1,0,90,0,0
108260,-54.5626368158118,4,1,0,90,0,0
108367,-54.254826238068,4,1,0,90,0,0
108474,-53.9504400467642,4,1,0,90,0,0
108581,-53.6494789830849,4,1,0,90,0,0
108688,-53.3518286339264,4,1,0,90,0,0
108796,-53.0574628239622,4,1,0,90,0,0
108902,-52.7663553275815,4,1,0,90,0,0
109010,-52.4783972677647,4,1,0,90,0,0
109117,-52.1935650553643,4,1,0,90,0,0
109224,-51.9118350158824,4,1,0,90,0,0
109331,-51.6331034283348,4,1,0,90,0,0
109438,-51.3573754326859,4,1,0,90,0,0
109545,-51.0845505504616,4,1,0,90,0,0
109599,-50.9492352010304,4,1,0,90,0,0
109652,-50.8146089968282,4,1,0,90,0,0
109706,-50.6807180646858,4,1,0,90,0,0
109760,-50.5475308542128,4,1,0,90,0,0
109813,-50.4150164151293,4,1,0,90,0,0
109867,-50.2832202379905,4,1,0,90,0,0
109920,-50.1521113537359,4,1,0,90,0,0
109976,-50.0216844001875,4,1,0,90,0,0
110830,-100,4,1,0,90,0,0
111690,-50,4,1,0,90,0,1
113615,-58.8235294117647,4,1,0,90,0,1
113830,-50,4,1,0,90,0,1
114687,-50,4,1,0,90,0,1
114758,-50.5050505050505,4,1,0,90,0,1
114830,-51.0204081632653,4,1,0,90,0,1
114901,-51.5463917525773,4,1,0,90,0,1
114973,-52.0833333333333,4,1,0,90,0,1
115044,-52.6315789473684,4,1,0,90,0,1
115115,-50,4,1,0,90,0,1
117044,-58.8235294117647,4,1,0,90,0,1
117098,-54.054054054054,4,1,0,90,0,1
117151,-50,4,1,0,90,0,1
118187,-46.5116279069767,4,1,0,90,0,1
118258,-43.4782608695652,4,1,0,90,0,1
118330,-40.8163265306122,4,1,0,90,0,1
118544,-50,4,1,0,90,0,1
120472,-58.8235294117647,4,1,0,90,0,1
120687,-50,4,1,0,90,0,1
121544,-50,4,1,0,90,0,1
121615,-50.5050505050505,4,1,0,90,0,1
121687,-51.0204081632653,4,1,0,90,0,1
121758,-51.5463917525773,4,1,0,90,0,1
121830,-52.0833333333333,4,1,0,90,0,1
121901,-52.6315789473684,4,1,0,90,0,1
121972,-50,4,1,0,90,0,1
124547,-50,4,1,0,90,0,0
124618,-51.0359532980199,4,1,0,90,0,0
124689,-52.1157428108939,4,1,0,90,0,0
124761,-53.2422110638379,4,1,0,90,0,0
124841,-54.5691574030974,4,1,0,90,0,0
124948,-56.4448122137542,4,1,0,90,0,0
125136,-60.057354773809,4,1,0,90,0,0
125404,-50,4,1,0,90,0,1
127331,-58.8235294117647,4,1,0,90,0,1
127544,-50,4,1,0,90,0,1
128400,-50,4,1,0,90,0,1
128471,-50.5050505050505,4,1,0,90,0,1
128543,-51.0204081632653,4,1,0,90,0,1
128614,-51.5463917525773,4,1,0,90,0,1
128686,-52.0833333333333,4,1,0,90,0,1
128757,-52.6315789473684,4,1,0,90,0,1
128830,-50,4,1,0,90,0,1
130757,-58.8235294117647,4,1,0,90,0,1
130811,-54.054054054054,4,1,0,90,0,1
130864,-50,4,1,0,90,0,1
131900,-46.5116279069767,4,1,0,90,0,1
131971,-43.4782608695652,4,1,0,90,0,1
132043,-40.8163265306122,4,1,0,90,0,1
132256,-50,4,1,0,90,0,1
132971,-47.6190476190476,4,1,0,90,0,1
133042,-45.662100456621,4,1,0,90,0,1
133113,-43.859649122807,4,1,0,90,0,1
133328,-50,4,1,0,90,0,1
134185,-58.8235294117647,4,1,0,90,0,1
134400,-50,4,1,0,90,0,1
135257,-50,4,1,0,90,0,1
135328,-50.5050505050505,4,1,0,90,0,1
135400,-51.0204081632653,4,1,0,90,0,1
135471,-51.5463917525773,4,1,0,90,0,1
135543,-52.0833333333333,4,1,0,90,0,1
135614,-52.6315789473684,4,1,0,90,0,1
135685,-50,4,1,0,90,0,1
135739,-49.8442367601246,4,1,0,90,0,1
135795,-49.6894409937888,4,1,0,90,0,1
135899,-49.3827160493827,4,1,0,90,0,1
136006,-49.079754601227,4,1,0,90,0,1
136113,-48.780487804878,4,1,0,90,0,1
136221,-48.4848484848485,4,1,0,90,0,1
136328,-48.1927710843373,4,1,0,90,0,1
136435,-47.9041916167665,4,1,0,90,0,1
136542,-47.6190476190476,4,1,0,90,0,1
136649,-47.3372781065089,4,1,0,90,0,1
136756,-47.0588235294118,4,1,0,90,0,1
136863,-46.7836257309941,4,1,0,90,0,1
136971,-46.5116279069767,4,1,0,90,0,1
137078,-46.242774566474,4,1,0,90,0,1
137185,-45.9770114942529,4,1,0,90,0,1
137292,-45.7142857142857,4,1,0,90,0,1
137399,-45.4545454545455,4,1,0,90,0,1
137506,-45.1977401129944,4,1,0,90,0,1
137613,-44.9438202247191,4,1,0,90,0,1
137721,-44.6927374301676,4,1,0,90,0,1
137828,-44.4444444444444,4,1,0,90,0,1
137935,-44.1988950276243,4,1,0,90,0,1
138042,-43.956043956044,4,1,0,90,0,1
138113,-43.7956268314784,4,1,0,90,0,1
138185,-43.6363572892571,4,1,0,90,0,1
138256,-43.4782608695652,4,1,0,90,0,1
138363,-43.2432432432432,4,1,0,90,0,1
138471,-43.010752688172,4,1,0,90,0,1
138578,-42.7807486631016,4,1,0,90,0,1
138685,-42.5531914893617,4,1,0,90,0,1
138792,-42.3280423280423,4,1,0,90,0,1
138899,-42.1052631578947,4,1,0,90,0,1
139006,-41.8848167539267,4,1,0,90,0,1
139113,-41.6666666666667,4,1,0,90,0,1
139542,-50,4,1,0,90,0,1
142547,-41.6666666666667,4,1,0,90,0,1
142971,-50,4,1,0,90,0,1
145113,-40,4,1,0,90,0,1
145328,-50,4,1,0,90,0,1
145435,-47.6190476190476,4,1,0,90,0,1
145542,-45.4545454545455,4,1,0,90,0,1
145975,-41.6666666666667,4,1,0,90,0,1
146400,-50,4,1,0,90,0,1
149399,-41.6666666666667,4,1,0,90,0,1
149829,-50,4,1,0,90,0,1
151118,-50,4,1,0,90,0,0
152402,-40,4,1,0,90,0,0
152831,-133.333333333333,4,1,0,90,0,0
153043,-150.15015015015,4,1,0,70,0,0
155883,-151.515151515152,4,1,0,70,0,0
155937,-153.846153846154,4,1,0,70,0,0
155990,-156.25,4,1,0,70,0,0
156044,-158.730158730159,4,1,0,70,0,0
156258,-150.15015015015,4,1,0,70,0,0
159330,-133.333333333333,4,1,0,70,0,0
159401,-120.481927710843,4,1,0,70,0,0
159473,-109.89010989011,4,1,0,70,0,0
159687,-149.253731343284,4,1,0,70,0,0
162740,-151.515151515152,4,1,0,70,0,0
162794,-153.846153846154,4,1,0,70,0,0
162848,-156.25,4,1,0,70,0,0
162901,-158.730158730159,4,1,0,70,0,0
163115,-150.15015015015,4,1,0,70,0,0
166543,-66.6666666666667,4,1,0,70,0,0
166947,-200,4,1,0,40,0,0
179733,-133.333333333333,4,1,0,70,0,0
179876,-114.619880359769,4,1,0,70,0,0
179947,-100.512816389218,4,1,0,70,0,0
180019,-89.4977119909929,4,1,0,70,0,0
180090,-80.6584309031486,4,1,0,70,0,0
180162,-73.4082342016304,4,1,0,70,0,0
180233,-66.6666666666667,4,1,0,90,0,0
181947,-100,4,1,0,90,0,0
183662,-66.6666666666667,4,1,0,90,0,0
184519,-58.8235294117647,4,1,0,90,0,0
184733,-66.6666666666667,4,1,0,90,0,0
185697,-58.8235294117647,4,1,0,90,0,0
185804,-66.6666666666667,4,1,0,90,0,0
186233,-58.8235294117647,4,1,0,90,0,0
186340,-66.6666666666667,4,1,0,90,0,0
186554,-58.8235294117647,4,1,0,90,0,0
186662,-66.6666666666667,4,1,0,90,0,0
187090,-50,4,1,0,90,0,0
188804,-100,4,1,0,90,0,0
190519,-66.6666666666667,4,1,0,90,0,0
191376,-58.8235294117647,4,1,0,90,0,0
191590,-66.6666666666667,4,1,0,90,0,0
192554,-58.8235294117647,4,1,0,90,0,0
192661,-66.6666666666667,4,1,0,90,0,0
193090,-58.8235294117647,4,1,0,90,0,0
193197,-66.6666666666667,4,1,0,90,0,0
193411,-58.8235294117647,4,1,0,90,0,0
193519,-66.6666666666667,4,1,0,90,0,0
193947,-50,4,1,0,90,0,0
194376,-66.6666666666667,4,1,0,90,0,0
194804,-58.8235294117647,4,1,0,90,0,0
195554,-66.6666666666667,4,1,0,90,0,0
196519,-58.8235294117647,4,1,0,90,0,0
196733,-66.6666666666667,4,1,0,90,0,0
198233,-58.8235294117647,4,1,0,90,0,0
198447,-66.6666666666667,4,1,0,90,0,0
199411,-58.8235294117647,4,1,0,90,0,0
199518,-66.6666666666667,4,1,0,90,0,0
199947,-58.8235294117647,4,1,0,90,0,0
200054,-66.6666666666667,4,1,0,90,0,0
200268,-58.8235294117647,4,1,0,90,0,0
200376,-66.6666666666667,4,1,0,90,0,0
200804,-50,4,1,0,90,0,0
201233,-66.6666666666667,4,1,0,90,0,0
201662,-58.8235294117647,4,1,0,90,0,0
202090,-66.6666666666667,4,1,0,90,0,0
203376,-58.8235294117647,4,1,0,90,0,0
203590,-66.6666666666667,4,1,0,90,0,0
204662,-62.5,4,1,0,90,0,0
204983,-66.6666666666667,4,1,0,90,0,0
205090,-60.3510135650973,4,1,0,90,0,0
205304,-59.3309838263738,4,1,0,90,0,0
205733,-57.3910158955897,4,1,0,90,0,0
205840,-58.1395348837209,4,1,0,90,0,0
205947,-58.8235294117647,4,1,0,90,0,0
206162,-55.5738640563252,4,1,0,90,0,0
206269,-56.1797752808989,4,1,0,90,0,0
206376,-56.8181818181818,4,1,0,90,0,0
206590,-53.8682812786175,4,1,0,90,0,0
206804,-57.1428571428571,4,1,0,90,0,0
207019,-52.2642711512199,4,1,0,90,0,0
207233,-51.4975487166811,4,1,0,90,0,0
207340,-51.122575064555,4,1,0,90,0,0
207447,-50.7530225962607,4,1,0,90,0,0
207554,-50.3887492000786,4,1,0,90,0,0
207662,-50.0296926225715,4,1,0,90,0,0
207876,-66.6666666666667,4,1,0,90,0,0
214545,-66.6666666666667,4,1,0,90,0,0
214652,-66.0258636513095,4,1,0,90,0,0
214760,-65.3972622090149,4,1,0,90,0,0
214867,-64.7805171299121,4,1,0,90,0,0
214974,-64.1752961048162,4,1,0,90,0,0
215081,-63.5812791281735,4,1,0,90,0,0
215188,-62.998157933862,4,1,0,90,0,0
215295,-62.4256354617562,4,1,0,90,0,0
215402,-61.8634253531164,4,1,0,90,0,0
215510,-61.3112138823303,4,1,0,90,0,0
215617,-60.7688105295333,4,1,0,90,0,0
215724,-60.2359200042888,4,1,0,90,0,0
215831,-59.7122942239701,4,1,0,90,0,0
215938,-59.1976936578551,4,1,0,90,0,0
216045,-58.6918869617734,4,1,0,90,0,0
216152,-58.1946506313247,4,1,0,90,0,0
216258,-57.7057686725769,4,1,0,90,0,0
216367,-57.2250322892245,4,1,0,90,0,0
216474,-56.7522395852546,4,1,0,90,0,0
216581,-56.2871952822324,4,1,0,90,0,0
216688,-55.8297104503727,4,1,0,90,0,0
216795,-55.3796022526207,4,1,0,90,0,0
216902,-54.9366937010136,4,1,0,90,0,0
217010,-54.5008134246404,4,1,0,90,0,0
217117,-54.0717954485607,4,1,0,90,0,0
217224,-53.6494789830849,4,1,0,90,0,0
217331,-53.2336798845894,4,1,0,90,0,0
217438,-52.8243042510887,4,1,0,90,0,0
217545,-52.4211768973583,4,1,0,90,0,0
217652,-52.0241558560471,4,1,0,90,0,0
217760,-51.6331034283348,4,1,0,90,0,0
217867,-51.2478860247015,4,1,0,90,0,0
217974,-50.868374012772,4,1,0,90,0,0
218081,-50.4944415718718,4,1,0,90,0,0
218188,-50.1259665539501,4,1,0,90,0,0
218295,-49.7628303505493,4,1,0,90,0,0
218402,-49.4049177655144,4,1,0,90,0,0
218510,-49.0521168931566,4,1,0,90,0,0
218617,-48.7043190016004,4,1,0,90,0,0
218724,-48.3614184210577,4,1,0,90,0,0
218831,-48.0233124367893,4,1,0,90,0,0
218938,-47.6899011865247,4,1,0,90,0,0
219045,-47.3610875621259,4,1,0,90,0,0
219152,-47.0367549907173,4,1,0,90,0,0
219260,-46.716856142449,4,1,0,90,0,0
219313,-46.5585329220042,4,1,0,90,0,0
219367,-46.4012791904647,4,1,0,90,0,0
219420,-46.2450841475551,4,1,0,90,0,0
219474,-46.0899371379347,4,1,0,90,0,0
219527,-45.9358276487747,4,1,0,90,0,0
219581,-45.7827453073831,4,1,0,90,0,0
219635,-45.6306798788779,4,1,0,90,0,0
219688,-45.479621263906,4,1,0,90,0,0
220545,-25,4,1,0,90,0,0
220974,-100,4,1,0,90,0,0
221404,-50,4,1,0,90,0,1
223328,-58.8235294117647,4,1,0,90,0,1
223543,-50,4,1,0,90,0,1
224400,-50,4,1,0,90,0,1
224471,-50.5050505050505,4,1,0,90,0,1
224543,-51.0204081632653,4,1,0,90,0,1
224614,-51.5463917525773,4,1,0,90,0,1
224686,-52.0833333333333,4,1,0,90,0,1
224757,-52.6315789473684,4,1,0,90,0,1
224828,-50,4,1,0,90,0,1
226757,-58.8235294117647,4,1,0,90,0,1
226811,-57.1428571428571,4,1,0,90,0,1
226864,-55.5555555555556,4,1,0,90,0,1
226976,-50,4,1,0,90,0,1
227900,-46.5116279069767,4,1,0,90,0,1
227971,-43.4782608695652,4,1,0,90,0,1
228043,-40.8163265306122,4,1,0,90,0,1
228257,-50,4,1,0,90,0,1
230185,-58.8235294117647,4,1,0,90,0,1
230400,-50,4,1,0,90,0,1
231257,-50,4,1,0,90,0,1
231328,-50.5050505050505,4,1,0,90,0,1
231400,-51.0204081632653,4,1,0,90,0,1
231471,-51.5463917525773,4,1,0,90,0,1
231543,-52.0833333333333,4,1,0,90,0,1
231614,-52.6315789473684,4,1,0,90,0,1
231685,-50,4,1,0,90,0,1
234261,-50,4,1,0,90,0,0
234333,-51.0359532980199,4,1,0,90,0,0
234404,-52.1157428108939,4,1,0,90,0,0
234476,-53.2422110638379,4,1,0,90,0,0
234556,-54.5691574030974,4,1,0,90,0,0
234663,-56.4448122137542,4,1,0,90,0,0
234851,-60.057354773809,4,1,0,90,0,0
235118,-50,4,1,0,90,0,0
235226,-52.6315789473684,4,1,0,90,0,0
235261,-53.763440860215,4,1,0,90,0,0
235297,-54.9450549450549,4,1,0,90,0,0
235440,-57.4712643678161,4,1,0,90,0,0
235493,-59.1715976331361,4,1,0,90,0,0
235547,-60.9756097560976,4,1,0,90,0,0
235690,-64.9350649350649,4,1,0,90,0,0
235761,-66.6666666666667,4,1,0,90,0,0
235833,-68.4931506849315,4,1,0,90,0,0
236029,-75.187969924812,4,1,0,90,0,0
236190,-66.6666666666667,4,1,0,90,0,0
236261,-60.0024000960038,4,1,0,90,0,0
236333,-54.5454555371901,4,1,0,90,0,0
236404,-50,4,1,0,90,0,1
237042,-58.8235294117647,4,1,0,90,0,1
237152,-54.054054054054,4,1,0,90,0,1
237257,-50,4,1,0,90,0,1
238115,-50,4,1,0,90,0,1
238186,-50.5050505050505,4,1,0,90,0,1
238258,-51.0204081632653,4,1,0,90,0,1
238329,-51.5463917525773,4,1,0,90,0,1
238401,-52.0833333333333,4,1,0,90,0,1
238472,-52.6315789473684,4,1,0,90,0,1
238543,-50,4,1,0,90,0,1
240472,-58.8235294117647,4,1,0,90,0,1
240526,-57.1428571428571,4,1,0,90,0,1
240579,-55.5555555555556,4,1,0,90,0,1
240690,-50,4,1,0,90,0,1
241615,-46.5116279069767,4,1,0,90,0,1
241686,-43.4782608695652,4,1,0,90,0,1
241758,-40.8163265306122,4,1,0,90,0,1
241971,-50,4,1,0,90,0,1
242686,-47.6190476190476,4,1,0,90,0,1
242757,-45.662100456621,4,1,0,90,0,1
242828,-43.859649122807,4,1,0,90,0,1
243043,-50,4,1,0,90,0,1
243900,-58.8235294117647,4,1,0,90,0,1
244115,-50,4,1,0,90,0,1
244972,-50,4,1,0,90,0,1
245043,-50.5050505050505,4,1,0,90,0,1
245115,-51.0204081632653,4,1,0,90,0,1
245186,-51.5463917525773,4,1,0,90,0,1
245258,-52.0833333333333,4,1,0,90,0,1
245329,-52.6315789473684,4,1,0,90,0,1
245400,-50,4,1,0,90,0,1
245454,-49.8442367601246,4,1,0,90,0,1
245508,-49.6894409937888,4,1,0,90,0,1
245614,-49.3827160493827,4,1,0,90,0,1
245721,-49.079754601227,4,1,0,90,0,1
245828,-48.780487804878,4,1,0,90,0,1
245936,-48.4848484848485,4,1,0,90,0,1
246043,-48.1927710843373,4,1,0,90,0,1
246150,-47.9041916167665,4,1,0,90,0,1
246257,-47.6190476190476,4,1,0,90,0,1
246364,-47.3372781065089,4,1,0,90,0,1
246471,-47.0588235294118,4,1,0,90,0,1
246578,-46.7836257309941,4,1,0,90,0,1
246686,-46.5116279069767,4,1,0,90,0,1
246793,-46.242774566474,4,1,0,90,0,1
246900,-45.9770114942529,4,1,0,90,0,1
247007,-45.7142857142857,4,1,0,90,0,1
247114,-45.4545454545455,4,1,0,90,0,1
247221,-45.1977401129944,4,1,0,90,0,1
247328,-44.9438202247191,4,1,0,90,0,1
247436,-44.6927374301676,4,1,0,90,0,1
247543,-44.4444444444444,4,1,0,90,0,1
247650,-44.1988950276243,4,1,0,90,0,1
247757,-43.956043956044,4,1,0,90,0,1
247828,-43.7956268314784,4,1,0,90,0,1
247900,-43.6363572892571,4,1,0,90,0,1
247971,-43.4782608695652,4,1,0,90,0,1
248078,-43.2432432432432,4,1,0,90,0,1
248186,-43.010752688172,4,1,0,90,0,1
248293,-42.7807486631016,4,1,0,90,0,1
248400,-42.5531914893617,4,1,0,90,0,1
248507,-42.3280423280423,4,1,0,90,0,1
248614,-42.1052631578947,4,1,0,90,0,1
248721,-41.8848167539267,4,1,0,90,0,1
248828,-41.6666666666667,4,1,0,90,0,1
249257,-50,4,1,0,90,0,1
252257,-41.6666666666667,4,1,0,90,0,1
252686,-50,4,1,0,90,0,1
254828,-40,4,1,0,90,0,1
255047,-50,4,1,0,90,0,1
255150,-47.6190476190476,4,1,0,90,0,1
255257,-45.4545454545455,4,1,0,90,0,1
255689,-41.6666666666667,4,1,0,90,0,1
256115,-50,4,1,0,90,0,1
259114,-41.6666666666667,4,1,0,90,0,1
259544,-50,4,1,0,90,0,1
262117,-40,4,1,0,90,0,1
262547,-133.333333333333,4,1,0,90,0,0
262760,-150.15015015015,4,1,0,70,0,0
265598,-151.515151515152,4,1,0,70,0,0
265651,-153.846153846154,4,1,0,70,0,0
265705,-156.25,4,1,0,70,0,0
265759,-158.730158730159,4,1,0,70,0,0
265973,-150.15015015015,4,1,0,70,0,0
272455,-151.515151515152,4,1,0,70,0,0
272509,-153.846153846154,4,1,0,70,0,0
272562,-156.25,4,1,0,70,0,0
272616,-158.730158730159,4,1,0,70,0,0
272831,-149.253731343284,4,1,0,70,0,0
276154,-66.6666666666667,4,1,0,90,0,0
276474,-200,4,1,0,70,0,0
279313,-202.020202020202,4,1,0,70,0,0
279367,-204.081632653061,4,1,0,70,0,0
279420,-206.185567010309,4,1,0,70,0,0
279474,-208.333333333333,4,1,0,70,0,0
279688,-200,4,1,0,70,0,0
282760,-181.818181818182,4,1,0,70,0,0
282831,-166.666666666667,4,1,0,70,0,0
282902,-153.846153846154,4,1,0,70,0,0
283116,-200,4,1,0,70,0,0
286170,-202.020202020202,4,1,0,70,0,0
286224,-204.081632653061,4,1,0,70,0,0
286277,-206.185567010309,4,1,0,70,0,0
286331,-208.333333333333,4,1,0,70,0,0
286545,-200,4,1,0,70,0,0
290081,-153.846153846154,4,1,0,55,0,0
291583,461.538461538462,4,1,0,55,1,0
291583,-222.222222222222,4,1,0,55,0,0
291813,-188.679245283019,4,1,0,55,0,0
293263,461.538461538462,4,1,0,55,1,0
293263,-270.27027027027,4,1,0,55,0,0
293493,-238.095238095238,4,1,0,55,0,0
294878,461.538461538462,4,1,0,55,1,0
294878,-333.333333333333,4,1,0,55,0,0
295108,-285.714285714286,4,1,0,55,0,0
296599,461.538461538462,4,1,0,55,1,0
296599,-384.615384615385,4,1,0,55,0,0
296829,-344.827586206897,4,1,0,55,0,0
298286,461.538461538462,4,1,0,55,1,0
298286,-434.782608695652,4,1,0,55,0,0
298516,-400,4,1,0,55,0,0
299959,461.538461538462,4,1,0,55,1,0
299959,-500,4,1,0,55,0,0
300189,-454.545454545455,4,1,0,55,0,0
301343,428.571428571429,4,1,0,55,1,0
301343,-598.290598300825,4,1,0,40,0,0
306419,-25,4,1,0,70,0,0

[HitObjects]
64,64,1976,5,0,0:0:0:0:
64,64,2190,1,0,0:0:0:0:
320,64,2404,1,8,0:0:0:0:
64,64,2833,1,0,0:0:0:0:
320,64,3047,1,8,0:0:0:0:
64,64,3476,1,8,0:0:0:0:
64,64,4118,1,0,0:0:0:0:
64,64,4333,1,0,0:0:0:0:
320,64,4547,1,8,0:0:0:0:
320,64,4761,1,8,0:0:0:0:
64,64,4976,1,0,0:0:0:0:
64,64,5404,1,0,0:0:0:0:
64,64,5618,1,0,0:0:0:0:
320,64,5833,1,8,0:0:0:0:
320,64,6261,1,8,0:0:0:0:
64,64,6476,1,0,0:0:0:0:
320,64,6904,1,8,0:0:0:0:
320,64,7547,1,8,0:0:0:0:
64,64,7761,1,0,0:0:0:0:
320,64,7976,1,8,0:0:0:0:
320,64,8190,1,8,0:0:0:0:
64,64,8404,1,0,0:0:0:0:
64,64,8833,1,0,0:0:0:0:
64,64,9047,1,0,0:0:0:0:
320,64,9261,1,8,0:0:0:0:
64,64,9690,1,0,0:0:0:0:
320,64,9904,1,8,0:0:0:0:
320,64,10333,1,8,0:0:0:0:
64,64,10976,1,0,0:0:0:0:
64,64,11190,1,0,0:0:0:0:
320,64,11404,1,8,0:0:0:0:
64,64,11618,1,0,0:0:0:0:
320,64,11833,1,8,0:0:0:0:
64,64,12261,1,0,0:0:0:0:
64,64,12476,1,0,0:0:0:0:
320,64,12690,1,8,0:0:0:0:
320,64,13118,1,8,0:0:0:0:
64,64,13333,1,0,0:0:0:0:
320,64,13761,1,8,0:0:0:0:
64,64,14190,1,0,0:0:0:0:
320,64,14404,1,8,0:0:0:0:
320,64,14618,1,8,0:0:0:0:
64,64,14833,1,0,0:0:0:0:
320,64,15047,1,0,0:0:0:0:
320,64,15261,1,8,0:0:0:0:
64,64,15690,1,8,0:0:0:0:
320,64,16118,1,8,0:0:0:0:
320,64,16333,1,8,0:0:0:0:
64,64,16761,1,0,0:0:0:0:
320,64,16976,1,8,0:0:0:0:
320,64,17190,1,8,0:0:0:0:
64,64,17404,1,0,0:0:0:0:
320,64,17833,1,8,0:0:0:0:
320,64,18047,1,8,0:0:0:0:
64,64,18261,1,0,0:0:0:0:
64,64,18690,1,0,0:0:0:0:
64,64,18743,1,0,0:0:0:0:
64,64,18797,1,0,0:0:0:0:
64,64,18851,1,0,0:0:0:0:
320,64,18904,1,8,0:0:0:0:
64,64,19118,1,0,0:0:0:0:
64,64,19333,1,0,0:0:0:0:
320,64,19547,1,8,0:0:0:0:
320,64,19761,1,8,0:0:0:0:
64,64,20190,1,0,0:0:0:0:
320,64,20404,1,8,0:0:0:0:
320,64,20618,1,8,0:0:0:0:
64,64,20833,1,0,0:0:0:0:
64,64,21261,1,0,0:0:0:0:
320,64,21476,1,8,0:0:0:0:
64,64,21690,1,0,0:0:0:0:
64,64,21904,1,0,0:0:0:0:
320,64,22118,1,8,0:0:0:0:
320,64,22190,1,8,0:0:0:0:
320,64,22261,1,8,0:0:0:0:
320,64,22333,1,8,0:0:0:0:
64,64,22547,1,0,0:0:0:0:
64,64,22761,1,0,0:0:0:0:
320,64,22976,1,8,0:0:0:0:
320,64,23190,1,8,0:0:0:0:
64,64,23618,1,0,0:0:0:0:
320,64,23833,1,8,0:0:0:0:
320,64,24047,1,8,0:0:0:0:
64,64,24261,1,0,0:0:0:0:
320,64,24690,1,8,0:0:0:0:
320,64,24904,1,8,0:0:0:0:
64,64,25118,1,0,0:0:0:0:
64,64,25547,1,0,0:0:0:0:
64,64,25601,1,0,0:0:0:0:
64,64,25654,1,0,0:0:0:0:
64,64,25708,1,0,0:0:0:0:
320,64,25761,1,8,0:0:0:0:
64,64,25976,1,0,0:0:0:0:
64,64,26190,1,0,0:0:0:0:
320,64,26404,1,8,0:0:0:0:
320,64,26618,1,8,0:0:0:0:
64,64,27047,1,0,0:0:0:0:
320,64,27261,1,8,0:0:0:0:
320,64,27476,1,8,0:0:0:0:
64,64,27690,1,0,0:0:0:0:
320,64,28333,1,8,0:0:0:0:
320,64,28976,1,8,0:0:0:0:
320,64,29404,1,12,0:0:0:0:
64,64,29833,1,0,0:0:0:0:
64,64,29940,1,0,0:0:0:0:
320,64,30047,1,8,0:0:0:0:
64,64,30154,1,0,0:0:0:0:
320,64,30261,1,8,0:0:0:0:
320,64,30476,1,8,0:0:0:0:
320,64,30583,1,8,0:0:0:0:
320,64,30690,1,8,0:0:0:0:
64,64,30904,1,0,0:0:0:0:
320,64,31118,1,8,0:0:0:0:
64,64,31333,1,0,0:0:0:0:
64,64,31547,1,0,0:0:0:0:
64,64,31761,1,0,0:0:0:0:
64,64,31833,1,0,0:0:0:0:
64,64,31904,1,0,0:0:0:0:
320,64,31976,1,8,0:0:0:0:
320,64,32190,1,8,0:0:0:0:
64,64,32404,1,0,0:0:0:0:
64,64,32458,1,0,0:0:0:0:
64,64,32511,1,0,0:0:0:0:
64,64,32565,1,0,0:0:0:0:
320,64,32618,1,8,0:0:0:0:
64,64,32833,1,0,0:0:0:0:
320,64,33047,1,8,0:0:0:0:
64,64,33118,1,0,0:0:0:0:
64,64,33190,1,0,0:0:0:0:
320,64,33261,1,8,0:0:0:0:
320,64,33368,1,8,0:0:0:0:
64,64,33476,1,0,0:0:0:0:
64,64,33583,1,0,0:0:0:0:
320,64,33690,1,8,0:0:0:0:
320,64,33904,1,8,0:0:0:0:
320,64,34118,1,8,0:0:0:0:
64,64,34333,1,0,0:0:0:0:
320,64,34547,1,8,0:0:0:0:
64,64,34761,1,0,0:0:0:0:
320,64,34868,1,8,0:0:0:0:
64,64,35083,1,0,0:0:0:0:
64,64,35190,1,0,0:0:0:0:
64,64,35261,1,0,0:0:0:0:
64,64,35333,1,0,0:0:0:0:
320,64,35404,1,8,0:0:0:0:
64,64,35618,1,0,0:0:0:0:
64,64,35726,1,0,0:0:0:0:
320,64,35833,1,8,0:0:0:0:
320,64,36047,1,8,0:0:0:0:
64,64,36261,1,0,0:0:0:0:
320,64,36476,1,8,0:0:0:0:
320,64,36547,1,8,0:0:0:0:
64,64,36618,1,0,0:0:0:0:
320,64,36690,1,8,0:0:0:0:
64,64,36797,1,0,0:0:0:0:
320,64,36904,1,8,0:0:0:0:
64,64,37118,1,0,0:0:0:0:
320,64,37333,1,8,0:0:0:0:
320,64,37440,1,8,0:0:0:0:
64,64,37547,1,0,0:0:0:0:
320,64,37654,1,8,0:0:0:0:
64,64,37761,1,0,0:0:0:0:
320,64,37976,1,8,0:0:0:0:
64,64,38190,1,0,0:0:0:0:
320,64,38404,1,8,0:0:0:0:
64,64,38618,1,0,0:0:0:0:
64,64,38690,1,0,0:0:0:0:
64,64,38761,1,0,0:0:0:0:
320,64,38833,1,8,0:0:0:0:
320,64,39047,1,8,0:0:0:0:
64,64,39261,1,0,0:0:0:0:
64,64,39315,1,0,0:0:0:0:
64,64,39368,1,0,0:0:0:0:
64,64,39422,1,0,0:0:0:0:
320,64,39476,1,8,0:0:0:0:
64,64,39690,1,0,0:0:0:0:
64,64,39797,1,0,0:0:0:0:
320,64,39904,1,8,0:0:0:0:
64,64,39976,1,0,0:0:0:0:
64,64,40047,1,0,0:0:0:0:
320,64,40118,1,8,0:0:0:0:
320,64,40226,1,8,0:0:0:0:
64,64,40333,1,0,0:0:0:0:
64,64,40440,1,0,0:0:0:0:
320,64,40547,1,8,0:0:0:0:
64,64,40761,1,0,0:0:0:0:
320,64,40976,1,8,0:0:0:0:
320,64,41118,1,8,0:0:0:0:
64,64,41190,1,0,0:0:0:0:
64,64,41404,1,0,0:0:0:0:
64,64,41618,1,0,0:0:0:0:
320,64,41726,1,8,0:0:0:0:
64,64,41940,1,0,0:0:0:0:
64,64,42047,1,0,0:0:0:0:
64,64,42118,1,0,0:0:0:0:
64,64,42190,1,0,0:0:0:0:
320,64,42261,1,8,0:0:0:0:
64,64,42476,1,0,0:0:0:0:
64,64,42583,1,0,0:0:0:0:
320,64,42690,1,8,0:0:0:0:
320,64,42904,1,8,0:0:0:0:
64,64,43118,1,4,0:0:0:0:
64,64,43547,1,0,0:0:0:0:
64,64,43654,1,0,0:0:0:0:
320,64,43761,1,8,0:0:0:0:
320,64,43868,1,8,0:0:0:0:
64,64,43976,1,0,0:0:0:0:
320,64,44190,1,8,0:0:0:0:
64,64,44297,1,0,0:0:0:0:
320,64,44404,1,8,0:0:0:0:
320,64,44511,1,8,0:0:0:0:
64,64,44618,1,0,0:0:0:0:
320,64,44833,1,8,0:0:0:0:
64,64,45047,1,0,0:0:0:0:
64,64,45261,1,0,0:0:0:0:
64,64,45476,1,0,0:0:0:0:
64,64,45547,1,0,0:0:0:0:
64,64,45618,1,0,0:0:0:0:
320,64,45690,1,8,0:0:0:0:
320,64,45904,1,8,0:0:0:0:
64,64,46118,1,0,0:0:0:0:
64,64,46172,1,0,0:0:0:0:
64,64,46226,1,0,0:0:0:0:
64,64,46279,1,0,0:0:0:0:
320,64,46333,1,8,0:0:0:0:
64,64,46547,1,0,0:0:0:0:
320,64,46761,1,8,0:0:0:0:
64,64,46833,1,0,0:0:0:0:
64,64,46904,1,0,0:0:0:0:
320,64,46976,1,8,0:0:0:0:
320,64,47083,1,8,0:0:0:0:
64,64,47190,1,0,0:0:0:0:
64,64,47297,1,0,0:0:0:0:
320,64,47404,1,8,0:0:0:0:
320,64,47618,1,8,0:0:0:0:
320,64,47833,1,8,0:0:0:0:
64,64,48047,1,0,0:0:0:0:
320,64,48261,1,8,0:0:0:0:
64,64,48476,1,0,0:0:0:0:
320,64,48583,1,8,0:0:0:0:
64,64,48797,1,0,0:0:0:0:
64,64,48904,1,0,0:0:0:0:
64,64,48976,1,0,0:0:0:0:
64,64,49047,1,0,0:0:0:0:
320,64,49118,1,8,0:0:0:0:
64,64,49333,1,0,0:0:0:0:
64,64,49440,1,0,0:0:0:0:
320,64,49547,1,8,0:0:0:0:
320,64,49618,1,8,0:0:0:0:
320,64,49690,1,8,0:0:0:0:
320,64,49761,1,8,0:0:0:0:
64,64,49976,1,0,0:0:0:0:
320,64,50190,1,8,0:0:0:0:
320,64,50261,1,8,0:0:0:0:
64,64,50333,1,0,0:0:0:0:
320,64,50404,1,8,0:0:0:0:
64,64,50511,1,0,0:0:0:0:
320,64,50618,1,8,0:0:0:0:
64,64,50833,1,0,0:0:0:0:
320,64,51047,1,8,0:0:0:0:
64,64,51154,1,0,0:0:0:0:
320,64,51261,1,8,0:0:0:0:
320,64,51368,1,8,0:0:0:0:
64,64,51476,1,0,0:0:0:0:
320,64,51690,1,8,0:0:0:0:
64,64,51904,1,0,0:0:0:0:
64,64,52118,1,0,0:0:0:0:
64,64,52333,1,0,0:0:0:0:
64,64,52404,1,0,0:0:0:0:
64,64,52476,1,0,0:0:0:0:
320,64,52547,1,8,0:0:0:0:
320,64,52761,1,8,0:0:0:0:
64,64,52976,1,0,0:0:0:0:
64,64,53029,1,0,0:0:0:0:
64,64,53083,1,0,0:0:0:0:
64,64,53136,1,0,0:0:0:0:
320,64,53190,1,8,0:0:0:0:
64,64,53404,1,0,0:0:0:0:
64,64,53511,1,0,0:0:0:0:
320,64,53618,1,8,0:0:0:0:
64,64,53726,1,0,0:0:0:0:
320,64,53833,1,8,0:0:0:0:
320,64,53940,1,8,0:0:0:0:
64,64,54047,1,0,0:0:0:0:
64,64,54154,1,0,0:0:0:0:
320,64,54261,1,8,0:0:0:0:
64,64,54368,1,0,0:0:0:0:
320,64,54476,1,8,0:0:0:0:
320,64,54583,1,8,0:0:0:0:
64,64,54690,1,0,0:0:0:0:
320,64,54797,1,8,0:0:0:0:
64,64,54904,1,0,0:0:0:0:
320,64,55011,1,8,0:0:0:0:
64,64,55118,1,0,0:0:0:0:
64,64,55333,1,0,0:0:0:0:
320,64,55440,1,8,0:0:0:0:
64,64,55654,1,0,0:0:0:0:
64,64,55761,1,0,0:0:0:0:
64,64,55833,1,0,0:0:0:0:
64,64,55904,1,0,0:0:0:0:
320,64,55976,1,8,0:0:0:0:
320,64,56083,1,8,0:0:0:0:
64,64,56190,1,0,0:0:0:0:
64,64,56297,1,0,0:0:0:0:
320,64,56404,1,8,0:0:0:0:
64,64,56511,1,0,0:0:0:0:
320,64,56618,1,8,0:0:0:0:
320,64,56726,1,8,0:0:0:0:
64,64,56833,1,4,0:0:0:0:
320,64,58547,1,8,0:0:0:0:
320,64,59190,1,8,0:0:0:0:
320,64,59833,1,8,0:0:0:0:
320,64,60261,1,8,0:0:0:0:
320,64,60904,1,8,0:0:0:0:
320,64,61547,1,8,0:0:0:0:
320,64,61976,1,8,0:0:0:0:
320,64,62618,1,8,0:0:0:0:
320,64,63047,1,8,0:0:0:0:
320,64,63261,1,8,0:0:0:0:
320,64,63690,1,8,0:0:0:0:
320,64,64333,1,8,0:0:0:0:
320,64,64976,1,8,0:0:0:0:
320,64,65404,1,8,0:0:0:0:
320,64,66047,1,8,0:0:0:0:
320,64,66690,1,8,0:0:0:0:
320,64,67118,1,8,0:0:0:0:
320,64,67761,1,8,0:0:0:0:
320,64,68404,1,8,0:0:0:0:
320,64,68833,1,8,0:0:0:0:
320,64,69476,1,8,0:0:0:0:
320,64,69904,1,8,0:0:0:0:
64,64,70118,1,0,0:0:0:0:
320,64,70190,1,8,0:0:0:0:
320,64,70261,1,8,0:0:0:0:
64,64,70333,1,0,0:0:0:0:
320,64,70404,1,8,0:0:0:0:
64,64,70476,1,0,0:0:0:0:
320,64,70547,1,12,0:0:0:0:
64,64,73976,1,0,0:0:0:0:
64,64,74083,1,0,0:0:0:0:
64,64,74190,1,0,0:0:0:0:
64,64,74297,1,0,0:0:0:0:
64,64,74511,1,0,0:0:0:0:
64,64,74618,1,0,0:0:0:0:
64,64,74726,1,0,0:0:0:0:
320,64,74833,1,8,0:0:0:0:
64,64,75047,1,0,0:0:0:0:
64,64,75154,1,0,0:0:0:0:
64,64,75261,1,0,0:0:0:0:
64,64,75368,1,0,0:0:0:0:
64,64,75583,1,0,0:0:0:0:
64,64,75690,1,0,0:0:0:0:
64,64,75797,1,0,0:0:0:0:
64,64,75904,1,0,0:0:0:0:
320,64,76011,1,8,0:0:0:0:
64,64,76118,1,0,0:0:0:0:
64,64,76226,1,0,0:0:0:0:
64,64,76333,1,0,0:0:0:0:
320,64,76547,1,8,0:0:0:0:
64,64,76654,1,0,0:0:0:0:
64,64,76761,1,0,0:0:0:0:
320,64,76868,1,8,0:0:0:0:
64,64,76976,1,0,0:0:0:0:
64,64,77083,1,0,0:0:0:0:
64,64,77190,1,0,0:0:0:0:
320,64,77404,1,12,0:0:0:0:
64,64,80833,1,0,0:0:0:0:
64,64,80940,1,0,0:0:0:0:
64,64,81047,1,0,0:0:0:0:
64,64,81154,1,0,0:0:0:0:
64,64,81368,1,0,0:0:0:0:
64,64,81476,1,0,0:0:0:0:
64,64,81583,1,0,0:0:0:0:
320,64,81690,1,8,0:0:0:0:
64,64,81904,1,0,0:0:0:0:
64,64,82011,1,0,0:0:0:0:
64,64,82118,1,0,0:0:0:0:
64,64,82226,1,0,0:0:0:0:
64,64,82440,1,0,0:0:0:0:
64,64,82547,1,0,0:0:0:0:
64,64,82654,1,0,0:0:0:0:
64,64,82761,1,0,0:0:0:0:
320,64,82868,1,8,0:0:0:0:
64,64,82976,1,0,0:0:0:0:
64,64,83083,1,0,0:0:0:0:
64,64,83190,1,0,0:0:0:0:
320,64,83404,1,8,0:0:0:0:
64,64,83511,1,0,0:0:0:0:
64,64,83618,1,0,0:0:0:0:
320,64,83726,1,8,0:0:0:0:
64,64,83833,1,0,0:0:0:0:
64,64,83940,1,0,0:0:0:0:
64,64,84047,1,0,0:0:0:0:
320,64,84261,1,12,0:0:0:0:
64,64,85011,1,0,0:0:0:0:
320,64,85118,1,8,0:0:0:0:
64,64,85868,1,0,0:0:0:0:
64,64,85976,1,0,0:0:0:0:
64,64,86297,1,0,0:0:0:0:
64,64,86618,1,0,0:0:0:0:
64,64,86726,1,0,0:0:0:0:
320,64,86833,1,8,0:0:0:0:
64,64,87047,1,0,0:0:0:0:
64,64,87690,1,0,0:0:0:0:
64,64,87797,1,0,0:0:0:0:
64,64,87904,1,0,0:0:0:0:
64,64,88011,1,0,0:0:0:0:
64,64,88226,1,0,0:0:0:0:
64,64,88333,1,0,0:0:0:0:
64,64,88440,1,0,0:0:0:0:
320,64,88547,1,8,0:0:0:0:
64,64,88761,1,0,0:0:0:0:
64,64,88868,1,0,0:0:0:0:
64,64,88976,1,0,0:0:0:0:
64,64,89083,1,0,0:0:0:0:
64,64,89297,1,0,0:0:0:0:
64,64,89404,1,0,0:0:0:0:
64,64,89511,1,0,0:0:0:0:
64,64,89618,1,0,0:0:0:0:
320,64,89726,1,8,0:0:0:0:
64,64,89833,1,0,0:0:0:0:
64,64,89940,1,0,0:0:0:0:
64,64,90047,1,0,0:0:0:0:
320,64,90261,1,8,0:0:0:0:
64,64,90368,1,0,0:0:0:0:
64,64,90476,1,0,0:0:0:0:
320,64,90583,1,8,0:0:0:0:
64,64,90690,1,0,0:0:0:0:
64,64,90797,1,0,0:0:0:0:
64,64,90904,1,0,0:0:0:0:
320,64,91118,1,12,0:0:0:0:
64,64,91868,1,0,0:0:0:0:
320,64,91976,1,8,0:0:0:0:
64,64,92726,1,0,0:0:0:0:
64,64,92833,1,0,0:0:0:0:
64,64,93154,1,0,0:0:0:0:
64,64,93476,1,0,0:0:0:0:
64,64,93583,1,0,0:0:0:0:
320,64,93690,1,8,0:0:0:0:
64,64,93904,1,0,0:0:0:0:
64,64,94547,1,0,0:0:0:0:
320,64,94976,1,8,0:0:0:0:
64,64,95297,1,0,0:0:0:0:
320,64,95404,1,8,0:0:0:0:
320,64,95618,1,8,0:0:0:0:
320,64,96047,1,8,0:0:0:0:
64,64,96154,1,0,0:0:0:0:
64,64,96261,1,0,0:0:0:0:
320,64,96476,1,8,0:0:0:0:
320,64,96583,1,8,0:0:0:0:
64,64,96690,1,0,0:0:0:0:
64,64,96904,1,0,0:0:0:0:
320,64,97118,1,8,0:0:0:0:
64,64,97333,1,0,0:0:0:0:
320,64,97547,1,8,0:0:0:0:
320,64,97654,1,8,0:0:0:0:
320,64,97761,1,8,0:0:0:0:
320,64,97868,1,8,0:0:0:0:
64,64,97976,1,4,0:0:0:0:
64,64,98297,1,0,0:0:0:0:
64,64,98404,1,0,0:0:0:0:
320,64,98618,1,8,0:0:0:0:
320,64,98726,1,8,0:0:0:0:
64,64,98940,1,0,0:0:0:0:
64,64,99047,1,0,0:0:0:0:
320,64,99261,1,8,0:0:0:0:
320,64,99368,1,8,0:0:0:0:
64,64,99476,1,0,0:0:0:0:
320,64,99690,1,8,0:0:0:0:
320,64,99797,1,8,0:0:0:0:
64,64,100011,1,0,0:0:0:0:
64,64,100118,1,0,0:0:0:0:
320,64,100333,1,8,0:0:0:0:
320,64,100440,1,8,0:0:0:0:
64,64,100654,1,0,0:0:0:0:
64,64,100761,1,0,0:0:0:0:
320,64,100976,1,8,0:0:0:0:
320,64,101083,1,8,0:0:0:0:
64,64,101190,1,0,0:0:0:0:
320,64,101404,1,8,0:0:0:0:
320,64,101511,1,8,0:0:0:0:
64,64,101726,1,0,0:0:0:0:
320,64,101833,1,8,0:0:0:0:
64,64,101940,1,0,0:0:0:0:
320,64,102047,1,8,0:0:0:0:
320,64,102154,1,8,0:0:0:0:
64,64,102368,1,0,0:0:0:0:
320,64,102476,1,8,0:0:0:0:
64,64,102583,1,0,0:0:0:0:
320,64,102690,1,8,0:0:0:0:
320,64,102797,1,8,0:0:0:0:
64,64,102904,1,0,0:0:0:0:
64,64,103011,1,0,0:0:0:0:
320,64,103118,1,8,0:0:0:0:
320,64,103226,1,8,0:0:0:0:
64,64,103440,1,0,0:0:0:0:
320,64,103547,1,8,0:0:0:0:
64,64,103654,1,0,0:0:0:0:
320,64,103761,1,8,0:0:0:0:
320,64,103868,1,8,0:0:0:0:
64,64,104083,1,0,0:0:0:0:
320,64,104190,1,8,0:0:0:0:
64,64,104297,1,0,0:0:0:0:
320,64,104404,1,8,0:0:0:0:
320,64,104511,1,8,0:0:0:0:
64,64,104618,1,0,0:0:0:0:
64,64,104726,1,0,0:0:0:0:
320,64,104833,1,8,0:0:0:0:
64,64,104940,1,0,0:0:0:0:
320,64,105047,1,8,0:0:0:0:
320,64,105154,1,8,0:0:0:0:
64,64,105261,1,0,0:0:0:0:
320,64,105368,1,8,0:0:0:0:
320,64,105476,1,8,0:0:0:0:
64,64,105583,1,0,0:0:0:0:
320,64,105690,1,8,0:0:0:0:
64,64,105797,1,0,0:0:0:0:
320,64,105904,1,8,0:0:0:0:
320,64,106011,1,8,0:0:0:0:
64,64,106118,1,0,0:0:0:0:
320,64,106226,1,8,0:0:0:0:
320,64,106333,1,8,0:0:0:0:
64,64,106440,1,0,0:0:0:0:
320,64,106547,1,8,0:0:0:0:
64,64,106654,1,0,0:0:0:0:
320,64,106761,1,8,0:0:0:0:
320,64,106868,1,8,0:0:0:0:
64,64,106976,1,0,0:0:0:0:
320,64,107083,1,8,0:0:0:0:
320,64,107190,1,8,0:0:0:0:
64,64,107297,1,0,0:0:0:0:
320,64,107404,1,8,0:0:0:0:
64,64,107511,1,0,0:0:0:0:
320,64,107618,1,8,0:0:0:0:
320,64,107726,1,8,0:0:0:0:
64,64,107833,1,0,0:0:0:0:
320,64,107940,1,8,0:0:0:0:
320,64,108047,1,8,0:0:0:0:
64,64,108154,1,0,0:0:0:0:
320,64,108261,1,8,0:0:0:0:
320,64,108368,1,8,0:0:0:0:
64,64,108476,1,0,0:0:0:0:
64,64,108583,1,0,0:0:0:0:
320,64,108690,1,8,0:0:0:0:
64,64,108797,1,0,0:0:0:0:
320,64,108904,1,8,0:0:0:0:
64,64,109011,1,0,0:0:0:0:
320,64,109118,1,8,0:0:0:0:
320,64,109226,1,8,0:0:0:0:
64,64,109333,1,0,0:0:0:0:
64,64,109440,1,0,0:0:0:0:
320,64,109547,1,8,0:0:0:0:
320,64,109601,1,8,0:0:0:0:
320,64,109654,1,8,0:0:0:0:
320,64,109708,1,8,0:0:0:0:
320,64,109761,1,8,0:0:0:0:
320,64,109815,1,8,0:0:0:0:
320,64,109868,1,8,0:0:0:0:
320,64,109922,1,8,0:0:0:0:
64,64,109976,1,0,0:0:0:0:
256,192,111261,12,0,111583,0:0:0:0:
64,64,111690,5,0,0:0:0:0:
64,64,111743,1,0,0:0:0:0:
320,64,111797,1,8,0:0:0:0:
64,64,111904,1,0,0:0:0:0:
320,64,112011,1,8,0:0:0:0:
320,64,112065,1,8,0:0:0:0:
64,64,112118,1,0,0:0:0:0:
320,64,112226,1,8,0:0:0:0:
320,64,112279,1,8,0:0:0:0:
320,64,112440,1,8,0:0:0:0:
64,64,112547,1,0,0:0:0:0:
64,64,112761,1,0,0:0:0:0:
320,64,112797,1,8,0:0:0:0:
64,64,112976,1,0,0:0:0:0:
320,64,113011,1,8,0:0:0:0:
64,64,113083,1,0,0:0:0:0:
320,64,113118,1,8,0:0:0:0:
64,64,113190,1,0,0:0:0:0:
64,64,113297,1,0,0:0:0:0:
320,64,113333,1,8,0:0:0:0:
64,64,113404,1,0,0:0:0:0:
320,64,113440,1,8,0:0:0:0:
64,64,113618,1,0,0:0:0:0:
64,64,113833,1,0,0:0:0:0:
320,64,113868,1,8,0:0:0:0:
64,64,114047,1,0,0:0:0:0:
320,64,114083,1,8,0:0:0:0:
64,64,114154,1,0,0:0:0:0:
320,64,114190,1,8,0:0:0:0:
320,64,114261,1,8,0:0:0:0:
64,64,114368,1,0,0:0:0:0:
320,64,114404,1,8,0:0:0:0:
64,64,114476,1,0,0:0:0:0:
320,64,114511,1,8,0:0:0:0:
64,64,114690,1,0,0:0:0:0:
64,64,114761,1,0,0:0:0:0:
64,64,114833,1,0,0:0:0:0:
320,64,114904,1,8,0:0:0:0:
320,64,114976,1,8,0:0:0:0:
320,64,115047,1,8,0:0:0:0:
64,64,115118,1,0,0:0:0:0:
320,64,115172,1,8,0:0:0:0:
320,64,115226,1,8,0:0:0:0:
64,64,115333,1,0,0:0:0:0:
64,64,115386,1,0,0:0:0:0:
320,64,115440,1,8,0:0:0:0:
320,64,115654,1,8,0:0:0:0:
320,64,115708,1,8,0:0:0:0:
64,64,115761,1,0,0:0:0:0:
64,64,115868,1,0,0:0:0:0:
320,64,115976,1,8,0:0:0:0:
64,64,116190,1,0,0:0:0:0:
320,64,116226,1,8,0:0:0:0:
64,64,116404,1,0,0:0:0:0:
320,64,116440,1,8,0:0:0:0:
64,64,116511,1,0,0:0:0:0:
320,64,116547,1,8,0:0:0:0:
64,64,116618,1,0,0:0:0:0:
64,64,116726,1,0,0:0:0:0:
320,64,116761,1,8,0:0:0:0:
64,64,116833,1,0,0:0:0:0:
320,64,116868,1,8,0:0:0:0:
64,64,117047,1,0,0:0:0:0:
320,64,117154,1,8,0:0:0:0:
64,64,117261,1,0,0:0:0:0:
320,64,117297,1,8,0:0:0:0:
64,64,117368,1,0,0:0:0:0:
64,64,117476,1,0,0:0:0:0:
320,64,117511,1,8,0:0:0:0:
64,64,117583,1,0,0:0:0:0:
320,64,117618,1,8,0:0:0:0:
320,64,117690,1,8,0:0:0:0:
64,64,117797,1,0,0:0:0:0:
320,64,117833,1,8,0:0:0:0:
64,64,117904,1,0,0:0:0:0:
320,64,117940,1,8,0:0:0:0:
320,64,118118,1,8,0:0:0:0:
320,64,118190,1,8,0:0:0:0:
320,64,118261,1,8,0:0:0:0:
320,64,118333,1,8,0:0:0:0:
64,64,118547,1,0,0:0:0:0:
64,64,118601,1,0,0:0:0:0:
320,64,118654,1,8,0:0:0:0:
64,64,118761,1,0,0:0:0:0:
320,64,118868,1,8,0:0:0:0:
320,64,118922,1,8,0:0:0:0:
64,64,118976,1,0,0:0:0:0:
320,64,119083,1,8,0:0:0:0:
320,64,119136,1,8,0:0:0:0:
320,64,119297,1,8,0:0:0:0:
64,64,119404,1,0,0:0:0:0:
64,64,119618,1,0,0:0:0:0:
320,64,119654,1,8,0:0:0:0:
64,64,119833,1,0,0:0:0:0:
320,64,119868,1,8,0:0:0:0:
64,64,119940,1,0,0:0:0:0:
320,64,119976,1,8,0:0:0:0:
64,64,120047,1,0,0:0:0:0:
64,64,120154,1,0,0:0:0:0:
320,64,120190,1,8,0:0:0:0:
64,64,120261,1,0,0:0:0:0:
320,64,120297,1,8,0:0:0:0:
64,64,120476,1,0,0:0:0:0:
64,64,120690,1,0,0:0:0:0:
320,64,120726,1,8,0:0:0:0:
64,64,120904,1,0,0:0:0:0:
320,64,120940,1,8,0:0:0:0:
64,64,121011,1,0,0:0:0:0:
320,64,121047,1,8,0:0:0:0:
320,64,121118,1,8,0:0:0:0:
64,64,121226,1,0,0:0:0:0:
320,64,121261,1,8,0:0:0:0:
64,64,121333,1,0,0:0:0:0:
320,64,121368,1,8,0:0:0:0:
64,64,121547,1,0,0:0:0:0:
64,64,121618,1,0,0:0:0:0:
64,64,121690,1,0,0:0:0:0:
320,64,121761,1,8,0:0:0:0:
320,64,121833,1,8,0:0:0:0:
320,64,121904,1,8,0:0:0:0:
64,64,121976,1,0,0:0:0:0:
320,64,122029,1,8,0:0:0:0:
320,64,122083,1,8,0:0:0:0:
64,64,122163,1,0,0:0:0:0:
64,64,122243,1,0,0:0:0:0:
64,64,122324,1,0,0:0:0:0:
320,64,122404,1,8,0:0:0:0:
64,64,122618,1,0,0:0:0:0:
64,64,122726,1,0,0:0:0:0:
320,64,122833,1,8,0:0:0:0:
320,64,122940,1,8,0:0:0:0:
64,64,122976,1,0,0:0:0:0:
320,64,123047,1,8,0:0:0:0:
64,64,123083,1,0,0:0:0:0:
320,64,123154,1,8,0:0:0:0:
64,64,123190,1,0,0:0:0:0:
320,64,123261,1,8,0:0:0:0:
64,64,123297,1,0,0:0:0:0:
320,64,123368,1,8,0:0:0:0:
64,64,123404,1,0,0:0:0:0:
320,64,123476,1,8,0:0:0:0:
320,64,123511,1,8,0:0:0:0:
64,64,123690,1,0,0:0:0:0:
64,64,123743,1,0,0:0:0:0:
320,64,123797,1,8,0:0:0:0:
64,64,123904,1,0,0:0:0:0:
320,64,124011,1,8,0:0:0:0:
320,64,124065,1,8,0:0:0:0:
64,64,124118,1,0,0:0:0:0:
320,64,124226,1,8,0:0:0:0:
64,64,124333,1,0,0:0:0:0:
64,64,124404,1,0,0:0:0:0:
64,64,124476,1,0,0:0:0:0:
320,64,124547,1,8,0:0:0:0:
320,64,124618,1,8,0:0:0:0:
320,64,124690,1,8,0:0:0:0:
320,64,124761,1,8,0:0:0:0:
320,64,124842,1,8,0:0:0:0:
320,64,124949,1,8,0:0:0:0:
320,64,125136,1,8,0:0:0:0:
64,64,125404,1,0,0:0:0:0:
64,64,125458,1,0,0:0:0:0:
320,64,125511,1,8,0:0:0:0:
64,64,125618,1,0,0:0:0:0:
320,64,125726,1,8,0:0:0:0:
320,64,125779,1,8,0:0:0:0:
64,64,125833,1,0,0:0:0:0:
320,64,125940,1,8,0:0:0:0:
320,64,125993,1,8,0:0:0:0:
320,64,126154,1,8,0:0:0:0:
64,64,126261,1,0,0:0:0:0:
64,64,126476,1,0,0:0:0:0:
320,64,126511,1,8,0:0:0:0:
64,64,126690,1,0,0:0:0:0:
320,64,126726,1,8,0:0:0:0:
64,64,126797,1,0,0:0:0:0:
320,64,126833,1,8,0:0:0:0:
64,64,126904,1,0,0:0:0:0:
64,64,127011,1,0,0:0:0:0:
320,64,127047,1,8,0:0:0:0:
64,64,127118,1,0,0:0:0:0:
320,64,127154,1,8,0:0:0:0:
64,64,127333,1,0,0:0:0:0:
64,64,127547,1,0,0:0:0:0:
320,64,127583,1,8,0:0:0:0:
64,64,127761,1,0,0:0:0:0:
320,64,127797,1,8,0:0:0:0:
64,64,127868,1,0,0:0:0:0:
320,64,127904,1,8,0:0:0:0:
320,64,127976,1,8,0:0:0:0:
64,64,128083,1,0,0:0:0:0:
320,64,128118,1,8,0:0:0:0:
64,64,128190,1,0,0:0:0:0:
320,64,128226,1,8,0:0:0:0:
64,64,128404,1,0,0:0:0:0:
64,64,128476,1,0,0:0:0:0:
64,64,128547,1,0,0:0:0:0:
320,64,128618,1,8,0:0:0:0:
320,64,128690,1,8,0:0:0:0:
320,64,128761,1,8,0:0:0:0:
64,64,128833,1,0,0:0:0:0:
320,64,128886,1,8,0:0:0:0:
320,64,128940,1,8,0:0:0:0:
64,64,129047,1,0,0:0:0:0:
64,64,129101,1,0,0:0:0:0:
320,64,129154,1,8,0:0:0:0:
320,64,129368,1,8,0:0:0:0:
320,64,129422,1,8,0:0:0:0:
64,64,129476,1,0,0:0:0:0:
64,64,129583,1,0,0:0:0:0:
320,64,129690,1,8,0:0:0:0:
64,64,129904,1,0,0:0:0:0:
320,64,129940,1,8,0:0:0:0:
64,64,130118,1,0,0:0:0:0:
320,64,130154,1,8,0:0:0:0:
64,64,130226,1,0,0:0:0:0:
320,64,130261,1,8,0:0:0:0:
64,64,130333,1,0,0:0:0:0:
64,64,130440,1,0,0:0:0:0:
320,64,130476,1,8,0:0:0:0:
64,64,130547,1,0,0:0:0:0:
320,64,130583,1,8,0:0:0:0:
64,64,130761,1,0,0:0:0:0:
320,64,130868,1,8,0:0:0:0:
64,64,130976,1,0,0:0:0:0:
320,64,131011,1,8,0:0:0:0:
64,64,131083,1,0,0:0:0:0:
64,64,131190,1,0,0:0:0:0:
320,64,131226,1,8,0:0:0:0:
64,64,131297,1,0,0:0:0:0:
320,64,131333,1,8,0:0:0:0:
320,64,131404,1,8,0:0:0:0:
64,64,131511,1,0,0:0:0:0:
320,64,131547,1,8,0:0:0:0:
64,64,131618,1,0,0:0:0:0:
320,64,131654,1,8,0:0:0:0:
320,64,131833,1,8,0:0:0:0:
320,64,131904,1,8,0:0:0:0:
320,64,131976,1,8,0:0:0:0:
320,64,132047,1,8,0:0:0:0:
64,64,132261,1,0,0:0:0:0:
320,64,132315,1,8,0:0:0:0:
320,64,132368,1,8,0:0:0:0:
64,64,132904,1,0,0:0:0:0:
64,64,132976,1,0,0:0:0:0:
64,64,133047,1,0,0:0:0:0:
320,64,133118,1,8,0:0:0:0:
64,64,133333,1,0,0:0:0:0:
320,64,133368,1,8,0:0:0:0:
64,64,133547,1,0,0:0:0:0:
320,64,133583,1,8,0:0:0:0:
64,64,133654,1,0,0:0:0:0:
320,64,133690,1,8,0:0:0:0:
64,64,133761,1,0,0:0:0:0:
64,64,133868,1,0,0:0:0:0:
320,64,133904,1,8,0:0:0:0:
64,64,133976,1,0,0:0:0:0:
64,64,134190,1,0,0:0:0:0:
64,64,134404,1,0,0:0:0:0:
320,64,134440,1,8,0:0:0:0:
64,64,134511,1,0,0:0:0:0:
320,64,134547,1,8,0:0:0:0:
64,64,134618,1,0,0:0:0:0:
320,64,134654,1,8,0:0:0:0:
64,64,134726,1,0,0:0:0:0:
320,64,134761,1,8,0:0:0:0:
64,64,134833,1,0,0:0:0:0:
320,64,135047,1,8,0:0:0:0:
64,64,135261,1,0,0:0:0:0:
64,64,135333,1,0,0:0:0:0:
64,64,135404,1,0,0:0:0:0:
320,64,135476,1,8,0:0:0:0:
320,64,135547,1,8,0:0:0:0:
320,64,135618,1,8,0:0:0:0:
64,64,135690,1,0,0:0:0:0:
320,64,135743,1,8,0:0:0:0:
320,64,135797,1,8,0:0:0:0:
64,64,135904,1,0,0:0:0:0:
320,64,136011,1,8,0:0:0:0:
64,64,136118,1,0,0:0:0:0:
64,64,136226,1,0,0:0:0:0:
320,64,136333,1,8,0:0:0:0:
320,64,136440,1,8,0:0:0:0:
64,64,136547,1,0,0:0:0:0:
320,64,136654,1,8,0:0:0:0:
64,64,136761,1,0,0:0:0:0:
64,64,136868,1,0,0:0:0:0:
320,64,136976,1,8,0:0:0:0:
64,64,137083,1,0,0:0:0:0:
64,64,137190,1,0,0:0:0:0:
64,64,137297,1,0,0:0:0:0:
320,64,137404,1,8,0:0:0:0:
64,64,137511,1,0,0:0:0:0:
64,64,137618,1,0,0:0:0:0:
320,64,137726,1,8,0:0:0:0:
64,64,137833,1,0,0:0:0:0:
64,64,137940,1,0,0:0:0:0:
320,64,138047,1,8,0:0:0:0:
64,64,138118,1,0,0:0:0:0:
64,64,138190,1,0,0:0:0:0:
320,64,138261,1,8,0:0:0:0:
320,64,138368,1,8,0:0:0:0:
64,64,138476,1,0,0:0:0:0:
64,64,138583,1,0,0:0:0:0:
320,64,138690,1,8,0:0:0:0:
320,64,138797,1,8,0:0:0:0:
320,64,138904,1,8,0:0:0:0:
320,64,139011,1,8,0:0:0:0:
256,160,139118,2,0,L|256:256,2,83.9999974365235
320,64,139547,1,8,0:0:0:0:
320,64,139654,1,8,0:0:0:0:
320,64,139761,1,8,0:0:0:0:
320,64,139868,1,8,0:0:0:0:
64,64,139976,1,0,0:0:0:0:
64,64,140047,1,0,0:0:0:0:
64,64,140118,1,0,0:0:0:0:
64,64,140190,1,0,0:0:0:0:
64,64,140261,1,0,0:0:0:0:
320,64,140324,1,8,0:0:0:0:
320,64,140377,1,8,0:0:0:0:
320,64,140431,1,8,0:0:0:0:
64,64,140484,1,0,0:0:0:0:
64,64,140618,1,0,0:0:0:0:
320,64,140726,1,8,0:0:0:0:
320,64,140779,1,8,0:0:0:0:
64,64,140833,1,0,0:0:0:0:
320,64,140940,1,8,0:0:0:0:
320,64,140993,1,8,0:0:0:0:
64,64,141047,1,0,0:0:0:0:
320,64,141154,1,8,0:0:0:0:
320,64,141208,1,8,0:0:0:0:
64,64,141261,1,0,0:0:0:0:
64,64,141476,1,0,0:0:0:0:
64,64,141547,1,0,0:0:0:0:
64,64,141618,1,0,0:0:0:0:
320,64,141690,1,8,0:0:0:0:
64,64,141797,1,0,0:0:0:0:
320,64,141851,1,8,0:0:0:0:
320,64,141904,1,8,0:0:0:0:
64,64,142011,1,0,0:0:0:0:
320,64,142065,1,8,0:0:0:0:
320,64,142118,1,8,0:0:0:0:
64,64,142226,1,0,0:0:0:0:
64,64,142297,1,0,0:0:0:0:
320,64,142368,1,8,0:0:0:0:
320,64,142440,1,8,0:0:0:0:
288,192,142547,2,0,L|416:320,1,168
64,64,142976,1,0,0:0:0:0:
64,64,143190,1,0,0:0:0:0:
64,64,143297,1,0,0:0:0:0:
320,64,143404,1,8,0:0:0:0:
320,64,143476,1,8,0:0:0:0:
320,64,143547,1,8,0:0:0:0:
64,64,143618,1,0,0:0:0:0:
320,64,143726,1,8,0:0:0:0:
320,64,143761,1,8,0:0:0:0:
320,64,143940,1,8,0:0:0:0:
320,64,143976,1,8,0:0:0:0:
64,64,144047,1,0,0:0:0:0:
64,64,144101,1,0,0:0:0:0:
320,64,144154,1,8,0:0:0:0:
320,64,144208,1,8,0:0:0:0:
64,64,144261,1,0,0:0:0:0:
64,64,144333,1,0,0:0:0:0:
64,64,144404,1,0,0:0:0:0:
320,64,144476,1,8,0:0:0:0:
320,64,144583,1,8,0:0:0:0:
320,64,144797,1,8,0:0:0:0:
64,64,144904,1,0,0:0:0:0:
64,64,144976,1,0,0:0:0:0:
64,64,145047,1,0,0:0:0:0:
320,64,145118,1,12,0:0:0:0:
64,64,145333,1,0,0:0:0:0:
64,64,145440,1,0,0:0:0:0:
320,64,145547,1,12,0:0:0:0:
256,160,145976,2,0,L|256:256,2,83.9999974365235
320,64,146404,1,8,0:0:0:0:
320,64,146511,1,8,0:0:0:0:
320,64,146618,1,8,0:0:0:0:
320,64,146726,1,8,0:0:0:0:
64,64,146833,1,0,0:0:0:0:
64,64,146904,1,0,0:0:0:0:
64,64,146976,1,0,0:0:0:0:
64,64,147047,1,0,0:0:0:0:
64,64,147118,1,0,0:0:0:0:
320,64,147181,1,8,0:0:0:0:
320,64,147234,1,8,0:0:0:0:
320,64,147288,1,8,0:0:0:0:
64,64,147342,1,0,0:0:0:0:
64,64,147476,1,0,0:0:0:0:
320,64,147583,1,8,0:0:0:0:
320,64,147636,1,8,0:0:0:0:
64,64,147690,1,0,0:0:0:0:
320,64,147797,1,8,0:0:0:0:
320,64,147851,1,8,0:0:0:0:
64,64,147904,1,0,0:0:0:0:
320,64,148011,1,8,0:0:0:0:
320,64,148065,1,8,0:0:0:0:
64,64,148118,1,0,0:0:0:0:
64,64,148333,1,0,0:0:0:0:
64,64,148404,1,0,0:0:0:0:
64,64,148476,1,0,0:0:0:0:
320,64,148547,1,8,0:0:0:0:
64,64,148654,1,0,0:0:0:0:
320,64,148708,1,8,0:0:0:0:
320,64,148761,1,8,0:0:0:0:
64,64,148868,1,0,0:0:0:0:
320,64,148922,1,8,0:0:0:0:
320,64,148976,1,8,0:0:0:0:
64,64,149083,1,0,0:0:0:0:
64,64,149154,1,0,0:0:0:0:
320,64,149226,1,8,0:0:0:0:
320,64,149297,1,8,0:0:0:0:
160,192,149404,2,0,L|320:256,1,167.999994873047
64,64,149833,1,0,0:0:0:0:
64,64,150047,1,0,0:0:0:0:
64,64,150154,1,0,0:0:0:0:
320,64,150261,1,8,0:0:0:0:
320,64,150333,1,8,0:0:0:0:
320,64,150404,1,8,0:0:0:0:
64,64,150476,1,0,0:0:0:0:
320,64,150583,1,8,0:0:0:0:
320,64,150618,1,8,0:0:0:0:
320,64,150797,1,8,0:0:0:0:
320,64,150833,1,8,0:0:0:0:
64,64,150904,1,0,0:0:0:0:
64,64,150958,1,0,0:0:0:0:
320,64,151011,1,8,0:0:0:0:
320,64,151065,1,8,0:0:0:0:
64,64,151118,1,0,0:0:0:0:
320,64,152404,1,12,0:0:0:0:
64,64,152833,5,4,0:0:0:0:
64,64,153261,1,0,0:0:0:0:
64,64,153368,1,0,0:0:0:0:
320,64,153476,1,8,0:0:0:0:
320,64,153583,1,8,0:0:0:0:
64,64,153690,1,0,0:0:0:0:
64,64,153904,1,0,0:0:0:0:
64,64,154011,1,0,0:0:0:0:
320,64,154118,1,8,0:0:0:0:
64,64,154333,1,0,0:0:0:0:
64,64,154761,1,0,0:0:0:0:
64,64,154976,1,0,0:0:0:0:
64,64,155190,1,0,0:0:0:0:
64,64,155261,1,0,0:0:0:0:
64,64,155333,1,0,0:0:0:0:
320,64,155404,1,8,0:0:0:0:
64,64,155833,1,0,0:0:0:0:
64,64,155886,1,0,0:0:0:0:
64,64,155940,1,0,0:0:0:0:
64,64,155993,1,0,0:0:0:0:
320,64,156047,1,8,0:0:0:0:
64,64,156261,1,0,0:0:0:0:
320,64,156368,1,8,0:0:0:0:
320,64,156476,1,8,0:0:0:0:
64,64,156583,1,0,0:0:0:0:
320,64,156690,1,8,0:0:0:0:
64,64,156904,1,0,0:0:0:0:
64,64,157011,1,0,0:0:0:0:
320,64,157118,1,8,0:0:0:0:
320,64,157333,1,8,0:0:0:0:
64,64,157547,1,0,0:0:0:0:
64,64,157761,1,0,0:0:0:0:
320,64,157976,1,8,0:0:0:0:
64,64,158190,1,0,0:0:0:0:
320,64,158297,1,8,0:0:0:0:
64,64,158511,1,0,0:0:0:0:
64,64,158618,1,0,0:0:0:0:
64,64,158690,1,0,0:0:0:0:
64,64,158761,1,0,0:0:0:0:
320,64,158833,1,8,0:0:0:0:
64,64,159047,1,0,0:0:0:0:
64,64,159154,1,0,0:0:0:0:
320,64,159261,1,8,0:0:0:0:
320,64,159333,1,8,0:0:0:0:
320,64,159404,1,8,0:0:0:0:
320,64,159476,1,8,0:0:0:0:
64,64,159690,1,0,0:0:0:0:
320,64,159797,1,8,0:0:0:0:
64,64,159904,1,0,0:0:0:0:
320,64,160118,1,8,0:0:0:0:
64,64,160333,1,0,0:0:0:0:
64,64,160440,1,0,0:0:0:0:
320,64,160547,1,8,0:0:0:0:
320,64,160761,1,8,0:0:0:0:
64,64,160868,1,0,0:0:0:0:
320,64,160976,1,8,0:0:0:0:
64,64,161190,1,0,0:0:0:0:
64,64,161618,1,0,0:0:0:0:
64,64,161833,1,0,0:0:0:0:
64,64,162047,1,0,0:0:0:0:
64,64,162118,1,0,0:0:0:0:
64,64,162190,1,0,0:0:0:0:
320,64,162261,1,8,0:0:0:0:
64,64,162690,1,0,0:0:0:0:
64,64,162743,1,0,0:0:0:0:
64,64,162797,1,0,0:0:0:0:
64,64,162851,1,0,0:0:0:0:
320,64,162904,1,8,0:0:0:0:
64,64,163118,1,0,0:0:0:0:
64,64,163226,1,0,0:0:0:0:
320,64,163333,1,8,0:0:0:0:
64,64,163440,1,0,0:0:0:0:
320,64,163547,1,8,0:0:0:0:
320,64,163654,1,8,0:0:0:0:
64,64,163761,1,0,0:0:0:0:
64,64,163868,1,0,0:0:0:0:
320,64,163976,1,8,0:0:0:0:
64,64,164083,1,0,0:0:0:0:
320,64,164190,1,8,0:0:0:0:
320,64,164297,1,8,0:0:0:0:
64,64,164404,1,0,0:0:0:0:
320,64,164511,1,8,0:0:0:0:
64,64,164618,1,0,0:0:0:0:
320,64,164726,1,8,0:0:0:0:
64,64,164833,1,0,0:0:0:0:
64,64,165047,1,0,0:0:0:0:
320,64,165154,1,8,0:0:0:0:
64,64,165368,1,0,0:0:0:0:
64,64,165476,1,0,0:0:0:0:
64,64,165547,1,0,0:0:0:0:
64,64,165618,1,0,0:0:0:0:
320,64,165690,1,8,0:0:0:0:
320,64,165797,1,8,0:0:0:0:
64,64,165904,1,0,0:0:0:0:
64,64,166011,1,0,0:0:0:0:
320,64,166118,1,8,0:0:0:0:
64,64,166226,1,0,0:0:0:0:
320,64,166333,1,8,0:0:0:0:
320,64,166440,1,8,0:0:0:0:
64,64,166547,1,4,0:0:0:0:
320,64,168261,1,8,0:0:0:0:
320,64,168904,1,8,0:0:0:0:
320,64,169333,1,8,0:0:0:0:
320,64,169547,1,8,0:0:0:0:
320,64,169976,1,8,0:0:0:0:
320,64,170618,1,8,0:0:0:0:
64,64,170833,1,0,0:0:0:0:
320,64,171261,1,8,0:0:0:0:
320,64,171690,1,8,0:0:0:0:
320,64,172333,1,8,0:0:0:0:
64,64,172547,1,0,0:0:0:0:
320,64,172761,1,8,0:0:0:0:
320,64,172976,1,8,0:0:0:0:
320,64,173404,1,8,0:0:0:0:
64,64,173833,1,0,0:0:0:0:
320,64,174047,1,8,0:0:0:0:
64,64,174261,1,0,0:0:0:0:
320,64,174690,1,8,0:0:0:0:
64,64,174904,1,0,0:0:0:0:
320,64,175118,1,8,0:0:0:0:
64,64,175761,1,0,0:0:0:0:
320,64,175976,1,8,0:0:0:0:
64,64,176190,1,0,0:0:0:0:
320,64,176404,1,8,0:0:0:0:
320,64,176833,1,8,0:0:0:0:
64,64,177261,1,0,0:0:0:0:
320,64,177476,1,8,0:0:0:0:
64,64,177690,1,0,0:0:0:0:
320,64,178118,1,8,0:0:0:0:
64,64,178333,1,0,0:0:0:0:
320,64,178547,1,8,0:0:0:0:
64,64,179190,1,0,0:0:0:0:
320,64,179404,1,8,0:0:0:0:
320,64,179618,1,8,0:0:0:0:
64,64,179833,1,0,0:0:0:0:
320,64,179904,1,8,0:0:0:0:
320,64,179976,1,8,0:0:0:0:
64,64,180047,1,0,0:0:0:0:
320,64,180118,1,8,0:0:0:0:
64,64,180190,1,0,0:0:0:0:
320,64,180261,1,12,0:0:0:0:
64,64,183690,1,0,0:0:0:0:
64,64,183797,1,0,0:0:0:0:
64,64,183904,1,0,0:0:0:0:
64,64,184011,1,0,0:0:0:0:
64,64,184226,1,0,0:0:0:0:
64,64,184333,1,0,0:0:0:0:
64,64,184440,1,0,0:0:0:0:
320,64,184547,1,8,0:0:0:0:
64,64,184761,1,0,0:0:0:0:
64,64,184868,1,0,0:0:0:0:
64,64,184976,1,0,0:0:0:0:
64,64,185083,1,0,0:0:0:0:
64,64,185297,1,0,0:0:0:0:
64,64,185404,1,0,0:0:0:0:
64,64,185511,1,0,0:0:0:0:
64,64,185618,1,0,0:0:0:0:
320,64,185726,1,8,0:0:0:0:
64,64,185833,1,0,0:0:0:0:
64,64,185940,1,0,0:0:0:0:
64,64,186047,1,0,0:0:0:0:
320,64,186261,1,8,0:0:0:0:
64,64,186368,1,0,0:0:0:0:
64,64,186476,1,0,0:0:0:0:
320,64,186583,1,8,0:0:0:0:
64,64,186690,1,0,0:0:0:0:
64,64,186797,1,0,0:0:0:0:
64,64,186904,1,0,0:0:0:0:
320,64,187118,1,12,0:0:0:0:
64,64,190547,1,0,0:0:0:0:
64,64,190654,1,0,0:0:0:0:
64,64,190761,1,0,0:0:0:0:
64,64,190868,1,0,0:0:0:0:
64,64,191083,1,0,0:0:0:0:
64,64,191190,1,0,0:0:0:0:
64,64,191297,1,0,0:0:0:0:
320,64,191404,1,8,0:0:0:0:
64,64,191618,1,0,0:0:0:0:
64,64,191726,1,0,0:0:0:0:
64,64,191833,1,0,0:0:0:0:
64,64,191940,1,0,0:0:0:0:
64,64,192154,1,0,0:0:0:0:
64,64,192261,1,0,0:0:0:0:
64,64,192368,1,0,0:0:0:0:
64,64,192476,1,0,0:0:0:0:
320,64,192583,1,8,0:0:0:0:
64,64,192690,1,0,0:0:0:0:
64,64,192797,1,0,0:0:0:0:
64,64,192904,1,0,0:0:0:0:
320,64,193118,1,8,0:0:0:0:
64,64,193226,1,0,0:0:0:0:
64,64,193333,1,0,0:0:0:0:
320,64,193440,1,8,0:0:0:0:
64,64,193547,1,0,0:0:0:0:
64,64,193654,1,0,0:0:0:0:
64,64,193761,1,0,0:0:0:0:
320,64,193976,1,12,0:0:0:0:
64,64,194726,1,0,0:0:0:0:
320,64,194833,1,8,0:0:0:0:
64,64,195583,1,0,0:0:0:0:
64,64,195690,1,0,0:0:0:0:
64,64,196011,1,0,0:0:0:0:
64,64,196333,1,0,0:0:0:0:
64,64,196440,1,0,0:0:0:0:
320,64,196547,1,8,0:0:0:0:
64,64,196761,1,0,0:0:0:0:
64,64,197404,1,0,0:0:0:0:
64,64,197511,1,0,0:0:0:0:
64,64,197618,1,0,0:0:0:0:
64,64,197726,1,0,0:0:0:0:
64,64,197940,1,0,0:0:0:0:
64,64,198047,1,0,0:0:0:0:
64,64,198154,1,0,0:0:0:0:
320,64,198261,1,8,0:0:0:0:
64,64,198476,1,0,0:0:0:0:
64,64,198583,1,0,0:0:0:0:
64,64,198690,1,0,0:0:0:0:
64,64,198797,1,0,0:0:0:0:
64,64,199011,1,0,0:0:0:0:
64,64,199118,1,0,0:0:0:0:
64,64,199226,1,0,0:0:0:0:
64,64,199333,1,0,0:0:0:0:
320,64,199440,1,8,0:0:0:0:
64,64,199547,1,0,0:0:0:0:
64,64,199654,1,0,0:0:0:0:
64,64,199761,1,0,0:0:0:0:
320,64,199976,1,8,0:0:0:0:
64,64,200083,1,0,0:0:0:0:
64,64,200190,1,0,0:0:0:0:
320,64,200297,1,8,0:0:0:0:
64,64,200404,1,0,0:0:0:0:
64,64,200511,1,0,0:0:0:0:
64,64,200618,1,0,0:0:0:0:
320,64,200833,1,12,0:0:0:0:
64,64,201583,1,0,0:0:0:0:
320,64,201690,1,8,0:0:0:0:
64,64,202440,1,0,0:0:0:0:
64,64,202547,1,0,0:0:0:0:
64,64,202868,1,0,0:0:0:0:
64,64,203190,1,0,0:0:0:0:
64,64,203297,1,0,0:0:0:0:
320,64,203404,1,8,0:0:0:0:
64,64,203618,1,0,0:0:0:0:
64,64,204261,1,0,0:0:0:0:
320,64,204690,1,8,0:0:0:0:
64,64,205011,1,0,0:0:0:0:
320,64,205118,1,8,0:0:0:0:
320,64,205333,1,8,0:0:0:0:
320,64,205761,1,8,0:0:0:0:
64,64,205868,1,0,0:0:0:0:
64,64,205976,1,0,0:0:0:0:
320,64,206190,1,8,0:0:0:0:
320,64,206297,1,8,0:0:0:0:
64,64,206404,1,0,0:0:0:0:
64,64,206618,1,0,0:0:0:0:
320,64,206833,1,8,0:0:0:0:
64,64,207047,1,0,0:0:0:0:
320,64,207261,1,8,0:0:0:0:
320,64,207368,1,8,0:0:0:0:
320,64,207476,1,8,0:0:0:0:
320,64,207583,1,8,0:0:0:0:
64,64,207690,1,4,0:0:0:0:
64,64,208011,1,0,0:0:0:0:
64,64,208118,1,0,0:0:0:0:
64,64,208226,1,0,0:0:0:0:
320,64,208333,1,8,0:0:0:0:
320,64,208440,1,8,0:0:0:0:
64,64,208547,1,0,0:0:0:0:
320,64,208654,1,8,0:0:0:0:
64,64,208761,1,0,0:0:0:0:
64,64,208868,1,0,0:0:0:0:
320,64,208976,1,8,0:0:0:0:
320,64,209083,1,8,0:0:0:0:
64,64,209190,1,0,0:0:0:0:
64,64,209297,1,0,0:0:0:0:
320,64,209404,1,8,0:0:0:0:
320,64,209511,1,8,0:0:0:0:
64,64,209618,1,0,0:0:0:0:
320,64,209726,1,8,0:0:0:0:
64,64,209833,1,0,0:0:0:0:
64,64,209940,1,0,0:0:0:0:
320,64,210047,1,8,0:0:0:0:
320,64,210154,1,8,0:0:0:0:
64,64,210261,1,0,0:0:0:0:
320,64,210368,1,8,0:0:0:0:
64,64,210476,1,0,0:0:0:0:
64,64,210583,1,0,0:0:0:0:
320,64,210690,1,8,0:0:0:0:
320,64,210797,1,8,0:0:0:0:
320,64,210904,1,8,0:0:0:0:
320,64,211011,1,8,0:0:0:0:
320,64,211118,1,8,0:0:0:0:
64,64,211226,1,0,0:0:0:0:
64,64,211333,1,0,0:0:0:0:
64,64,211440,1,0,0:0:0:0:
320,64,211547,1,8,0:0:0:0:
64,64,211654,1,0,0:0:0:0:
320,64,211761,1,8,0:0:0:0:
320,64,211868,1,8,0:0:0:0:
64,64,211976,1,0,0:0:0:0:
64,64,212083,1,0,0:0:0:0:
64,64,212190,1,0,0:0:0:0:
64,64,212297,1,0,0:0:0:0:
320,64,212404,1,8,0:0:0:0:
320,64,212511,1,8,0:0:0:0:
64,64,212618,1,0,0:0:0:0:
64,64,212726,1,0,0:0:0:0:
320,64,212833,1,8,0:0:0:0:
320,64,212940,1,8,0:0:0:0:
64,64,213047,1,0,0:0:0:0:
64,64,213154,1,0,0:0:0:0:
320,64,213261,1,8,0:0:0:0:
64,64,213368,1,0,0:0:0:0:
320,64,213476,1,8,0:0:0:0:
320,64,213583,1,8,0:0:0:0:
64,64,213690,1,0,0:0:0:0:
64,64,213797,1,0,0:0:0:0:
64,64,213904,1,0,0:0:0:0:
64,64,214011,1,0,0:0:0:0:
320,64,214118,1,8,0:0:0:0:
320,64,214226,1,8,0:0:0:0:
320,64,214333,1,8,0:0:0:0:
320,64,214440,1,8,0:0:0:0:
320,64,214547,1,8,0:0:0:0:
64,64,214654,1,0,0:0:0:0:
64,64,214761,1,0,0:0:0:0:
64,64,214868,1,0,0:0:0:0:
320,64,214976,1,8,0:0:0:0:
64,64,215083,1,0,0:0:0:0:
64,64,215190,1,0,0:0:0:0:
64,64,215297,1,0,0:0:0:0:
320,64,215404,1,8,0:0:0:0:
64,64,215511,1,0,0:0:0:0:
64,64,215618,1,0,0:0:0:0:
64,64,215726,1,0,0:0:0:0:
320,64,215833,1,8,0:0:0:0:
64,64,215940,1,0,0:0:0:0:
64,64,216047,1,0,0:0:0:0:
64,64,216154,1,0,0:0:0:0:
320,64,216261,1,8,0:0:0:0:
64,64,216368,1,0,0:0:0:0:
64,64,216476,1,0,0:0:0:0:
64,64,216583,1,0,0:0:0:0:
320,64,216690,1,8,0:0:0:0:
64,64,216797,1,0,0:0:0:0:
64,64,216904,1,0,0:0:0:0:
64,64,217011,1,0,0:0:0:0:
320,64,217118,1,8,0:0:0:0:
64,64,217226,1,0,0:0:0:0:
64,64,217333,1,0,0:0:0:0:
64,64,217440,1,0,0:0:0:0:
320,64,217547,1,8,0:0:0:0:
64,64,217654,1,0,0:0:0:0:
64,64,217761,1,0,0:0:0:0:
64,64,217868,1,0,0:0:0:0:
320,64,217976,1,8,0:0:0:0:
320,64,218083,1,8,0:0:0:0:
64,64,218190,1,0,0:0:0:0:
64,64,218297,1,0,0:0:0:0:
320,64,218404,1,8,0:0:0:0:
64,64,218511,1,0,0:0:0:0:
320,64,218618,1,8,0:0:0:0:
64,64,218726,1,0,0:0:0:0:
320,64,218833,1,8,0:0:0:0:
320,64,218940,1,8,0:0:0:0:
64,64,219047,1,0,0:0:0:0:
64,64,219154,1,0,0:0:0:0:
320,64,219261,1,8,0:0:0:0:
320,64,219315,1,8,0:0:0:0:
320,64,219368,1,8,0:0:0:0:
320,64,219422,1,8,0:0:0:0:
320,64,219476,1,8,0:0:0:0:
320,64,219529,1,8,0:0:0:0:
320,64,219583,1,8,0:0:0:0:
320,64,219636,1,8,0:0:0:0:
64,64,219690,1,0,0:0:0:0:
256,192,220547,12,0,220868,0:0:0:0:
256,192,220976,12,0,221297,0:0:0:0:
64,64,221404,5,0,0:0:0:0:
64,64,221458,1,0,0:0:0:0:
320,64,221511,1,8,0:0:0:0:
64,64,221618,1,0,0:0:0:0:
320,64,221726,1,8,0:0:0:0:
320,64,221779,1,8,0:0:0:0:
64,64,221833,1,0,0:0:0:0:
320,64,221940,1,8,0:0:0:0:
320,64,221993,1,8,0:0:0:0:
320,64,222154,1,8,0:0:0:0:
64,64,222261,1,0,0:0:0:0:
64,64,222476,1,0,0:0:0:0:
320,64,222511,1,8,0:0:0:0:
64,64,222690,1,0,0:0:0:0:
320,64,222726,1,8,0:0:0:0:
64,64,222797,1,0,0:0:0:0:
320,64,222833,1,8,0:0:0:0:
64,64,222904,1,0,0:0:0:0:
64,64,223011,1,0,0:0:0:0:
320,64,223047,1,8,0:0:0:0:
64,64,223118,1,0,0:0:0:0:
320,64,223154,1,8,0:0:0:0:
64,64,223333,1,0,0:0:0:0:
64,64,223547,1,0,0:0:0:0:
320,64,223583,1,8,0:0:0:0:
64,64,223761,1,0,0:0:0:0:
320,64,223797,1,8,0:0:0:0:
64,64,223868,1,0,0:0:0:0:
320,64,223904,1,8,0:0:0:0:
320,64,223976,1,8,0:0:0:0:
64,64,224083,1,0,0:0:0:0:
320,64,224118,1,8,0:0:0:0:
64,64,224190,1,0,0:0:0:0:
320,64,224226,1,8,0:0:0:0:
64,64,224404,1,0,0:0:0:0:
64,64,224476,1,0,0:0:0:0:
64,64,224547,1,0,0:0:0:0:
320,64,224618,1,8,0:0:0:0:
320,64,224690,1,8,0:0:0:0:
320,64,224761,1,8,0:0:0:0:
64,64,224833,1,0,0:0:0:0:
320,64,224886,1,8,0:0:0:0:
320,64,224940,1,8,0:0:0:0:
64,64,225047,1,0,0:0:0:0:
64,64,225101,1,0,0:0:0:0:
320,64,225154,1,8,0:0:0:0:
320,64,225368,1,8,0:0:0:0:
320,64,225422,1,8,0:0:0:0:
64,64,225476,1,0,0:0:0:0:
64,64,225583,1,0,0:0:0:0:
320,64,225690,1,8,0:0:0:0:
64,64,225904,1,0,0:0:0:0:
320,64,225940,1,8,0:0:0:0:
64,64,226118,1,0,0:0:0:0:
320,64,226154,1,8,0:0:0:0:
64,64,226226,1,0,0:0:0:0:
320,64,226261,1,8,0:0:0:0:
64,64,226333,1,0,0:0:0:0:
64,64,226440,1,0,0:0:0:0:
320,64,226476,1,8,0:0:0:0:
64,64,226547,1,0,0:0:0:0:
320,64,226583,1,8,0:0:0:0:
64,64,226761,1,0,0:0:0:0:
64,64,226815,1,0,0:0:0:0:
320,64,226868,1,8,0:0:0:0:
64,64,226976,1,0,0:0:0:0:
320,64,227011,1,8,0:0:0:0:
64,64,227083,1,0,0:0:0:0:
64,64,227190,1,0,0:0:0:0:
320,64,227226,1,8,0:0:0:0:
64,64,227297,1,0,0:0:0:0:
320,64,227333,1,8,0:0:0:0:
320,64,227404,1,8,0:0:0:0:
64,64,227511,1,0,0:0:0:0:
320,64,227547,1,8,0:0:0:0:
64,64,227618,1,0,0:0:0:0:
320,64,227654,1,8,0:0:0:0:
64,64,227726,1,0,0:0:0:0:
320,64,227833,1,8,0:0:0:0:
320,64,227904,1,8,0:0:0:0:
320,64,227976,1,8,0:0:0:0:
320,64,228047,1,8,0:0:0:0:
64,64,228261,1,0,0:0:0:0:
64,64,228315,1,0,0:0:0:0:
320,64,228368,1,8,0:0:0:0:
64,64,228476,1,0,0:0:0:0:
320,64,228583,1,8,0:0:0:0:
320,64,228636,1,8,0:0:0:0:
64,64,228690,1,0,0:0:0:0:
320,64,228797,1,8,0:0:0:0:
320,64,228851,1,8,0:0:0:0:
320,64,229011,1,8,0:0:0:0:
64,64,229118,1,0,0:0:0:0:
64,64,229333,1,0,0:0:0:0:
320,64,229368,1,8,0:0:0:0:
64,64,229547,1,0,0:0:0:0:
320,64,229583,1,8,0:0:0:0:
64,64,229654,1,0,0:0:0:0:
320,64,229690,1,8,0:0:0:0:
64,64,229761,1,0,0:0:0:0:
64,64,229868,1,0,0:0:0:0:
320,64,229904,1,8,0:0:0:0:
64,64,229976,1,0,0:0:0:0:
320,64,230011,1,8,0:0:0:0:
64,64,230217,1,0,0:0:0:0:
64,64,230404,1,0,0:0:0:0:
320,64,230440,1,8,0:0:0:0:
64,64,230618,1,0,0:0:0:0:
320,64,230654,1,8,0:0:0:0:
64,64,230726,1,0,0:0:0:0:
320,64,230761,1,8,0:0:0:0:
320,64,230833,1,8,0:0:0:0:
64,64,230940,1,0,0:0:0:0:
320,64,230976,1,8,0:0:0:0:
64,64,231047,1,0,0:0:0:0:
320,64,231083,1,8,0:0:0:0:
64,64,231261,1,0,0:0:0:0:
64,64,231333,1,0,0:0:0:0:
64,64,231404,1,0,0:0:0:0:
320,64,231476,1,8,0:0:0:0:
320,64,231547,1,8,0:0:0:0:
320,64,231618,1,8,0:0:0:0:
64,64,231690,1,0,0:0:0:0:
320,64,231743,1,8,0:0:0:0:
320,64,231797,1,8,0:0:0:0:
64,64,231877,1,0,0:0:0:0:
64,64,231958,1,0,0:0:0:0:
64,64,232038,1,0,0:0:0:0:
320,64,232118,1,8,0:0:0:0:
64,64,232333,1,0,0:0:0:0:
64,64,232440,1,0,0:0:0:0:
320,64,232547,1,8,0:0:0:0:
320,64,232654,1,8,0:0:0:0:
64,64,232690,1,0,0:0:0:0:
320,64,232761,1,8,0:0:0:0:
64,64,232797,1,0,0:0:0:0:
320,64,232868,1,8,0:0:0:0:
64,64,232904,1,0,0:0:0:0:
320,64,232976,1,8,0:0:0:0:
64,64,233011,1,0,0:0:0:0:
320,64,233083,1,8,0:0:0:0:
64,64,233118,1,0,0:0:0:0:
320,64,233190,1,8,0:0:0:0:
320,64,233226,1,8,0:0:0:0:
64,64,233404,1,0,0:0:0:0:
320,64,233458,1,8,0:0:0:0:
320,64,233511,1,8,0:0:0:0:
64,64,233618,1,0,0:0:0:0:
320,64,233726,1,8,0:0:0:0:
320,64,233779,1,8,0:0:0:0:
64,64,233833,1,0,0:0:0:0:
320,64,233940,1,8,0:0:0:0:
64,64,234047,1,0,0:0:0:0:
64,64,234118,1,0,0:0:0:0:
64,64,234190,1,0,0:0:0:0:
320,64,234261,1,8,0:0:0:0:
320,64,234333,1,8,0:0:0:0:
320,64,234404,1,8,0:0:0:0:
320,64,234476,1,8,0:0:0:0:
320,64,234556,1,8,0:0:0:0:
320,64,234663,1,8,0:0:0:0:
320,64,234851,1,8,0:0:0:0:
64,64,235118,1,0,0:0:0:0:
320,64,235226,1,8,0:0:0:0:
320,64,235261,1,8,0:0:0:0:
64,64,235297,1,0,0:0:0:0:
320,64,235440,1,8,0:0:0:0:
320,64,235493,1,8,0:0:0:0:
64,64,235547,1,0,0:0:0:0:
320,64,235690,1,8,0:0:0:0:
320,64,235761,1,8,0:0:0:0:
64,64,235833,1,0,0:0:0:0:
320,64,236029,1,8,0:0:0:0:
64,64,236190,1,0,0:0:0:0:
64,64,236261,1,0,0:0:0:0:
64,64,236333,1,0,0:0:0:0:
320,64,236404,1,8,0:0:0:0:
64,64,236511,1,0,0:0:0:0:
320,64,236547,1,8,0:0:0:0:
64,64,236618,1,0,0:0:0:0:
320,64,236654,1,8,0:0:0:0:
64,64,236726,1,0,0:0:0:0:
320,64,236761,1,8,0:0:0:0:
64,64,236833,1,0,0:0:0:0:
320,64,236868,1,8,0:0:0:0:
320,64,237047,1,8,0:0:0:0:
64,64,237154,1,0,0:0:0:0:
64,64,237261,1,0,0:0:0:0:
320,64,237297,1,8,0:0:0:0:
64,64,237476,1,0,0:0:0:0:
320,64,237511,1,8,0:0:0:0:
64,64,237583,1,0,0:0:0:0:
320,64,237618,1,8,0:0:0:0:
320,64,237690,1,8,0:0:0:0:
64,64,237797,1,0,0:0:0:0:
320,64,237833,1,8,0:0:0:0:
64,64,237904,1,0,0:0:0:0:
320,64,237940,1,8,0:0:0:0:
64,64,238118,1,0,0:0:0:0:
64,64,238190,1,0,0:0:0:0:
64,64,238261,1,0,0:0:0:0:
320,64,238333,1,8,0:0:0:0:
320,64,238404,1,8,0:0:0:0:
320,64,238476,1,8,0:0:0:0:
64,64,238547,1,0,0:0:0:0:
320,64,238601,1,8,0:0:0:0:
320,64,238654,1,8,0:0:0:0:
64,64,238761,1,0,0:0:0:0:
64,64,238815,1,0,0:0:0:0:
320,64,238868,1,8,0:0:0:0:
320,64,239083,1,8,0:0:0:0:
320,64,239136,1,8,0:0:0:0:
64,64,239190,1,0,0:0:0:0:
64,64,239297,1,0,0:0:0:0:
320,64,239404,1,8,0:0:0:0:
64,64,239618,1,0,0:0:0:0:
320,64,239654,1,8,0:0:0:0:
64,64,239833,1,0,0:0:0:0:
320,64,239868,1,8,0:0:0:0:
64,64,239940,1,0,0:0:0:0:
320,64,239976,1,8,0:0:0:0:
64,64,240047,1,0,0:0:0:0:
64,64,240154,1,0,0:0:0:0:
320,64,240190,1,8,0:0:0:0:
64,64,240261,1,0,0:0:0:0:
320,64,240297,1,8,0:0:0:0:
64,64,240476,1,0,0:0:0:0:
64,64,240529,1,0,0:0:0:0:
320,64,240583,1,8,0:0:0:0:
64,64,240690,1,0,0:0:0:0:
320,64,240726,1,8,0:0:0:0:
64,64,240797,1,0,0:0:0:0:
64,64,240904,1,0,0:0:0:0:
320,64,240940,1,8,0:0:0:0:
64,64,241011,1,0,0:0:0:0:
320,64,241047,1,8,0:0:0:0:
320,64,241118,1,8,0:0:0:0:
64,64,241226,1,0,0:0:0:0:
320,64,241261,1,8,0:0:0:0:
64,64,241333,1,0,0:0:0:0:
320,64,241368,1,8,0:0:0:0:
64,64,241440,1,0,0:0:0:0:
320,64,241547,1,8,0:0:0:0:
320,64,241618,1,8,0:0:0:0:
320,64,241690,1,8,0:0:0:0:
320,64,241761,1,8,0:0:0:0:
64,64,241976,1,0,0:0:0:0:
320,64,242029,1,8,0:0:0:0:
320,64,242083,1,8,0:0:0:0:
64,64,242618,1,0,0:0:0:0:
64,64,242690,1,0,0:0:0:0:
64,64,242761,1,0,0:0:0:0:
320,64,242833,1,8,0:0:0:0:
64,64,243047,1,0,0:0:0:0:
320,64,243083,1,8,0:0:0:0:
64,64,243261,1,0,0:0:0:0:
320,64,243297,1,8,0:0:0:0:
64,64,243368,1,0,0:0:0:0:
320,64,243404,1,8,0:0:0:0:
64,64,243476,1,0,0:0:0:0:
64,64,243583,1,0,0:0:0:0:
320,64,243618,1,8,0:0:0:0:
64,64,243690,1,0,0:0:0:0:
64,64,243904,1,0,0:0:0:0:
64,64,244118,1,0,0:0:0:0:
320,64,244154,1,8,0:0:0:0:
64,64,244226,1,0,0:0:0:0:
320,64,244261,1,8,0:0:0:0:
64,64,244333,1,0,0:0:0:0:
320,64,244368,1,8,0:0:0:0:
64,64,244440,1,0,0:0:0:0:
320,64,244476,1,8,0:0:0:0:
64,64,244547,1,0,0:0:0:0:
320,64,244761,1,8,0:0:0:0:
64,64,244976,1,0,0:0:0:0:
64,64,245047,1,0,0:0:0:0:
64,64,245118,1,0,0:0:0:0:
320,64,245190,1,8,0:0:0:0:
320,64,245261,1,8,0:0:0:0:
320,64,245333,1,8,0:0:0:0:
64,64,245404,1,0,0:0:0:0:
320,64,245458,1,8,0:0:0:0:
320,64,245511,1,8,0:0:0:0:
64,64,245618,1,0,0:0:0:0:
320,64,245726,1,8,0:0:0:0:
64,64,245833,1,0,0:0:0:0:
64,64,245940,1,0,0:0:0:0:
320,64,246047,1,8,0:0:0:0:
320,64,246154,1,8,0:0:0:0:
64,64,246261,1,0,0:0:0:0:
320,64,246368,1,8,0:0:0:0:
64,64,246476,1,0,0:0:0:0:
64,64,246583,1,0,0:0:0:0:
320,64,246690,1,8,0:0:0:0:
64,64,246797,1,0,0:0:0:0:
64,64,246904,1,0,0:0:0:0:
64,64,247011,1,0,0:0:0:0:
320,64,247118,1,8,0:0:0:0:
64,64,247226,1,0,0:0:0:0:
64,64,247333,1,0,0:0:0:0:
320,64,247440,1,8,0:0:0:0:
64,64,247547,1,0,0:0:0:0:
64,64,247654,1,0,0:0:0:0:
320,64,247761,1,8,0:0:0:0:
64,64,247833,1,0,0:0:0:0:
64,64,247904,1,0,0:0:0:0:
320,64,247976,1,8,0:0:0:0:
320,64,248083,1,8,0:0:0:0:
64,64,248190,1,0,0:0:0:0:
64,64,248297,1,0,0:0:0:0:
320,64,248404,1,8,0:0:0:0:
320,64,248511,1,8,0:0:0:0:
320,64,248618,1,8,0:0:0:0:
320,64,248726,1,8,0:0:0:0:
256,160,248833,2,4,L|256:256,2,83.9999974365235
320,64,249261,1,8,0:0:0:0:
320,64,249346,1,8,0:0:0:0:
320,64,249432,1,8,0:0:0:0:
320,64,249518,1,8,0:0:0:0:
320,64,249601,1,8,0:0:0:0:
64,64,249690,1,0,0:0:0:0:
320,64,249761,1,8,0:0:0:0:
320,64,249833,1,8,0:0:0:0:
64,64,249904,1,0,0:0:0:0:
64,64,249976,1,0,0:0:0:0:
320,64,250038,1,8,0:0:0:0:
320,64,250092,1,8,0:0:0:0:
320,64,250145,1,8,0:0:0:0:
64,64,250199,1,0,0:0:0:0:
64,64,250333,1,0,0:0:0:0:
320,64,250440,1,8,0:0:0:0:
320,64,250493,1,8,0:0:0:0:
64,64,250547,1,0,0:0:0:0:
320,64,250654,1,8,0:0:0:0:
320,64,250708,1,8,0:0:0:0:
64,64,250761,1,0,0:0:0:0:
320,64,250868,1,8,0:0:0:0:
320,64,250922,1,8,0:0:0:0:
64,64,250976,1,0,0:0:0:0:
64,64,251190,1,0,0:0:0:0:
64,64,251261,1,0,0:0:0:0:
64,64,251333,1,0,0:0:0:0:
320,64,251404,1,8,0:0:0:0:
64,64,251511,1,0,0:0:0:0:
320,64,251565,1,8,0:0:0:0:
320,64,251618,1,8,0:0:0:0:
64,64,251726,1,0,0:0:0:0:
320,64,251779,1,8,0:0:0:0:
320,64,251833,1,8,0:0:0:0:
64,64,251940,1,0,0:0:0:0:
64,64,252011,1,0,0:0:0:0:
320,64,252083,1,8,0:0:0:0:
320,64,252154,1,8,0:0:0:0:
288,192,252261,2,0,L|416:320,1,169
64,64,252690,1,0,0:0:0:0:
64,64,252904,1,0,0:0:0:0:
64,64,253011,1,0,0:0:0:0:
320,64,253118,1,8,0:0:0:0:
320,64,253190,1,8,0:0:0:0:
320,64,253261,1,8,0:0:0:0:
64,64,253333,1,0,0:0:0:0:
320,64,253440,1,8,0:0:0:0:
320,64,253476,1,8,0:0:0:0:
320,64,253654,1,8,0:0:0:0:
320,64,253690,1,8,0:0:0:0:
64,64,253761,1,0,0:0:0:0:
64,64,253815,1,0,0:0:0:0:
320,64,253868,1,8,0:0:0:0:
320,64,253922,1,8,0:0:0:0:
64,64,253976,1,0,0:0:0:0:
64,64,254047,1,0,0:0:0:0:
64,64,254118,1,0,0:0:0:0:
320,64,254190,1,8,0:0:0:0:
320,64,254297,1,8,0:0:0:0:
320,64,254511,1,8,0:0:0:0:
64,64,254618,1,0,0:0:0:0:
64,64,254690,1,0,0:0:0:0:
64,64,254761,1,0,0:0:0:0:
320,64,254833,1,12,0:0:0:0:
64,64,255047,1,0,0:0:0:0:
64,64,255154,1,0,0:0:0:0:
320,64,255261,1,12,0:0:0:0:
256,192,255690,2,0,L|288:288,2,83.9999974365235
320,64,256118,1,8,0:0:0:0:
320,64,256203,1,8,0:0:0:0:
320,64,256289,1,8,0:0:0:0:
320,64,256375,1,8,0:0:0:0:
320,64,256460,1,8,0:0:0:0:
64,64,256547,1,0,0:0:0:0:
64,64,256618,1,0,0:0:0:0:
64,64,256690,1,0,0:0:0:0:
64,64,256761,1,0,0:0:0:0:
64,64,256833,1,0,0:0:0:0:
320,64,256895,1,8,0:0:0:0:
320,64,256949,1,8,0:0:0:0:
320,64,257002,1,8,0:0:0:0:
64,64,257056,1,0,0:0:0:0:
64,64,257190,1,0,0:0:0:0:
320,64,257297,1,8,0:0:0:0:
320,64,257351,1,8,0:0:0:0:
64,64,257404,1,0,0:0:0:0:
320,64,257511,1,8,0:0:0:0:
320,64,257565,1,8,0:0:0:0:
64,64,257618,1,0,0:0:0:0:
320,64,257726,1,8,0:0:0:0:
320,64,257779,1,8,0:0:0:0:
64,64,257833,1,0,0:0:0:0:
64,64,258047,1,0,0:0:0:0:
64,64,258118,1,0,0:0:0:0:
64,64,258190,1,0,0:0:0:0:
320,64,258261,1,8,0:0:0:0:
64,64,258368,1,0,0:0:0:0:
320,64,258422,1,8,0:0:0:0:
320,64,258476,1,8,0:0:0:0:
64,64,258583,1,0,0:0:0:0:
320,64,258636,1,8,0:0:0:0:
320,64,258690,1,8,0:0:0:0:
64,64,258797,1,0,0:0:0:0:
64,64,258868,1,0,0:0:0:0:
320,64,258940,1,8,0:0:0:0:
320,64,259011,1,8,0:0:0:0:
256,288,259118,2,0,L|288:192,2,84
64,64,259547,1,0,0:0:0:0:
64,64,259761,1,0,0:0:0:0:
64,64,259868,1,0,0:0:0:0:
320,64,259976,1,8,0:0:0:0:
320,64,260047,1,8,0:0:0:0:
320,64,260118,1,8,0:0:0:0:
64,64,260190,1,0,0:0:0:0:
320,64,260297,1,8,0:0:0:0:
320,64,260333,1,8,0:0:0:0:
320,64,260511,1,8,0:0:0:0:
320,64,260547,1,8,0:0:0:0:
64,64,260618,1,0,0:0:0:0:
64,64,260672,1,0,0:0:0:0:
320,64,260726,1,8,0:0:0:0:
320,64,260779,1,8,0:0:0:0:
64,64,260833,1,0,0:0:0:0:
320,64,260868,1,8,0:0:0:0:
64,64,261047,1,0,0:0:0:0:
320,64,261083,1,8,0:0:0:0:
64,64,261261,1,0,0:0:0:0:
320,64,261297,1,8,0:0:0:0:
64,64,261476,1,0,0:0:0:0:
320,64,261511,1,8,0:0:0:0:
64,64,261690,1,0,0:0:0:0:
320,64,261726,1,8,0:0:0:0:
64,64,261904,1,0,0:0:0:0:
320,64,261940,1,8,0:0:0:0:
320,64,262118,1,12,0:0:0:0:
64,64,262547,1,4,0:0:0:0:
64,64,262976,1,0,0:0:0:0:
64,64,263190,1,0,0:0:0:0:
64,64,263297,1,0,0:0:0:0:
320,64,263404,1,8,0:0:0:0:
320,64,263618,1,8,0:0:0:0:
320,64,263726,1,8,0:0:0:0:
64,64,263833,1,0,0:0:0:0:
64,64,264047,1,0,0:0:0:0:
64,64,264476,1,0,0:0:0:0:
64,64,264690,1,0,0:0:0:0:
64,64,264904,1,0,0:0:0:0:
64,64,264976,1,0,0:0:0:0:
64,64,265047,1,0,0:0:0:0:
320,64,265118,1,8,0:0:0:0:
320,64,265333,1,8,0:0:0:0:
64,64,265547,1,0,0:0:0:0:
64,64,265601,1,0,0:0:0:0:
64,64,265654,1,0,0:0:0:0:
64,64,265708,1,0,0:0:0:0:
320,64,265761,1,8,0:0:0:0:
64,64,265976,1,0,0:0:0:0:
320,64,266083,1,8,0:0:0:0:
64,64,266190,1,0,0:0:0:0:
64,64,266297,1,0,0:0:0:0:
320,64,266404,1,8,0:0:0:0:
64,64,266618,1,0,0:0:0:0:
64,64,266726,1,0,0:0:0:0:
320,64,266833,1,8,0:0:0:0:
320,64,267047,1,8,0:0:0:0:
320,64,267118,1,8,0:0:0:0:
320,64,267190,1,8,0:0:0:0:
64,64,267261,1,0,0:0:0:0:
64,64,267476,1,0,0:0:0:0:
64,64,267690,1,0,0:0:0:0:
64,64,267904,1,0,0:0:0:0:
320,64,268011,1,8,0:0:0:0:
64,64,268226,1,0,0:0:0:0:
64,64,268333,1,0,0:0:0:0:
64,64,268404,1,0,0:0:0:0:
64,64,268476,1,0,0:0:0:0:
320,64,268547,1,8,0:0:0:0:
64,64,268761,1,0,0:0:0:0:
64,64,268868,1,0,0:0:0:0:
320,64,268976,1,8,0:0:0:0:
320,64,269190,1,8,0:0:0:0:
64,64,269404,1,0,0:0:0:0:
64,64,269511,1,0,0:0:0:0:
320,64,269618,1,8,0:0:0:0:
320,64,269726,1,8,0:0:0:0:
64,64,269833,1,0,0:0:0:0:
64,64,270047,1,0,0:0:0:0:
64,64,270154,1,0,0:0:0:0:
320,64,270261,1,8,0:0:0:0:
320,64,270476,1,8,0:0:0:0:
64,64,270583,1,0,0:0:0:0:
320,64,270690,1,8,0:0:0:0:
64,64,270904,1,0,0:0:0:0:
64,64,271333,1,0,0:0:0:0:
64,64,271547,1,0,0:0:0:0:
64,64,271761,1,0,0:0:0:0:
64,64,271833,1,0,0:0:0:0:
64,64,271904,1,0,0:0:0:0:
320,64,271976,1,8,0:0:0:0:
320,64,272190,1,8,0:0:0:0:
64,64,272404,1,0,0:0:0:0:
64,64,272458,1,0,0:0:0:0:
64,64,272511,1,0,0:0:0:0:
64,64,272565,1,0,0:0:0:0:
320,64,272618,1,8,0:0:0:0:
64,64,272833,1,0,0:0:0:0:
64,64,272940,1,0,0:0:0:0:
320,64,273047,1,8,0:0:0:0:
64,64,273154,1,0,0:0:0:0:
320,64,273261,1,8,0:0:0:0:
64,64,273476,1,0,0:0:0:0:
64,64,273583,1,0,0:0:0:0:
320,64,273690,1,8,0:0:0:0:
64,64,273904,1,0,0:0:0:0:
320,64,274118,1,8,0:0:0:0:
320,64,274261,1,8,0:0:0:0:
64,64,274333,1,0,0:0:0:0:
64,64,274547,1,0,0:0:0:0:
64,64,274761,1,0,0:0:0:0:
320,64,274868,1,8,0:0:0:0:
64,64,275083,1,0,0:0:0:0:
64,64,275190,1,0,0:0:0:0:
64,64,275261,1,0,0:0:0:0:
64,64,275333,1,0,0:0:0:0:
320,64,275404,1,8,0:0:0:0:
64,64,275618,1,0,0:0:0:0:
64,64,275726,1,0,0:0:0:0:
320,64,275833,1,8,0:0:0:0:
320,64,276047,1,8,0:0:0:0:
64,64,276261,1,4,0:0:0:0:
320,64,276690,1,8,0:0:0:0:
64,64,277118,1,0,0:0:0:0:
320,64,277333,1,8,0:0:0:0:
64,64,277761,1,0,0:0:0:0:
64,64,278404,1,0,0:0:0:0:
64,64,278618,1,0,0:0:0:0:
320,64,278833,1,8,0:0:0:0:
320,64,279047,1,8,0:0:0:0:
64,64,279261,1,0,0:0:0:0:
64,64,279315,1,0,0:0:0:0:
64,64,279368,1,0,0:0:0:0:
64,64,279422,1,0,0:0:0:0:
320,64,279476,1,8,0:0:0:0:
64,64,279690,1,0,0:0:0:0:
64,64,279904,1,0,0:0:0:0:
320,64,280118,1,8,0:0:0:0:
320,64,280547,1,8,0:0:0:0:
64,64,280761,1,0,0:0:0:0:
64,64,281190,1,0,0:0:0:0:
64,64,281833,1,0,0:0:0:0:
64,64,282047,1,0,0:0:0:0:
320,64,282261,1,8,0:0:0:0:
320,64,282690,1,8,0:0:0:0:
320,64,282761,1,8,0:0:0:0:
320,64,282833,1,8,0:0:0:0:
320,64,282904,1,8,0:0:0:0:
64,64,283118,1,0,0:0:0:0:
64,64,283333,1,0,0:0:0:0:
320,64,283547,1,8,0:0:0:0:
320,64,283976,1,8,0:0:0:0:
64,64,284190,1,0,0:0:0:0:
64,64,284618,1,0,0:0:0:0:
64,64,285261,1,0,0:0:0:0:
64,64,285476,1,0,0:0:0:0:
320,64,285690,1,8,0:0:0:0:
320,64,285904,1,8,0:0:0:0:
64,64,286118,1,0,0:0:0:0:
64,64,286172,1,0,0:0:0:0:
64,64,286226,1,0,0:0:0:0:
64,64,286279,1,0,0:0:0:0:
320,64,286333,1,8,0:0:0:0:
64,64,286547,1,0,0:0:0:0:
64,64,286761,1,0,0:0:0:0:
64,64,286976,1,0,0:0:0:0:
320,64,287404,1,8,0:0:0:0:
64,64,287618,1,0,0:0:0:0:
64,64,288047,1,0,0:0:0:0:
64,64,288476,1,0,0:0:0:0:
320,64,288690,1,8,0:0:0:0:
320,64,288904,1,8,0:0:0:0:
64,64,289118,1,0,0:0:0:0:
64,64,289333,1,0,0:0:0:0:
320,64,289547,1,8,0:0:0:0:
64,64,289976,1,0,0:0:0:0:
256,192,290190,12,0,291261,0:0:0:0:
256,192,291813,12,0,292967,0:0:0:0:
256,192,293493,12,0,294647,0:0:0:0:
256,192,295108,12,0,296262,0:0:0:0:
256,192,296829,12,0,297983,0:0:0:0:
256,192,298516,12,0,299670,0:0:0:0:
256,192,300189,12,0,301228,0:0:0:0:
243,197,301343,6,4,L|237:197,77,5.85000009691511
