osu file format v14

[General]
AudioFilename: audio.mp3
AudioLeadIn: 0
PreviewTime: 79112
Countdown: 0
SampleSet: Soft
StackLeniency: 0.7
Mode: 0
LetterboxInBreaks: 0
WidescreenStoryboard: 1

[Editor]
Bookmarks: 10463,18031,19112,27760,29923,30193,32085,33166,34247,36409,39382,40733,44787,45058,52085,52625,53706,61274,62355,62625,64382,64787,66679,66950,67760,68031,68842,69112,69923,71004,76139,76409,76679,76950,77220,77490,77760,78031,78301,78571,79652,95869,96950,105598,109923,113977
DistanceSpacing: 1
BeatDivisor: 2
GridSize: 4
TimelineZoom: 1.7

[Metadata]
Title:Werewolf howls
TitleUnicode:Werewolf howls
Artist:Camellia
ArtistUnicode:Camellia
Creator:Disorted
Version:Normal
Source:
Tags:
BeatmapID:1177686
BeatmapSetID:556469

[Difficulty]
HPDrainRate:4
CircleSize:3
OverallDifficulty:3
ApproachRate:4
SliderMultiplier:0.7
SliderTickRate:1

[Events]
//Background and Video events
0,0,"maxresdefault (3).jpg",0,0
//Break Periods
2,45257,52146
//Storyboard Layer 0 (Background)
//Storyboard Layer 1 (Fail)
//Storyboard Layer 2 (Pass)
//Storyboard Layer 3 (Foreground)
//Storyboard Sound Samples

[TimingPoints]
1815,270.27027027027,4,2,1,30,1,0
9382,-80,4,2,1,75,0,0
10463,-100,4,2,1,60,0,0
18031,-133.333333333333,4,2,1,70,0,0
19112,-100,4,2,1,100,0,1
27760,-100,4,2,1,80,0,1
29923,-133.333333333333,4,2,1,100,0,0
30193,-100,4,2,1,100,0,1
32085,-100,4,2,1,100,0,0
33639,-100,4,2,1,80,0,0
34247,-100,4,2,1,90,0,0
43706,-90.9090909090909,4,2,1,100,0,0
43977,-83.3333333333333,4,2,1,100,0,0
44247,-76.9230769230769,4,2,1,100,0,0
44517,-71.4285714285714,4,2,1,100,0,0
44787,-66.6666666666667,4,2,1,100,0,0
45058,-133.333333333333,4,2,1,50,0,0
52085,-133.333333333333,4,2,1,70,0,0
52625,-133.333333333333,4,2,1,80,0,0
53706,-100,4,2,1,100,0,1
62355,-133.333333333333,4,2,1,100,0,0
62625,-100,4,2,1,100,0,1
64382,-133.333333333333,4,2,1,100,0,0
64787,-100,4,2,1,100,0,1
66679,-133.333333333333,4,2,1,100,0,0
66950,-100,4,2,1,100,0,1
67760,-133.333333333333,4,2,1,100,0,0
68031,-100,4,2,1,100,0,1
68842,-133.333333333333,4,2,1,100,0,0
69112,-100,4,2,1,100,0,0
71004,-200,4,2,1,20,0,0
76139,-100,4,2,1,45,0,0
76409,-100,4,2,1,60,0,0
76679,-100,4,2,1,65,0,0
76950,-100,4,2,1,70,0,0
77220,-100,4,2,1,75,0,0
77490,-100,4,2,1,80,0,0
77760,-100,4,2,1,85,0,0
78031,-100,4,2,1,90,0,0
78301,-100,4,2,1,95,0,0
78571,-100,4,2,1,5,0,0
79112,-100,4,2,1,50,0,0
79179,-100,4,2,1,55,0,0
79247,-100,4,2,1,60,0,0
79314,-100,4,2,1,65,0,0
79382,-100,4,2,1,70,0,0
79450,-100,4,2,1,75,0,0
79517,-100,4,2,1,80,0,0
79585,-100,4,2,1,85,0,0
79652,-66.6666666666667,4,2,1,100,0,1
79652,-66.6666666666667,4,2,1,90,0,1
79720,-66.6666666666667,4,2,1,95,0,1
79787,-100,4,2,1,100,0,1
87760,-133.333333333333,4,2,1,80,0,0
88301,-100,4,2,1,100,0,1
89382,-133.333333333333,4,2,1,100,0,0
90463,-100,4,2,1,100,0,1
95869,-133.333333333333,4,2,1,100,0,0
96950,-100,4,2,1,100,0,1
105598,-100,4,2,1,100,0,0

[HitObjects]
176,160,1815,6,0,B|248:140|248:140|320:168,1,140
364,208,2625,1,0,0:0:0:0:
308,252,2896,2,0,P|224:240|176:192,1,140
144,148,3706,1,0,0:0:0:0:
200,108,3977,2,0,L|276:92,2,70
132,84,4787,1,0,0:0:0:0:
68,112,5058,6,0,P|108:184|160:208,1,140
228,220,5869,1,0,0:0:0:0:
228,220,6139,2,0,P|308:212|344:168,1,140
324,100,6950,1,0,0:0:0:0:
264,64,7220,6,0,B|192:56|192:56|132:96,1,140
96,152,8031,1,0,0:0:0:0:
84,220,8301,2,0,B|60:264|60:264|72:292,2,70
128,164,9112,1,0,0:0:0:0:
192,104,9382,6,2,P|276:60|344:96,1,175
404,156,10193,1,0,0:0:0:0:
388,224,10463,2,12,B|324:260|324:260|252:240,1,140
216,204,12625,6,12,L|176:128,1,70
140,68,14247,2,12,L|116:60,3,17.5
188,80,15058,5,12,0:0:0:0:
284,128,15598,2,0,B|328:192|328:192|268:260,1,140,12|12,0:0|0:0,0:0:0:0:
192,280,16544,2,12,L|128:272,1,35
120,216,16950,1,12,0:0:0:0:
144,152,17220,1,12,0:0:0:0:
204,116,17490,2,12,L|228:104,8,17.5
296,88,19112,6,4,L|356:156,1,70,12|4,0:0|0:0,0:0:0:0:
348,212,19652,2,4,B|272:244|272:244|272:244,1,70
216,216,20193,2,4,L|140:172,3,70
96,144,21274,1,4,0:0:0:0:
120,120,21409,1,0,0:0:0:0:
152,112,21544,1,4,0:0:0:0:
220,100,21814,2,4,B|268:108|268:108|280:152,1,70
232,188,22355,2,4,P|192:224|152:228,3,70
108,220,23436,6,0,L|88:264,2,35,4|0|4,0:0|0:0|0:0,0:0:0:0:
136,156,23977,1,4,0:0:0:0:
200,128,24247,1,4,0:0:0:0:
268,120,24517,1,4,0:0:0:0:
332,152,24787,1,4,0:0:0:0:
368,212,25058,2,4,P|336:252|304:272,1,70
252,268,25598,5,4,0:0:0:0:
216,260,25733,1,0,0:0:0:0:
184,244,25869,1,4,0:0:0:0:
124,208,26139,2,4,P|96:148|104:136,1,70
140,100,26679,2,4,P|196:96|216:104,1,70
276,116,27220,1,4,0:0:0:0:
340,148,27490,1,4,0:0:0:0:
376,208,27760,6,2,L|364:260,16,35
388,140,30193,2,2,L|376:80,14,35
340,88,32355,1,0,0:0:0:0:
272,80,32625,1,0,0:0:0:0:
204,92,32896,1,0,0:0:0:0:
144,128,33166,1,0,0:0:0:0:
108,188,33436,2,0,L|144:264,3,70
196,292,34517,6,8,P|248:280|268:264,1,70
296,208,35058,2,8,P|292:160|308:132,1,70
360,100,35598,2,8,P|404:100|424:128,1,70
444,184,36139,2,8,L|384:240,1,70
328,252,36679,6,0,P|280:276|232:272,1,70
148,196,37490,1,0,0:0:0:0:
108,140,37760,1,0,0:0:0:0:
156,88,38031,2,0,L|232:72,1,70
292,84,38571,1,0,0:0:0:0:
356,112,38842,2,0,L|412:168,1,70
440,232,39382,2,0,L|372:272,1,70
360,276,40733,6,0,P|300:296|264:284,1,70
236,260,41274,2,0,P|192:216|184:196,1,70
156,148,41814,1,0,0:0:0:0:
208,104,42085,1,0,0:0:0:0:
272,76,42355,1,0,0:0:0:0:
340,72,42625,2,0,L|432:100,1,70
460,136,43166,2,0,P|468:192|444:212,1,70
396,240,43706,2,0,L|352:268,6,38.5000011749268
472,168,44787,6,0,P|420:128|368:124,1,105.000004005432,0|14,0:0|0:0,0:0:0:0:
376,80,53706,6,0,P|320:64|276:64,1,70,14|4,0:0|0:0,0:0:0:0:
240,76,54247,2,4,P|172:80|148:96,1,70
116,120,54787,1,4,0:0:0:0:
136,188,55058,1,4,0:0:0:0:
188,236,55328,1,4,0:0:0:0:
256,236,55598,2,4,B|300:224|300:224|328:180,1,70
312,132,56139,6,4,P|340:96|368:104,1,70
424,128,56679,1,4,0:0:0:0:
404,196,56950,2,4,P|376:220|320:216,1,70
280,196,57490,2,4,L|312:120,2,70
260,264,58301,6,4,P|212:284|188:276,1,70
128,272,58842,2,4,P|96:308|68:324,2,70
156,208,59652,2,4,B|176:160|176:160|216:152,1,70
264,148,60193,5,4,0:0:0:0:
332,168,60463,1,4,0:0:0:0:
396,200,60733,2,4,P|408:256|416:272,2,70
380,132,61544,1,4,0:0:0:0:
316,100,61814,1,4,0:0:0:0:
248,84,62085,1,4,0:0:0:0:
108,88,62625,6,4,L|100:164,1,70
96,228,63166,1,4,0:0:0:0:
160,260,63436,1,4,0:0:0:0:
228,248,63706,1,4,0:0:0:0:
292,220,63977,2,4,P|340:208|352:176,1,70
348,52,64787,2,0,L|388:44,6,23.3333333333333,12|12|12|12|12|12|12,0:0|0:0|0:0|0:0|0:0|0:0|0:0,0:0:0:0:
280,76,65598,2,4,P|228:88|204:100,1,70
144,116,66139,2,4,P|96:148|96:164,1,70
112,292,66950,5,4,0:0:0:0:
180,292,67220,1,4,0:0:0:0:
240,256,67490,1,0,0:0:0:0:
368,196,68031,6,4,P|360:152|336:128,1,70
284,96,68571,2,4,P|224:88|208:96,1,70
148,96,69112,2,4,B|104:116|104:116|96:160,1,70
104,172,69517,1,4,0:0:0:0:
112,240,69787,1,4,0:0:0:0:
248,164,71004,6,0,B|288:136|288:136|312:152,1,70,8|0,0:0|0:0,0:0:0:0:
332,168,71814,2,0,L|360:192,1,35
388,232,72490,1,0,0:0:0:0:
348,264,72896,2,0,L|316:276,1,35
264,288,73571,1,0,0:0:0:0:
212,276,73977,1,0,0:0:0:0:
212,276,74247,5,0,0:0:0:0:
172,244,74652,1,0,0:0:0:0:
144,200,75058,1,0,0:0:0:0:
140,164,75328,2,2,L|168:148,24,17.5
204,136,79652,6,12,P|268:108|312:112,1,105.000004005432,14|12,0:0|0:0,0:0:0:0:
376,132,80193,1,12,0:0:0:0:
412,192,80463,1,12,0:0:0:0:
392,260,80733,2,12,P|344:284|316:288,3,70
260,280,81814,6,12,P|200:272|188:248,1,70
176,200,82355,2,12,B|168:156|168:156|128:136,1,70
84,112,82896,2,12,P|140:88|164:88,1,70
216,76,83436,1,12,0:0:0:0:
284,72,83706,1,12,0:0:0:0:
316,84,83842,1,8,0:0:0:0:
344,104,83977,6,8,L|384:128,1,35,12|8,0:0|0:0,0:0:0:0:
428,168,84382,2,12,L|384:228,1,70
288,256,85058,2,8,L|248:268,1,35,12|8,0:0|0:0,0:0:0:0:
192,240,85463,1,12,0:0:0:0:
140,192,85733,1,12,0:0:0:0:
112,92,86139,6,12,P|164:88|192:92,1,70
248,112,86679,1,12,0:0:0:0:
312,144,86950,1,12,0:0:0:0:
368,184,87220,2,12,B|420:248|420:248|356:296,1,140
236,296,88301,6,12,P|172:300|144:288,1,70
104,272,88842,2,12,P|80:208|96:184,1,70
152,140,89517,1,12,0:0:0:0:
200,124,89787,1,12,0:0:0:0:
252,120,90058,2,12,P|300:112|328:132,1,78.7500030040742
376,172,90733,6,12,P|404:220|392:240,1,70
340,264,91274,1,12,0:0:0:0:
272,276,91544,1,12,0:0:0:0:
204,260,91814,2,12,L|124:204,1,70
100,168,92355,6,8,L|60:184,2,35,12|8|12,0:0|0:0|0:0,0:0:0:0:
200,136,93031,1,12,0:0:0:0:
268,120,93301,1,12,0:0:0:0:
372,104,93706,2,8,L|400:156,1,35,12|8,0:0|0:0,0:0:0:0:
408,204,94112,2,12,L|336:244,1,70
260,292,94787,1,12,0:0:0:0:
192,276,95058,1,12,0:0:0:0:
140,228,95328,1,12,0:0:0:0:
104,168,95598,1,12,0:0:0:0:
84,120,95869,6,12,B|160:92|160:92|164:188,1,157.500006008148
164,196,96814,1,12,0:0:0:0:
164,232,96950,2,4,L|120:272,2,35
220,192,97490,1,4,0:0:0:0:
272,148,97760,1,4,0:0:0:0:
336,112,98031,5,4,0:0:0:0:
364,132,98166,1,0,0:0:0:0:
388,160,98301,1,4,0:0:0:0:
420,220,98571,2,4,P|400:268|376:276,1,70
320,300,99112,6,0,L|344:336,2,35,4|0|4,0:0|0:0|0:0,0:0:0:0:
284,240,99652,1,4,0:0:0:0:
248,180,99923,1,4,0:0:0:0:
208,120,100193,6,0,L|168:100,2,35,4|0|4,0:0|0:0|0:0,0:0:0:0:
276,128,100733,2,0,L|312:88,1,35,4|0,0:0|0:0,0:0:0:0:
324,76,101004,1,4,0:0:0:0:
344,48,101139,6,0,L|280:32,2,35,0|4|0,0:0|0:0|0:0,0:0:0:0:
380,56,101544,1,4,0:0:0:0:
436,96,101814,1,4,0:0:0:0:
404,160,102085,1,4,0:0:0:0:
372,224,102355,5,4,0:0:0:0:
360,256,102490,1,0,0:0:0:0:
336,284,102625,1,4,0:0:0:0:
268,300,102896,2,4,P|208:304|188:288,1,70
160,244,103436,6,0,L|116:272,2,35,4|0|4,0:0|0:0|0:0,0:0:0:0:
216,200,103977,1,4,0:0:0:0:
284,200,104247,1,4,0:0:0:0:
328,256,104517,1,4,0:0:0:0:
320,324,104787,1,4,0:0:0:0:
256,352,105058,1,4,0:0:0:0:
188,332,105328,1,4,0:0:0:0:
128,296,105598,6,0,P|80:252|76:232,1,70
44,188,106139,1,0,0:0:0:0:
136,84,106679,1,0,0:0:0:0:
204,64,106950,1,0,0:0:0:0:
272,52,107220,2,0,P|344:64|360:76,1,70
400,96,107760,1,0,0:0:0:0:
404,168,108031,2,0,P|376:204|356:216,1,70
288,228,108571,5,0,0:0:0:0:
124,232,109923,2,0,P|72:192|64:172,2,70
192,224,110733,2,0,L|256:188,1,70
312,152,111274,1,0,0:0:0:0:
268,96,111544,1,0,0:0:0:0:
204,72,111814,1,0,0:0:0:0:
136,80,112085,2,0,P|124:136|128:148,1,70
148,212,112625,2,0,P|120:240|80:264,2,70
180,152,113436,2,0,P|232:120|256:120,1,70
292,72,113977,6,14,B|352:64|352:64|388:104,1,105,14|0,0:0|0:0,0:0:0:0:
