osu file format v14

[General]
AudioFilename: audio.mp3
AudioLeadIn: 0
PreviewTime: 79112
Countdown: 0
SampleSet: Soft
StackLeniency: 0.7
Mode: 0
LetterboxInBreaks: 0
WidescreenStoryboard: 1

[Editor]
Bookmarks: 10463,18031,19112,27760,29923,30193,32085,33166,34247,36409,39382,40733,44787,45058,52085,52625,53706,61274,62355,62625,64382,64787,66679,66950,67760,68031,68842,69112,69923,71004,76139,76409,76679,76950,77220,77490,77760,78031,78301,78571,79652,95869,96950,105598,109923,113977
DistanceSpacing: 2.1
BeatDivisor: 4
GridSize: 4
TimelineZoom: 1.7

[Metadata]
Title:Werewolf howls
TitleUnicode:Werewolf howls
Artist:Camellia
ArtistUnicode:Camellia
Creator:Disorted
Version:Hard
Source:
Tags:
BeatmapID:1177684
BeatmapSetID:556469

[Difficulty]
HPDrainRate:4
CircleSize:3.5
OverallDifficulty:5
ApproachRate:8.5
SliderMultiplier:0.8
SliderTickRate:1

[Events]
//Background and Video events
0,0,"maxresdefault (3).jpg",0,0
//Break Periods
2,45258,51410
//Storyboard Layer 0 (Background)
//Storyboard Layer 1 (Fail)
//Storyboard Layer 2 (Pass)
//Storyboard Layer 3 (Foreground)
//Storyboard Sound Samples

[TimingPoints]
1815,270.27027027027,4,2,1,30,1,0
9382,-80,4,2,1,75,0,0
10463,-100,4,2,1,60,0,0
18031,-133.333333333333,4,2,1,70,0,0
19112,-100,4,2,1,100,0,1
27760,-100,4,2,1,80,0,1
29923,-133.333333333333,4,2,1,100,0,0
30193,-100,4,2,1,100,0,1
32085,-100,4,2,1,100,0,0
33639,-100,4,2,1,80,0,0
34247,-100,4,2,1,90,0,0
43706,-90.9090909090909,4,2,1,100,0,0
43977,-83.3333333333333,4,2,1,100,0,0
44247,-76.9230769230769,4,2,1,100,0,0
44517,-71.4285714285714,4,2,1,100,0,0
44787,-66.6666666666667,4,2,1,100,0,0
45058,-133.333333333333,4,2,1,50,0,0
52085,-133.333333333333,4,2,1,70,0,0
52625,-133.333333333333,4,2,1,80,0,0
53706,-100,4,2,1,100,0,1
62355,-133.333333333333,4,2,1,100,0,0
62625,-100,4,2,1,100,0,1
64382,-133.333333333333,4,2,1,100,0,0
64787,-100,4,2,1,100,0,1
66679,-133.333333333333,4,2,1,100,0,0
66950,-100,4,2,1,100,0,1
67760,-133.333333333333,4,2,1,100,0,0
68031,-100,4,2,1,100,0,1
68842,-133.333333333333,4,2,1,100,0,0
69112,-100,4,2,1,100,0,0
71004,-200,4,2,1,20,0,0
76139,-100,4,2,1,45,0,0
76409,-100,4,2,1,60,0,0
76679,-100,4,2,1,65,0,0
76950,-100,4,2,1,70,0,0
77220,-100,4,2,1,75,0,0
77490,-100,4,2,1,80,0,0
77760,-100,4,2,1,85,0,0
78031,-100,4,2,1,90,0,0
78301,-100,4,2,1,95,0,0
78571,-100,4,2,1,5,0,0
79112,-100,4,2,1,50,0,0
79179,-100,4,2,1,55,0,0
79247,-100,4,2,1,60,0,0
79314,-100,4,2,1,65,0,0
79382,-100,4,2,1,70,0,0
79450,-100,4,2,1,75,0,0
79517,-100,4,2,1,80,0,0
79585,-100,4,2,1,85,0,0
79652,-66.6666666666667,4,2,1,100,0,1
79652,-66.6666666666667,4,2,1,90,0,1
79720,-66.6666666666667,4,2,1,95,0,1
79787,-100,4,2,1,100,0,1
87760,-133.333333333333,4,2,1,80,0,0
88301,-100,4,2,1,100,0,1
89382,-133.333333333333,4,2,1,100,0,0
90463,-100,4,2,1,100,0,1
95869,-133.333333333333,4,2,1,100,0,0
96950,-100,4,2,1,100,0,1
105598,-100,4,2,1,100,0,0

[HitObjects]
200,148,1815,6,0,L|240:164,1,40
296,232,2085,2,0,L|344:212,1,40
352,128,2355,2,0,L|320:100,1,40
232,124,2625,2,0,L|264:160,1,40
332,208,2896,6,0,B|364:180|364:180|348:132,1,80,4|0,0:0|0:0,0:0:0:0:
280,84,3301,2,0,L|236:96,1,40
160,140,3571,2,0,L|192:176,1,40
276,184,3842,2,0,L|248:216,1,40
204,296,4112,2,0,L|252:320,1,40
300,248,4382,2,0,L|328:212,1,40
400,268,4652,2,0,L|448:236,2,40
340,340,5058,6,0,B|304:324|304:324|260:332,1,80,4|0,0:0|0:0,0:0:0:0:
224,248,5463,1,0,0:0:0:0:
184,164,5598,1,0,0:0:0:0:
236,88,5733,2,0,L|268:128,1,40
336,172,6004,2,0,L|360:132,1,40
296,68,6274,2,0,L|248:64,1,40
172,104,6544,1,0,0:0:0:0:
156,196,6679,1,0,0:0:0:0:
240,232,6814,2,0,L|272:192,2,40
168,292,7220,6,0,B|216:312|216:312|232:344,1,80,4|0,0:0|0:0,0:0:0:0:
320,332,7625,2,0,L|344:304,2,20
344,244,7896,2,0,L|316:244,2,20
272,184,8166,2,0,L|268:220,2,20
212,256,8436,2,0,L|184:236,2,20
288,308,8706,2,0,L|320:304,2,20
296,216,8977,6,0,B|256:188|256:188|228:200,1,80
192,92,9382,2,2,L|180:120,2,25
244,80,9652,2,2,L|256:52,2,25
276,124,9923,2,2,L|264:152,2,25
324,96,10193,2,2,L|336:56,2,25
256,152,10463,6,0,B|216:172|216:172|212:212,1,80
236,288,10869,2,0,L|284:300,2,40
160,272,11274,1,0,0:0:0:0:
160,272,11544,6,0,B|180:232|180:232|228:228,1,80
252,148,11950,2,0,L|216:120,2,40
300,220,12355,1,0,0:0:0:0:
300,220,12625,2,0,L|272:192,1,40
356,164,12896,2,0,L|388:196,1,40
340,268,13166,2,0,L|304:288,2,40
340,268,13706,2,0,L|320:224,1,40
352,148,13977,1,0,0:0:0:0:
280,100,14112,2,0,L|240:120,1,40
224,128,14314,1,2,0:0:0:0:
216,136,14382,1,2,0:0:0:0:
212,144,14450,1,2,0:0:0:0:
208,152,14517,6,0,B|176:192|176:192|180:224,1,80
200,240,15058,2,0,B|240:272|240:272|272:264,1,80
296,248,15598,2,0,B|332:220|332:220|372:240,1,80
388,248,16139,2,0,P|408:292|392:320,1,80
312,328,16544,2,0,L|272:296,1,40
212,232,16950,2,0,L|168:224,1,40
88,200,17220,2,0,L|92:256,1,40
168,280,17490,2,2,L|192:292,8,20
185,304,18842,6,0,L|208:328,1,30.0000011444092
292,316,19112,2,4,L|340:288,1,40
364,216,19382,2,4,B|344:172|344:172|304:164,1,80
224,160,19787,2,4,L|200:124,2,40
208,260,20193,2,4,P|260:272|292:256,1,80
316,244,20733,2,4,B|304:208|292:200|256:192,1,80
236,177,21274,2,4,L|184:180,2,40
260,184,21814,6,4,P|300:220|304:252,1,80
244,308,22220,1,4,0:0:0:0:
168,260,22355,2,4,B|136:220|136:220|152:192,1,80
168,172,22896,2,4,L|192:156,2,20,4|0|4,0:0|0:0|0:0,0:0:0:0:
96,208,23166,1,4,0:0:0:0:
96,208,23233,1,0,0:0:0:0:
96,208,23301,1,4,0:0:0:0:
144,280,23436,2,4,L|184:300,2,40
124,256,23977,6,4,P|104:216|124:184,1,80
184,132,24382,1,4,0:0:0:0:
264,172,24517,2,4,P|296:216|288:240,1,80
276,260,25058,2,4,B|224:272|224:272|188:256,1,80
176,228,25598,2,4,L|140:264,2,40
232,160,26004,1,4,0:0:0:0:
288,92,26139,6,4,B|332:124|332:124|344:160,1,80
344,176,26679,2,4,L|296:192,1,40
220,204,26950,2,4,L|168:188,1,40
108,144,27220,2,4,L|132:104,1,40
216,92,27490,2,4,L|248:116,1,40
312,176,27760,2,2,L|320:216,15,40
296,296,29923,6,8,L|268:312,3,20.0000007629395
208,280,30328,2,2,L|176:256,10,40
144,220,31814,2,8,L|116:240,2,20
212,164,32085,2,0,L|252:152,1,40
336,128,32355,2,0,L|356:172,1,40
356,252,32625,2,0,L|312:284,1,40
244,240,32896,2,0,L|280:212,1,40
336,152,33166,2,0,L|308:104,7,40
364,192,34247,6,0,L|356:236,1,40
288,288,34517,2,0,L|236:308,1,40
172,268,34787,2,0,L|136:228,1,40
204,172,35058,2,0,L|244:212,1,40
312,240,35328,2,0,L|368:244,1,40
384,160,35598,2,0,L|336:136,1,40
260,144,35869,2,0,L|240:192,1,40
220,264,36139,2,0,L|264:288,1,40
344,296,36409,6,0,L|396:264,3,60
432,184,37220,2,0,L|392:160,1,40
316,120,37490,2,0,L|264:151,2,60
356,104,37963,1,0,0:0:0:0:
396,128,38031,2,0,L|428:184,2,60
324,76,38571,2,0,L|256:104,2,60
412,60,39179,6,0,L|428:120,1,60
432,224,40733,2,0,L|483:192,3,60
480,300,41544,2,0,L|440:316,1,40
372,296,41814,2,0,L|352:360,2,60
380,260,42287,1,0,0:0:0:0:
416,260,42355,2,0,L|472:292,2,60
368,208,42896,2,0,L|340:156,2,60
332,275,43436,6,0,L|296:328,1,60
260,332,43706,2,0,L|212:308,1,44.0000013427735
168,240,43977,2,0,L|208:184,1,47.9999985351563
260,132,44247,2,0,L|312:168,1,51.999997619629
396,200,44517,2,2,L|388:232,2,27.9999991455078
400,92,44788,2,0,B|352:60|352:60|356:132,1,120.000004577637
232,164,52085,6,2,L|252:184,6,15.0000005722046
260,188,53706,2,4,L|296:208,1,40
380,204,53977,2,4,B|364:160|364:160|320:144,1,80
248,148,54382,1,4,0:0:0:0:
192,212,54517,1,4,0:0:0:0:
228,288,54652,1,4,0:0:0:0:
312,272,54787,2,4,L|352:244,1,40
408,196,55058,2,4,L|441:218,2,40
332,164,55463,6,4,B|298:173|298:173|266:141,1,80,4|4,0:0|0:0,0:0:0:0:
224,68,55869,2,4,L|184:108,1,40,4|4,0:0|0:0,0:0:0:0:
124,140,56139,2,4,B|120:184|120:184|152:200,1,80
236,184,56544,2,4,L|248:136,2,40
224,268,56950,2,4,L|268:296,1,40
340,268,57220,2,4,L|328:216,1,40
288,156,57490,1,4,0:0:0:0:
208,136,57625,1,4,0:0:0:0:
124,124,57760,2,4,L|92:168,1,40
80,240,58031,2,4,L|124:256,1,40,4|4,0:0|0:0,0:0:0:0:
180,200,58301,6,4,B|160:160|160:160|192:144,1,80
272,120,58706,2,4,L|316:140,1,40
376,188,58977,2,4,L|336:224,1,40
380,292,59247,2,4,L|424:256,1,40
404,184,59517,2,4,L|368:156,1,40
316,96,59787,6,4,B|276:76|276:76|232:92,1,80,4|4,0:0|0:0,0:0:0:0:
160,108,60193,2,4,L|140:60,2,40,4|4|4,0:0|0:0|0:0,0:0:0:0:
180,188,60598,1,4,0:0:0:0:
260,208,60733,1,4,0:0:0:0:
316,144,60869,1,4,0:0:0:0:
280,68,61004,1,4,0:0:0:0:
196,84,61139,1,4,0:0:0:0:
180,168,61274,2,4,L|140:204,1,40
200,264,61544,2,4,L|240:228,1,40
224,152,61814,2,4,L|188:184,1,40
276,200,62085,2,4,L|296:176,2,20
79,174,62625,6,4,P|78:213|104:244,1,80,4|4,0:0|0:0,0:0:0:0:
184,271,63031,2,4,L|224:264,1,40
304,236,63301,1,4,0:0:0:0:
340,160,63436,1,4,0:0:0:0:
288,92,63571,1,4,0:0:0:0:
212,56,63706,2,4,L|168:76,2,40
292,80,64112,6,4,P|332:80|320:44,1,80,4|4,0:0|0:0,0:0:0:0:
284,24,64787,2,4,L|244:20,6,26.6666666666667,4|4|4|4|4|4|4,0:0|0:0|0:0|0:0|0:0|0:0|0:0,0:0:0:0:
200,24,65463,1,4,0:0:0:0:
128,68,65598,2,4,L|96:100,1,40
92,180,65869,2,4,L|144:176,1,40
212,148,66139,2,4,L|236:184,1,40
288,248,66409,2,4,B|260:288|260:288|268:336,1,80
348,352,66950,6,4,B|392:324|392:324|396:288,1,80,4|4,0:0|0:0,0:0:0:0:
368,216,67355,1,4,0:0:0:0:
308,156,67490,1,4,0:0:0:0:
224,148,67625,1,4,0:0:0:0:
156,196,67760,1,4,0:0:0:0:
156,196,68031,6,4,B|192:236|192:236|236:236,1,80,4|4,0:0|0:0,0:0:0:0:
300,228,68436,2,4,L|344:200,1,40
384,140,68706,2,4,L|360:88,1,40
312,32,69112,2,4,L|272:60,1,40,4|0,0:0|0:0,0:0:0:0:
288,140,69382,2,4,L|336:116,1,40,4|0,0:0|0:0,0:0:0:0:
376,56,69652,2,4,L|328:48,1,40
192,144,71004,5,4,0:0:0:0:
312,112,71409,1,0,0:0:0:0:
288,236,71814,2,0,L|244:256,1,40
128,228,72490,1,0,0:0:0:0:
136,100,72896,2,0,L|176:80,1,40
296,100,73571,1,0,0:0:0:0:
396,176,73977,1,0,0:0:0:0:
396,176,74247,5,0,0:0:0:0:
280,224,74652,1,0,0:0:0:0:
188,140,75058,2,0,L|148:148,1,40
120,180,75463,1,0,0:0:0:0:
128,220,75598,1,0,0:0:0:0:
164,244,75733,1,0,0:0:0:0:
208,248,75869,1,0,0:0:0:0:
248,244,76004,5,0,0:0:0:0:
312,188,76139,2,2,L|320:164,3,20
316,128,76409,2,2,L|300:104,3,20
272,84,76679,2,2,L|240:80,3,20
208,88,76950,2,2,L|184:104,3,20
172,136,77220,2,2,L|184:160,3,20
216,180,77490,2,2,L|240:188,3,20
272,204,77760,2,2,L|268:236,3,20
248,260,78031,2,2,L|216:260,3,20
188,244,78301,2,2,L|172:216,4,20
116,152,79652,6,12,L|172:128,1,60.0000022888184,12|12,0:0|0:0,0:0:0:0:
256,112,79923,1,12,0:0:0:0:
336,140,80058,1,12,0:0:0:0:
364,220,80193,1,12,0:0:0:0:
316,292,80328,1,12,0:0:0:0:
236,312,80463,6,12,B|184:316|184:316|160:284,1,80
140,216,80869,2,12,L|156:172,1,40
212,120,81139,2,12,L|264:104,1,40
328,136,81409,2,12,L|296:168,1,40
216,180,81679,2,12,L|180:136,1,40
216,68,81950,2,12,L|260:60,1,40
280,140,82220,2,12,L|232:168,1,40
184,216,82490,2,12,L|172:256,1,40
220,324,82760,2,12,L|268:308,1,40
308,240,83031,2,12,L|256:232,1,40
188,204,83301,2,12,L|236:192,2,40
168,216,83639,1,12,0:0:0:0:
156,224,83706,1,12,0:0:0:0:
84,264,83842,1,12,0:0:0:0:
144,320,83977,2,12,L|192:328,1,40
260,296,84247,1,12,0:0:0:0:
260,296,84382,6,12,B|288:256|288:256|268:224,1,80
292,148,84787,1,12,0:0:0:0:
292,148,85058,2,12,L|252:124,1,40
172,112,85328,1,12,0:0:0:0:
172,112,85463,6,12,P|140:152|136:192,1,80
172,256,85869,1,12,0:0:0:0:
172,256,86139,2,12,L|216:272,1,40
284,308,86409,2,12,L|312:260,1,40
364,216,86679,2,12,L|380:264,2,40
308,152,87085,6,12,B|252:68|252:68|272:168,1,200
280,192,87828,1,12,0:0:0:0:
284,204,87896,1,12,0:0:0:0:
312,260,88031,1,12,0:0:0:0:
396,244,88166,1,12,0:0:0:0:
436,172,88301,2,12,L|412:128,1,40,12|12,0:0|0:0,0:0:0:0:
368,72,88571,6,12,P|324:84|324:116,1,80
360,188,88977,2,12,L|408:160,2,40
300,204,89382,2,8,L|276:228,1,30.0000011444092,8|12,0:0|0:0,0:0:0:0:
220,248,89652,2,8,L|180:240,1,30.0000011444092,8|12,0:0|0:0,0:0:0:0:
144,200,89923,2,8,L|168:176,1,30.0000011444092,8|12,0:0|0:0,0:0:0:0:
216,180,90463,6,12,L|180:136,1,40
216,68,90734,2,12,L|260:60,1,40
280,140,91004,2,12,L|232:168,1,40
184,216,91274,2,12,L|172:256,1,40
240,308,91544,2,12,L|264:348,2,40
188,204,91950,2,12,L|236:192,2,40
168,216,92288,1,12,0:0:0:0:
156,224,92356,1,12,0:0:0:0:
76,248,92490,1,12,0:0:0:0:
148,292,92625,1,12,0:0:0:0:
220,332,92760,1,12,0:0:0:0:
292,284,92896,1,12,0:0:0:0:
292,284,93031,6,12,B|320:244|320:244|300:212,1,80
292,148,93436,1,12,0:0:0:0:
292,148,93706,2,12,L|252:124,1,40
172,112,93977,1,12,0:0:0:0:
172,112,94112,6,12,P|140:152|136:192,1,80
172,256,94518,1,12,0:0:0:0:
172,256,94787,2,12,L|216:272,1,40
292,260,95058,2,12,L|332:232,1,40
352,156,95328,2,12,L|320:132,1,40
244,96,95598,2,12,L|200:120,1,40
256,192,95869,12,0,96544,0:0:0:0:
256,192,96679,6,6,L|240:172,2,15.0000005722046
220,268,96950,2,4,L|180:284,2,40
384,232,97490,1,4,0:0:0:0:
228,168,97760,1,4,0:0:0:0:
396,164,98031,2,4,L|424:120,2,40
292,296,98571,1,4,0:0:0:0:
168,184,98842,1,4,0:0:0:0:
332,220,99112,1,4,0:0:0:0:
392,160,99247,1,4,0:0:0:0:
352,88,99382,5,4,0:0:0:0:
188,60,99652,2,4,B|140:80|140:80|120:116,1,80
124,272,100193,1,4,0:0:0:0:
124,272,100328,1,4,0:0:0:0:
124,272,100463,1,4,0:0:0:0:
292,288,100733,1,4,0:0:0:0:
348,224,100869,1,4,0:0:0:0:
336,132,101004,1,4,0:0:0:0:
336,132,101071,1,0,0:0:0:0:
336,132,101139,5,4,0:0:0:0:
252,124,101274,2,4,L|256:100,2,20
244,208,101544,1,4,0:0:0:0:
124,88,101814,1,4,0:0:0:0:
292,72,102085,2,4,P|344:92|360:112,1,80
384,192,102490,1,4,0:0:0:0:
336,264,102625,5,4,0:0:0:0:
168,264,102896,2,4,B|176:216|176:216|200:192,1,80
332,96,103436,2,4,L|368:80,2,40
180,168,103977,1,4,0:0:0:0:
324,252,104247,1,4,0:0:0:0:
400,104,104517,2,4,L|348:80,1,40
284,64,104787,2,4,L|232:72,1,40
164,96,105058,2,4,L|120:124,1,40
100,196,105328,2,4,L|120:240,1,40
188,276,105598,6,0,L|248:304,3,60
368,280,106409,2,0,L|400:240,1,40
392,164,106679,2,0,L|348:116,2,60
408,204,107152,1,0,0:0:0:0:
404,244,107220,2,0,L|468:284,2,60
340,188,107760,2,0,L|304:136,3,60
208,60,108571,6,0,L|180:100,1,40
144,208,109923,2,0,L|184:224,1,40
264,200,110193,1,0,0:0:0:0:
332,152,110328,1,0,0:0:0:0:
384,88,110463,2,0,L|420:128,1,40
424,200,110733,2,0,L|384:216,1,40
312,176,111004,2,0,L|344:140,1,40
416,116,111274,2,0,L|424:160,1,40
396,236,111544,6,0,L|352:236,1,40
276,216,111814,2,0,L|304:176,1,40
332,104,112085,2,0,L|280:96,1,40
212,124,112355,2,0,L|180:164,1,40
220,232,112625,2,0,L|256:188,1,40
304,140,112896,2,0,L|336:184,1,40
304,252,113166,2,0,L|256:228,1,40
208,176,113436,1,0,0:0:0:0:
244,100,113571,1,0,0:0:0:0:
328,88,113706,1,0,0:0:0:0:
396,140,113842,1,0,0:0:0:0:
392,224,113977,6,0,B|356:256|356:256|316:240,1,80
