osu file format v14

[General]
AudioFilename: audio.mp3
AudioLeadIn: 0
PreviewTime: -1
Countdown: 0
SampleSet: Soft
StackLeniency: 0.7
Mode: 0
LetterboxInBreaks: 0
WidescreenStoryboard: 0

[Editor]
Bookmarks: 16050,23550,31050,38550,46050,51675,52612,53081,53315,53550,68550,72300,74175,74995,75698,76050,79800,81440,81675,85776,85893,85952,86010,86128,86245,86362,86479,86596,87768,87885,88003,88354,88413,88471,88647,89057,89995,90346,90581,90698,91050,91518,91635,91753,91870,93393,93452,93510,93628,93745,93862,93979,95268,95385,95503,95796,96616,97143,97495,97846,98081,98198,98550,100425,101714,101831,102300,102768,103589,104175,104643,104995,105346,105581,105698,106050,106401,106518,106870,106987,107104,107221,107339,107397,107456,107573,107690,107749,107807,107925,108393,108452,108510,108628,108745,108803,108862,108979,109096,109214,109331,109448,109800,110268,110327,110385,110503,110620,110854,110971,111675,119643,119995,120112,120346,120698,121050,121518,121987,122456,122925,123393,123862,124096,124331,124448,124800,125268,125620,126206,126675,127143,127495,127846,128081,128198,128550,129018,129370,129956,130425,130893,131245,131596,131831,131948,132300,134175,134409,134643,134995,135346,135581,135698,136050,166050,248550,295425,302339
DistanceSpacing: 0.8
BeatDivisor: 16
GridSize: 16
TimelineZoom: 3.3

[Metadata]
Title:Welcome To The Cyphisonia
TitleUnicode:Welcome To The Cyphisonia
Artist:Camellia
ArtistUnicode:Camellia
Creator:Zedriv
Version:Ez pz
Source:
Tags:
BeatmapID:1424956
BeatmapSetID:673291

[Difficulty]
HPDrainRate:7
CircleSize:4
OverallDifficulty:5
ApproachRate:10
SliderMultiplier:1.99999990463257
SliderTickRate:1

[Events]
//Background and Video events
0,0,"kagura background 2.jpg",0,0
//Break Periods
2,121249,131850
//Storyboard Layer 0 (Background)
//Storyboard Layer 1 (Fail)
//Storyboard Layer 2 (Pass)
//Storyboard Layer 3 (Foreground)
//Storyboard Sound Samples

[TimingPoints]
8550,468.75,4,2,0,75,1,0
23550,-200,4,2,0,75,0,0
51206,-200,4,2,0,5,0,0
51675,-200,4,2,0,75,0,0
51675,-200,4,2,0,75,0,0
81440,-50,4,2,0,75,0,0
81675,-200,4,2,0,75,0,0
83960,-200,4,2,0,75,0,0
83989,-66.6666666666667,4,2,0,75,0,0
84048,-66.6666666666667,4,2,0,5,0,0
84106,-66.6666666666667,4,2,0,75,0,0
84165,-66.6666666666667,4,2,0,5,0,0
84223,-66.6666666666667,4,2,0,75,0,0
84282,-66.6666666666667,4,2,0,5,0,0
84341,-66.6666666666667,4,2,0,75,0,0
85600,-66.6666666666667,4,2,0,5,0,0
85805,-66.6666666666667,4,2,0,75,0,0
85923,-66.6666666666667,4,2,0,5,0,0
85952,-66.6666666666667,4,2,0,75,0,0
85981,-66.6666666666667,4,2,0,5,0,0
86010,-66.6666666666667,4,2,0,75,0,0
86040,-66.6666666666667,4,2,0,5,0,0
86069,-66.6666666666667,4,2,0,75,0,0
86157,-66.6666666666667,4,2,0,5,0,0
86216,-66.6666666666667,4,2,0,75,0,0
86274,-66.6666666666667,4,2,0,5,0,0
86333,-66.6666666666667,4,2,0,75,0,0
86391,-66.6666666666667,4,2,0,5,0,0
86450,-66.6666666666667,4,2,0,75,0,0
86508,-66.6666666666667,4,2,0,5,0,0
86567,-66.6666666666667,4,2,0,75,0,0
87241,-133.333333333333,4,2,0,5,0,0
87300,-133.333333333333,4,2,0,75,0,0
87710,-66.6666666666667,4,2,0,5,0,0
87768,-66.6666666666667,4,2,0,75,0,0
87827,-66.6666666666667,4,2,0,5,0,0
87885,-66.6666666666667,4,2,0,75,0,0
87944,-66.6666666666667,4,2,0,5,0,0
88003,-66.6666666666667,4,2,0,75,0,0
88061,-66.6666666666667,4,2,0,5,0,0
88120,-50,4,2,0,75,0,0
88237,-66.6666666666667,4,2,0,5,0,0
88325,-66.6666666666667,4,2,0,75,0,0
88676,-50,4,2,0,75,0,0
88999,-50,4,2,0,5,0,0
89175,-50,4,2,0,75,0,0
89497,-50,4,2,0,5,0,0
89614,-50,4,2,0,75,0,0
89995,-100,4,2,0,75,0,0
90229,-100,4,2,0,5,0,0
90317,-200,4,2,0,75,0,0
90434,-200,4,2,0,5,0,0
90551,-100,4,2,0,75,0,0
90962,-66.6666666666667,4,2,0,5,0,0
91050,-50,4,2,0,75,0,0
91401,-50,4,2,0,5,0,0
91518,-66.6666666666667,4,2,0,75,0,0
91577,-66.6666666666667,4,2,0,5,0,0
91635,-66.6666666666667,4,2,0,75,0,0
91694,-66.6666666666667,4,2,0,5,0,0
91753,-66.6666666666667,4,2,0,75,0,0
91811,-66.6666666666667,4,2,0,5,0,0
91870,-66.6666666666667,4,2,0,75,0,0
92046,-66.6666666666667,4,2,0,5,0,0
92104,-66.6666666666667,4,2,0,75,0,0
93335,-66.6666666666667,4,2,0,5,0,0
93393,-66.6666666666667,4,2,0,75,0,0
93423,-66.6666666666667,4,2,0,5,0,0
93452,-66.6666666666667,4,2,0,75,0,0
93481,-66.6666666666667,4,2,0,5,0,0
93510,-66.6666666666667,4,2,0,75,0,0
93540,-66.6666666666667,4,2,0,5,0,0
93569,-66.6666666666667,4,2,0,75,0,0
93686,-66.6666666666667,4,2,0,5,0,0
93745,-66.6666666666667,4,2,0,75,0,0
93803,-66.6666666666667,4,2,0,5,0,0
93862,-66.6666666666667,4,2,0,75,0,0
93921,-66.6666666666667,4,2,0,5,0,0
93979,-66.6666666666667,4,2,0,75,0,0
94038,-66.6666666666667,4,2,0,5,0,0
94096,-66.6666666666667,4,2,0,75,0,0
94272,-66.6666666666667,4,2,0,5,0,0
94331,-66.6666666666667,4,2,0,75,0,0
94741,-66.6666666666667,4,2,0,5,0,0
94800,-66.6666666666667,4,2,0,75,0,0
95210,-66.6666666666667,4,2,0,5,0,0
95268,-66.6666666666667,4,2,0,75,0,0
95327,-66.6666666666667,4,2,0,5,0,0
95385,-66.6666666666667,4,2,0,75,0,0
95444,-66.6666666666667,4,2,0,5,0,0
95503,-66.6666666666667,4,2,0,75,0,0
95561,-66.6666666666667,4,2,0,5,0,0
95620,-66.6666666666667,4,2,0,75,0,0
95796,-66.6666666666667,4,2,0,5,0,0
95854,-66.6666666666667,4,2,0,75,0,0
96616,-66.6666666666667,4,2,0,5,0,0
96675,-66.6666666666667,4,2,0,75,0,0
102241,-66.6666666666667,4,2,0,5,0,0
102300,-66.6666666666667,4,2,0,75,0,0
102710,-66.6666666666667,4,2,0,5,0,0
102768,-66.6666666666667,4,2,0,75,0,0
102827,-66.6666666666667,4,2,0,5,0,0
102885,-66.6666666666667,4,2,0,75,0,0
102944,-66.6666666666667,4,2,0,5,0,0
103003,-66.6666666666667,4,2,0,75,0,0
103061,-66.6666666666667,4,2,0,5,0,0
103120,-66.6666666666667,4,2,0,75,0,0
103178,-66.6666666666667,4,2,0,5,0,0
103237,-66.6666666666667,4,2,0,75,0,0
103296,-66.6666666666667,4,2,0,5,0,0
103354,-66.6666666666667,4,2,0,75,0,0
103413,-66.6666666666667,4,2,0,5,0,0
103471,-66.6666666666667,4,2,0,75,0,0
105288,-66.6666666666667,4,2,0,5,0,0
105346,-66.6666666666667,4,2,0,75,0,0
105991,-66.6666666666667,4,2,0,5,0,0
106050,-66.6666666666667,4,2,0,75,0,0
107016,-66.6666666666667,4,2,0,5,0,0
107046,-66.6666666666667,4,2,0,75,0,0
107075,-66.6666666666667,4,2,0,5,0,0
107104,-66.6666666666667,4,2,0,75,0,0
107133,-66.6666666666667,4,2,0,5,0,0
107221,-66.6666666666667,4,2,0,75,0,0
107251,-66.6666666666667,4,2,0,5,0,0
107339,-66.6666666666667,4,2,0,75,0,0
107368,-66.6666666666667,4,2,0,5,0,0
107397,-66.6666666666667,4,2,0,75,0,0
107426,-66.6666666666667,4,2,0,5,0,0
107456,-66.6666666666667,4,2,0,75,0,0
107485,-66.6666666666667,4,2,0,5,0,0
107573,-66.6666666666667,4,2,0,75,0,0
107602,-66.6666666666667,4,2,0,5,0,0
107690,-66.6666666666667,4,2,0,75,0,0
107719,-66.6666666666667,4,2,0,5,0,0
107749,-66.6666666666667,4,2,0,75,0,0
107778,-66.6666666666667,4,2,0,5,0,0
107807,-66.6666666666667,4,2,0,75,0,0
107837,-66.6666666666667,4,2,0,5,0,0
107925,-66.6666666666667,4,2,0,75,0,0
108335,-66.6666666666667,4,2,0,5,0,0
108393,-66.6666666666667,4,2,0,75,0,0
108423,-66.6666666666667,4,2,0,5,0,0
108452,-66.6666666666667,4,2,0,75,0,0
108481,-66.6666666666667,4,2,0,5,0,0
108510,-66.6666666666667,4,2,0,75,0,0
108540,-66.6666666666667,4,2,0,5,0,0
108628,-66.6666666666667,4,2,0,75,0,0
108657,-66.6666666666667,4,2,0,5,0,0
108745,-66.6666666666667,4,2,0,75,0,0
108774,-66.6666666666667,4,2,0,5,0,0
108803,-66.6666666666667,4,2,0,75,0,0
108833,-66.6666666666667,4,2,0,5,0,0
108862,-66.6666666666667,4,2,0,75,0,0
108891,-66.6666666666667,4,2,0,5,0,0
108979,-66.6666666666667,4,2,0,75,0,0
109008,-66.6666666666667,4,2,0,5,0,0
109096,-66.6666666666667,4,2,0,75,0,0
109126,-66.6666666666667,4,2,0,5,0,0
109214,-66.6666666666667,4,2,0,75,0,0
109243,-66.6666666666667,4,2,0,5,0,0
109331,-50,4,2,0,75,0,0
109331,-66.6666666666667,4,2,0,75,0,0
109389,-50,4,2,0,5,0,0
109448,-66.6666666666667,4,2,0,75,0,0
109741,-66.6666666666667,4,2,0,5,0,0
109800,-66.6666666666667,4,2,0,75,0,0
110210,-66.6666666666667,4,2,0,5,0,0
110268,-66.6666666666667,4,2,0,75,0,0
110298,-66.6666666666667,4,2,0,5,0,0
110327,-66.6666666666667,4,2,0,75,0,0
110356,-66.6666666666667,4,2,0,5,0,0
110385,-66.6666666666667,4,2,0,75,0,0
110415,-66.6666666666667,4,2,0,5,0,0
110503,-66.6666666666667,4,2,0,75,0,0
110532,-66.6666666666667,4,2,0,5,0,0
110620,-66.6666666666667,4,2,0,75,0,0
110913,-66.6666666666667,4,2,0,5,0,0
110971,-66.6666666666667,4,2,0,75,0,0
112495,-50,4,2,0,75,0,0
112671,-50,4,2,0,5,0,0
112729,-66.6666666666667,4,2,0,75,0,0
113491,-66.6666666666667,4,2,0,5,0,0
113550,-66.6666666666667,4,2,0,75,0,0
113960,-66.6666666666667,4,2,0,5,0,0
114018,-66.6666666666667,4,2,0,75,0,0
114897,-66.6666666666667,4,2,0,5,0,0
114956,-66.6666666666667,4,2,0,75,0,0
115132,-66.6666666666667,4,2,0,5,0,0
115425,-66.6666666666667,4,2,0,75,0,0
115835,-66.6666666666667,4,2,0,5,0,0
115893,-66.6666666666667,4,2,0,75,0,0
115923,-66.6666666666667,4,2,0,5,0,0
115952,-66.6666666666667,4,2,0,75,0,0
115981,-66.6666666666667,4,2,0,5,0,0
116010,-66.6666666666667,4,2,0,75,0,0
116040,-66.6666666666667,4,2,0,5,0,0
116128,-66.6666666666667,4,2,0,75,0,0
116157,-66.6666666666667,4,2,0,5,0,0
116245,-66.6666666666667,4,2,0,75,0,0
116274,-66.6666666666667,4,2,0,5,0,0
116303,-66.6666666666667,4,2,0,75,0,0
116333,-66.6666666666667,4,2,0,5,0,0
116362,-66.6666666666667,4,2,0,75,0,0
116391,-66.6666666666667,4,2,0,5,0,0
116479,-66.6666666666667,4,2,0,75,0,0
116508,-66.6666666666667,4,2,0,5,0,0
116596,-66.6666666666667,4,2,0,75,0,0
117241,-66.6666666666667,4,2,0,5,0,0
117300,-50,4,2,0,75,0,0
117710,-50,4,2,0,5,0,0
117768,-66.6666666666667,4,2,0,75,0,0
118530,-66.6666666666667,4,2,0,5,0,0
118559,-66.6666666666667,4,2,0,75,0,0
118618,-66.6666666666667,4,2,0,5,0,0
118647,-66.6666666666667,4,2,0,75,0,0
119116,-66.6666666666667,4,2,0,5,0,0
119175,-66.6666666666667,4,2,0,75,0,0
119995,-66.6666666666667,4,2,0,100,0,0
120053,-66.6666666666667,4,2,0,5,0,0
120112,-66.6666666666667,4,2,0,75,0,0
120288,-66.6666666666667,4,2,0,5,0,0
120346,-66.6666666666667,4,2,0,75,0,0
120698,-66.6666666666667,4,2,0,75,0,0
133940,-66.6666666666667,4,2,0,5,0,0
134175,-66.6666666666667,4,2,0,75,0,0

[HitObjects]
256,192,1753,12,0,8550,0:0:0:0:
256,192,9487,5,0,0:0:0:0:
256,48,10425,1,0,0:0:0:0:
256,192,11362,1,0,0:0:0:0:
357,90,12300,1,0,0:0:0:0:
256,192,13237,1,0,0:0:0:0:
400,192,14175,1,0,0:0:0:0:
256,192,15112,1,0,0:0:0:0:
83,51,16050,5,0,0:0:0:0:
116,123,16518,1,0,0:0:0:0:
227,168,16987,5,0,0:0:0:0:
194,96,17456,1,0,0:0:0:0:
151,201,17925,5,0,0:0:0:0:
184,273,18393,1,0,0:0:0:0:
297,317,18862,5,0,0:0:0:0:
264,245,19331,1,0,0:0:0:0:
384,112,19800,5,0,0:0:0:0:
320,48,20268,1,0,0:0:0:0:
320,48,20737,5,0,0:0:0:0:
256,112,21206,1,0,0:0:0:0:
256,112,21675,5,0,0:0:0:0:
319,176,22143,1,0,0:0:0:0:
319,176,22612,5,0,0:0:0:0:
384,112,23081,1,0,0:0:0:0:
151,243,23550,6,0,P|184:199|179:140,1,100
142,84,24487,2,0,P|109:128|114:187,1,100
398,313,25425,6,0,P|431:269|426:210,1,100
389,154,26362,2,0,P|356:198|361:257,1,100
256,224,27300,6,0,L|256:336,1,100
256,160,28237,2,0,L|256:48,1,100
224,192,29175,6,0,L|112:192,1,100
288,192,30112,2,0,L|400:192,1,100
128,48,31050,5,0,0:0:0:0:
128,144,31518,1,0,0:0:0:0:
178,96,31987,6,0,L|66:96,1,100
432,96,32925,5,0,0:0:0:0:
336,96,33393,1,0,0:0:0:0:
383,146,33862,6,0,L|383:34,1,100
384,336,34800,5,0,0:0:0:0:
384,240,35268,1,0,0:0:0:0:
334,287,35737,6,0,L|446:287,1,100
80,288,36675,5,0,0:0:0:0:
176,288,37143,1,0,0:0:0:0:
129,238,37612,6,0,L|129:350,1,100
128,112,38550,5,0,0:0:0:0:
208,64,38784,1,0,0:0:0:0:
224,112,38901,1,0,0:0:0:0:
208,160,39018,1,0,0:0:0:0:
304,112,39253,5,0,0:0:0:0:
304,112,39370,1,0,0:0:0:0:
304,112,39487,1,0,0:0:0:0:
384,64,39721,1,0,0:0:0:0:
400,112,39839,1,0,0:0:0:0:
384,160,39956,1,0,0:0:0:0:
320,240,40190,5,0,0:0:0:0:
320,240,40425,1,0,0:0:0:0:
368,320,40659,1,0,0:0:0:0:
320,336,40776,1,0,0:0:0:0:
272,320,40893,1,0,0:0:0:0:
208,256,41128,5,0,0:0:0:0:
160,240,41245,1,0,0:0:0:0:
112,256,41362,1,0,0:0:0:0:
208,176,41596,1,0,0:0:0:0:
160,160,41714,1,0,0:0:0:0:
112,176,41831,1,0,0:0:0:0:
160,64,42065,1,0,0:0:0:0:
160,64,42300,5,0,0:0:0:0:
320,48,42534,1,0,0:0:0:0:
336,80,42651,1,0,0:0:0:0:
304,80,42768,1,0,0:0:0:0:
391,111,43003,1,0,0:0:0:0:
407,143,43120,1,0,0:0:0:0:
368,144,43237,1,0,0:0:0:0:
348,233,43472,1,0,0:0:0:0:
364,265,43589,1,0,0:0:0:0:
332,265,43706,1,0,0:0:0:0:
384,192,43940,1,0,0:0:0:0:
384,192,44175,5,0,0:0:0:0:
272,144,44409,1,0,0:0:0:0:
288,192,44526,1,0,0:0:0:0:
272,240,44643,1,0,0:0:0:0:
208,192,44878,5,0,0:0:0:0:
160,192,44995,1,0,0:0:0:0:
112,192,45112,1,0,0:0:0:0:
48,144,45346,1,0,0:0:0:0:
32,192,45464,1,0,0:0:0:0:
48,240,45581,1,0,0:0:0:0:
256,192,46050,12,0,51206,0:0:0:0:
383,61,51675,5,0,0:0:0:0:
368,149,51909,1,0,0:0:0:0:
313,213,52143,1,0,0:0:0:0:
231,243,52378,5,0,0:0:0:0:
173,218,52495,1,0,0:0:0:0:
151,159,52612,5,0,0:0:0:0:
126,216,52729,1,0,0:0:0:0:
151,273,52846,1,0,0:0:0:0:
208,298,52964,1,0,0:0:0:0:
270,294,53081,5,0,0:0:0:0:
228,247,53198,1,0,0:0:0:0:
215,185,53315,5,0,0:0:0:0:
187,241,53432,1,0,0:0:0:0:
130,268,53550,5,0,0:0:0:0:
144,176,54721,5,0,0:0:0:0:
195,105,54956,1,0,0:0:0:0:
278,114,55190,1,0,0:0:0:0:
320,205,56596,5,0,0:0:0:0:
269,276,56831,1,0,0:0:0:0:
186,267,57065,1,0,0:0:0:0:
70,172,57768,5,0,0:0:0:0:
58,93,58003,1,0,0:0:0:0:
172,237,58706,5,0,0:0:0:0:
160,158,58941,1,0,0:0:0:0:
355,243,60346,5,0,0:0:0:0:
430,198,60581,1,0,0:0:0:0:
449,109,60815,1,0,0:0:0:0:
353,42,62221,5,0,0:0:0:0:
278,87,62456,1,0,0:0:0:0:
259,176,62690,1,0,0:0:0:0:
240,275,64096,5,0,0:0:0:0:
167,345,64331,1,0,0:0:0:0:
69,336,64565,1,0,0:0:0:0:
127,205,65034,1,0,0:0:0:0:
85,62,65503,1,0,0:0:0:0:
127,205,66352,5,0,0:0:0:0:
190,248,66499,1,0,0:0:0:0:
269,245,66675,1,0,0:0:0:0:
220,124,66967,1,0,0:0:0:0:
243,33,67319,1,0,0:0:0:0:
268,110,67612,1,0,0:0:0:0:
333,189,67905,1,0,0:0:0:0:
444,252,68198,1,0,0:0:0:0:
324,279,68550,5,0,0:0:0:0:
312,279,72300,5,0,0:0:0:0:
296,279,74175,5,0,0:0:0:0:
259,273,74995,5,0,0:0:0:0:
215,255,75698,5,0,0:0:0:0:
171,218,76050,5,0,0:0:0:0:
141,154,76284,1,0,0:0:0:0:
137,84,76518,1,0,0:0:0:0:
188,36,76753,1,0,0:0:0:0:
257,38,76987,1,0,0:0:0:0:
311,81,77221,1,0,0:0:0:0:
326,149,77456,1,0,0:0:0:0:
279,201,77690,1,0,0:0:0:0:
261,269,77925,1,0,0:0:0:0:
291,332,78159,1,0,0:0:0:0:
357,352,78393,1,0,0:0:0:0:
414,311,78628,1,0,0:0:0:0:
431,243,78862,1,0,0:0:0:0:
417,174,79096,1,0,0:0:0:0:
379,114,79331,1,0,0:0:0:0:
316,83,79565,1,0,0:0:0:0:
246,73,79800,5,0,0:0:0:0:
167,85,79917,1,0,0:0:0:0:
101,130,80034,1,0,0:0:0:0:
68,203,80151,1,0,0:0:0:0:
91,277,80268,1,0,0:0:0:0:
160,320,80385,1,0,0:0:0:0:
237,298,80503,1,0,0:0:0:0:
283,233,80620,1,0,0:0:0:0:
274,153,80737,1,0,0:0:0:0:
284,73,80854,1,0,0:0:0:0:
353,33,80971,1,0,0:0:0:0:
426,65,81089,1,0,0:0:0:0:
442,143,81206,1,0,0:0:0:0:
424,220,81323,1,0,0:0:0:0:
366,277,81440,6,0,L|315:298,4,49.9999976158143
353,161,83081,6,0,L|392:181,2,25
285,128,83550,2,0,L|199:81,1,87.5
103,71,84018,2,0,L|132:94,1,37.5000014305115
281,223,84135,2,0,L|242:202,1,37.5000014305115
57,175,84253,2,0,L|95:181,1,37.5000014305115
247,205,84370,6,0,P|311:183|286:118,1,150.000005722046
246,99,84663,1,0,0:0:0:0:
197,76,84721,2,0,P|130:101|161:161,1,150.000005722046
222,178,85425,6,0,B|235:207|235:207|246:181|246:181|266:210|266:210|290:192|290:192|310:212|310:212|334:199|334:199|349:214|349:214|373:209|373:209,1,225.000008583069
424,211,85893,2,0,L|465:209,2,37.4999996423721
203,274,86128,1,0,0:0:0:0:
457,86,86245,1,0,0:0:0:0:
406,334,86362,1,0,0:0:0:0:
279,69,86479,1,0,0:0:0:0:
342,224,86596,6,0,B|364:231|373:210|356:190|327:184|300:202|267:223|252:247,1,150.000005722046
213,305,86948,6,0,B|191:298|182:319|199:339|228:345|262:328|256:288|201:266|168:283|123:321,1,187.500007152558
102,326,87300,2,0,P|39:296|61:254,1,131.25000500679
93,230,87768,6,0,L|132:212,1,37.5000014305115
195,171,87885,2,0,L|234:153,1,37.4999996423721
292,100,88003,2,0,L|331:82,1,37.5000014305115
400,52,88120,6,0,L|302:131,1,99.9999952316285
262,159,88354,1,0,0:0:0:0:
189,152,88413,1,0,0:0:0:0:
159,87,88471,2,0,L|157:17,2,56.2500021457673
155,158,88706,6,0,B|147:282|54:307|38:251|52:155|117:179|229:311,1,350
258,320,89175,2,0,B|309:339|355:338|406:320|424:263|439:216|437:180|424:139|396:110|369:97,1,350
316,61,89643,1,0,0:0:0:0:
198,54,89995,2,0,B|159:57|132:83|116:120|117:141,1,125
110,216,90346,2,0,P|111:232|120:253,1,37.5
162,303,90581,1,0,0:0:0:0:
280,330,90698,2,0,B|329:327|367:304|378:263,1,125
398,183,91050,6,0,B|386:132|386:132|341:164|341:164|318:117|318:117|272:133|272:133|242:99|242:99|188:111|188:111|130:94|130:94,1,350
59,49,91518,6,0,L|94:78,1,37.5000014305115
228,207,91635,2,0,L|189:177,1,37.5000014305115
33,136,91753,2,0,L|81:172,1,37.5000014305115
190,259,91870,2,0,L|96:184,1,112.500004291535
33,136,92104,2,0,L|81:172,2,37.5000014305115
195,260,92456,1,0,0:0:0:0:
278,325,92925,6,0,B|189:337|128:321|92:260|78:191|79:161,1,262.500010013581
62,121,93393,1,0,0:0:0:0:
102,103,93452,1,0,0:0:0:0:
144,102,93510,1,0,0:0:0:0:
243,242,93628,6,0,L|263:207,1,37.5000014305115
199,232,93745,2,0,L|209:191,1,37.5000014305115
149,233,93862,2,0,L|147:191,1,37.4999996423721
106,249,93979,2,0,L|94:210,1,37.5000014305115
67,127,94096,6,0,B|128:112|171:107|202:105,1,112.500004291535
264,103,94331,1,0,0:0:0:0:
269,184,94448,2,0,B|194:188|138:193|96:206|67:218,1,187.500007152558
107,290,94800,6,0,B|184:272|287:262|356:265|373:268,1,262.500010013581
436,274,95268,2,0,L|440:221,1,37.5000014305115
375,195,95385,2,0,L|379:142,1,37.5000014305115
306,134,95503,2,0,L|310:81,1,37.5000014305115
241,76,95620,6,0,P|200:37|152:88,1,112.500004291535
132,105,95854,2,0,L|120:145,1,37.5000014305115
112,192,95971,5,0,0:0:0:0:
153,158,96059,1,0,0:0:0:0:
193,139,96147,1,0,0:0:0:0:
227,119,96206,2,0,P|347:158|290:250,1,262.500010013581
298,247,96675,6,0,P|363:319|459:191,1,300.000011444092
460,195,97495,6,0,P|358:178|407:105,1,225.000008583069
476,85,98081,1,0,0:0:0:0:
404,106,98198,2,0,L|182:160,1,225.000008583069
185,159,100425,5,0,0:0:0:0:
88,195,101714,1,0,0:0:0:0:
50,230,101772,1,0,0:0:0:0:
44,270,101831,2,0,P|91:341|180:233,1,262.500010013581
168,194,102300,6,0,P|235:91|320:162,1,262.500010013581
329,197,102768,1,0,0:0:0:0:
341,114,102885,1,0,0:0:0:0:
257,235,103003,1,0,0:0:0:0:
438,121,103120,1,0,0:0:0:0:
192,156,103237,1,0,0:0:0:0:
457,245,103354,1,0,0:0:0:0:
262,153,103471,6,0,L|195:125,3,56.2500021457673
207,129,104175,6,0,P|100:166|184:284,1,300.000011444092
180,284,104995,2,0,L|365:311,1,187.500007152558
394,314,105346,2,0,P|449:240|393:212,1,150.000005722046
354,190,105698,6,0,P|286:164|211:76,1,187.500007152558
321,252,106050,2,0,P|211:194|153:111,1,225.000008583069
139,79,106460,1,0,0:0:0:0:
136,34,106518,2,0,L|375:34,1,225.000008583069
412,163,106987,6,0,L|410:188,1,18.7500007152558
393,183,107046,2,0,L|391:208,1,18.7500007152558
369,203,107104,2,0,L|366:235,1,18.7500007152558
286,267,107221,1,0,0:0:0:0:
191,292,107339,6,0,L|181:272,1,18.7499998211861
163,302,107397,2,0,L|151:320,1,18.7500007152558
128,298,107456,2,0,L|111:276,1,18.7499998211861
61,233,107573,1,0,0:0:0:0:
54,154,107690,6,0,L|81:148,1,18.7500007152558
77,115,107749,2,0,L|101:123,1,18.7500007152558
114,91,107807,2,0,L|126:104,1,18.7500007152558
218,61,107925,6,0,P|340:103|290:186,1,262.499997496605
218,217,108393,6,0,L|200:196,1,18.7500007152558
187,229,108452,2,0,L|173:205,1,18.7499998211861
162,239,108510,2,0,L|148:221,1,18.7499998211861
71,263,108628,1,0,0:0:0:0:
168,289,108745,6,0,L|142:281,1,18.7499998211861
204,297,108803,2,0,L|172:288,1,18.7500007152558
240,307,108862,2,0,L|207:297,1,18.7500007152558
367,287,108979,6,0,L|378:259,1,18.7500007152558
335,107,109096,2,0,L|314:105,1,18.7499998211861
205,197,109214,2,0,L|216:220,1,18.7500007152558
285,232,109331,2,0,P|302:232|309:207,1,37.4999996423721
286,174,109448,2,0,P|215:133|200:224,1,187.500007152558
213,255,109800,6,0,P|324:288|371:173,1,262.500010013581
333,103,110268,6,0,L|318:83,1,18.7500007152558
287,60,110327,2,0,L|262:53,1,18.7500007152558
226,49,110385,2,0,L|204:51,1,18.7500007152558
233,176,110503,2,0,L|224:195,1,18.7500007152558
163,60,110620,5,0,0:0:0:0:
130,77,110678,1,0,0:0:0:0:
103,104,110737,1,0,0:0:0:0:
83,136,110796,1,0,0:0:0:0:
78,172,110854,2,0,L|124:173,1,37.5000014305115
172,169,110971,5,0,0:0:0:0:
227,159,111030,1,0,0:0:0:0:
273,126,111089,1,0,0:0:0:0:
309,91,111147,1,0,0:0:0:0:
359,78,111206,1,0,0:0:0:0:
406,96,111264,1,0,0:0:0:0:
428,148,111323,1,0,0:0:0:0:
425,204,111382,1,0,0:0:0:0:
400,253,111440,1,0,0:0:0:0:
360,293,111499,1,0,0:0:0:0:
312,321,111557,1,0,0:0:0:0:
257,335,111616,1,0,0:0:0:0:
200,336,111675,6,0,P|117:213|240:174,1,300.000011444092
297,180,112378,1,0,0:0:0:0:
335,190,112436,1,0,0:0:0:0:
366,205,112495,2,0,P|383:272|323:258,1,150
301,241,112729,1,0,0:0:0:0:
241,156,112964,1,0,0:0:0:0:
214,97,113081,1,0,0:0:0:0:
195,35,113198,2,0,P|213:97|276:216,1,187.500007152558
269,206,113550,6,0,P|174:95|72:30,1,262.500010013581
77,32,114018,1,0,0:0:0:0:
108,100,114135,1,0,0:0:0:0:
156,157,114253,1,0,0:0:0:0:
222,191,114370,1,0,0:0:0:0:
296,199,114487,1,0,0:0:0:0:
368,179,114604,1,0,0:0:0:0:
428,135,114721,6,0,P|377:176|309:191,1,112.500004291535
332,189,114956,2,0,P|383:148|451:133,1,112.500004291535
427,134,115425,6,0,P|325:192|180:177,1,262.500010013581,0|0,2:0|2:0,2:0:0:0:
140,150,115893,2,0,P|122:135|109:113,2,37.4999996423721
244,195,116128,1,0,0:0:0:0:
355,181,116245,2,0,P|383:166|399:154,2,37.4999996423721
244,195,116479,1,0,0:0:0:0:
256,192,116596,12,0,117241,0:0:0:0:
335,189,117300,6,0,P|403:86|258:125,1,350
251,142,117768,2,0,L|244:219,5,75.0000028610231
233,310,118471,2,0,L|224:270,1,37.5000014305115
181,142,118559,2,0,L|210:188,1,37.5000014305115
306,261,118647,1,0,0:0:0:0:
256,127,118706,2,0,P|133:84|114:188,1,262.500010013581
123,218,119175,2,0,P|218:291|262:156,1,300.000011444092
190,163,119995,1,0,0:0:0:0:
216,230,120112,2,0,P|254:271|321:263,1,112.500004291535
341,258,120346,2,0,B|456:108|314:93|314:93|293:142|293:142|276:97|276:97|264:134|264:134|246:102|246:102|222:128|222:128|204:112|204:112,1,450.000017166138
256,192,132300,12,0,133940,0:0:0:0:
383,61,134175,5,0,0:0:0:0:
368,149,134409,1,0,0:0:0:0:
313,213,134643,5,0,0:0:0:0:
254,223,134760,1,0,0:0:0:0:
203,190,134878,1,0,0:0:0:0:
186,132,134995,5,0,0:0:0:0:
160,186,135112,1,0,0:0:0:0:
114,224,135229,1,0,0:0:0:0:
58,245,135346,5,0,0:0:0:0:
116,261,135464,1,0,0:0:0:0:
171,284,135581,5,0,0:0:0:0:
140,232,135698,5,0,0:0:0:0:
199,240,135815,1,0,0:0:0:0:
257,225,135932,1,0,0:0:0:0:
304,187,136050,5,0,0:0:0:0:
