osu file format v14

[General]
AudioFilename: audio.mp3
AudioLeadIn: 0
PreviewTime: 96499
Countdown: 0
SampleSet: Soft
StackLeniency: 0.4
Mode: 0
LetterboxInBreaks: 0
WidescreenStoryboard: 1

[Editor]
Bookmarks: 4080,28854,53628,84596,96983,127950,158918,171305,183692,196079,214660,245628,269241,270402,301370
DistanceSpacing: 0.6
BeatDivisor: 4
GridSize: 32
TimelineZoom: 4.799998

[Metadata]
Title:We Magicians Still Alive in 2021
TitleUnicode:2021年の魔法使いたち
Artist:Camellia
ArtistUnicode:かめりあ
Creator:Mir
Version:Unification
Source:
Tags:u.u.f.o ctcd-0021 ctcd-0022 color colour bass future melodic dubstep newspapers for magicians 2 electronic instrumental 2021 nen no mahousukaitachi mahou sukai
BeatmapID:3117364
BeatmapSetID:1516120

[Difficulty]
HPDrainRate:5
CircleSize:4
OverallDifficulty:9
ApproachRate:9.6
SliderMultiplier:2
SliderTickRate:0.5

[Events]
//Background and Video events
0,0,"the magician 2021.jpg",0,0
//Break Periods
2,84796,90280
//Storyboard Layer 0 (Background)
//Storyboard Layer 1 (Fail)
//Storyboard Layer 2 (Pass)
//Storyboard Layer 3 (Foreground)
//Storyboard Layer 4 (Overlay)
//Storyboard Sound Samples

[TimingPoints]
4080,387.096774193548,4,2,4,40,1,0
16467,-200,4,2,4,50,0,0
22273,-100,4,2,4,50,0,0
27112,-200,4,2,4,50,0,0
28854,-200,4,2,4,60,0,0
30402,-142.857142857143,4,2,4,60,0,0
31176,-111.111111111111,4,2,4,60,0,0
36596,-142.857142857143,4,2,4,60,0,0
38918,-111.111111111111,4,2,4,60,0,0
39692,-142.857142857143,4,2,4,60,0,0
41241,-249.999999999999,4,2,4,60,0,0
48209,-249.999999999999,4,2,1,60,0,0
48596,-249.999999999999,4,2,1,20,0,0
49370,-166.666666666666,4,2,1,30,0,0
50531,-166.666666666666,4,2,1,40,0,0
50725,-99.9999999999998,4,2,1,40,0,0
50918,-66.6666666666667,4,2,1,40,0,0
52079,-66.6666666666667,4,2,1,50,0,0
53628,-40,4,2,1,60,0,0
54305,-100,4,2,1,60,0,0
54789,-40,4,2,1,60,0,0
55273,-100,4,2,1,60,0,0
55854,-66.6666666666667,4,2,1,60,0,0
56338,-133.333333333333,4,2,1,60,0,0
56531,-66.6666666666667,4,2,1,60,0,0
56725,-40,4,2,1,60,0,0
57402,-66.6666666666667,4,2,1,60,0,0
57692,-133.333333333333,4,2,1,60,0,0
57886,-40,4,2,1,60,0,0
58660,-33.3333333333333,4,2,1,60,0,0
58950,-100,4,2,1,60,0,0
59241,-33.3333333333333,4,2,1,60,0,0
59434,-100,4,2,1,60,0,0
59821,-40,4,2,1,60,0,0
60596,-100,4,2,1,60,0,0
60789,-133.333333333333,4,2,1,60,0,0
60983,-40,4,2,1,60,0,0
61660,-100,4,2,1,60,0,0
62434,-50,4,2,1,60,0,0
62918,-40,4,2,1,60,0,0
63305,-100,4,2,1,60,0,0
63692,-133.333333333333,4,2,1,60,0,0
64079,-100,4,2,1,60,0,0
65241,-200,4,2,1,60,0,0
66015,-40,4,2,1,60,0,0
66692,-100,4,2,1,60,0,0
67176,-40,4,2,1,60,0,0
67757,-100,4,2,1,60,0,0
68725,-133.333333333333,4,2,1,60,0,0
68918,-66.6666666666667,4,2,1,60,0,0
69112,-40,4,2,1,60,0,0
69596,-100,4,2,1,60,0,0
70273,-40,4,2,1,60,0,0
70854,-100,4,2,1,60,0,0
71047,-50,4,2,1,60,0,0
71434,-133.333333333333,4,2,1,60,0,0
72209,-100,4,2,1,60,0,0
74918,-133.333333333333,4,2,1,60,0,0
75305,-100,4,2,1,60,0,0
76467,-200,4,2,1,60,0,0
77047,-100,4,2,1,60,0,0
83047,-50,4,2,1,60,0,0
90789,-100,4,2,1,30,0,0
92144,-66.6666666666667,4,2,1,30,0,0
92338,-100,4,2,1,40,0,0
93692,-66.6666666666667,4,2,1,40,0,0
93886,-66.6666666666667,4,2,1,50,0,0
95434,-50,4,2,1,60,0,0
96209,-500,4,2,1,60,0,0
96596,-500,4,2,1,80,0,0
96983,-40,4,2,1,80,0,1
97950,-66.6666666666667,4,2,1,80,0,1
99209,-40,4,2,1,80,0,1
104144,-66.6666666666667,4,2,1,80,0,1
105112,-40,4,2,1,80,0,1
107241,-133.333333333333,4,2,1,80,0,1
108402,-100,4,2,1,80,0,1
109370,-100,4,2,1,80,0,0
109757,-40,4,2,1,80,0,1
110338,-100,4,2,1,80,0,1
111305,-40,4,2,1,80,0,1
113434,-100,4,2,1,80,0,1
113628,-40,4,2,1,80,0,1
121757,-40,4,2,1,80,0,0
121950,-100,4,2,1,80,0,0
127950,-40,4,2,2,80,0,0
128338,-66.6666666666667,4,2,2,80,0,0
128918,-133.333333333333,4,2,2,80,0,0
129112,-40,4,2,2,80,0,0
129499,-133.333333333333,4,2,2,80,0,0
131047,-40,4,2,2,80,0,0
131434,-100,4,2,2,80,0,0
132015,-40,4,2,2,80,0,0
132692,-66.6666666666667,4,2,2,80,0,0
134531,-40,4,2,2,80,0,0
135789,-66.6666666666667,4,2,2,80,0,0
136854,-133.333333333333,4,2,2,80,0,0
137241,-40,4,2,2,80,0,0
137628,-133.333333333333,4,2,2,80,0,0
138015,-100,4,2,2,80,0,0
138402,-50,4,2,2,80,0,0
139176,-100,4,2,2,80,0,0
139563,-50,4,2,2,80,0,0
140434,-40,4,2,2,80,0,0
141112,-100,4,2,2,80,0,0
141499,-40,4,2,2,80,0,0
142079,-100,4,2,2,80,0,0
142660,-40,4,2,2,80,0,0
143047,-66.6666666666667,4,2,2,80,0,0
143434,-133.333333333333,4,2,2,80,0,0
143821,-100,4,2,2,80,0,0
144209,-66.6666666666667,4,2,2,80,0,0
144596,-100,4,2,2,80,0,0
144789,-40,4,2,2,80,0,0
145176,-66.6666666666667,4,2,2,80,0,0
145757,-50,4,2,2,80,0,0
146531,-66.6666666666667,4,2,2,80,0,0
146918,-66.6666666666667,4,2,2,60,0,0
147692,-100,4,2,2,60,0,0
148854,-66.6666666666667,4,2,2,60,0,0
149241,-100,4,2,2,60,0,0
149628,-66.6666666666667,4,2,2,60,0,0
153886,-100,4,2,2,60,0,0
155047,-66.6666666666667,4,2,2,60,0,0
158918,-40,4,2,1,80,0,0
159305,-100,4,2,1,80,0,0
159789,-200,4,2,1,80,0,0
160467,-100,4,2,1,80,0,0
160950,-200,4,2,1,80,0,0
162015,-40,4,2,1,80,0,0
162402,-100,4,2,1,80,0,0
162886,-200,4,2,1,80,0,0
163564,-100,4,2,1,80,0,0
164047,-200,4,2,1,80,0,0
165112,-40,4,2,1,80,0,0
165499,-100,4,2,1,80,0,0
165983,-200,4,2,1,80,0,0
166661,-100,4,2,1,80,0,0
167144,-200,4,2,1,80,0,0
168209,-40,4,2,1,80,0,0
168596,-100,4,2,1,80,0,0
169079,-200,4,2,1,80,0,0
169757,-40,4,2,1,80,0,0
170241,-200,4,2,1,80,0,0
171692,-100,4,2,1,80,0,0
182918,-50,4,2,1,80,0,0
185047,-500,4,2,4,40,0,0
196079,-500,4,2,4,60,0,0
199176,-200,4,2,1,80,0,0
203821,-100,4,2,1,80,0,0
206918,-100,4,2,1,80,0,0
207112,-50,4,2,1,80,0,0
207305,-33.3333333333333,4,2,1,80,0,0
207499,-25,4,2,1,80,0,0
207886,-33.3333333333333,4,2,1,80,0,0
208079,-50,4,2,1,80,0,0
208273,-100,4,2,1,80,0,0
210402,-100,4,2,1,20,0,0
210983,-100,4,2,1,30,0,0
211563,-100,4,2,1,40,0,0
213112,-100,4,2,1,50,0,0
214273,-100,4,2,1,80,0,0
214660,-45.4545454545455,4,2,1,80,0,1
215628,-100,4,2,1,80,0,1
215821,-45.4545454545455,4,2,1,80,0,1
220854,-100,4,2,1,80,0,0
221241,-45.4545454545455,4,2,1,80,0,1
221821,-100,4,2,1,80,0,1
222789,-45.4545454545455,4,2,1,80,0,1
223370,-100,4,2,1,80,0,1
223563,-45.4545454545455,4,2,1,80,0,1
223950,-100,4,2,1,80,0,0
224338,-100,4,2,1,80,0,1
224725,-1000,4,2,1,80,0,0
225112,-1000,4,2,1,80,0,1
225499,-1000,4,2,1,80,0,0
225886,-100,4,2,1,80,0,0
226079,-45.4545454545455,4,2,1,80,0,0
226273,-45.4545454545455,4,2,1,80,0,1
227047,-200,4,2,1,80,0,0
227434,-45.4545454545455,4,2,1,80,0,1
228015,-100,4,2,1,80,0,1
228983,-45.4545454545455,4,2,1,80,0,1
231112,-100,4,2,1,80,0,1
231305,-45.4545454545455,4,2,1,80,0,1
231596,-100,4,2,1,80,0,1
231886,-45.4545454545455,4,2,1,80,0,1
232660,-133.333333333333,4,2,1,80,0,1
233241,-45.4545454545455,4,2,1,80,0,1
239434,-45.4545454545455,4,2,1,80,0,0
239628,-33.3333333333333,4,2,1,80,0,0
239918,-50,4,2,1,80,0,0
240499,-100,4,2,1,80,0,0
244854,-100,4,2,1,40,0,0
245241,-66.6666666666667,4,2,1,60,0,0
245434,-50,4,2,1,80,0,0
245628,-200,4,2,1,60,0,0
247370,-100,4,2,1,80,0,0
247563,-66.6666666666667,4,2,1,80,0,0
248338,-133.333333333333,4,2,1,80,0,0
248725,-40,4,2,1,80,0,0
249499,-100,4,2,1,80,0,0
249886,-40,4,2,1,80,0,0
250370,-100,4,2,1,80,0,0
251047,-66.6666666666667,4,2,1,80,0,0
251241,-50,4,2,1,80,0,0
251821,-40,4,2,1,80,0,0
251967,-40,4,2,1,5,0,0
252015,-100,4,2,1,80,0,0
253499,-40,4,2,1,80,0,0
253757,-200,4,2,1,80,0,0
254918,-40,4,2,1,80,0,0
255305,-100,4,2,1,80,0,0
256079,-40,4,2,1,80,0,0
256854,-66.6666666666667,4,2,1,80,0,0
258015,-40,4,2,1,80,0,0
258789,-133.333333333333,4,2,1,80,0,0
259176,-40,4,2,1,80,0,0
260338,-100,4,2,1,80,0,0
260531,-40,4,2,1,80,0,0
260918,-66.6666666666667,4,2,1,80,0,0
261402,-100,4,2,1,80,0,0
261692,-40,4,2,1,80,0,0
262079,-100,4,2,1,80,0,0
262467,-40,4,2,1,80,0,0
262950,-100,4,2,1,80,0,0
263628,-40,4,2,1,80,0,0
264209,-200,4,2,1,80,0,0
264305,-200,4,2,1,70,0,0
265757,-200,4,2,1,60,0,0
267692,-100,4,2,1,70,0,0
268079,-66.6666666666667,4,2,1,70,0,0
268467,-50,4,2,1,70,0,0
268854,-50,4,2,1,80,0,0
270015,-133.333333333333,4,2,1,80,0,0
270402,-40,4,2,1,80,0,0
271079,-100,4,2,1,80,0,0
271950,-40,4,2,1,80,0,0
272434,-100,4,2,1,80,0,0
273499,-40,4,2,1,80,0,0
273886,-133.333333333333,4,2,1,80,0,0
275047,-66.6666666666667,4,2,1,80,0,0
275192,-66.6666666666667,4,2,1,5,0,0
275240,-66.6666666666667,4,2,1,80,0,0
275386,-66.6666666666667,4,2,1,5,0,0
275434,-66.6666666666667,4,2,1,80,0,0
275821,-100,4,2,1,80,0,0
276596,-40,4,2,1,80,0,0
277176,-100,4,2,1,80,0,0
278144,-40,4,2,1,80,0,0
278628,-100,4,2,1,80,0,0
279112,-66.6666666666667,4,2,1,80,0,0
279499,-100,4,2,1,80,0,0
279692,-40,4,2,1,80,0,0
280079,-133.333333333333,4,2,1,80,0,0
282789,-40,4,2,1,80,0,0
283660,-100,4,2,1,80,0,0
284338,-40,4,2,1,80,0,0
284918,-100,4,2,1,80,0,0
285209,-66.6666666666667,4,2,1,80,0,0
285499,-133.333333333333,4,2,1,80,0,0
285886,-40,4,2,1,80,0,0
286031,-40,4,2,1,5,0,0
286079,-100,4,2,1,80,0,0
288209,-40,4,2,1,80,0,0
289660,-100,4,2,1,80,0,0
290144,-40,4,2,1,80,0,0
290725,-100,4,2,1,80,0,0
292079,-40,4,2,1,80,0,0
292467,-100,4,2,1,80,0,0
293241,-40,4,2,1,80,0,0
293628,-66.6666666666667,4,2,1,80,0,0
294402,-200,4,2,1,80,0,0
300596,-200,4,2,4,50,0,0
313031,476.190476190476,4,2,4,50,1,0
313388,487.80487804878,4,2,4,50,1,0
314363,566.037735849057,4,2,4,50,1,0
314929,566.037735849057,4,2,4,50,1,0

[Colours]
Combo1 : 219,108,155
Combo2 : 172,187,193
Combo3 : 210,193,205
Combo4 : 105,201,191
Combo5 : 166,154,218
Combo6 : 236,172,108
Combo7 : 238,234,145

[HitObjects]
63,339,4080,5,4,0:0:0:0:
159,221,5241,5,2,0:0:0:0:
174,331,5434,1,2,0:0:0:0:
273,384,6789,85,2,0:0:0:0:
283,306,6982,1,2,0:0:0:0:
367,194,8338,5,2,0:0:0:0:
377,272,8531,1,2,0:0:0:0:
443,228,9305,1,2,0:0:0:0:
315,21,10273,85,4,0:2:0:0:
77,35,11434,5,2,0:0:0:0:
187,50,11627,1,2,0:0:0:0:
240,149,12982,85,2,0:0:0:0:
162,159,13175,1,2,0:0:0:0:
50,243,14338,5,2,0:0:0:0:
128,253,14531,1,2,0:0:0:0:
81,316,14725,1,2,0:0:0:0:
256,192,14918,12,0,16273,0:0:0:0:
256,192,16467,85,4,0:2:0:0:
183,26,17628,5,2,0:0:0:0:
168,122,17821,1,2,0:0:0:0:
365,155,19176,85,2,0:0:0:0:
377,234,19369,1,2,0:0:0:0:
377,234,19563,1,0,0:0:0:0:
436,183,20338,1,0,0:0:0:0:
112,281,20725,5,2,0:0:0:0:
134,206,20918,85,2,0:0:0:0:
165,337,21305,1,2,0:0:0:0:
36,299,21692,1,2,0:0:0:0:
134,206,22079,5,2,0:0:0:0:
112,281,22273,2,0,B|167:292|167:292|180:319|180:319|276:340,1,150,2|0,0:3|0:0,0:0:0:0:
315,353,22660,85,4,0:2:0:0:
502,164,23821,5,2,0:0:0:0:
408,187,24015,1,2,0:0:0:0:
130,87,25370,85,2,0:0:0:0:
205,105,25564,1,2,0:0:0:0:
205,105,25757,1,0,0:0:0:0:
403,21,26918,5,2,0:0:0:0:
328,39,27112,2,0,B|295:37|264:27|264:27|253:103|299:167|299:167|351:119|430:113,1,350,0|2,0:0|0:3,0:0:0:0:
422,113,28854,1,4,3:2:0:0:
499,224,29628,86,0,P|480:280|455:389,1,150,2|0,0:2|0:2,0:2:0:0:
361,384,30402,2,0,P|335:273|300:166,1,209.999993591309,2|0,0:2|0:2,0:2:0:0:
231,89,31176,2,0,P|198:230|152:368,1,269.999991760254,2|0,0:2|3:2,0:2:0:0:
76,59,31950,6,0,B|196:74|123:-7|263:7,1,179.999994506836,2|2,3:2|0:2,0:2:0:0:
238,5,32531,1,0,0:2:0:0:
320,139,32725,2,0,P|396:180|465:40,1,269.999991760254,2|0,0:2|0:2,0:2:0:0:
274,215,33499,2,0,P|198:256|129:116,1,269.999991760254,2|0,0:3|0:2,0:2:0:0:
320,139,34273,2,0,P|364:207|347:244,2,89.9999972534181,2|0|4,0:2|0:2|0:2,0:2:0:0:
201,168,34854,85,0,3:2:0:0:
274,215,35047,2,0,P|213:202|2:168,1,269.999991760254,4|0,3:2|0:2,0:2:0:0:
67,91,35821,6,0,L|42:6,2,59.9999981689454,2|0|0,0:2|0:2|0:2,0:2:0:0:
104,215,36209,2,0,L|79:300,2,59.9999981689454,2|0|0,0:2|0:2|0:2,0:2:0:0:
162,71,36596,86,0,L|137:-14,2,46.6666652425131,2|0|0,0:2|0:2|0:2,0:2:0:0:
199,195,36984,2,0,L|174:280,2,46.6666652425131,2|0|0,0:2|0:2|0:2,0:2:0:0:
250,113,37370,5,2,0:2:0:0:
325,139,37563,1,2,0:2:0:0:
414,66,37757,85,2,0:2:0:0:
489,92,37950,1,2,3:2:0:0:
490,263,38144,6,0,P|422:277|341:326,1,139.999995727539,2|0,3:2|3:2,0:2:0:0:
360,310,38725,1,0,0:2:0:0:
274,298,38918,2,0,P|268:351|258:380,2,59.9999981689454,2|0|0,0:2|0:2|0:2,0:2:0:0:
214,236,39305,85,2,0:2:0:0:
360,310,39499,1,2,0:2:0:0:
187,326,39692,2,0,P|157:331|128:336,2,46.6666652425131,2|0|0,0:2|0:2|0:2,0:2:0:0:
72,380,40079,2,0,P|49:375|26:371,2,46.6666652425131,2|0|0,0:2|0:2|0:2,0:2:0:0:
69,293,40467,2,0,P|62:238|45:125,1,139.999995727539,2|0,0:2|0:2,0:2:0:0:
49,154,41047,1,2,0:2:0:0:
163,127,41241,6,0,B|271:124|222:50|339:50,1,200,6|0,0:2|0:2,0:2:0:0:
338,50,42402,1,2,0:2:0:0:
399,107,42596,2,0,P|471:116|495:7,1,200,2|0,0:2|0:2,0:2:0:0:
175,45,43950,85,2,0:2:0:0:
323,134,44144,2,0,P|304:192|271:333,1,200,2|0,0:2|0:2,0:2:0:0:
330,378,45499,5,2,0:2:0:0:
226,229,45692,2,0,P|181:235|74:302,1,160,2|0,0:2|0:2,0:2:0:0:
22,339,46660,2,0,P|48:367|94:366,1,80,2|4,0:2|0:2,0:2:0:0:
226,365,47434,86,0,P|219:322|215:293,2,60,2|2|2,0:2|0:2|0:2,0:2:0:0:
226,365,48305,1,2,0:2:0:0:
306,324,48596,6,0,L|311:290,3,20,0|0|0|0,3:2|3:2|3:2|3:2,3:2:0:0:
388,360,48983,2,0,L|383:326,3,20,0|0|0|0,3:2|3:2|3:2|3:2,3:2:0:0:
474,275,49370,86,0,L|438:287,3,29.9999990844727,0|0|0|0,3:2|3:2|3:2|3:2,3:2:0:0:
349,225,49757,2,0,L|385:237,3,29.9999990844727,0|0|0|0,3:2|3:2|3:2|3:2,3:2:0:0:
483,160,50144,2,0,L|447:172,3,29.9999990844727,0|0|0|0,3:2|3:2|3:2|3:2,3:2:0:0:
378,110,50531,5,0,3:2:0:0:
378,110,50628,1,0,3:2:0:0:
378,110,50725,2,0,L|337:103,2,25,0|0|0,3:2|3:2|3:2,3:2:0:0:
258,207,50918,85,0,3:2:0:0:
258,207,51015,1,0,3:2:0:0:
258,207,51112,2,0,L|217:200,2,37.5000014305115,0|0|0,3:2|3:2|3:2,3:2:0:0:
142,48,51305,5,0,3:2:0:0:
142,48,51402,1,0,3:2:0:0:
142,48,51499,2,0,L|101:55,2,37.5000014305115,0|0|0,3:2|3:2|3:2,3:2:0:0:
36,298,51692,85,0,3:2:0:0:
36,298,51789,1,0,3:2:0:0:
36,298,51886,2,0,L|-5:291,2,37.5000014305115,0|0|0,3:2|3:2|3:2,3:2:0:0:
257,105,52079,6,0,L|243:45,6,37.5000014305115,0|0|0|0|0|0|0,3:2|3:2|3:2|3:2|3:2|3:2|3:2,3:2:0:0:
20,159,52467,85,0,3:2:0:0:
20,159,52563,2,0,B|74:166|74:166|89:199|89:199|170:210,1,150.000005722046,0|0,3:2|3:2,3:2:0:0:
147,206,53047,5,0,1:2:0:0:
215,248,53144,1,0,1:2:0:0:
270,194,53241,2,2,L|263:151,2,37.5000014305115,2|2|2,1:2|1:2|1:2,1:2:0:0:
381,324,53434,2,2,L|388:367,2,37.5000014305115,2|2|2,1:2|1:2|1:2,1:2:0:0:
512,184,53628,70,0,B|395:162|395:162|398:23|398:23|256:-3,1,375,4|0,3:2|0:2,0:2:0:0:
282,1,54112,69,2,0:2:0:0:
227,56,54209,1,2,0:2:0:0:
157,19,54305,2,0,L|107:24,1,50,2|0,0:3|0:2,0:2:0:0:
286,116,54499,21,2,0:2:0:0:
296,99,54596,2,0,L|345:104,1,50,2|0,0:3|0:2,0:2:0:0:
64,191,54789,70,0,P|18:295|211:313,1,375,4|0,3:2|0:2,0:2:0:0:
208,319,55273,21,2,0:2:0:0:
270,375,55370,2,0,P|318:363|342:359,1,50,2|0,0:3|0:2,0:2:0:0:
464,246,55563,2,0,P|512:258|536:262,2,50,2|0|0,0:3|0:2|0:2,0:2:0:0:
391,187,55854,70,0,L|377:284,1,75.0000028610231,2|0,0:3|0:2,0:2:0:0:
310,210,56047,21,2,0:2:0:0:
310,210,56144,2,0,L|296:307,1,75.0000028610231,2|0,0:3|0:2,0:2:0:0:
185,248,56338,70,0,L|248:238,1,37.5000014305115,2|0,0:2|0:2,0:2:0:0:
445,109,56531,2,0,L|356:94,1,75.0000028610231,2|0,0:3|0:2,0:2:0:0:
0,6,56725,22,0,B|124:37|124:37|121:161|121:161|302:137,1,375,6|0,3:2|0:2,0:2:0:0:
277,66,57112,69,2,0:2:0:0:
274,56,57160,1,2,0:2:0:0:
271,46,57209,2,0,L|144:62,1,125,2|2,0:2|0:2,0:2:0:0:
42,101,57402,2,0,L|40:126,8,18.7500007152558,0|0|0|0|0|0|0|0|0,0:2|0:2|0:2|0:2|0:2|0:2|0:2|0:2|0:2,0:2:0:0:
121,136,57692,22,0,L|115:178,1,37.5000014305115,2|2,0:2|0:2,0:0:0:0:
2,373,57886,2,0,B|131:341|131:341|142:248|142:248|302:216,1,375,4|0,3:2|0:2,0:2:0:0:
287,218,58370,69,2,0:2:0:0:
340,282,58467,2,0,B|412:304|412:304|362:266,1,125,2|0,0:3|0:2,0:2:0:0:
66,252,58660,22,0,B|32:271|32:271|157:247,1,150.000005722046,2|0,0:3|0:2,0:2:0:0:
318,21,58854,69,2,0:2:0:0:
326,14,58950,2,0,P|365:22|376:34,1,50,2|0,0:3|0:2,0:2:0:0:
479,153,59144,21,2,0:2:0:0:
512,77,59241,2,0,P|425:87|398:183,1,150.000005722046,2|0,0:3|0:2,0:2:0:0:
399,349,59434,69,2,0:2:0:0:
445,364,59530,1,2,0:2:0:0:
486,338,59627,1,2,0:2:0:0:
492,290,59724,1,2,0:2:0:0:
407,261,59821,22,0,P|261:239|12:206,1,375,0|0,0:2|0:2,0:2:0:0:
35,208,60305,69,2,0:2:0:0:
113,186,60402,1,2,0:2:0:0:
176,234,60499,1,2,0:2:0:0:
245,197,60596,22,0,L|238:135,1,50,2|0,0:3|0:2,0:2:0:0:
315,120,60789,2,0,L|323:173,1,37.5000014305115,2|2,0:2|0:2,0:0:0:0:
512,17,60983,70,0,P|326:41|140:69,1,375,6|0,3:2|0:2,0:2:0:0:
140,69,61467,21,2,0:2:0:0:
84,22,61563,1,2,0:2:0:0:
18,61,61660,2,0,B|11:96|11:96|80:119,1,100,2|0,0:3|0:2,0:2:0:0:
80,131,61950,2,0,L|30:138,1,50,2|0,0:3|0:2,0:2:0:0:
219,106,62144,70,0,L|229:38,1,50,2|0,0:3|0:2,0:2:0:0:
339,197,62338,21,2,0:2:0:0:
416,207,62434,2,0,B|464:212|464:212|465:216|465:216|541:223,1,100,2|0,0:3|0:2,0:2:0:0:
331,203,62628,69,2,0:2:0:0:
408,213,62724,2,0,B|456:218|456:218|457:222|457:222|533:229,1,100,2|0,0:3|0:2,0:2:0:0:
80,360,62918,22,0,B|-21:342|-21:342|188:317|188:317|240:360,1,375,6|0,3:2|0:2,0:2:0:0:
112,246,63305,70,0,L|27:239,1,50,2|0,0:3|0:2,0:2:0:0:
247,363,63499,2,2,L|284:354,2,25,2|2|2,0:2|0:2|0:2,0:2:0:0:
211,187,63692,2,0,L|190:304,1,112.500004291535,2|0,0:3|0:2,0:2:0:0:
456,22,64079,22,0,B|510:13|585:52|537:213|375:154|340:92|400:33|316:-3|218:19|218:19|278:68|259:129,1,550,4|0,3:2|0:2,0:2:0:0:
22,159,65241,70,0,B|117:169|72:78|196:97,1,175,2|0,0:3|0:2,0:2:0:0:
472,283,66015,22,0,B|382:275|331:346|331:346|317:224|174:189|174:189|234:272|189:361,1,500,4|0,3:2|0:2,0:2:0:0:
366,219,66499,69,2,0:2:0:0:
366,219,66596,1,2,0:2:0:0:
366,219,66692,2,0,L|378:163,1,50,2|8,0:3|0:1,0:2:0:0:
299,134,66886,21,2,0:2:0:0:
299,134,66983,2,0,L|311:78,1,50,2|0,0:3|0:2,0:2:0:0:
70,279,67176,70,0,P|192:308|467:385,1,375,4|0,3:2|0:2,0:2:0:0:
432,374,67660,21,2,0:2:0:0:
497,332,67757,2,0,P|491:307|479:259,1,50,2|0,0:3|0:2,0:2:0:0:
409,45,67950,2,0,P|403:69|398:94,3,50,2|0|0|0,0:3|0:2|0:2|0:2,0:2:0:0:
359,196,68338,69,8,0:1:0:0:
400,182,68434,1,2,0:2:0:0:
421,212,68531,1,2,0:2:0:0:
461,196,68628,1,2,0:2:0:0:
512,113,68725,22,0,L|463:123,1,37.5000014305115,2|0,0:3|0:2,0:2:0:0:
375,286,68918,2,0,L|270:266,1,75.0000028610231,2|0,0:3|0:2,0:2:0:0:
512,24,69112,70,0,P|299:66|121:102,1,375,4|0,3:2|0:2,0:2:0:0:
65,78,69499,21,2,0:2:0:0:
60,66,69547,1,2,0:2:0:0:
55,54,69596,2,0,L|75:-16,2,50,2|0|0,0:3|0:2|0:2,0:2:0:0:
374,83,69886,69,8,0:1:0:0:
370,70,69983,2,0,L|271:44,1,100,2|0,0:3|0:2,0:2:0:0:
22,264,70273,22,0,B|8:333|8:333|186:365|186:365|208:276,1,312.5,6|0,3:2|0:2,0:2:0:0:
201,306,70757,69,2,0:2:0:0:
116,279,70854,2,0,L|102:342,1,50,2|0,0:3|0:2,0:2:0:0:
287,345,71047,22,0,B|327:369|327:369|222:338,1,100,2|0,0:3|0:2,0:2:0:0:
45,217,71241,2,0,B|5:241|5:241|110:210,1,100,2|0,0:3|0:2,0:2:0:0:
247,23,71434,69,8,0:1:0:0:
255,31,71531,2,0,L|245:79,1,37.5000014305115,8|0,0:1|0:2,0:2:0:0:
228,141,71725,2,0,L|218:189,2,37.5000014305115,8|0|0,0:1|0:2|0:2,0:2:0:0:
203,252,72015,2,8,L|198:276,2,18.7500007152558,8|8|8,0:1|0:1|0:1,0:1:0:0:
476,297,72209,38,0,B|485:252|529:229|529:229|439:206|380:254|380:254|401:323|335:365,1,350,4|0,3:2|0:2,0:2:0:0:
298,285,72983,2,0,P|228:274|179:268,1,100,8|0,0:1|0:2,0:2:0:0:
233,105,73370,6,0,L|201:47,1,50,2|0,0:2|0:2,0:2:0:0:
113,150,73563,2,0,L|131:87,1,50,2|0,0:2|0:2,0:2:0:0:
27,63,73757,2,0,L|83:31,1,50,2|0,0:2|0:2,0:2:0:0:
150,0,73950,1,0,3:2:0:0:
125,380,74144,86,0,L|109:270,1,100,0|0,3:2|0:2,0:2:0:0:
110,271,74434,1,0,0:2:0:0:
109,261,74531,2,0,L|1:236,1,100,8|0,0:1|0:2,0:2:0:0:
150,0,74918,2,0,P|207:17|213:84,1,112.500004291535,2|0,0:2|0:2,0:2:0:0:
10,99,75305,6,0,P|135:128|227:159,1,200,0|0,3:2|0:2,0:2:0:0:
296,173,75886,85,2,0:2:0:0:
306,167,75983,2,0,L|290:103,1,50,2|8,0:3|0:1,0:2:0:0:
386,152,76176,5,2,0:2:0:0:
396,146,76273,2,0,L|380:82,1,50,2|0,0:3|0:2,0:2:0:0:
483,127,76467,2,0,L|467:63,1,50,2|2,0:3|0:0,0:0:0:0:
470,78,76854,1,2,0:2:0:0:
512,340,77047,86,0,P|455:329|421:324,1,50,0|0,3:2|0:2,0:2:0:0:
389,367,77241,1,0,3:2:0:0:
389,367,77338,2,2,L|351:377,4,25,2|2|2|2|2,0:2|0:2|0:2|0:2|0:2,0:2:0:0:
223,216,77628,5,8,0:1:0:0:
223,216,77821,2,2,L|215:260,4,25,2|2|2|2|2,0:2|0:2|0:2|0:2|0:2,0:2:0:0:
223,216,78209,1,2,0:2:0:0:
15,365,78402,86,0,P|92:355|365:283,1,350,4|0,3:2|0:2,0:2:0:0:
426,336,79176,2,0,P|433:316|445:283,2,50,8|0|0,0:1|0:2|0:2,0:2:0:0:
171,194,79563,6,0,L|155:131,1,50,2|0,0:2|0:2,0:2:0:0:
122,270,79757,2,0,L|67:237,1,50,2|0,0:2|0:2,0:2:0:0:
247,240,79951,2,0,L|279:185,1,50,2|0,0:2|0:2,0:2:0:0:
201,312,80144,85,0,3:2:0:0:
201,312,80338,1,0,3:2:0:0:
139,66,80531,1,2,0:2:0:0:
359,113,80725,5,8,0:1:0:0:
402,176,80821,2,0,L|513:161,1,100,2|0,0:3|0:2,0:2:0:0:
501,162,81112,1,2,0:2:0:0:
309,366,81305,85,2,0:2:0:0:
309,366,81402,1,2,0:2:0:0:
309,366,81499,2,0,L|319:300,3,50,0|0|0|0,1:2|1:2|1:2|1:2,1:2:0:0:
206,304,81886,2,0,L|196:238,3,50,0|0|0|0,1:2|1:2|1:2|1:2,1:2:0:0:
296,198,82273,6,0,L|334:189,6,25,0|0|0|0|0|0|0,1:2|1:2|1:2|1:2|1:2|1:2|1:2,1:2:0:0:
212,119,82660,2,0,L|174:110,6,25,0|0|0|0|0|0|0,1:2|1:2|1:2|1:2|1:2|1:2|1:2,1:2:0:0:
290,44,83047,2,0,L|339:32,14,50,0|0|0|0|0|0|0|0|0|0|0|0|0|0|0,1:2|1:2|1:2|1:2|1:2|1:2|1:2|1:2|1:2|1:2|1:2|1:2|1:2|1:2|1:2,1:2:0:0:
28,212,84015,85,0,3:2:0:0:
51,187,84112,1,0,3:2:0:0:
90,184,84209,2,0,P|120:191|158:198,2,50,0|0|0,3:2|1:2|1:2,0:2:0:0:
185,261,84402,2,0,P|215:253|253:247,2,50,0|0|0,3:2|1:2|1:2,0:2:0:0:
294,197,84596,1,4,3:2:0:0:
439,131,90789,6,0,L|503:120,3,50,0|0|0|0,3:2|3:2|3:2|3:2,3:2:0:0:
385,210,91176,2,0,L|449:221,3,50,0|0|0|0,3:2|3:2|3:2|3:2,3:2:0:0:
317,147,91563,85,0,3:2:0:0:
317,147,91660,1,0,3:2:0:0:
317,147,91757,2,0,L|302:78,1,50,0|0,3:2|3:2,3:2:0:0:
245,200,91950,5,0,3:2:0:0:
245,200,92047,1,0,3:2:0:0:
245,200,92144,2,0,L|230:269,2,37.5000014305115,0|0|0,3:2|3:2|3:2,3:2:0:0:
35,62,92338,85,0,3:2:0:0:
35,62,92434,1,0,3:2:0:0:
35,62,92531,2,0,L|24:0,1,50,0|0,3:2|3:2,3:2:0:0:
148,174,92725,5,0,3:2:0:0:
148,174,92821,1,0,3:2:0:0:
148,174,92918,2,0,L|159:112,1,50,0|0,3:2|3:2,3:2:0:0:
13,256,93112,85,0,3:2:0:0:
13,256,93208,1,0,3:2:0:0:
13,256,93305,2,0,L|2:194,1,50,0|0,3:2|3:2,3:2:0:0:
115,377,93499,5,0,3:2:0:0:
115,377,93595,1,0,3:2:0:0:
115,377,93692,2,0,L|126:315,2,37.5000014305115,0|0|0,3:2|3:2|3:2,3:2:0:0:
100,249,93886,85,8,3:2:0:0:
155,258,93983,1,0,3:2:0:0:
208,265,94079,2,0,L|254:256,2,37.5000014305115,0|0|0,3:2|3:2|3:2,3:2:0:0:
436,170,94273,5,8,3:2:0:0:
371,180,94370,1,0,3:2:0:0:
308,188,94466,2,0,L|253:177,2,37.5000014305115,0|0|0,3:2|3:2|3:2,3:2:0:0:
59,80,94660,85,8,3:2:0:0:
133,91,94757,1,0,3:2:0:0:
206,100,94853,2,0,L|268:87,2,37.5000014305115,0|0|0,3:2|3:2|3:2,3:2:0:0:
437,0,95047,5,8,3:2:0:0:
363,11,95144,1,0,3:2:0:0:
290,20,95241,2,0,L|227:7,2,37.5000014305115,0|0|0,3:2|3:2|3:2,3:2:0:0:
133,178,95434,86,0,L|119:241,2,50,8|0|0,3:2|3:2|3:2,3:2:0:0:
381,140,95628,2,0,L|370:91,2,50,8|0|0,3:2|3:2|3:2,3:2:0:0:
102,182,95821,2,0,L|84:261,2,50,8|0|0,3:2|3:2|3:2,3:2:0:0:
411,135,96015,2,0,L|398:74,2,50,8|0|0,3:2|3:2|3:2,3:2:0:0:
261,180,96209,6,0,L|263:209,1,30,6|0,0:2|0:2,0:2:0:0:
289,283,96596,85,2,0:2:0:0:
289,289,96660,1,2,0:2:0:0:
288,295,96725,1,2,0:2:0:0:
288,301,96789,1,2,0:2:0:0:
288,307,96854,1,2,0:2:0:0:
288,313,96918,1,2,0:2:0:0:
341,374,96983,54,0,B|395:365|395:365|410:375|410:375|492:358,1,125,2|0,3:2|0:2,0:2:0:0:
205,267,97176,2,0,B|151:258|151:258|136:268|136:268|54:251,1,125,2|0,0:2|0:2,0:2:0:0:
39,197,97370,1,10,3:2:0:0:
69,127,97467,2,0,L|44:-11,1,125,2|0,0:2|0:2,0:2:0:0:
261,132,97660,6,0,B|411:108|411:108|401:47|462:16,1,250,2|0,0:2|0:2,0:2:0:0:
496,96,97950,2,0,B|519:115|509:130|509:130|491:125|496:93,1,75.0000028610231,0|0,0:2|0:2,0:2:0:0:
331,23,98144,85,10,3:2:0:0:
292,11,98241,1,2,0:2:0:0:
259,47,98338,1,2,0:2:0:0:
218,36,98434,1,2,0:2:0:0:
206,221,98531,5,2,3:2:0:0:
245,209,98628,1,2,0:2:0:0:
278,245,98725,1,2,0:2:0:0:
319,234,98821,1,2,0:2:0:0:
382,150,98918,85,10,3:2:0:0:
307,137,99014,1,2,0:2:0:0:
233,127,99111,1,2,0:2:0:0:
158,120,99209,2,0,B|88:137|88:137|84:255|84:255|0:283,1,250,2|0,0:2|0:2,0:2:0:0:
0,372,99499,6,0,L|142:328,1,125,2|0,0:2|0:2,0:2:0:0:
83,13,99692,2,0,L|225:57,1,125,10|0,3:2|0:2,0:2:0:0:
388,276,99886,2,0,L|530:232,1,125,2|0,0:2|0:2,0:2:0:0:
240,158,100079,85,2,3:2:0:0:
303,109,100176,1,2,0:2:0:0:
314,187,100273,2,0,P|296:326|296:376,1,125,2|0,0:2|0:2,0:2:0:0:
0,218,100467,5,10,3:2:0:0:
53,161,100563,2,0,B|139:174|77:204|182:223,1,125,2|0,0:2|0:2,0:2:0:0:
411,350,100757,2,0,P|540:302|478:228,1,250,2|0,0:2|0:2,0:2:0:0:
244,200,101047,85,2,0:2:0:0:
253,237,101144,1,2,0:2:0:0:
318,306,101241,5,10,3:2:0:0:
328,263,101338,1,2,0:2:0:0:
239,321,101434,85,2,0:2:0:0:
248,358,101531,1,2,0:2:0:0:
253,237,101628,5,2,3:2:0:0:
221,235,101724,1,2,0:2:0:0:
192,245,101821,1,2,0:2:0:0:
169,265,101918,1,2,0:2:0:0:
157,344,102015,85,10,3:2:0:0:
85,379,102111,1,2,0:2:0:0:
16,340,102208,1,2,0:2:0:0:
10,260,102305,2,0,P|28:192|41:94,1,125,2|0,0:2|3:2,0:2:0:0:
81,19,102499,5,0,0:2:0:0:
12,58,102596,1,2,0:2:0:0:
90,15,102692,2,0,L|227:43,1,125,2|8,0:2|3:2,0:2:0:0:
220,209,102886,85,2,0:2:0:0:
128,156,102983,1,2,0:2:0:0:
201,137,103079,1,2,0:2:0:0:
148,231,103176,1,2,3:2:0:0:
148,231,103273,1,2,0:2:0:0:
314,281,103370,6,0,P|372:294|441:310,1,125,2|0,0:2|0:2,0:2:0:0:
507,64,103563,1,10,3:2:0:0:
450,19,103660,2,0,P|392:32|323:48,1,125,2|0,0:2|0:2,0:2:0:0:
484,190,103854,86,0,B|338:228|395:89|193:163,1,250,2|0,0:2|0:2,0:2:0:0:
177,180,104144,2,0,B|156:180|151:211|151:211|172:185|199:182,1,75.0000028610231,2|0,0:2|0:2,0:2:0:0:
256,27,104338,5,10,3:2:0:0:
229,61,104434,1,2,0:2:0:0:
179,48,104531,1,2,0:2:0:0:
147,85,104628,1,2,0:2:0:0:
259,231,104725,85,2,3:2:0:0:
286,265,104821,1,2,0:2:0:0:
336,252,104918,1,2,0:2:0:0:
368,289,105015,1,2,0:2:0:0:
248,147,105112,5,10,3:2:0:0:
166,165,105208,1,2,0:2:0:0:
85,184,105305,1,2,0:2:0:0:
3,204,105402,2,0,B|180:223|43:309|231:331,1,250,2|0,0:2|0:2,0:2:0:0:
201,239,105692,86,0,P|225:100|234:70,1,125,2|0,0:2|0:2,0:2:0:0:
104,20,105886,2,0,P|116:81|123:143,1,125,10|0,3:2|0:2,0:2:0:0:
310,124,106079,2,0,P|334:-15|343:-45,1,125,2|0,0:2|0:2,0:2:0:0:
512,167,106273,5,2,3:2:0:0:
437,173,106370,1,2,0:2:0:0:
481,234,106467,2,0,P|476:297|357:282,1,125,2|0,0:2|0:2,0:2:0:0:
201,239,106660,85,10,3:2:0:0:
279,212,106757,2,0,P|328:224|417:251,1,125,2|0,0:2|0:2,0:2:0:0:
79,362,106950,6,0,B|-10:339|-10:339|49:127,1,250,2|0,0:2|0:2,0:2:0:0:
188,6,107241,2,0,L|142:13,1,37.5000014305115,2|2,0:2|0:2,0:0:0:0:
41,105,107434,85,10,3:2:0:0:
114,89,107531,1,2,0:2:0:0:
163,143,107628,1,2,0:2:0:0:
228,102,107725,5,2,0:2:0:0:
277,48,107822,1,2,3:2:0:0:
350,64,107919,1,2,0:2:0:0:
365,142,108015,85,2,0:2:0:0:
388,135,108112,1,2,0:2:0:0:
444,82,108209,5,10,3:2:0:0:
464,87,108305,1,2,0:2:0:0:
488,164,108402,86,0,L|524:154,2,25,0|0|0,3:2|3:2|3:2,3:2:0:0:
442,344,108596,5,10,3:2:0:0:
156,184,108725,1,2,0:3:0:0:
374,307,108854,85,10,3:2:0:0:
224,221,108983,1,2,0:3:0:0:
318,360,109112,5,10,3:2:0:0:
280,168,109241,1,2,0:3:0:0:
297,289,109370,85,2,0:3:0:0:
297,289,109467,1,2,0:3:0:0:
297,289,109563,2,0,L|302:229,1,50,2|0,0:3|0:2,0:2:0:0:
257,45,109757,5,14,3:2:0:0:
187,8,109854,2,0,P|54:41|-23:68,1,125,2|0,0:2|0:2,0:2:0:0:
253,158,110047,86,0,P|374:129|497:107,1,250,2|0,0:2|0:2,0:2:0:0:
512,25,110338,2,0,B|522:2|522:2|503:18,1,50,2|0,0:2|0:2,0:2:0:0:
154,159,110531,5,10,3:2:0:0:
113,166,110627,1,2,0:2:0:0:
88,125,110724,1,2,0:2:0:0:
45,135,110821,1,2,0:2:0:0:
17,349,110918,85,2,3:2:0:0:
58,342,111014,1,2,0:2:0:0:
83,383,111111,1,2,0:2:0:0:
126,373,111208,1,2,0:2:0:0:
22,242,111305,5,8,3:2:0:0:
103,259,111401,1,2,0:2:0:0:
183,282,111498,1,2,0:2:0:0:
261,311,111596,2,0,P|388:283|513:260,1,250,2|0,0:2|0:2,0:2:0:0:
247,217,111886,86,0,B|217:164|217:164|264:103,1,125,2|0,0:2|0:2,0:2:0:0:
434,109,112079,2,0,B|403:160|403:160|326:150,1,125,10|0,3:2|0:2,0:2:0:0:
247,2,112273,2,0,B|307:2|307:2|336:74,1,125,2|0,0:2|0:2,0:2:0:0:
144,203,112467,5,2,3:2:0:0:
70,174,112563,1,2,0:2:0:0:
132,124,112660,2,0,L|293:110,1,125,2|0,0:2|0:2,0:2:0:0:
484,219,112854,85,10,3:2:0:0:
486,292,112950,2,0,P|470:351|415:376,1,125,0|0,0:2|0:2,0:2:0:0:
272,380,113144,2,0,B|251:235|371:321|333:112,1,250,2|0,0:2|0:2,0:2:0:0:
371,82,113434,2,0,P|391:77|376:88,1,50,2|0,0:2|0:2,0:2:0:0:
252,196,113628,5,10,3:2:0:0:
171,175,113724,1,2,0:2:0:0:
89,161,113821,1,2,0:2:0:0:
6,153,113918,2,0,B|87:177|87:177|110:252|110:252|197:273,1,250,2|0,0:2|0:2,0:2:0:0:
358,259,114209,85,2,0:2:0:0:
409,242,114305,1,2,0:2:0:0:
326,329,114402,5,10,3:2:0:0:
285,293,114498,1,2,0:2:0:0:
403,322,114596,85,2,0:2:0:0:
392,374,114692,1,2,0:2:0:0:
363,303,114789,5,2,3:2:0:0:
360,294,114854,1,2,0:2:0:0:
358,285,114918,1,2,0:2:0:0:
355,275,114983,2,0,P|360:217|372:133,1,125,2|0,0:2|0:2,0:2:0:0:
293,61,115176,85,10,3:2:0:0:
177,24,115272,1,2,0:2:0:0:
249,122,115369,1,2,0:2:0:0:
249,0,115466,1,2,0:2:0:0:
177,99,115563,6,0,L|34:125,1,125,6|0,3:2|0:2,0:2:0:0:
362,15,115757,2,0,L|505:41,1,125,2|0,0:2|0:2,0:2:0:0:
319,210,115950,85,10,3:2:0:0:
368,150,116047,2,0,L|515:124,1,125,2|0,0:2|0:2,0:2:0:0:
254,137,116241,2,0,P|225:281|205:390,1,250,2|2,0:2|0:2,0:2:0:0:
199,371,116483,1,2,0:2:0:0:
192,360,116531,2,0,P|82:377|44:387,1,125,2|0,0:2|0:2,0:2:0:0:
15,193,116725,5,10,3:2:0:0:
34,250,116821,1,2,0:2:0:0:
90,274,116918,1,2,0:2:0:0:
146,250,117015,1,2,0:2:0:0:
153,171,117112,85,2,3:2:0:0:
218,213,117209,1,2,0:2:0:0:
153,171,117305,2,0,L|132:22,1,125,2|0,0:2|0:2,0:2:0:0:
252,303,117499,5,10,3:2:0:0:
301,242,117596,2,0,P|362:228|423:215,1,125,2|0,0:2|0:2,0:2:0:0:
511,25,117789,2,0,B|422:45|422:45|421:121|421:121|320:144,1,250,2|0,0:2|0:2,0:2:0:0:
217,18,118079,2,0,P|278:30|339:44,1,125,2|0,0:2|0:2,0:2:0:0:
512,242,118273,85,10,3:2:0:0:
511,303,118369,1,2,0:2:0:0:
472,350,118466,1,2,0:2:0:0:
412,361,118563,1,2,0:2:0:0:
342,317,118660,5,2,3:2:0:0:
342,242,118757,1,2,0:2:0:0:
406,279,118854,2,0,P|227:261|127:249,1,250,2|8,0:2|3:2,0:2:0:0:
3,356,119144,2,0,P|61:346|157:333,1,125,2|0,0:2|0:2,0:2:0:0:
182,30,119338,86,0,P|57:33|57:155,1,250,2|2,0:2|0:2,0:2:0:0:
53,143,119579,1,2,0:2:0:0:
65,146,119628,2,0,P|123:136|219:123,1,125,2|0,0:2|0:2,0:2:0:0:
406,21,119821,5,10,3:2:0:0:
465,8,119917,1,2,0:2:0:0:
512,41,120014,1,2,0:2:0:0:
512,100,120111,1,2,0:2:0:0:
473,169,120208,85,2,3:2:0:0:
427,182,120305,1,2,0:2:0:0:
393,148,120402,1,2,0:2:0:0:
353,213,120499,5,2,0:2:0:0:
307,200,120596,1,10,3:2:0:0:
273,234,120693,1,2,0:2:0:0:
239,162,120789,85,2,0:2:0:0:
169,181,120886,1,2,0:2:0:0:
117,130,120983,1,2,3:2:0:0:
123,241,121079,5,2,0:2:0:0:
53,222,121176,1,2,0:2:0:0:
1,273,121273,1,2,0:2:0:0:
231,374,121370,85,10,3:2:0:0:
302,350,121467,1,2,0:2:0:0:
302,275,121563,1,2,0:2:0:0:
230,252,121660,1,2,0:2:0:0:
186,315,121757,1,6,3:2:0:0:
186,315,121854,1,2,0:2:0:0:
410,367,121950,6,0,P|425:282|431:251,1,100,2|0,0:2|0:2,0:2:0:0:
443,266,122241,2,0,P|440:241|438:212,1,50,2|0,0:2|0:2,0:2:0:0:
451,134,122434,2,0,P|500:145|519:149,1,50,2|0,0:2|0:2,0:2:0:0:
453,44,122628,85,2,0:2:0:0:
453,44,122725,1,2,0:2:0:0:
453,44,122821,2,0,P|428:49|404:54,1,50,2|0,0:2|0:2,0:2:0:0:
352,188,123015,5,2,0:2:0:0:
352,188,123112,1,2,0:2:0:0:
352,188,123208,2,0,P|327:182|303:177,1,50,2|0,0:2|0:2,0:2:0:0:
236,69,123402,85,2,0:2:0:0:
236,69,123499,1,2,0:2:0:0:
236,69,123595,2,0,P|211:74|187:79,1,50,2|0,0:2|0:2,0:2:0:0:
120,233,123789,5,2,0:2:0:0:
66,252,123886,1,2,0:2:0:0:
29,208,123983,2,0,P|43:140|49:84,1,100,2|0,0:2|0:2,0:2:0:0:
97,7,124273,86,0,P|106:39|119:76,1,50,2|0,0:2|0:2,0:2:0:0:
210,202,124467,2,0,P|219:170|232:133,1,50,2|0,0:2|0:2,0:2:0:0:
318,43,124660,2,0,P|327:75|340:112,1,50,2|0,0:2|0:2,0:2:0:0:
458,235,124854,5,2,1:2:0:0:
458,270,124951,1,2,1:2:0:0:
428,253,125048,1,2,1:2:0:0:
448,254,125144,1,2,1:2:0:0:
392,324,125338,85,2,1:2:0:0:
361,353,125435,1,2,1:2:0:0:
350,314,125532,1,2,1:2:0:0:
273,344,125725,5,2,1:2:0:0:
217,329,125822,1,2,1:2:0:0:
258,287,125919,1,2,1:2:0:0:
189,230,126112,85,2,1:2:0:0:
136,174,126209,1,2,1:2:0:0:
207,156,126305,2,0,L|235:149,8,25,2|0|0|0|0|0|0|0|0,1:2|1:2|1:2|1:2|1:2|1:2|1:2|1:2|1:2,1:2:0:0:
114,247,126789,2,0,L|53:234,2,50,2|0|0,1:2|1:2|1:2,1:2:0:0:
328,226,127273,5,0,1:2:0:0:
328,226,127467,1,4,0:3:0:0:
433,18,127660,85,4,0:3:0:0:
477,36,127756,1,4,0:3:0:0:
480,83,127853,1,4,0:3:0:0:
392,95,127950,22,0,P|253:67|4:36,1,375,4|0,3:2|0:2,0:2:0:0:
23,140,128338,70,0,P|121:119|155:115,1,75.0000028610231,2|0,0:3|0:2,0:2:0:0:
198,3,128531,21,2,0:2:0:0:
206,16,128628,2,0,P|304:37|338:41,1,75.0000028610231,2|0,0:3|0:2,0:2:0:0:
456,201,128821,69,2,0:2:0:0:
463,194,128918,2,0,L|444:136,1,37.5000014305115,2|0,0:3|0:2,0:2:0:0:
0,300,129112,22,0,B|18:374|18:374|337:319,1,375,4|0,3:2|0:2,0:2:0:0:
392,345,129499,2,0,L|382:394,1,37.5000014305115,2|2,0:3|0:2,0:2:0:0:
172,259,129692,69,2,1:2:0:0:
172,259,129789,1,2,1:2:0:0:
172,259,129886,2,2,L|172:241,1,18.7500007152558,2|2,1:2|1:2,1:2:0:0:
114,309,129983,2,2,L|98:319,1,18.7500007152558,2|2,1:2|1:2,1:2:0:0:
187,334,130079,2,2,L|203:343,4,18.7500007152558,2|2|2|2|2,1:2|1:2|1:2|1:2|1:2,1:2:0:0:
462,193,130467,22,0,L|375:175,1,75.0000028610231,6|0,0:3|0:2,0:2:0:0:
388,177,130757,1,0,1:1:0:0:
388,177,130854,1,0,1:1:0:0:
388,177,130950,1,0,1:1:0:0:
64,26,131047,70,0,B|6:24|-20:35|-20:35|97:56|275:109,1,375,4|0,3:2|0:2,0:2:0:0:
306,22,131434,22,2,L|270:30,2,25,2|2|2,0:2|0:2|0:2,0:2:0:0:
159,153,131628,2,2,L|134:147,2,25,2|2|2,0:2|0:2|0:2,0:2:0:0:
205,0,131821,1,10,0:2:0:0:
29,269,132015,70,0,P|106:323|123:290,1,125,4|0,3:2|0:2,0:2:0:0:
512,261,132209,2,0,P|433:275|141:397,1,375,4|0,3:2|0:2,0:2:0:0:
160,384,132596,21,2,0:2:0:0:
206,319,132692,2,0,P|236:343|244:388,2,75.0000028610231,2|0|0,0:3|0:2|0:2,0:2:0:0:
264,220,132983,69,2,0:2:0:0:
302,291,133079,2,0,P|332:267|340:222,2,75.0000028610231,2|0|0,0:3|0:2|0:2,0:2:0:0:
22,111,133370,21,8,0:2:0:0:
22,111,133563,69,2,0:3:0:0:
262,55,133660,2,0,L|250:145,1,75.0000028610231,0|0,3:2|0:2,0:2:0:0:
252,129,133854,21,0,0:2:0:0:
95,270,133950,2,0,L|83:180,1,75.0000028610231,0|0,3:2|0:2,0:2:0:0:
382,83,134144,69,8,0:3:0:0:
392,86,134209,1,8,0:3:0:0:
402,89,134273,1,8,0:3:0:0:
412,92,134338,1,4,0:3:0:0:
422,95,134402,1,4,0:3:0:0:
432,98,134467,1,4,0:3:0:0:
512,120,134531,22,0,B|376:143|376:143|343:222|343:222|157:246,1,375,4|0,3:2|0:2,0:2:0:0:
23,289,134918,69,10,0:2:0:0:
114,343,135015,1,2,0:2:0:0:
95,270,135112,1,2,0:2:0:0:
42,362,135209,1,2,0:2:0:0:
210,377,135305,22,0,B|231:209|255:-19,1,375,4|0,3:2|0:2,0:2:0:0:
252,4,135692,69,2,0:2:0:0:
170,52,135789,2,0,P|132:46|96:39,2,75.0000028610231,2|0|0,0:3|0:2|0:2,0:2:0:0:
387,129,136079,21,2,0:2:0:0:
460,109,136176,1,2,0:2:0:0:
405,50,136273,2,0,P|365:57|318:69,1,75.0000028610231,2|0,3:3|0:2,0:2:0:0:
71,315,136467,70,0,B|212:298|95:210|267:196,1,225.000008583069,10|0,0:2|0:2,0:2:0:0:
69,192,136854,2,0,P|82:247|84:259,1,37.5000014305115,2|0,0:2|0:2,0:2:0:0:
240,312,137047,21,2,0:3:0:0:
241,304,137112,1,2,0:3:0:0:
242,296,137176,1,2,0:3:0:0:
243,288,137241,70,0,B|358:284|489:253|489:253|440:278|389:330,1,375,4|0,3:2|0:2,0:2:0:0:
336,181,137628,22,0,L|409:193,2,37.5000014305115,2|0|0,0:3|0:2|0:2,0:2:0:0:
22,0,138015,70,0,P|25:24|48:40,1,50,8|0,0:2|0:2,0:2:0:0:
0,104,138209,2,0,P|19:118|47:114,1,50,2|0,0:3|0:2,0:2:0:0:
129,7,138402,22,0,P|136:178|150:362,1,300,4|0,3:2|0:2,0:2:0:0:
77,354,138789,70,0,L|21:341,6,50,2|2|2|2|2|2|2,0:3|0:3|0:3|0:3|0:3|0:3|0:3,0:3:0:0:
225,247,139176,2,0,L|289:231,3,50,2|2|2|2,0:3|0:3|0:3|0:3,0:3:0:0:
106,129,139563,22,0,P|114:197|124:263,1,133.333333333333,10|0,2:2|0:2,0:2:0:0:
510,233,139821,2,0,P|502:301|492:367,1,133.333333333333,2|0,0:3|0:2,0:2:0:0:
99,140,140079,2,0,P|107:208|117:274,1,133.333333333333,2|0,0:3|0:2,0:2:0:0:
116,272,140434,70,0,B|237:255|237:255|246:244|246:244|381:222,1,250,2|0,3:3|0:2,0:2:0:0:
0,8,140725,2,0,B|172:32|172:32|184:48|184:48|377:79,1,375,2|0,3:3|0:2,0:2:0:0:
100,169,141112,22,0,L|92:111,1,50,8|0,0:2|0:2,0:2:0:0:
93,119,141305,1,0,3:2:0:0:
93,119,141402,1,0,3:2:0:0:
428,2,141499,70,0,B|331:19|331:19|320:92|320:92|238:106,1,250,4|0,3:2|3:2,0:2:0:0:
243,105,141983,1,0,0:2:0:0:
403,140,142079,22,0,L|409:90,2,50,10|0|0,0:2|0:2|0:2,0:2:0:0:
490,114,142370,1,2,0:2:0:0:
490,114,142467,2,0,L|496:64,1,50,2|0,0:3|0:2,0:2:0:0:
182,370,142660,70,0,P|30:270|0:91,1,375,4|0,3:2|0:2,0:2:0:0:
387,220,143047,2,0,P|293:276|275:384,1,225.000008583069,4|0,3:2|0:2,0:2:0:0:
511,346,143434,2,0,P|465:316|456:263,1,112.500004291535,4|0,3:2|0:2,0:2:0:0:
365,370,143821,22,0,P|375:349|357:302,1,50,2|0,0:3|0:2,0:2:0:0:
311,279,144015,1,0,3:2:0:0:
311,279,144112,1,0,3:2:0:0:
404,136,144209,70,0,P|291:154|184:188,1,225.000008583069,10|0,0:2|0:2,0:2:0:0:
120,229,144596,2,0,B|93:214|93:214|129:228,1,50,2|0,0:3|0:2,0:2:0:0:
486,218,144789,22,0,P|303:173|120:136,1,375,4|0,3:2|0:2,0:2:0:0:
16,38,145176,70,0,B|41:7|41:7|125:36,1,75.0000028610231,2|0,0:3|0:2,0:2:0:0:
156,13,145370,1,2,0:3:0:0:
156,13,145467,1,2,0:3:0:0:
209,68,145563,2,0,B|241:53|241:53|237:14,1,75.0000028610231,2|0,0:3|0:2,0:2:0:0:
58,371,145757,22,0,B|114:327|195:308|195:308|191:264|167:194|167:194|91:236|12:247|12:247|-18:182|-2:129|-2:129|76:136|148:78,1,700,12|0,0:2|0:2,0:2:0:0:
0,322,146531,70,0,P|166:360|268:396,1,225.000008583069,4|0,3:2|0:2,0:2:0:0:
288,341,146918,2,0,L|304:289,3,37.5000014305115,2|2|2|2,0:3|0:3|0:3|0:3,0:3:0:0:
226,291,147112,2,0,L|210:239,3,37.5000014305115,2|2|2|2,0:3|0:3|0:3|0:3,0:3:0:0:
290,224,147305,2,0,P|301:186|318:148,1,75.0000028610231,8|0,0:2|0:2,0:2:0:0:
217,174,147499,2,0,P|205:136|189:98,1,75.0000028610231,2|0,0:3|0:2,0:2:0:0:
365,255,147692,22,0,L|448:236,1,50,2|0,0:2|0:2,0:2:0:0:
147,213,147886,2,0,L|64:194,1,50,2|0,0:2|0:2,0:2:0:0:
369,269,148079,2,0,L|452:250,1,50,2|0,0:2|0:2,0:2:0:0:
480,306,148273,1,0,3:2:0:0:
480,306,148467,1,0,3:2:0:0:
145,226,148660,2,0,L|62:207,1,50,2|0,0:2|0:2,0:2:0:0:
241,366,148854,70,0,P|250:270|275:113,1,225.000008583069,8|0,0:2|0:2,0:2:0:0:
283,66,149241,2,0,P|289:31|295:-6,2,66.6666666666667,2|2|2,0:3|0:3|0:3,0:2:0:0:
506,131,149628,22,0,B|354:149|490:262|293:258,1,225.000008583069,0|0,3:2|0:2,0:2:0:0:
273,293,150015,2,0,L|218:278,3,37.5000014305115,2|2|2|2,0:3|0:3|0:3|0:3,0:3:0:0:
176,230,150209,2,0,L|121:245,3,37.5000014305115,2|2|2|2,0:3|0:3|0:3|0:3,0:3:0:0:
62,205,150402,70,0,P|53:254|87:299,1,75.0000028610231,8|0,0:2|0:2,0:2:0:0:
9,332,150596,2,0,P|46:364|102:357,1,75.0000028610231,2|0,0:3|0:2,0:2:0:0:
135,70,150789,22,0,P|183:61|228:95,1,75.0000028610231,2|0,0:3|0:2,0:2:0:0:
261,16,150983,2,0,P|293:53|286:109,1,75.0000028610231,2|0,0:3|0:2,0:2:0:0:
369,99,151176,2,0,P|352:145|300:167,1,75.0000028610231,2|0,0:3|0:2,0:2:0:0:
248,146,151370,69,0,3:2:0:0:
248,146,151563,2,0,L|242:198,4,37.5000014305115,0|2|2|2|2,3:2|0:2|0:2|0:2|0:2,0:2:0:0:
480,348,151950,22,0,L|456:251,1,75.0000028610231,8|0,0:2|0:2,0:2:0:0:
408,362,152144,69,2,0:2:0:0:
399,357,152241,2,0,L|375:260,1,75.0000028610231,2|0,0:2|0:2,0:2:0:0:
327,379,152434,21,2,0:2:0:0:
318,374,152531,2,0,L|294:277,1,75.0000028610231,2|0,0:2|0:2,0:2:0:0:
21,191,152725,70,0,P|48:273|184:239,1,225.000008583069,4|0,3:2|0:2,0:2:0:0:
217,194,153112,2,0,P|238:182|276:179,3,37.5000014305115,2|2|2|2,0:3|0:3|0:3|0:3,0:3:0:0:
325,145,153305,2,0,P|342:150|358:160,3,37.5000014305115,2|2|2|2,0:3|0:3|0:3|0:3,0:3:0:0:
400,228,153499,2,0,P|439:216|487:209,1,75.0000028610231,8|0,0:2|0:2,0:2:0:0:
253,98,153692,2,0,P|214:86|166:79,1,75.0000028610231,2|0,0:3|0:2,0:2:0:0:
313,230,153886,22,0,L|323:300,1,50,2|0,0:2|0:2,0:2:0:0:
438,135,154079,2,0,L|448:65,1,50,2|0,0:2|0:2,0:2:0:0:
307,242,154273,2,0,L|317:312,1,50,2|0,0:2|0:2,0:2:0:0:
318,369,154467,1,0,3:2:0:0:
318,369,154660,1,0,3:2:0:0:
446,131,154854,2,0,L|456:61,1,50,2|0,0:2|0:2,0:2:0:0:
226,327,155047,70,0,P|129:298|-22:266,1,225.000008583069,8|0,0:2|0:2,0:2:0:0:
6,264,155434,2,0,P|66:251|116:238,2,100.000003814697,2|2|2,0:3|0:3|0:3,0:2:0:0:
109,371,155821,21,2,0:3:0:0:
133,348,155950,1,0,0:3:0:0:
124,318,156079,1,0,0:3:0:0:
207,322,156209,69,2,0:3:0:0:
216,292,156338,1,0,0:3:0:0:
192,269,156467,1,0,0:3:0:0:
44,303,156596,21,2,0:3:0:0:
44,269,156725,1,0,0:3:0:0:
71,254,156854,1,0,0:3:0:0:
10,199,156984,69,2,0:3:0:0:
25,171,157113,1,0,0:3:0:0:
58,172,157242,1,0,0:3:0:0:
246,153,157370,21,2,0:3:0:0:
165,86,157499,1,2,0:3:0:0:
148,190,157628,1,2,0:3:0:0:
239,151,157757,69,2,0:3:0:0:
166,91,157886,1,2,0:3:0:0:
151,185,158015,1,2,0:3:0:0:
335,368,158338,21,0,3:2:0:0:
335,368,158434,1,0,3:2:0:0:
335,368,158531,2,2,P|373:377|393:389,3,37.5000014305115,2|2|2|2,3:2|1:2|1:2|1:2,0:2:0:0:
433,330,158725,2,2,P|453:363|459:385,3,37.5000014305115,2|2|2|2,3:2|1:2|1:2|1:2,0:2:0:0:
512,262,158918,54,0,B|340:283|340:283|341:231|290:208,1,250,4|0,3:2|0:2,0:2:0:0:
184,239,159209,69,2,0:3:0:0:
258,282,159305,1,8,3:2:0:0:
258,282,159499,2,0,P|247:333|242:371,1,50,2|0,0:3|0:2,0:2:0:0:
31,306,159692,1,0,3:2:0:0:
31,306,159789,2,0,P|42:357|47:395,1,50,2|0,0:3|0:2,0:2:0:0:
307,217,160079,1,10,3:2:0:0:
307,217,160370,21,2,0:3:0:0:
239,175,160467,1,0,3:2:0:0:
269,5,160660,70,0,L|209:20,1,50,2|0,0:3|0:2,0:2:0:0:
14,51,160854,1,8,3:2:0:0:
14,51,160950,2,0,L|74:66,1,50,2|0,0:3|0:2,0:2:0:0:
136,0,161241,2,0,L|146:68,1,50,2|0,3:3|0:2,0:2:0:0:
23,199,161531,21,2,0:3:0:0:
101,185,161628,1,8,3:2:0:0:
101,185,161821,1,2,0:3:0:0:
359,12,162015,70,0,B|420:27|515:39|515:39|458:62|424:92,1,250,0|0,3:2|0:2,0:2:0:0:
283,67,162305,21,2,0:3:0:0:
356,92,162402,1,8,3:2:0:0:
356,92,162596,2,0,P|371:166|372:177,1,50,2|0,0:3|0:2,0:2:0:0:
501,187,162789,1,0,3:2:0:0:
501,187,162886,2,0,P|516:113|517:102,1,50,2|0,0:3|0:2,0:2:0:0:
308,199,163176,1,8,3:2:0:0:
308,199,163467,69,2,0:3:0:0:
296,273,163563,1,0,3:2:0:0:
428,358,163757,22,0,P|484:347|514:342,1,50,2|0,0:3|0:2,0:2:0:0:
232,229,163950,1,8,3:2:0:0:
232,229,164047,2,0,P|176:218|146:213,1,50,2|0,0:3|0:2,0:2:0:0:
103,203,164338,2,0,P|84:185|107:200,1,75,2|2,3:3|0:3,0:2:0:0:
24,360,164725,69,8,1:2:0:0:
54,322,164821,1,0,1:2:0:0:
106,308,164918,1,0,1:2:0:0:
160,330,165015,1,0,1:2:0:0:
245,372,165112,22,0,P|275:179|289:89,1,250,4|0,3:2|0:2,0:2:0:0:
233,0,165402,69,2,0:3:0:0:
297,43,165499,1,8,3:2:0:0:
297,43,165692,2,0,P|361:33|391:29,1,50,2|0,0:3|0:2,0:2:0:0:
426,19,165886,1,0,3:2:0:0:
426,19,165983,2,0,P|490:9|520:5,1,50,2|0,0:3|0:2,0:2:0:0:
222,82,166273,21,8,3:2:0:0:
154,122,166467,1,4,0:3:0:0:
146,119,166563,1,10,0:3:0:0:
138,116,166660,1,0,3:2:0:0:
61,149,166854,70,0,L|72:212,1,50,6|0,0:3|0:2,0:2:0:0:
197,211,167047,1,8,3:2:0:0:
129,251,167144,2,0,L|118:314,1,50,6|0,0:3|0:2,0:2:0:0:
62,355,167434,22,0,L|19:366,1,25,2|0,3:2|0:2,0:2:0:0:
41,282,167628,2,0,L|-2:293,1,25,2|0,0:2|0:2,0:2:0:0:
302,198,167821,70,0,L|259:187,1,25,10|0,3:2|0:2,0:2:0:0:
281,271,168015,2,0,L|238:260,1,25,2|0,0:2|0:2,0:2:0:0:
512,324,168209,22,0,B|361:296|361:296|341:357|263:357,1,250,4|0,3:2|0:2,0:2:0:0:
105,179,168499,69,2,0:3:0:0:
129,251,168596,1,8,3:2:0:0:
129,250,168789,2,0,P|153:256|177:262,1,50,6|0,0:3|0:2,0:2:0:0:
411,222,168983,1,0,3:2:0:0:
411,222,169079,2,0,P|435:216|459:210,1,50,6|0,0:3|0:2,0:2:0:0:
281,271,169370,21,8,3:2:0:0:
319,201,169563,1,4,0:3:0:0:
317,193,169660,1,6,0:3:0:0:
281,271,169757,70,0,L|313:-1,1,250,4|6,3:2|0:3,0:2:0:0:
390,9,170047,21,0,0:2:0:0:
227,67,170144,1,8,3:2:0:0:
227,67,170241,2,0,L|186:61,2,25,2|0|0,0:3|0:2|0:2,0:2:0:0:
379,135,170531,2,0,L|421:127,1,25,0|0,3:2|0:2,0:2:0:0:
477,113,170725,69,4,0:3:0:0:
481,117,170821,1,4,0:3:0:0:
302,148,170918,1,8,3:2:0:0:
481,117,171112,1,4,0:3:0:0:
160,289,171305,22,0,P|159:313|156:338,1,50,4|0,3:2|0:2,0:2:0:0:
156,338,171596,1,2,0:3:0:0:
124,217,171692,69,8,3:2:0:0:
124,217,171886,2,0,L|67:229,1,50,6|0,0:3|0:2,0:2:0:0:
37,129,172079,1,0,3:2:0:0:
37,129,172176,2,0,L|86:140,1,50,2|0,0:3|0:2,0:2:0:0:
140,44,172370,1,8,0:3:0:0:
140,44,172467,2,0,L|83:56,1,50,8|0,3:2|0:2,0:2:0:0:
177,147,172660,21,4,0:3:0:0:
179,132,172757,1,6,0:3:0:0:
181,117,172854,1,0,3:2:0:0:
325,193,173047,69,6,0:3:0:0:
339,189,173144,1,4,0:3:0:0:
398,140,173241,21,8,3:2:0:0:
412,144,173338,1,6,0:3:0:0:
426,148,173434,1,4,0:3:0:0:
260,354,173628,69,0,3:2:0:0:
477,208,173821,21,4,0:3:0:0:
491,204,173918,1,6,0:3:0:0:
398,140,174015,1,8,3:2:0:0:
300,267,174209,1,6,0:3:0:0:
502,24,174402,70,0,P|447:37|379:49,1,100,2|0,3:2|0:2,0:2:0:0:
344,0,174692,1,6,0:3:0:0:
214,92,174789,21,8,3:2:0:0:
214,92,174983,2,0,L|199:32,1,50,6|0,0:3|0:2,0:2:0:0:
40,104,175176,1,0,3:2:0:0:
40,104,175273,2,0,L|25:44,1,50,6|0,0:3|0:2,0:2:0:0:
127,34,175467,1,4,0:3:0:0:
127,34,175563,2,0,L|114:82,1,50,8|0,3:2|0:2,0:2:0:0:
30,281,175757,69,6,0:3:0:0:
44,277,175854,1,4,0:3:0:0:
58,273,175950,1,0,3:2:0:0:
123,384,176144,22,0,L|144:297,1,50,6|0,0:3|0:2,0:2:0:0:
100,202,176338,69,8,3:2:0:0:
154,258,176434,2,0,L|264:237,1,100,6|0,0:3|0:2,0:2:0:0:
313,284,176725,1,0,3:2:0:0:
475,156,176918,21,8,0:3:0:0:
478,141,177015,1,10,0:3:0:0:
413,101,177112,1,8,3:2:0:0:
460,232,177305,1,4,0:3:0:0:
196,73,177499,70,0,L|186:17,2,50,0|0|0,1:2|1:2|1:2,1:2:0:0:
309,105,177789,2,0,L|319:49,2,50,0|0|0,1:2|1:2|1:2,1:2:0:0:
184,79,178079,2,0,L|174:23,2,50,0|0|0,1:2|1:2|1:2,1:2:0:0:
297,111,178369,2,0,L|307:55,2,50,0|0|0,1:2|1:2|1:2,1:2:0:0:
130,170,178660,22,0,L|140:226,2,50,0|0|0,1:2|1:2|1:2,1:2:0:0:
17,138,178950,2,0,L|7:194,2,50,0|0|0,1:2|1:2|1:2,1:2:0:0:
142,164,179240,2,0,L|152:220,2,50,0|0|0,1:2|1:2|1:2,1:2:0:0:
29,132,179531,2,0,L|19:188,2,50,0|0|0,1:2|1:2|1:2,1:2:0:0:
104,80,179821,69,0,1:2:0:0:
142,66,179918,1,0,1:2:0:0:
180,91,180015,1,0,1:2:0:0:
215,25,180112,21,0,1:2:0:0:
251,41,180209,1,0,1:2:0:0:
260,86,180306,1,0,1:2:0:0:
235,157,180402,69,0,1:2:0:0:
235,157,180499,1,0,1:2:0:0:
183,217,180596,21,0,1:2:0:0:
192,262,180693,1,0,1:2:0:0:
228,278,180790,1,0,1:2:0:0:
267,258,180886,2,0,P|275:240|280:223,2,25,0|0|0,1:2|1:2|1:2,1:2:0:0:
163,335,181079,69,0,1:2:0:0:
117,314,181176,2,0,P|109:296|104:279,2,25,0|0|0,1:2|1:2|1:2,1:2:0:0:
280,382,181370,21,0,1:2:0:0:
329,354,181467,2,0,P|337:335|345:320,4,25,0|0|0|0|0,1:2|1:2|1:2|1:2|1:2,1:2:0:0:
512,287,181757,70,0,L|412:299,1,100,0|0,1:2|1:2,1:2:0:0:
226,149,182047,22,0,L|220:190,4,25,0|0|0|0|0,1:2|1:2|1:2|1:2|1:2,1:2:0:0:
177,235,182338,2,0,L|144:209,4,25,0|0|0|0|0,1:2|1:2|1:2|1:2|1:2,1:2:0:0:
127,149,182628,2,0,L|165:133,4,25,0|0|0|0|0,1:2|1:2|1:2|1:2|1:2,1:2:0:0:
88,56,182918,70,0,L|136:67,4,50,0|0|0|0|0,1:2|1:2|1:2|1:2|1:2,1:2:0:0:
328,164,183209,2,0,L|293:200,4,50,0|0|0|0|0,1:2|1:2|1:2|1:2|1:2,1:2:0:0:
114,317,183499,2,0,L|99:269,2,50,0|0|0,1:2|1:2|1:2,1:2:0:0:
180,175,183692,85,0,3:2:0:0:
180,175,185047,6,0,L|182:153,1,20,2|2,0:2|0:3,0:2:0:0:
503,239,186789,85,2,0:2:0:0:
180,175,188144,6,0,L|182:153,1,20,2|2,0:2|0:3,0:2:0:0:
499,247,189499,85,2,0:3:0:0:
340,279,189886,1,4,0:2:0:0:
180,175,191241,6,0,L|182:153,1,20,2|2,0:2|0:3,0:2:0:0:
193,77,192112,2,2,L|192:85,2,5,2|2|2,0:2|0:2|0:2,0:2:0:0:
33,279,192983,85,2,0:2:0:0:
42,329,193079,1,2,0:2:0:0:
133,296,193660,5,2,0:2:0:0:
129,336,193756,1,2,0:2:0:0:
216,350,194434,85,2,0:2:0:0:
204,380,194530,1,2,0:2:0:0:
204,380,195209,5,2,0:2:0:0:
256,192,195305,12,0,195983,0:2:0:0:
79,189,196079,86,0,L|74:216,3,20,0|0|0|0,1:2|1:2|1:2|1:2,1:2:0:0:
156,202,196854,2,0,L|151:229,3,20,0|0|0|0,1:2|1:2|1:2|1:2,1:2:0:0:
213,351,197628,6,0,L|208:324,1,20,0|0,1:2|1:2,1:2:0:0:
290,338,198015,2,0,L|285:311,1,20,0|0,1:2|1:2,0:0:0:0:
413,221,198402,86,0,L|408:248,1,20,0|0,1:2|1:2,1:2:0:0:
490,234,198789,2,0,L|485:261,1,20,0|0,1:2|1:2,0:0:0:0:
438,318,199079,1,0,1:2:0:0:
438,318,199176,5,0,1:2:0:0:
471,159,199370,1,0,1:2:0:0:
296,213,199563,85,0,1:2:0:0:
329,372,199757,1,0,1:2:0:0:
137,322,199950,5,0,1:2:0:0:
170,163,200144,1,0,1:2:0:0:
0,225,200338,85,0,1:2:0:0:
33,384,200532,1,0,1:2:0:0:
472,102,200725,5,0,1:2:0:0:
261,199,200918,1,0,1:2:0:0:
463,298,201112,85,0,1:2:0:0:
252,201,201305,1,0,1:2:0:0:
454,106,201499,5,0,1:2:0:0:
243,203,201692,1,0,1:2:0:0:
453,299,201886,1,0,1:2:0:0:
54,216,202079,86,0,L|57:236,2,12.5,0|0|0,1:2|1:2|1:2,1:2:0:0:
25,308,202273,5,0,1:2:0:0:
49,311,202369,1,0,1:2:0:0:
74,314,202466,1,0,1:2:0:0:
99,318,202563,1,0,1:2:0:0:
124,321,202660,1,0,1:2:0:0:
148,325,202756,1,0,1:2:0:0:
173,328,202853,1,0,1:2:0:0:
198,331,202950,1,0,1:2:0:0:
223,335,203047,1,0,1:2:0:0:
247,338,203143,1,0,1:2:0:0:
272,342,203240,1,0,1:2:0:0:
297,346,203337,1,0,1:2:0:0:
322,349,203434,1,0,1:2:0:0:
346,353,203531,1,0,1:2:0:0:
371,356,203628,2,0,L|391:365,2,12.5,0|0|0,1:2|1:2|1:2,1:2:0:0:
506,234,203821,85,0,1:2:0:0:
470,238,203917,1,0,1:2:0:0:
435,243,204014,1,0,1:2:0:0:
399,248,204111,1,0,1:2:0:0:
364,253,204208,1,0,1:2:0:0:
329,259,204304,1,0,1:2:0:0:
293,264,204401,1,0,1:2:0:0:
258,270,204498,1,0,1:2:0:0:
223,276,204595,1,0,1:2:0:0:
188,283,204691,1,0,1:2:0:0:
153,289,204788,1,0,1:2:0:0:
118,296,204885,1,0,1:2:0:0:
83,303,204982,1,0,1:2:0:0:
48,311,205079,1,0,1:2:0:0:
13,318,205176,2,0,L|2:350,2,25,0|0|0,1:2|1:2|1:2,1:2:0:0:
221,55,205370,5,8,1:2:0:0:
165,8,205467,1,0,1:2:0:0:
93,29,205563,2,0,P|76:31|69:32,2,25,0|0|0,1:2|1:2|1:2,1:2:0:0:
299,114,205757,85,8,1:2:0:0:
355,67,205854,1,0,1:2:0:0:
427,88,205950,2,0,P|444:90|451:91,2,25,0|0|0,1:2|1:2|1:2,1:2:0:0:
207,172,206144,5,8,1:2:0:0:
151,219,206241,1,0,1:2:0:0:
79,198,206337,2,0,P|62:196|55:195,2,25,0|0|0,1:2|1:2|1:2,1:2:0:0:
299,225,206531,85,8,1:2:0:0:
355,272,206628,1,0,1:2:0:0:
427,251,206724,2,0,P|444:249|451:248,2,25,0|0|0,1:2|1:2|1:2,1:2:0:0:
31,275,206918,6,0,L|28:300,7,25,8|0|0|0|0|0|0|0,1:2|1:2|1:2|1:2|1:2|1:2|1:2|1:2,1:2:0:0:
105,333,207305,2,0,L|116:259,6,75.0000028610231,8|0|0|0|0|0|0,1:2|1:2|1:2|1:2|1:2|1:2|1:2,1:2:0:0:
201,260,207692,86,0,L|185:358,3,100,8|0|0|0,1:2|1:2|1:2|1:2,1:2:0:0:
265,357,207886,2,0,L|276:283,3,75.0000028610231,8|0|0|0,1:2|1:2|1:2|1:2,1:2:0:0:
351,307,208079,2,0,L|343:356,3,50,8|0|0|0,1:2|1:2|1:2|1:2,1:2:0:0:
418,353,208273,2,0,L|422:328,2,25,8|0|0,1:2|1:2|1:2,1:2:0:0:
498,352,208467,5,0,3:2:0:0:
429,104,210402,85,0,3:2:0:0:
414,107,210499,1,0,3:2:0:0:
399,110,210596,1,0,3:2:0:0:
384,113,210692,1,0,3:2:0:0:
369,116,210789,1,0,3:2:0:0:
354,119,210886,1,0,3:2:0:0:
339,122,210983,1,0,3:2:0:0:
324,125,211079,1,0,3:2:0:0:
309,128,211176,1,0,3:2:0:0:
294,131,211273,1,0,3:2:0:0:
279,134,211370,1,0,3:2:0:0:
264,138,211467,1,0,3:2:0:0:
199,182,211563,5,2,3:2:0:0:
129,166,211660,1,2,3:2:0:0:
59,145,211757,2,0,L|69:87,1,50,2|0,3:2|3:2,3:2:0:0:
166,321,211950,85,2,3:2:0:0:
179,308,212047,2,0,L|239:297,1,50,2|0,3:2|3:2,3:2:0:0:
266,213,212241,5,2,3:2:0:0:
196,193,212337,1,2,3:2:0:0:
126,177,212434,1,2,3:2:0:0:
56,156,212531,2,0,L|66:98,1,50,2|0,3:2|3:2,3:2:0:0:
153,334,212725,85,2,3:2:0:0:
166,321,212822,2,0,L|226:310,1,50,2|0,3:2|3:2,3:2:0:0:
413,212,213015,5,2,3:2:0:0:
444,182,213112,85,10,3:2:0:0:
423,252,213209,1,2,3:2:0:0:
372,198,213305,2,0,L|329:193,2,25,2|0|0,3:2|3:2|3:2,3:2:0:0:
481,335,213499,5,10,3:2:0:0:
512,365,213596,1,2,3:2:0:0:
491,295,213693,1,2,3:2:0:0:
440,349,213789,1,2,3:2:0:0:
21,360,214273,85,2,0:2:0:0:
28,334,214337,1,2,0:2:0:0:
46,314,214402,1,2,0:2:0:0:
70,303,214466,1,2,0:2:0:0:
96,303,214531,1,2,0:2:0:0:
120,314,214595,1,2,0:2:0:0:
180,364,214660,53,2,3:2:0:0:
240,312,214757,1,2,0:2:0:0:
302,363,214854,2,0,P|355:349|415:338,1,110.000003356934,2|0,0:2|0:2,0:2:0:0:
99,74,215047,5,10,3:2:0:0:
29,108,215144,2,0,P|40:166|85:183,1,110.000003356934,2|0,0:2|0:2,0:2:0:0:
316,268,215338,2,0,P|337:129|363:1,1,220.000006713867,2|0,0:2|0:2,0:2:0:0:
288,6,215628,2,0,B|264:2|264:2|284:27,1,50,2|0,0:2|0:2,0:2:0:0:
443,187,215821,85,10,3:2:0:0:
471,151,215918,1,2,0:2:0:0:
444,111,216015,1,2,0:2:0:0:
468,76,216112,1,2,0:2:0:0:
232,210,216209,5,2,3:2:0:0:
204,174,216306,1,2,0:2:0:0:
231,134,216403,1,2,0:2:0:0:
207,99,216500,1,2,0:2:0:0:
348,23,216596,85,10,3:2:0:0:
339,99,216692,1,2,0:2:0:0:
333,176,216789,1,2,0:2:0:0:
329,252,216886,2,0,B|476:270|350:353|538:376,1,220.000006713867,2|0,0:2|0:2,0:2:0:0:
489,275,217176,6,0,B|519:232|519:232|495:286,1,110.000003356934,2|0,0:2|0:2,0:2:0:0:
333,345,217370,2,0,B|363:388|363:388|339:334,1,110.000003356934,10|0,3:2|0:2,0:2:0:0:
212,167,217563,2,0,B|242:124|242:124|218:178,1,110.000003356934,2|0,0:2|0:2,0:2:0:0:
0,300,217757,85,2,3:2:0:0:
0,300,217854,1,2,0:2:0:0:
50,354,217950,2,0,P|170:320|210:310,1,110.000003356934,2|0,0:2|0:2,0:2:0:0:
329,102,218144,5,10,3:2:0:0:
369,36,218241,2,0,P|410:42|441:122,1,110.000003356934,2|0,0:2|0:2,0:2:0:0:
252,384,218434,2,0,P|234:263|204:136,1,220.000006713867,2|0,0:2|0:2,0:2:0:0:
147,20,218725,85,2,0:2:0:0:
90,0,218821,1,2,0:2:0:0:
113,153,218918,5,10,3:2:0:0:
159,114,219014,1,2,0:2:0:0:
14,57,219112,85,2,0:2:0:0:
24,116,219208,1,2,0:2:0:0:
91,78,219305,5,2,3:2:0:0:
131,41,219401,1,2,0:2:0:0:
184,39,219498,1,2,0:2:0:0:
228,70,219595,1,2,0:2:0:0:
286,141,219692,85,10,3:2:0:0:
345,183,219789,1,2,0:2:0:0:
420,179,219886,1,2,0:2:0:0:
475,129,219982,1,2,0:2:0:0:
479,51,220079,6,0,P|406:67|345:77,1,110.000003356934,14|0,3:2|0:2,0:2:0:0:
213,18,220273,85,2,0:2:0:0:
285,0,220370,2,0,P|335:55|374:103,1,110.000003356934,10|0,3:2|0:2,0:2:0:0:
386,253,220563,5,2,0:2:0:0:
338,194,220660,2,0,P|360:122|382:64,1,110.000003356934,10|0,3:2|0:2,0:2:0:0:
471,267,220854,86,0,L|482:324,1,50,2|0,3:3|0:2,0:2:0:0:
480,316,221047,1,0,3:2:0:0:
480,316,221144,1,0,3:2:0:0:
338,194,221241,6,0,B|224:220|224:220|202:273|202:273|108:298,1,220.000006713867,10|0,3:2|0:2,0:2:0:0:
18,29,221531,2,0,P|134:27|133:140,1,220.000006713867,2|0,0:2|0:2,0:2:0:0:
125,186,221821,2,0,B|114:209|114:209|140:202,1,50,2|0,0:2|0:2,0:2:0:0:
240,132,222015,85,10,3:2:0:0:
272,94,222112,1,2,0:2:0:0:
321,113,222209,1,2,0:2:0:0:
361,76,222305,1,2,0:2:0:0:
400,262,222402,5,2,3:2:0:0:
368,300,222499,1,2,0:2:0:0:
319,281,222596,1,2,0:2:0:0:
279,318,222692,1,2,0:2:0:0:
104,275,222789,85,10,3:2:0:0:
123,200,222886,1,2,0:2:0:0:
198,220,222983,1,2,0:2:0:0:
178,295,223079,2,0,B|16:335|16:335|53:206,1,220.000006713867,2|0,0:2|0:2,0:2:0:0:
123,200,223370,6,0,B|115:227|115:227|136:197,1,50,2|0,0:2|0:2,0:2:0:0:
456,13,223563,86,0,B|504:18|504:18|495:98,1,110.000003356934,10|0,3:2|0:2,0:2:0:0:
320,383,223757,2,0,B|271:377|271:377|281:298,1,110.000003356934,2|0,0:2|0:2,0:2:0:0:
373,317,223950,6,0,B|426:327|426:327|443:376|443:376|508:383,1,150,2|0,3:3|0:2,0:2:0:0:
289,230,224338,85,8,3:2:0:0:
258,112,224434,1,0,0:2:0:0:
375,81,224531,1,0,0:2:0:0:
407,199,224628,1,0,0:2:0:0:
336,160,224725,6,0,L|332:148,1,10,2|0,3:3|0:2,0:2:0:0:
249,177,225112,85,8,3:2:0:0:
311,72,225208,1,0,0:2:0:0:
415,133,225305,1,0,0:2:0:0:
354,239,225402,1,0,0:2:0:0:
330,157,225499,5,2,3:3:0:0:
330,157,225692,1,0,3:2:0:0:
29,25,225886,86,0,L|124:47,1,50,8|0,3:2|0:2,0:2:0:0:
450,216,226079,2,0,L|516:201,2,55.0000016784668,0|0|0,3:2|3:2|3:2,3:2:0:0:
171,384,226273,5,8,3:2:0:0:
101,128,226402,1,2,0:3:0:0:
228,160,226531,85,8,3:2:0:0:
45,350,226660,1,2,0:3:0:0:
8,223,226789,5,8,3:2:0:0:
265,286,226918,1,2,0:3:0:0:
141,258,227047,85,2,0:3:0:0:
141,258,227144,1,2,0:3:0:0:
141,258,227241,2,0,L|136:215,1,25,2|0,0:3|0:2,0:2:0:0:
160,24,227434,5,14,3:2:0:0:
85,0,227531,2,0,P|34:27|54:130,1,110.000003356934,2|0,0:2|0:2,0:2:0:0:
53,315,227725,86,0,B|194:290|64:210|260:189,1,220.000006713867,2|0,0:2|0:2,0:2:0:0:
275,138,228015,2,0,B|282:115|282:115|248:135,1,50,2|0,0:2|0:2,0:2:0:0:
217,308,228209,5,10,3:2:0:0:
256,275,228305,1,2,0:2:0:0:
300,294,228402,1,2,0:2:0:0:
337,255,228499,1,2,0:2:0:0:
349,57,228596,85,2,3:2:0:0:
388,90,228692,1,2,0:2:0:0:
432,71,228789,1,2,0:2:0:0:
469,110,228886,1,2,0:2:0:0:
497,202,228983,5,10,3:2:0:0:
416,185,229079,1,2,0:2:0:0:
335,169,229176,1,2,0:2:0:0:
253,155,229273,2,0,B|173:138|173:138|204:-9,1,220.000006713867,2|0,0:2|0:2,0:2:0:0:
148,67,229563,86,0,L|0:100,1,110.000003356934,2|0,0:2|0:2,0:2:0:0:
263,241,229757,2,0,L|411:274,1,110.000003356934,10|0,3:2|0:2,0:2:0:0:
118,361,229950,2,0,L|-30:394,1,110.000003356934,2|0,0:2|0:2,0:2:0:0:
52,189,230144,5,2,3:2:0:0:
2,246,230241,1,2,0:2:0:0:
74,262,230338,2,0,B|120:251|120:251|126:233|126:233|205:219,1,110.000003356934,2|0,0:2|0:2,0:2:0:0:
325,99,230531,85,10,3:2:0:0:
254,34,230628,2,0,L|224:198,1,110.000003356934,2|0,0:2|0:2,0:2:0:0:
306,366,230821,2,0,B|448:337|448:337|461:230,1,220.000006713867,2|0,0:2|0:2,0:2:0:0:
466,185,231112,2,0,B|494:167|494:167|473:207,1,50,2|0,0:2|0:2,0:2:0:0:
370,268,231305,5,10,3:2:0:0:
322,194,231402,1,2,0:2:0:0:
265,260,231499,1,2,0:2:0:0:
218,190,231596,2,0,B|184:145|184:145|237:184,1,100,10|0,3:2|0:2,0:2:0:0:
324,3,231886,86,0,B|373:22|373:22|342:101,1,110.000003356934,10|0,3:2|0:2,0:2:0:0:
17,142,232079,2,0,B|8:88|8:88|91:76,1,110.000003356934,10|0,3:2|0:2,0:2:0:0:
292,337,232273,2,0,B|249:369|249:369|197:303,1,110.000003356934,10|0,3:2|0:2,0:2:0:0:
186,201,232467,5,10,3:2:0:0:
191,187,232531,1,10,3:2:0:0:
197,173,232596,1,10,3:2:0:0:
203,159,232660,2,0,L|215:230,5,37.5000014305115,10|0|0|0|0|0,3:2|0:2|0:2|0:2|0:2|0:2,0:2:0:0:
496,107,233241,85,2,3:2:0:0:
425,83,233338,1,2,0:2:0:0:
440,154,233434,2,0,P|449:208|458:262,1,110.000003356934,2|0,0:2|0:2,0:2:0:0:
314,369,233628,5,10,3:2:0:0:
384,327,233725,2,0,P|433:341|498:352,1,110.000003356934,2|0,0:2|0:2,0:2:0:0:
212,274,233918,86,0,B|99:305|99:305|91:349|91:349|3:374,1,220.000006713867,2|2,0:2|0:2,0:2:0:0:
24,362,234160,1,2,0:2:0:0:
13,358,234209,2,0,L|35:231,1,110.000003356934,2|0,0:2|0:2,0:2:0:0:
48,104,234402,5,10,3:2:0:0:
69,153,234498,1,2,0:2:0:0:
114,183,234595,1,2,0:2:0:0:
169,183,234692,1,2,0:2:0:0:
212,93,234789,85,2,3:2:0:0:
138,99,234886,1,2,0:2:0:0:
170,30,234983,2,0,B|239:-1|239:-1|302:29,1,110.000003356934,2|0,0:2|0:2,0:2:0:0:
481,154,235176,5,10,3:2:0:0:
512,75,235273,2,0,B|481:60|481:60|392:110|392:110|409:231,1,220.000006713867,2|0,0:2|0:2,0:2:0:0:
437,379,235563,85,2,3:2:0:0:
505,349,235660,1,2,0:2:0:0:
445,303,235757,2,0,P|396:294|320:280,1,110.000003356934,2|0,0:2|0:2,0:2:0:0:
260,173,235950,5,10,3:2:0:0:
186,182,236046,1,2,0:2:0:0:
114,197,236143,1,2,0:2:0:0:
43,216,236240,1,2,0:2:0:0:
2,326,236338,85,2,3:2:0:0:
73,347,236434,1,2,0:2:0:0:
118,285,236531,2,0,P|167:276|243:262,1,110.000003356934,2|0,0:2|0:2,0:2:0:0:
452,18,236725,5,10,3:2:0:0:
376,2,236821,2,0,B|370:58|370:58|461:118|461:118|448:195,1,220.000006713867,2|0,0:2|0:2,0:2:0:0:
501,267,237112,86,0,L|355:240,1,110.000003356934,2|2,3:2|0:2,0:2:0:0:
387,256,237257,1,2,0:2:0:0:
381,265,237305,2,0,L|406:381,1,110.000003356934,2|0,0:2|0:2,0:2:0:0:
365,167,237499,5,10,3:2:0:0:
310,157,237595,1,2,0:2:0:0:
257,146,237692,1,2,0:2:0:0:
203,134,237789,1,2,0:2:0:0:
216,53,237886,85,2,3:2:0:0:
165,45,237983,1,2,0:2:0:0:
135,87,238079,1,2,0:2:0:0:
17,82,238176,5,2,0:2:0:0:
58,112,238273,1,10,3:2:0:0:
50,163,238369,1,2,0:2:0:0:
199,214,238467,85,2,0:2:0:0:
122,202,238564,1,2,0:2:0:0:
77,263,238660,1,2,3:2:0:0:
0,301,238757,5,2,0:2:0:0:
77,289,238854,1,2,0:2:0:0:
122,350,238950,1,2,0:2:0:0:
269,384,239047,85,10,3:2:0:0:
360,363,239143,1,2,0:2:0:0:
370,271,239240,1,2,0:2:0:0:
283,232,239337,1,2,0:2:0:0:
222,301,239434,1,2,3:2:0:0:
222,301,239531,1,2,0:2:0:0:
297,309,239628,6,0,L|326:109,1,150.000005722046,2|0,0:2|0:2,0:2:0:0:
399,12,239821,85,2,0:2:0:0:
412,25,239918,2,0,P|576:-2|601:-5,1,100,2|0,0:2|0:2,0:2:0:0:
478,117,240112,6,0,P|350:88|205:59,1,200,2|0,0:2|0:2,0:2:0:0:
237,11,240402,85,2,0:3:0:0:
221,6,240499,2,0,P|155:22|102:34,1,100,2|0,0:2|0:2,0:2:0:0:
0,109,240789,5,2,0:3:0:0:
16,104,240886,2,0,P|82:120|135:132,1,100,2|0,0:2|0:2,0:2:0:0:
15,197,241176,85,2,0:3:0:0:
31,192,241273,2,0,P|97:208|150:220,1,100,2|0,0:2|0:2,0:2:0:0:
273,153,241563,5,2,0:3:0:0:
202,109,241660,2,0,L|186:184,1,50,2|0,0:2|0:2,0:2:0:0:
75,373,241854,85,2,0:2:0:0:
31,302,241951,2,0,L|106:286,1,50,2|0,0:3|0:2,0:2:0:0:
273,153,242144,2,0,L|348:169,1,50,2|0,0:2|0:2,0:2:0:0:
462,368,242338,2,0,L|537:352,1,50,2|0,0:3|0:2,0:2:0:0:
494,228,242531,5,2,0:2:0:0:
436,219,242628,1,2,0:2:0:0:
403,263,242725,1,2,0:2:0:0:
331,306,242821,86,0,L|311:234,1,50,2|0,0:2|0:2,0:2:0:0:
119,208,243015,5,2,0:2:0:0:
119,208,243112,1,2,0:2:0:0:
191,251,243208,2,0,L|211:179,1,50,2|0,0:2|0:2,0:2:0:0:
391,92,243402,85,2,0:2:0:0:
391,92,243499,1,2,0:2:0:0:
319,135,243595,2,0,L|299:63,1,50,2|0,0:2|0:2,0:2:0:0:
130,20,243789,5,2,0:2:0:0:
130,20,243886,1,2,0:2:0:0:
202,63,243982,2,0,L|222:-9,1,50,2|0,0:2|0:2,0:2:0:0:
256,192,244176,12,0,244854,0:2:0:0:
56,318,245047,6,0,P|42:290|28:269,1,50,2|0,0:2|0:2,0:2:0:0:
100,182,245241,70,0,P|111:218|118:255,1,75.0000028610231,2|0,0:2|0:2,0:2:0:0:
200,224,245434,22,0,P|204:174|204:124,1,100,2|0,0:2|0:2,0:2:0:0:
301,183,245628,70,0,P|295:207|287:231,1,50,2|0,0:2|0:2,0:2:0:0:
301,183,246789,2,0,P|295:207|287:231,1,50,2|0,0:2|0:2,0:2:0:0:
100,140,247370,38,0,B|128:134|128:134|140:98,1,50,0|0,3:2|0:2,0:2:0:0:
13,55,247563,2,0,B|1:90|1:90|34:127,1,75.0000028610231,0|0,3:2|0:2,0:2:0:0:
112,36,247757,2,0,B|106:20|106:20|84:15,2,37.5000014305115,0|0|0,3:2|3:2|3:2,3:2:0:0:
48,226,247950,6,0,B|50:208|50:208|64:229,1,37.5000014305115,0|0,3:2|3:2,3:2:0:0:
69,236,248047,2,0,B|86:232|86:232|71:252,1,37.5000014305115,0|0,3:2|3:2,3:2:0:0:
65,259,248144,2,0,B|73:274|73:274|50:265,1,37.5000014305115,0|0,3:2|3:2,3:2:0:0:
41,262,248241,2,0,B|28:275|28:275|29:250,1,37.5000014305115,0|0,3:2|3:2,3:2:0:0:
30,240,248338,2,0,B|13:232|13:232|37:225,1,37.5000014305115,0|0,3:2|0:2,0:2:0:0:
43,349,248531,2,0,B|45:368|45:368|51:347,1,37.5000014305115,2|0,3:3|0:2,0:2:0:0:
100,140,248725,70,0,B|190:158|190:158|206:227|206:227|422:274,1,375,4|0,3:2|0:2,0:2:0:0:
471,208,249112,69,2,0:3:0:0:
466,180,249176,1,2,0:3:0:0:
462,153,249241,1,2,0:3:0:0:
458,125,249305,1,2,0:3:0:0:
454,98,249370,1,2,0:3:0:0:
450,70,249434,1,2,0:3:0:0:
447,44,249499,22,0,P|390:39|383:95,1,100,8|0,0:2|0:2,0:2:0:0:
375,71,249789,1,0,0:2:0:0:
512,136,249886,70,0,P|347:93|126:47,1,375,4|0,3:2|0:2,0:2:0:0:
146,50,250273,1,2,0:2:0:0:
79,17,250370,22,0,B|63:38|63:38|73:73,2,50,2|0|0,0:3|0:2|0:2,0:2:0:0:
216,94,250660,1,2,0:2:0:0:
221,94,250709,1,2,0:2:0:0:
225,94,250757,2,0,B|241:73|241:73|231:38,2,50,2|0|0,0:3|0:2|0:2,0:2:0:0:
62,302,251047,70,0,B|22:308|22:308|60:296,1,75.0000028610231,8|0,0:2|0:2,0:2:0:0:
359,251,251241,22,0,L|490:285,1,100,4|0,3:2|0:2,0:2:0:0:
512,338,251434,1,2,0:2:0:0:
337,329,251531,2,0,L|468:363,1,100,4|0,3:2|0:2,0:2:0:0:
96,173,251821,70,0,P|213:145|214:61,1,187.5,0|0,3:2|0:2,0:2:0:0:
235,87,252015,2,0,P|230:46|219:20,1,50,2|0,0:3|0:2,0:2:0:0:
324,28,252209,21,2,0:3:0:0:
371,101,252305,1,2,0:2:0:0:
402,50,252402,1,2,0:2:0:0:
430,79,252499,1,2,0:2:0:0:
446,63,252596,1,8,0:2:0:0:
284,227,252789,70,0,P|289:186|300:160,1,50,2|2,0:2|0:3,0:2:0:0:
296,177,252934,1,2,0:3:0:0:
301,176,252983,2,0,L|358:184,2,50,2|2|2,0:3|0:3|0:3,0:2:0:0:
83,369,253273,2,0,P|64:334|25:323,1,83.3333333333333,2|0,0:3|0:2,0:2:0:0:
25,323,253499,22,0,P|44:359|83:371,1,83.3333333333333,4|0,3:2|0:2,0:2:0:0:
159,339,253628,2,0,P|181:304|172:265,1,83.3333333333333,4|0,3:2|0:2,0:2:0:0:
106,214,253757,2,0,P|65:213|36:241,1,83.3333333333333,4|0,3:2|0:2,0:2:0:0:
98,292,254144,69,10,0:2:0:0:
178,185,254273,1,2,0:2:0:0:
98,292,254402,1,2,0:2:0:0:
240,128,254531,21,2,0:2:0:0:
166,103,254660,1,2,0:2:0:0:
240,128,254789,1,2,0:2:0:0:
400,362,254918,70,0,B|514:340|514:340|471:49,1,375,4|0,3:2|0:2,0:2:0:0:
447,11,255305,2,0,B|481:-4|481:-4|459:36,1,50,2|0,0:2|0:2,0:2:0:0:
418,271,255499,21,0,3:2:0:0:
414,251,255563,1,0,3:2:0:0:
410,231,255628,1,0,3:2:0:0:
406,211,255692,1,8,0:2:0:0:
391,136,255886,2,2,L|383:92,2,25,2|2|2,3:2|0:2|0:2,0:2:0:0:
317,372,256079,70,0,P|265:265|23:167,1,375,4|0,3:2|0:2,0:2:0:0:
0,83,256467,21,2,0:2:0:0:
10,77,256515,1,2,0:2:0:0:
20,70,256563,2,2,P|65:85|93:84,4,62.5,2|2|2|2|2,0:2|0:2|0:2|0:2|0:2,0:2:0:0:
149,142,256854,69,2,0:3:0:0:
166,109,256950,1,2,0:3:0:0:
169,72,257047,1,2,0:3:0:0:
157,37,257144,1,2,0:3:0:0:
40,165,257241,22,0,P|35:220|31:297,1,100.000003814697,8|0,0:2|0:2,0:2:0:0:
24,278,257499,2,0,P|26:228|30:178,1,100.000003814697,2|0,0:3|0:2,0:2:0:0:
22,192,257757,2,0,P|17:247|13:324,1,100.000003814697,2|0,0:3|0:2,0:2:0:0:
212,310,258015,70,0,B|230:285|230:285|365:299,1,166.666666666667,2|0,3:3|0:2,0:2:0:0:
509,362,258273,2,0,B|478:358|478:358|422:234,1,166.666666666667,2|0,3:3|0:2,0:2:0:0:
406,79,258531,2,0,B|418:107|418:107|339:217,1,166.666666666667,2|0,3:3|0:2,0:2:0:0:
476,169,258789,22,2,L|525:160,3,37.5000014305115,2|2|2|2,0:2|0:2|0:2|0:2,0:2:0:0:
102,12,259176,70,0,B|7:14|7:14|178:63|321:123,1,375,4|0,3:2|0:2,0:2:0:0:
272,103,259660,1,2,0:3:0:0:
88,20,259757,22,0,B|-7:22|-7:22|164:71|307:131,1,375,4|0,3:2|0:2,0:2:0:0:
258,111,260241,1,2,0:3:0:0:
302,5,260338,2,0,L|232:21,1,50,8|0,0:2|0:2,0:2:0:0:
0,131,260531,70,0,P|137:170|219:199,1,125,4|0,3:2|0:2,0:2:0:0:
512,257,260725,2,0,P|375:296|293:325,1,125,4|0,3:2|0:2,0:2:0:0:
198,300,260918,2,0,B|159:250|195:185|280:188|337:274|250:376,1,300.000011444092,6|0,3:2|0:2,0:2:0:0:
256,368,261402,21,2,0:2:0:0:
202,312,261499,2,0,L|137:326,1,50,2|0,0:3|0:2,0:2:0:0:
512,0,261692,70,0,P|395:110|161:96,1,375,12|0,0:2|0:2,0:2:0:0:
43,52,262079,22,2,P|21:52|-4:55,2,25,2|2|2,0:2|0:2|0:2,0:2:0:0:
128,52,262273,2,0,P|116:74|109:98,1,50,2|0,0:2|0:2,0:2:0:0:
7,357,262467,70,0,P|131:332|408:296,1,375,4|0,3:2|0:2,0:2:0:0:
377,298,262854,21,2,0:2:0:0:
456,327,262950,2,0,P|448:350|443:375,2,50,2|0|0,0:3|0:2|0:2,0:2:0:0:
287,295,263241,69,0,3:2:0:0:
292,315,263305,1,0,3:2:0:0:
298,335,263370,1,0,3:2:0:0:
304,355,263434,1,8,0:2:0:0:
329,21,263628,22,0,B|421:11|421:11|490:4|499:96|430:103|430:103|292:117|292:117,1,375,0|0,3:2|0:2,0:2:0:0:
250,53,264015,69,8,0:2:0:0:
250,53,264112,1,8,0:2:0:0:
386,136,264209,22,0,L|391:167,15,25,0|0|0|0|0|0|0|0|0|0|0|0|0|0|0|0,3:2|1:2|1:2|1:2|1:2|1:2|1:2|1:2|1:2|1:2|1:2|1:2|1:2|1:2|1:2|1:2,1:2:0:0:
402,233,265757,2,0,L|407:264,13,25,0|0|0|0|0|0|0|0|0|0|0|0|0|0,1:2|1:2|1:2|1:2|1:2|1:2|1:2|1:2|1:2|1:2|1:2|1:2|1:2|1:2,1:2:0:0:
419,334,267112,2,0,L|421:349,2,12.5,0|0|0,1:2|1:2|1:2,1:2:0:0:
188,286,267305,69,0,3:2:0:0:
132,281,267402,1,0,1:2:0:0:
78,275,267499,2,0,L|55:273,2,12.5,0|0|0,1:2|1:2|1:2,1:2:0:0:
338,239,267692,21,0,3:2:0:0:
402,233,267789,1,0,1:2:0:0:
464,226,267886,2,0,L|490:223,2,25,0|0|0,1:2|1:2|1:2,1:2:0:0:
200,164,268079,69,0,3:2:0:0:
124,156,268176,1,0,1:2:0:0:
50,149,268273,2,0,L|12:145,2,37.5000014305115,0|0|0,1:2|1:2|1:2,1:2:0:0:
295,92,268467,21,0,3:2:0:0:
379,86,268564,1,0,1:2:0:0:
463,77,268661,2,0,L|516:72,2,50,0|0|0,1:2|1:2|1:2,1:2:0:0:
211,212,268854,70,0,L|200:164,2,50,0|0|0,3:2|1:2|1:2,1:2:0:0:
289,245,269047,2,0,L|253:280,2,50,0|0|0,3:2|1:2|1:2,1:2:0:0:
279,162,269241,2,0,L|327:177,2,50,0|0|0,3:2|1:2|1:2,1:2:0:0:
241,94,269434,22,0,L|260:18,2,50,0|0|0,3:2|1:2|1:2,1:2:0:0:
374,246,269628,2,0,L|430:300,2,50,0|0|0,3:2|1:2|1:2,1:2:0:0:
175,285,269821,2,0,L|99:306,2,50,0|0|0,3:2|1:2|1:2,1:2:0:0:
260,209,270015,70,2,L|261:186,6,18.7500007152558,2|2|2|2|2|2|2,0:2|0:2|0:2|0:2|0:2|0:2|0:2,0:2:0:0:
10,208,270402,6,0,P|261:250|530:313,1,500,4|8,3:2|3:2,0:2:0:0:
500,305,270983,53,2,0:2:0:0:
512,202,271079,2,0,P|480:210|452:212,1,50,2|8,0:3|3:2,0:2:0:0:
403,362,271273,2,0,P|371:354|343:352,1,50,2|0,0:3|0:2,0:2:0:0:
175,285,271467,38,0,L|170:230,1,50,2|8,0:3|3:2,0:2:0:0:
92,241,271660,1,0,0:2:0:0:
92,241,271757,2,0,L|96:290,1,50,2|0,0:3|0:2,0:2:0:0:
475,10,271950,54,0,B|504:21|504:21|411:38,1,125,4|0,3:2|0:2,0:2:0:0:
398,40,272144,2,0,B|305:57|305:57|334:68,1,125,4|0,3:2|0:2,0:2:0:0:
396,173,272338,37,2,3:2:0:0:
396,173,272434,2,0,L|405:118,1,50,2|0,0:2|0:2,0:2:0:0:
480,145,272628,2,0,L|489:90,2,50,2|8|0,0:2|3:2|0:2,0:2:0:0:
312,148,272918,53,2,0:2:0:0:
297,151,272967,1,2,0:2:0:0:
282,154,273015,2,0,L|212:139,1,50,2|8,0:2|3:2,0:2:0:0:
40,55,273209,37,2,0:2:0:0:
98,110,273306,1,2,0:2:0:0:
117,33,273402,1,2,0:2:0:0:
0,153,273499,54,0,B|134:129|134:129|194:47|194:47|348:79,1,375,4|0,3:2|0:2,0:2:0:0:
407,87,273886,2,0,B|414:26|414:26|352:0,1,112.500004291535,8|0,3:2|0:2,0:2:0:0:
233,143,274273,37,8,3:2:0:0:
236,155,274370,2,0,L|249:239,1,75.0000028610231,2|0,0:3|0:2,0:2:0:0:
251,240,274660,1,8,3:2:0:0:
58,349,274854,2,2,L|32:355,2,18.7500007152558,2|2|2,0:2|0:2|0:2,0:2:0:0:
140,220,275047,54,2,L|258:241,1,112.500004291535,8|0,3:2|0:2,0:1:0:0:
252,252,275241,2,2,L|141:232,1,112.500004291535,0|0,0:2|0:2,0:1:0:0:
78,173,275434,38,0,P|53:216|62:257,1,75.0000028610231,2|0,0:3|0:2,0:2:0:0:
313,310,275628,2,0,P|338:267|329:226,1,75.0000028610231,2|0,0:1|0:2,0:2:0:0:
58,349,275821,54,0,B|147:369|129:308|219:332,1,150,4|0,3:2|0:2,0:2:0:0:
313,311,276209,37,2,0:2:0:0:
338,331,276305,1,2,0:2:0:0:
405,316,276402,1,2,0:2:0:0:
462,371,276499,1,2,0:2:0:0:
511,153,276596,54,0,B|350:125|350:125|321:62|321:62|164:29,1,375,4|0,3:2|0:2,0:2:0:0:
99,12,276983,37,8,3:2:0:0:
99,12,277176,2,0,L|106:82,1,50,2|0,0:3|0:2,0:2:0:0:
19,141,277370,53,10,3:2:0:0:
99,141,277499,1,2,0:2:0:0:
139,210,277628,1,2,0:2:0:0:
144,305,277757,37,2,0:2:0:0:
224,305,277886,1,2,0:2:0:0:
264,236,278015,1,2,0:2:0:0:
18,246,278144,54,0,P|193:222|407:198,1,375,4|0,3:2|0:2,0:2:0:0:
443,137,278531,37,10,3:2:0:0:
443,137,278628,2,0,L|455:74,1,50,2|0,0:3|0:2,0:2:0:0:
361,127,278821,2,0,L|373:64,2,50,2|8|0,0:1|3:2|0:2,0:2:0:0:
509,273,279112,54,0,B|399:290|399:290|386:351,1,150.000005722046,2|8,0:2|3:2,0:2:0:0:
387,343,279402,1,2,0:2:0:0:
314,384,279499,2,0,L|300:325,1,50,2|0,0:3|0:2,0:2:0:0:
29,138,279692,38,0,B|144:175|144:175|114:325|114:325|241:375,1,375,4|0,3:2|0:2,0:2:0:0:
46,227,280079,54,0,L|-22:238,1,37.5000014305115,2|0,3:3|0:2,0:2:0:0:
37,309,280273,2,0,L|0:314,1,37.5000014305115,2|0,0:3|0:2,0:2:0:0:
222,276,280467,37,8,0:1:0:0:
218,226,280563,1,2,0:2:0:0:
309,189,280660,53,2,0:2:0:0:
305,239,280757,2,0,L|360:249,1,37.5000014305115,2|0,0:2|0:2,0:2:0:0:
507,46,280950,37,2,0:2:0:0:
511,96,281047,2,0,L|456:106,1,37.5000014305115,2|0,0:2|0:2,0:2:0:0:
485,250,281241,54,0,L|430:260,1,37.5000014305115,2|0,0:2|0:2,0:2:0:0:
392,118,281434,37,2,0:2:0:0:
388,168,281531,2,0,L|443:178,2,37.5000014305115,2|0|0,0:2|0:2|0:2,0:2:0:0:
127,72,281821,53,2,3:2:0:0:
127,72,281918,1,2,3:2:0:0:
199,41,282015,38,0,L|208:88,3,37.5000014305115,8|2|2|2,0:1|0:2|0:2|0:2,0:2:0:0:
214,98,282402,53,2,0:2:0:0:
208,132,282499,1,2,0:2:0:0:
152,180,282595,1,2,0:2:0:0:
72,177,282692,1,2,0:2:0:0:
21,119,282789,38,0,P|259:161|428:195,1,375,4|0,3:2|0:2,0:2:0:0:
456,241,283176,1,0,3:2:0:0:
456,241,283370,53,2,0:2:0:0:
380,266,283467,1,2,0:2:0:0:
446,319,283563,1,2,3:2:0:0:
446,319,283660,2,0,L|459:377,2,50,2|0|0,0:3|0:2|0:2,0:2:0:0:
389,186,283950,2,0,L|402:128,2,50,2|2|0,3:3|0:3|3:2,0:2:0:0:
9,351,284338,38,0,P|186:335|233:159,1,375,4|0,3:2|0:2,0:2:0:0:
136,30,284725,53,2,3:2:0:0:
107,45,284821,1,2,0:2:0:0:
133,64,284918,2,0,L|207:79,1,50,2|0,0:3|0:2,0:2:0:0:
146,178,285112,37,2,3:2:0:0:
136,154,285209,2,0,L|43:135,2,75.0000028610231,2|0|0,0:3|0:2|0:2,0:2:0:0:
76,269,285499,53,0,3:2:0:0:
76,269,285692,2,0,L|84:222,1,37.5000014305115,2|0,0:1|0:2,0:2:0:0:
508,273,285886,38,0,B|395:264|462:361|308:343,1,187.5,4|0,3:2|0:2,0:2:0:0:
327,347,286079,2,0,P|304:342|287:334,2,25,0|0|0,0:2|0:2|0:2,0:2:0:0:
355,267,286273,53,2,3:2:0:0:
332,246,286370,1,2,0:2:0:0:
344,218,286467,1,2,0:2:0:0:
440,229,286563,38,0,P|434:265|432:289,1,50,2|0,0:3|3:2,0:2:0:0:
250,278,286757,1,2,0:3:0:0:
250,278,286854,2,0,P|247:253|242:228,1,50,2|0,0:2|0:2,0:2:0:0:
229,144,287047,53,2,3:2:0:0:
221,99,287144,1,2,0:2:0:0:
214,51,287241,1,2,0:2:0:0:
206,6,287338,1,2,0:2:0:0:
307,66,287434,37,0,3:2:0:0:
316,72,287531,1,0,0:2:0:0:
133,91,287628,53,0,3:2:0:0:
124,97,287725,1,0,0:2:0:0:
32,170,287821,37,2,3:2:0:0:
81,172,287917,1,2,0:2:0:0:
123,198,288014,1,2,0:2:0:0:
149,240,288111,1,2,0:2:0:0:
87,328,288209,54,0,P|243:299|236:227,1,250,4|0,3:2|0:2,0:2:0:0:
235,231,288499,1,2,3:2:0:0:
447,174,288596,38,0,P|291:145|298:73,1,250,4|0,3:2|0:2,0:2:0:0:
299,79,288886,1,2,0:3:0:0:
148,191,288983,54,0,P|326:242|459:373,1,375,4|0,3:2|0:2,0:2:0:0:
501,254,289370,37,2,0:2:0:0:
490,264,289467,1,2,0:2:0:0:
308,374,289563,53,2,0:2:0:0:
319,384,289660,2,0,L|379:371,1,50,2|0,0:3|0:2,0:2:0:0:
352,285,289854,37,2,0:2:0:0:
363,295,289950,2,0,L|423:282,1,50,2|0,0:3|0:2,0:2:0:0:
150,371,290144,54,0,P|102:185|41:3,1,375,4|0,3:2|0:2,0:2:0:0:
44,11,290628,37,2,0:2:0:0:
126,5,290725,2,0,L|196:-4,1,50,2|0,0:3|0:2,0:2:0:0:
10,190,290918,2,0,L|3:140,3,50,2|0|0|0,0:3|0:2|0:2|0:2,0:2:0:0:
99,115,291305,53,2,0:2:0:0:
121,103,291401,1,2,0:2:0:0:
145,102,291498,1,2,0:2:0:0:
169,111,291595,1,2,0:2:0:0:
222,183,291692,37,2,0:2:0:0:
271,213,291788,1,2,0:2:0:0:
347,185,291885,1,2,0:2:0:0:
383,112,291982,1,2,0:2:0:0:
336,21,292079,54,0,P|253:293|236:385,1,375,4|0,3:2|0:2,0:2:0:0:
236,381,292467,38,2,L|276:370,2,25,2|2|2,0:2|0:2|0:2,0:2:0:0:
290,284,292660,1,2,0:2:0:0:
290,284,292757,2,0,L|180:313,1,100,2|0,0:3|0:2,0:2:0:0:
119,331,293047,1,2,0:2:0:0:
119,331,293144,1,2,0:2:0:0:
149,15,293241,54,0,B|76:-28|-6:-10|-20:163|192:173|152:-34|313:21,1,437.5,4|0,3:2|0:2,0:2:0:0:
309,20,293628,2,0,P|325:29|342:36,6,37.5000014305115,2|2|2|2|2|2|2,0:3|0:3|0:3|0:3|0:3|0:3|0:3,0:3:0:0:
294,134,294015,37,2,0:3:0:0:
272,155,294079,1,2,0:3:0:0:
243,147,294144,1,2,0:3:0:0:
236,118,294209,1,2,0:3:0:0:
257,97,294273,1,2,0:3:0:0:
286,105,294338,1,2,0:3:0:0:
266,124,294402,54,0,B|232:154|226:213|277:203|282:259|247:300,1,175,2|0,0:3|0:2,0:2:0:0:
256,286,295176,1,6,3:2:0:0:
256,192,295273,12,0,298176,0:2:0:0:
256,192,298273,12,0,299821,0:2:0:0:
182,182,300596,86,2,L|180:164,1,12.5,2|2,0:2|0:2,0:2:0:0:
180,169,301370,1,4,0:2:0:0:
40,351,302467,85,2,0:2:0:0:
40,351,302531,2,0,L|96:338,1,50,2|2,0:2|0:2,0:2:0:0:
142,280,304079,2,0,L|177:291,2,25,2|0|0,0:2|0:2|0:2,0:2:0:0:
101,217,305628,1,2,0:2:0:0:
101,217,305821,1,2,0:2:0:0:
131,148,306596,2,0,L|106:-2,1,150,2|6,0:2|0:2,0:2:0:0:
393,112,307563,5,2,0:3:0:0:
393,112,308725,1,2,0:2:0:0:
469,98,308918,1,2,0:2:0:0:
335,173,310273,85,2,0:2:0:0:
335,173,310338,2,0,L|292:165,1,33.3333333333333,2|2,0:2|0:2,0:2:0:0:
228,155,310660,1,2,0:2:0:0:
228,155,311241,5,2,0:2:0:0:
181,212,311434,1,2,0:2:0:0:
242,257,311628,1,2,0:2:0:0:
191,315,311821,1,2,0:2:0:0:
493,289,313031,85,2,0:2:0:0:
449,266,313150,1,2,0:2:0:0:
403,282,313269,1,2,0:2:0:0:
383,326,313388,1,2,0:2:0:0:
242,368,314119,5,2,0:2:0:0:
196,305,314363,2,0,P|136:297|66:289,1,100,2|0,0:2|0:2,0:2:0:0:
21,283,314858,1,2,0:2:0:0:
21,283,314929,1,2,0:3:0:0:
