osu file format v14

[General]
AudioFilename: audio.mp3
AudioLeadIn: 0
PreviewTime: 52855
Countdown: 0
SampleSet: Soft
StackLeniency: 0.7
Mode: 3
LetterboxInBreaks: 0
SpecialStyle: 0
WidescreenStoryboard: 0

[Editor]
Bookmarks: 53629,72210,84597,96935,96984,127951,140339,158919,183693,214661,245629,270403,301371
DistanceSpacing: 1
BeatDivisor: 8
GridSize: 4
TimelineZoom: 1.999999

[Metadata]
Title:We Magicians Still Alive in 2021
TitleUnicode:2021年の魔法使いたち
Artist:Camellia
ArtistUnicode:かめりあ
Creator:HowToPlayLN
Version:Everlasting
Source:
Tags:u.u.f.o UUFO ctcd-0021 ctcd-0022 color colour bass future melodic dubstep hardcore techno electronic instrumental lolinote ln long note nen no mahoutsukai tachi kamelcamellia かめるかめりあ
BeatmapID:3106711
BeatmapSetID:1517582

[Difficulty]
HPDrainRate:8
CircleSize:4
OverallDifficulty:7.5
ApproachRate:5
SliderMultiplier:1.4
SliderTickRate:1

[Events]
//Background and Video events
0,0,"bg.jpg",0,0
//Break Periods
//Storyboard Layer 0 (Background)
//Storyboard Layer 1 (Fail)
//Storyboard Layer 2 (Pass)
//Storyboard Layer 3 (Foreground)
//Storyboard Layer 4 (Overlay)
//Storyboard Sound Samples

[TimingPoints]
4135,387.096774193548,4,2,1,30,1,0
4135,-100,4,2,1,20,0,0
28909,-100,4,2,1,25,0,0
50586,-100,4,2,1,30,0,0
52134,-100,4,2,1,40,0,0
53683,-100,4,2,1,50,0,0
72328,-100,4,2,1,40,0,0
84715,-100,4,2,1,30,0,0
90844,-100,4,2,1,40,0,0
97038,-100,4,2,1,50,0,1
128005,-100,4,2,1,30,0,0
183747,-100,4,2,1,25,0,0
195360,-100,4,2,1,30,0,0
196134,-100,4,2,1,40,0,0
205425,-100,4,2,1,45,0,0
208522,-100,4,2,1,30,0,0
213167,-100,4,2,1,40,0,0
214328,-100,4,2,1,50,0,0
214715,-100,4,2,1,50,0,1
227102,-100,4,2,1,30,0,0
227489,-100,4,2,1,50,0,1
244909,-100,4,2,1,30,0,0
245683,-100,4,2,1,25,0,0
247231,-100,4,2,1,35,0,0
248005,-100,4,2,1,40,0,0
248780,-100,4,2,1,50,0,0
264328,-100,4,2,1,40,0,0
270457,-100,4,2,1,50,0,0
295296,-100,4,2,1,40,0,0
299876,-100,4,2,1,30,0,0

[HitObjects]
320,192,4135,5,0,0:0:0:0:
64,192,4135,1,0,0:0:0:0:
448,192,5296,1,0,0:0:0:0:
192,192,5296,1,0,0:0:0:0:
320,192,5489,1,0,0:0:0:0:
192,192,6844,1,0,0:0:0:0:
64,192,7038,1,0,0:0:0:0:
320,192,7231,1,0,0:0:0:0:
448,192,7231,1,0,0:0:0:0:
192,192,8393,1,0,0:0:0:0:
64,192,8393,1,0,0:0:0:0:
320,192,8586,1,0,0:0:0:0:
64,192,9360,1,0,0:0:0:0:
448,192,9941,1,0,0:0:0:0:
320,192,10328,1,0,0:0:0:0:
64,192,10328,1,0,0:0:0:0:
448,192,11489,1,0,0:0:0:0:
192,192,11489,1,0,0:0:0:0:
320,192,11683,1,0,0:0:0:0:
192,192,13038,1,0,0:0:0:0:
64,192,13231,1,0,0:0:0:0:
448,192,13425,1,0,0:0:0:0:
320,192,13425,1,0,0:0:0:0:
192,192,14393,1,0,0:0:0:0:
448,192,14586,1,0,0:0:0:0:
64,192,14586,1,0,0:0:0:0:
320,192,14780,1,0,0:0:0:0:
192,192,14876,1,0,0:0:0:0:
64,192,14973,1,0,0:0:0:0:
448,192,15038,1,0,0:0:0:0:
320,192,15102,1,0,0:0:0:0:
64,192,15167,1,0,0:0:0:0:
448,192,15231,1,0,0:0:0:0:
192,192,15296,1,0,0:0:0:0:
64,192,15360,1,0,0:0:0:0:
320,192,15425,1,0,0:0:0:0:
192,192,15489,1,0,0:0:0:0:
448,192,15554,1,0,0:0:0:0:
64,192,15618,1,0,0:0:0:0:
192,192,15683,1,0,0:0:0:0:
448,192,15747,1,0,0:0:0:0:
320,192,15812,1,0,0:0:0:0:
192,192,15876,1,0,0:0:0:0:
64,192,15941,1,0,0:0:0:0:
320,192,16005,128,0,16522:0:0:0:0:
192,192,16134,128,0,16522:0:0:0:0:
64,192,16522,1,0,0:0:0:0:
448,192,16522,128,0,16618:0:0:0:0:
192,192,16812,128,0,16909:0:0:0:0:
320,192,17102,128,0,17199:0:0:0:0:
192,192,17393,128,0,17489:0:0:0:0:
448,192,17683,128,0,17780:0:0:0:0:
64,192,17683,1,0,0:0:0:0:
320,192,17876,1,0,0:0:0:0:
192,192,17973,128,0,18070:0:0:0:0:
448,192,18264,128,0,18360:0:0:0:0:
64,192,18554,128,0,18651:0:0:0:0:
320,192,18844,128,0,18941:0:0:0:0:
448,192,19134,128,0,19231:0:0:0:0:
192,192,19231,1,0,0:0:0:0:
64,192,19425,1,0,0:0:0:0:
448,192,19618,1,0,0:0:0:0:
320,192,19618,128,0,19715:0:0:0:0:
192,192,19909,128,0,20005:0:0:0:0:
448,192,20199,128,0,20296:0:0:0:0:
64,192,20393,1,0,0:0:0:0:
192,192,20393,1,0,0:0:0:0:
320,192,20489,128,0,20586:0:0:0:0:
448,192,20780,128,0,20876:0:0:0:0:
64,192,20780,1,0,0:0:0:0:
320,192,20973,1,0,0:0:0:0:
192,192,21070,128,0,21167:0:0:0:0:
64,192,21360,128,0,21457:0:0:0:0:
320,192,21651,128,0,21747:0:0:0:0:
192,192,21747,1,0,0:0:0:0:
448,192,21941,128,0,22715:0:0:0:0:
320,192,22134,1,0,0:0:0:0:
64,192,22231,128,0,22328:0:0:0:0:
192,192,22328,1,0,0:0:0:0:
320,192,22522,128,0,22618:0:0:0:0:
64,192,22715,1,0,0:0:0:0:
192,192,22715,128,0,22812:0:0:0:0:
448,192,23005,128,0,23102:0:0:0:0:
320,192,23296,128,0,23393:0:0:0:0:
64,192,23586,128,0,23683:0:0:0:0:
448,192,23876,128,0,23973:0:0:0:0:
192,192,23876,1,0,0:0:0:0:
320,192,24070,1,0,0:0:0:0:
64,192,24167,128,0,24264:0:0:0:0:
448,192,24457,128,0,24554:0:0:0:0:
320,192,24747,128,0,24844:0:0:0:0:
64,192,25038,128,0,25134:0:0:0:0:
448,192,25328,128,0,25425:0:0:0:0:
192,192,25425,1,0,0:0:0:0:
64,192,25618,128,0,25715:0:0:0:0:
448,192,25812,1,0,0:0:0:0:
320,192,25812,128,0,25909:0:0:0:0:
192,192,26102,128,0,26199:0:0:0:0:
448,192,26393,128,0,26489:0:0:0:0:
64,192,26683,128,0,26780:0:0:0:0:
320,192,26973,128,0,27070:0:0:0:0:
192,192,26973,1,0,0:0:0:0:
64,192,27167,1,0,0:0:0:0:
448,192,27264,128,0,27360:0:0:0:0:
192,192,27554,128,0,27651:0:0:0:0:
64,192,27844,128,0,28038:0:0:0:0:
320,192,28134,128,0,28522:0:0:0:0:
192,192,28425,128,0,28909:0:0:0:0:
448,192,28522,1,0,0:0:0:0:
64,192,28715,128,0,28909:0:0:0:0:
448,192,28909,1,0,0:0:0:0:
320,192,28909,1,0,0:0:0:0:
448,192,29199,128,0,29296:0:0:0:0:
64,192,29296,128,0,29683:0:0:0:0:
320,192,29489,128,0,29586:0:0:0:0:
192,192,29683,128,0,30844:0:0:0:0:
448,192,29780,128,0,29876:0:0:0:0:
64,192,30070,128,0,30167:0:0:0:0:
448,192,30360,128,0,30457:0:0:0:0:
320,192,30457,128,0,31618:0:0:0:0:
64,192,30457,1,0,0:0:0:0:
64,192,30651,128,0,30747:0:0:0:0:
192,192,30941,128,0,31038:0:0:0:0:
448,192,31231,128,0,32005:0:0:0:0:
64,192,31522,128,0,31618:0:0:0:0:
320,192,31812,1,0,0:0:0:0:
64,192,32005,128,0,33167:0:0:0:0:
192,192,32005,1,0,0:0:0:0:
320,192,32296,128,0,32393:0:0:0:0:
192,192,32393,1,0,0:0:0:0:
448,192,32393,1,0,0:0:0:0:
448,192,32586,128,0,32780:0:0:0:0:
320,192,32780,128,0,33941:0:0:0:0:
192,192,32876,128,0,32973:0:0:0:0:
448,192,33167,128,0,33264:0:0:0:0:
64,192,33457,128,0,33554:0:0:0:0:
192,192,33554,128,0,34715:0:0:0:0:
448,192,33747,128,0,33941:0:0:0:0:
64,192,33941,128,0,34134:0:0:0:0:
320,192,34134,128,0,34328:0:0:0:0:
448,192,34328,128,0,35102:0:0:0:0:
64,192,34522,128,0,34715:0:0:0:0:
320,192,34715,128,0,34909:0:0:0:0:
192,192,34909,128,0,35102:0:0:0:0:
64,192,35102,128,0,35876:0:0:0:0:
320,192,35102,1,0,0:0:0:0:
448,192,35393,128,0,35489:0:0:0:0:
448,192,35683,128,0,35780:0:0:0:0:
320,192,35780,1,0,0:0:0:0:
192,192,35876,128,0,35973:0:0:0:0:
448,192,35973,128,0,36070:0:0:0:0:
320,192,36070,128,0,36167:0:0:0:0:
64,192,36167,128,0,36264:0:0:0:0:
448,192,36264,128,0,36360:0:0:0:0:
320,192,36360,128,0,36457:0:0:0:0:
192,192,36457,128,0,36554:0:0:0:0:
64,192,36554,128,0,36651:0:0:0:0:
448,192,36651,128,0,36909:0:0:0:0:
320,192,36780,128,0,37038:0:0:0:0:
192,192,36909,128,0,37167:0:0:0:0:
64,192,37038,128,0,37618:0:0:0:0:
448,192,37167,128,0,37264:0:0:0:0:
320,192,37296,128,0,37393:0:0:0:0:
192,192,37425,128,0,37812:0:0:0:0:
448,192,37425,128,0,37522:0:0:0:0:
320,192,37618,128,0,38199:0:0:0:0:
64,192,37715,128,0,37812:0:0:0:0:
192,192,38005,128,0,38199:0:0:0:0:
64,192,38005,1,0,0:0:0:0:
64,192,38199,128,0,38973:0:0:0:0:
448,192,38199,1,0,0:0:0:0:
448,192,38489,128,0,38586:0:0:0:0:
320,192,38586,1,0,0:0:0:0:
192,192,38586,1,0,0:0:0:0:
448,192,38780,128,0,38876:0:0:0:0:
192,192,38973,128,0,39070:0:0:0:0:
320,192,39102,128,0,39199:0:0:0:0:
448,192,39231,128,0,39328:0:0:0:0:
64,192,39360,128,0,39747:0:0:0:0:
192,192,39554,128,0,39747:0:0:0:0:
448,192,39651,128,0,39747:0:0:0:0:
320,192,39747,128,0,40909:0:0:0:0:
192,192,39909,128,0,40005:0:0:0:0:
64,192,40038,128,0,40134:0:0:0:0:
448,192,40134,128,0,40231:0:0:0:0:
192,192,40328,128,0,40425:0:0:0:0:
64,192,40425,128,0,40522:0:0:0:0:
448,192,40522,128,0,41296:0:0:0:0:
64,192,40715,128,0,41102:0:0:0:0:
192,192,40909,128,0,41102:0:0:0:0:
320,192,41102,128,0,41296:0:0:0:0:
64,192,41296,128,0,42070:0:0:0:0:
448,192,41393,1,0,0:0:0:0:
320,192,42457,128,0,42651:0:0:0:0:
448,192,42586,1,0,0:0:0:0:
64,192,42651,128,0,43425:0:0:0:0:
192,192,42715,1,0,0:0:0:0:
320,192,42780,1,0,0:0:0:0:
448,192,42844,1,0,0:0:0:0:
64,192,44005,128,0,44199:0:0:0:0:
320,192,44199,128,0,45167:0:0:0:0:
64,192,44393,1,0,0:0:0:0:
448,192,44393,1,0,0:0:0:0:
192,192,44441,1,0,0:0:0:0:
448,192,44489,1,0,0:0:0:0:
64,192,45554,128,0,45747:0:0:0:0:
448,192,45747,128,0,46715:0:0:0:0:
192,192,45844,1,0,0:0:0:0:
320,192,45909,1,0,0:0:0:0:
64,192,45973,1,0,0:0:0:0:
192,192,46038,1,0,0:0:0:0:
320,192,46102,1,0,0:0:0:0:
320,192,46715,128,0,47489:0:0:0:0:
64,192,47102,1,0,0:0:0:0:
192,192,47489,128,0,49038:0:0:0:0:
448,192,47489,128,0,47586:0:0:0:0:
64,192,47780,128,0,47876:0:0:0:0:
320,192,48070,128,0,48167:0:0:0:0:
448,192,48264,128,0,48360:0:0:0:0:
64,192,48360,1,0,0:0:0:0:
320,192,48457,1,0,0:0:0:0:
64,192,48554,1,0,0:0:0:0:
448,192,48651,128,0,48747:0:0:0:0:
320,192,48747,1,0,0:0:0:0:
64,192,48844,1,0,0:0:0:0:
448,192,48941,128,0,49038:0:0:0:0:
320,192,49038,1,0,0:0:0:0:
64,192,49134,1,0,0:0:0:0:
192,192,49231,128,0,49328:0:0:0:0:
320,192,49328,1,0,0:0:0:0:
448,192,49425,1,0,0:0:0:0:
64,192,49522,128,0,49618:0:0:0:0:
320,192,49618,1,0,0:0:0:0:
192,192,49715,1,0,0:0:0:0:
64,192,49812,1,0,0:0:0:0:
448,192,49812,128,0,49909:0:0:0:0:
320,192,49909,1,0,0:0:0:0:
192,192,50005,1,0,0:0:0:0:
448,192,50102,128,0,50199:0:0:0:0:
64,192,50199,1,0,0:0:0:0:
192,192,50296,1,0,0:0:0:0:
320,192,50393,128,0,50489:0:0:0:0:
64,192,50489,1,0,0:0:0:0:
448,192,50586,1,0,0:0:0:0:
320,192,50683,1,0,0:0:0:0:
64,192,50780,1,0,0:0:0:0:
192,192,50828,1,0,0:0:0:0:
320,192,50876,1,0,0:0:0:0:
448,192,50925,1,0,0:0:0:0:
64,192,50973,1,0,0:0:0:0:
192,192,51070,1,0,0:0:0:0:
448,192,51167,1,0,0:0:0:0:
320,192,51215,1,0,0:0:0:0:
192,192,51264,1,0,0:0:0:0:
64,192,51312,1,0,0:0:0:0:
448,192,51360,1,0,0:0:0:0:
320,192,51457,1,0,0:0:0:0:
64,192,51554,1,0,0:0:0:0:
192,192,51602,1,0,0:0:0:0:
320,192,51651,1,0,0:0:0:0:
448,192,51699,1,0,0:0:0:0:
64,192,51747,1,0,0:0:0:0:
192,192,51844,1,0,0:0:0:0:
448,192,51941,1,0,0:0:0:0:
320,192,51989,1,0,0:0:0:0:
192,192,52038,1,0,0:0:0:0:
64,192,52086,1,0,0:0:0:0:
448,192,52134,1,0,0:0:0:0:
320,192,52183,1,0,0:0:0:0:
192,192,52231,1,0,0:0:0:0:
448,192,52280,1,0,0:0:0:0:
320,192,52328,1,0,0:0:0:0:
64,192,52376,1,0,0:0:0:0:
192,192,52425,1,0,0:0:0:0:
320,192,52473,1,0,0:0:0:0:
448,192,52522,5,0,0:0:0:0:
64,192,52522,1,0,0:0:0:0:
192,192,52618,1,0,0:0:0:0:
64,192,52618,1,0,0:0:0:0:
448,192,52715,1,0,0:0:0:0:
320,192,52715,1,0,0:0:0:0:
64,192,52812,1,0,0:0:0:0:
448,192,52812,1,0,0:0:0:0:
192,192,52909,1,0,0:0:0:0:
320,192,52957,1,0,0:0:0:0:
64,192,53005,1,0,0:0:0:0:
192,192,53054,1,0,0:0:0:0:
320,192,53102,1,0,0:0:0:0:
448,192,53102,1,0,0:0:0:0:
192,192,53199,1,0,0:0:0:0:
64,192,53199,1,0,0:0:0:0:
448,192,53296,1,0,0:0:0:0:
320,192,53296,1,0,0:0:0:0:
64,192,53344,1,0,0:0:0:0:
192,192,53393,1,0,0:0:0:0:
448,192,53441,1,0,0:0:0:0:
192,192,53489,1,0,0:0:0:0:
64,192,53489,1,0,0:0:0:0:
320,192,53538,1,0,0:0:0:0:
448,192,53586,1,0,0:0:0:0:
64,192,53634,1,0,0:0:0:0:
192,192,53683,128,0,53876:0:0:0:0:
320,192,53683,128,0,53925:0:0:0:0:
448,192,53683,128,0,53973:0:0:0:0:
64,192,53876,128,0,53973:0:0:0:0:
64,192,54070,128,0,54167:0:0:0:0:
320,192,54167,1,0,0:0:0:0:
64,192,54264,1,0,0:0:0:0:
64,192,54360,128,0,54457:0:0:0:0:
448,192,54409,1,0,0:0:0:0:
320,192,54457,1,0,0:0:0:0:
64,192,54554,1,0,0:0:0:0:
64,192,54651,128,0,54844:0:0:0:0:
192,192,54844,128,0,55038:0:0:0:0:
320,192,54844,128,0,55086:0:0:0:0:
448,192,54844,128,0,55134:0:0:0:0:
64,192,55038,128,0,55134:0:0:0:0:
64,192,55231,128,0,55328:0:0:0:0:
320,192,55328,1,0,0:0:0:0:
64,192,55425,1,0,0:0:0:0:
64,192,55522,128,0,55618:0:0:0:0:
448,192,55667,128,0,55764:0:0:0:0:
64,192,55715,1,0,0:0:0:0:
64,192,55812,128,0,55909:0:0:0:0:
320,192,55860,128,0,55957:0:0:0:0:
448,192,55909,128,0,56005:0:0:0:0:
192,192,56005,128,0,56199:0:0:0:0:
320,192,56102,1,0,0:0:0:0:
64,192,56199,128,0,56393:0:0:0:0:
320,192,56199,128,0,56296:0:0:0:0:
448,192,56296,128,0,56393:0:0:0:0:
192,192,56393,128,0,56683:0:0:0:0:
320,192,56489,128,0,56683:0:0:0:0:
64,192,56586,128,0,56683:0:0:0:0:
448,192,56683,128,0,56780:0:0:0:0:
320,192,56780,128,0,56973:0:0:0:0:
192,192,56780,128,0,57022:0:0:0:0:
64,192,56780,128,0,57070:0:0:0:0:
448,192,56973,128,0,57070:0:0:0:0:
448,192,57167,128,0,57264:0:0:0:0:
192,192,57215,1,0,0:0:0:0:
64,192,57264,1,0,0:0:0:0:
448,192,57360,1,0,0:0:0:0:
448,192,57457,128,0,57554:0:0:0:0:
64,192,57554,1,0,0:0:0:0:
192,192,57602,1,0,0:0:0:0:
448,192,57651,1,0,0:0:0:0:
448,192,57747,128,0,57844:0:0:0:0:
64,192,57844,1,0,0:0:0:0:
320,192,57941,128,0,58134:0:0:0:0:
192,192,57941,128,0,58183:0:0:0:0:
64,192,57941,128,0,58231:0:0:0:0:
448,192,58134,128,0,58231:0:0:0:0:
448,192,58328,128,0,58425:0:0:0:0:
192,192,58425,1,0,0:0:0:0:
448,192,58522,1,0,0:0:0:0:
64,192,58522,128,0,58715:0:0:0:0:
448,192,58618,128,0,58715:0:0:0:0:
192,192,58715,128,0,58812:0:0:0:0:
448,192,58812,1,0,0:0:0:0:
448,192,58909,128,0,59005:0:0:0:0:
64,192,59005,1,0,0:0:0:0:
192,192,59054,1,0,0:0:0:0:
320,192,59102,128,0,59167:0:0:0:0:
64,192,59199,1,0,0:0:0:0:
192,192,59296,128,0,59489:0:0:0:0:
320,192,59360,128,0,59489:0:0:0:0:
448,192,59393,1,0,0:0:0:0:
64,192,59489,128,0,59586:0:0:0:0:
320,192,59586,128,0,59683:0:0:0:0:
448,192,59683,128,0,59780:0:0:0:0:
192,192,59780,128,0,59876:0:0:0:0:
64,192,59876,128,0,60070:0:0:0:0:
320,192,59876,128,0,60118:0:0:0:0:
448,192,59876,128,0,60167:0:0:0:0:
192,192,60070,128,0,60167:0:0:0:0:
192,192,60264,128,0,60360:0:0:0:0:
448,192,60360,1,0,0:0:0:0:
192,192,60457,1,0,0:0:0:0:
192,192,60554,128,0,60651:0:0:0:0:
448,192,60651,1,0,0:0:0:0:
320,192,60699,1,0,0:0:0:0:
192,192,60747,1,0,0:0:0:0:
192,192,60844,128,0,60941:0:0:0:0:
448,192,60941,1,0,0:0:0:0:
64,192,61038,128,0,61231:0:0:0:0:
320,192,61038,128,0,61280:0:0:0:0:
448,192,61038,128,0,61328:0:0:0:0:
192,192,61231,128,0,61328:0:0:0:0:
192,192,61425,128,0,61522:0:0:0:0:
320,192,61522,1,0,0:0:0:0:
192,192,61618,1,0,0:0:0:0:
192,192,61715,128,0,61812:0:0:0:0:
448,192,61764,1,0,0:0:0:0:
320,192,61812,1,0,0:0:0:0:
64,192,61860,1,0,0:0:0:0:
192,192,61909,1,0,0:0:0:0:
192,192,62005,128,0,62102:0:0:0:0:
320,192,62054,1,0,0:0:0:0:
448,192,62102,1,0,0:0:0:0:
64,192,62199,128,0,62393:0:0:0:0:
320,192,62199,1,0,0:0:0:0:
448,192,62296,128,0,62393:0:0:0:0:
192,192,62393,1,0,0:0:0:0:
192,192,62489,128,0,62586:0:0:0:0:
448,192,62586,128,0,62876:0:0:0:0:
64,192,62683,1,0,0:0:0:0:
64,192,62780,128,0,62876:0:0:0:0:
320,192,62876,128,0,62973:0:0:0:0:
64,192,62973,128,0,63167:0:0:0:0:
192,192,62973,128,0,63215:0:0:0:0:
448,192,62973,128,0,63264:0:0:0:0:
320,192,63167,128,0,63264:0:0:0:0:
320,192,63360,128,0,63457:0:0:0:0:
320,192,63554,1,0,0:0:0:0:
64,192,63602,1,0,0:0:0:0:
320,192,63651,128,0,63747:0:0:0:0:
64,192,63699,1,0,0:0:0:0:
448,192,63747,128,0,64038:0:0:0:0:
320,192,63844,1,0,0:0:0:0:
320,192,63941,128,0,64038:0:0:0:0:
64,192,63941,128,0,64134:0:0:0:0:
448,192,64134,128,0,64425:0:0:0:0:
320,192,64134,128,0,65102:0:0:0:0:
192,192,64134,128,0,65296:0:0:0:0:
64,192,64328,128,0,64618:0:0:0:0:
448,192,64522,128,0,64812:0:0:0:0:
64,192,64715,128,0,65005:0:0:0:0:
448,192,64909,128,0,65199:0:0:0:0:
64,192,65102,128,0,65393:0:0:0:0:
320,192,65296,128,0,65586:0:0:0:0:
448,192,65296,128,0,65973:0:0:0:0:
192,192,65489,128,0,65780:0:0:0:0:
320,192,65683,128,0,65973:0:0:0:0:
64,192,65876,128,0,66070:0:0:0:0:
192,192,66070,128,0,66264:0:0:0:0:
320,192,66070,128,0,66312:0:0:0:0:
448,192,66070,128,0,66360:0:0:0:0:
64,192,66264,128,0,66360:0:0:0:0:
64,192,66457,128,0,66554:0:0:0:0:
448,192,66554,1,0,0:0:0:0:
64,192,66651,1,0,0:0:0:0:
64,192,66747,128,0,66844:0:0:0:0:
320,192,66844,1,0,0:0:0:0:
448,192,66844,1,0,0:0:0:0:
64,192,66941,1,0,0:0:0:0:
64,192,67038,128,0,67134:0:0:0:0:
192,192,67231,128,0,67425:0:0:0:0:
320,192,67231,128,0,67473:0:0:0:0:
448,192,67231,128,0,67522:0:0:0:0:
64,192,67425,128,0,67522:0:0:0:0:
64,192,67618,128,0,67715:0:0:0:0:
320,192,67715,1,0,0:0:0:0:
64,192,67812,1,0,0:0:0:0:
64,192,67909,128,0,68005:0:0:0:0:
448,192,68054,128,0,68151:0:0:0:0:
64,192,68102,1,0,0:0:0:0:
64,192,68199,128,0,68296:0:0:0:0:
320,192,68247,128,0,68344:0:0:0:0:
448,192,68296,128,0,68393:0:0:0:0:
192,192,68393,128,0,68586:0:0:0:0:
64,192,68393,1,0,0:0:0:0:
320,192,68489,128,0,68586:0:0:0:0:
64,192,68586,128,0,68780:0:0:0:0:
448,192,68683,128,0,68780:0:0:0:0:
320,192,68780,128,0,69070:0:0:0:0:
192,192,68876,128,0,69070:0:0:0:0:
64,192,68973,128,0,69070:0:0:0:0:
448,192,69070,128,0,69167:0:0:0:0:
320,192,69167,128,0,69360:0:0:0:0:
192,192,69167,128,0,69409:0:0:0:0:
64,192,69167,128,0,69457:0:0:0:0:
448,192,69360,128,0,69457:0:0:0:0:
448,192,69554,128,0,69651:0:0:0:0:
192,192,69602,1,0,0:0:0:0:
64,192,69651,1,0,0:0:0:0:
448,192,69747,1,0,0:0:0:0:
448,192,69844,128,0,69941:0:0:0:0:
64,192,69941,128,0,70231:0:0:0:0:
320,192,69941,1,0,0:0:0:0:
192,192,69989,128,0,70231:0:0:0:0:
448,192,70038,1,0,0:0:0:0:
448,192,70134,128,0,70231:0:0:0:0:
320,192,70231,1,0,0:0:0:0:
320,192,70328,128,0,70522:0:0:0:0:
192,192,70328,128,0,70570:0:0:0:0:
64,192,70328,128,0,70618:0:0:0:0:
448,192,70522,128,0,70618:0:0:0:0:
448,192,70715,128,0,70812:0:0:0:0:
64,192,70812,1,0,0:0:0:0:
448,192,70909,1,0,0:0:0:0:
192,192,70909,128,0,71199:0:0:0:0:
448,192,71005,128,0,71102:0:0:0:0:
64,192,71102,128,0,71199:0:0:0:0:
448,192,71199,1,0,0:0:0:0:
448,192,71296,128,0,71393:0:0:0:0:
320,192,71296,128,0,71393:0:0:0:0:
192,192,71393,1,0,0:0:0:0:
320,192,71489,1,0,0:0:0:0:
64,192,71489,1,0,0:0:0:0:
64,192,71586,1,0,0:0:0:0:
192,192,71683,128,0,71876:0:0:0:0:
320,192,71780,128,0,71876:0:0:0:0:
64,192,71780,1,0,0:0:0:0:
448,192,71876,128,0,71973:0:0:0:0:
64,192,71973,128,0,72070:0:0:0:0:
320,192,72070,1,0,0:0:0:0:
448,192,72118,1,0,0:0:0:0:
64,192,72167,1,0,0:0:0:0:
192,192,72215,1,0,0:0:0:0:
448,192,72264,128,0,72844:0:0:0:0:
320,192,72264,128,0,72941:0:0:0:0:
64,192,72264,128,0,73812:0:0:0:0:
192,192,72457,128,0,72554:0:0:0:0:
192,192,72651,128,0,72747:0:0:0:0:
192,192,72844,1,0,0:0:0:0:
192,192,72941,128,0,73038:0:0:0:0:
448,192,73038,1,0,0:0:0:0:
320,192,73038,1,0,0:0:0:0:
192,192,73134,1,0,0:0:0:0:
192,192,73231,128,0,73328:0:0:0:0:
448,192,73425,128,0,73715:0:0:0:0:
192,192,73618,128,0,73715:0:0:0:0:
192,192,73812,128,0,73909:0:0:0:0:
192,192,74005,1,0,0:0:0:0:
64,192,74005,1,0,0:0:0:0:
192,192,74102,128,0,74199:0:0:0:0:
320,192,74199,1,0,0:0:0:0:
448,192,74199,1,0,0:0:0:0:
192,192,74296,1,0,0:0:0:0:
192,192,74393,128,0,74489:0:0:0:0:
448,192,74489,1,0,0:0:0:0:
192,192,74586,128,0,74780:0:0:0:0:
320,192,74586,1,0,0:0:0:0:
64,192,74683,1,0,0:0:0:0:
448,192,74780,1,0,0:0:0:0:
320,192,74876,1,0,0:0:0:0:
64,192,74973,128,0,75070:0:0:0:0:
320,192,75070,128,0,75167:0:0:0:0:
192,192,75167,128,0,75264:0:0:0:0:
64,192,75264,128,0,75360:0:0:0:0:
448,192,75360,128,0,75651:0:0:0:0:
320,192,75360,1,0,0:0:0:0:
64,192,75554,128,0,75651:0:0:0:0:
64,192,75747,128,0,75844:0:0:0:0:
64,192,75941,1,0,0:0:0:0:
64,192,76038,128,0,76134:0:0:0:0:
320,192,76134,1,0,0:0:0:0:
448,192,76134,1,0,0:0:0:0:
64,192,76231,1,0,0:0:0:0:
64,192,76328,128,0,76425:0:0:0:0:
448,192,76522,128,0,76812:0:0:0:0:
64,192,76715,128,0,76812:0:0:0:0:
64,192,76909,128,0,77005:0:0:0:0:
64,192,77102,1,0,0:0:0:0:
448,192,77102,1,0,0:0:0:0:
64,192,77199,128,0,77296:0:0:0:0:
320,192,77296,1,0,0:0:0:0:
192,192,77296,1,0,0:0:0:0:
64,192,77393,1,0,0:0:0:0:
448,192,77441,1,0,0:0:0:0:
64,192,77489,128,0,77586:0:0:0:0:
192,192,77683,128,0,77780:0:0:0:0:
320,192,77683,1,0,0:0:0:0:
192,192,77876,1,0,0:0:0:0:
448,192,77925,1,0,0:0:0:0:
192,192,77973,128,0,78070:0:0:0:0:
192,192,78167,1,0,0:0:0:0:
320,192,78264,128,0,78457:0:0:0:0:
192,192,78360,128,0,78457:0:0:0:0:
448,192,78457,128,0,78747:0:0:0:0:
64,192,78457,1,0,0:0:0:0:
192,192,78651,128,0,78747:0:0:0:0:
192,192,78844,128,0,78941:0:0:0:0:
448,192,78941,1,0,0:0:0:0:
192,192,79038,1,0,0:0:0:0:
192,192,79134,128,0,79231:0:0:0:0:
448,192,79231,1,0,0:0:0:0:
320,192,79231,1,0,0:0:0:0:
192,192,79328,1,0,0:0:0:0:
192,192,79425,128,0,79522:0:0:0:0:
448,192,79618,128,0,79909:0:0:0:0:
192,192,79812,128,0,79909:0:0:0:0:
192,192,80005,128,0,80102:0:0:0:0:
192,192,80199,1,0,0:0:0:0:
64,192,80199,1,0,0:0:0:0:
192,192,80296,128,0,80393:0:0:0:0:
320,192,80393,1,0,0:0:0:0:
448,192,80393,1,0,0:0:0:0:
192,192,80489,1,0,0:0:0:0:
192,192,80586,128,0,80683:0:0:0:0:
64,192,80683,1,0,0:0:0:0:
192,192,80780,128,0,80973:0:0:0:0:
448,192,80780,1,0,0:0:0:0:
320,192,80876,1,0,0:0:0:0:
448,192,80973,1,0,0:0:0:0:
192,192,81070,1,0,0:0:0:0:
64,192,81167,128,0,81264:0:0:0:0:
320,192,81264,128,0,81360:0:0:0:0:
192,192,81360,128,0,81457:0:0:0:0:
64,192,81457,128,0,81554:0:0:0:0:
448,192,81554,128,0,81844:0:0:0:0:
64,192,81747,128,0,81844:0:0:0:0:
320,192,81844,128,0,81941:0:0:0:0:
64,192,81941,128,0,82038:0:0:0:0:
192,192,82038,128,0,82134:0:0:0:0:
64,192,82134,1,0,0:0:0:0:
64,192,82231,128,0,82328:0:0:0:0:
448,192,82328,128,0,82522:0:0:0:0:
64,192,82425,1,0,0:0:0:0:
64,192,82522,128,0,82618:0:0:0:0:
320,192,82618,128,0,82715:0:0:0:0:
448,192,82715,128,0,82909:0:0:0:0:
192,192,82812,128,0,83005:0:0:0:0:
64,192,82909,128,0,83102:0:0:0:0:
320,192,83005,128,0,83199:0:0:0:0:
448,192,83102,128,0,83296:0:0:0:0:
192,192,83199,128,0,83393:0:0:0:0:
320,192,83296,128,0,83683:0:0:0:0:
64,192,83393,128,0,83586:0:0:0:0:
192,192,83489,128,0,83876:0:0:0:0:
448,192,83586,128,0,83876:0:0:0:0:
64,192,83683,128,0,83780:0:0:0:0:
320,192,83780,128,0,83876:0:0:0:0:
64,192,83876,1,0,0:0:0:0:
448,192,83973,1,0,0:0:0:0:
320,192,84022,1,0,0:0:0:0:
64,192,84070,1,0,0:0:0:0:
192,192,84070,1,0,0:0:0:0:
320,192,84167,1,0,0:0:0:0:
448,192,84167,1,0,0:0:0:0:
192,192,84264,1,0,0:0:0:0:
64,192,84264,1,0,0:0:0:0:
320,192,84312,1,0,0:0:0:0:
448,192,84360,1,0,0:0:0:0:
64,192,84409,1,0,0:0:0:0:
192,192,84457,1,0,0:0:0:0:
320,192,84457,1,0,0:0:0:0:
448,192,84505,1,0,0:0:0:0:
64,192,84554,1,0,0:0:0:0:
192,192,84602,1,0,0:0:0:0:
448,192,84651,128,0,84844:0:0:0:0:
320,192,84651,1,0,0:0:0:0:
192,192,84844,1,0,0:0:0:0:
192,192,85038,1,0,0:0:0:0:
192,192,85231,1,0,0:0:0:0:
192,192,85328,1,0,0:0:0:0:
192,192,85522,1,0,0:0:0:0:
192,192,85618,1,0,0:0:0:0:
448,192,85812,128,0,86005:0:0:0:0:
192,192,86005,1,0,0:0:0:0:
448,192,86199,128,0,86393:0:0:0:0:
192,192,86393,1,0,0:0:0:0:
192,192,86586,1,0,0:0:0:0:
192,192,86780,1,0,0:0:0:0:
192,192,86876,1,0,0:0:0:0:
192,192,87070,1,0,0:0:0:0:
192,192,87167,1,0,0:0:0:0:
448,192,87360,128,0,87554:0:0:0:0:
192,192,87554,1,0,0:0:0:0:
448,192,87747,128,0,87941:0:0:0:0:
192,192,87941,1,0,0:0:0:0:
192,192,88134,1,0,0:0:0:0:
448,192,88231,1,0,0:0:0:0:
192,192,88328,1,0,0:0:0:0:
192,192,88425,1,0,0:0:0:0:
320,192,88522,1,0,0:0:0:0:
192,192,88618,1,0,0:0:0:0:
192,192,88715,1,0,0:0:0:0:
64,192,88812,1,0,0:0:0:0:
448,192,88909,128,0,89102:0:0:0:0:
192,192,89102,1,0,0:0:0:0:
320,192,89199,1,0,0:0:0:0:
448,192,89296,128,0,89489:0:0:0:0:
64,192,89393,1,0,0:0:0:0:
192,192,89489,1,0,0:0:0:0:
320,192,89586,1,0,0:0:0:0:
192,192,89683,1,0,0:0:0:0:
448,192,89780,1,0,0:0:0:0:
192,192,89876,1,0,0:0:0:0:
320,192,89973,1,0,0:0:0:0:
64,192,90070,128,0,90264:0:0:0:0:
320,192,90167,1,0,0:0:0:0:
320,192,90264,1,0,0:0:0:0:
192,192,90360,1,0,0:0:0:0:
448,192,90457,128,0,90651:0:0:0:0:
64,192,90554,1,0,0:0:0:0:
192,192,90651,1,0,0:0:0:0:
320,192,90747,1,0,0:0:0:0:
448,192,90844,1,0,0:0:0:0:
64,192,90844,1,0,0:0:0:0:
320,192,90941,1,0,0:0:0:0:
64,192,91038,1,0,0:0:0:0:
192,192,91038,1,0,0:0:0:0:
448,192,91134,1,0,0:0:0:0:
64,192,91231,1,0,0:0:0:0:
320,192,91231,1,0,0:0:0:0:
192,192,91328,1,0,0:0:0:0:
64,192,91425,1,0,0:0:0:0:
448,192,91425,1,0,0:0:0:0:
64,192,91522,1,0,0:0:0:0:
320,192,91618,1,0,0:0:0:0:
448,192,91618,1,0,0:0:0:0:
64,192,91715,1,0,0:0:0:0:
64,192,91812,1,0,0:0:0:0:
192,192,91812,1,0,0:0:0:0:
320,192,91909,1,0,0:0:0:0:
448,192,92005,1,0,0:0:0:0:
192,192,92005,1,0,0:0:0:0:
320,192,92102,1,0,0:0:0:0:
64,192,92199,1,0,0:0:0:0:
192,192,92199,1,0,0:0:0:0:
448,192,92247,1,0,0:0:0:0:
320,192,92296,1,0,0:0:0:0:
64,192,92344,1,0,0:0:0:0:
192,192,92393,1,0,0:0:0:0:
448,192,92393,1,0,0:0:0:0:
320,192,92489,1,0,0:0:0:0:
448,192,92586,1,0,0:0:0:0:
64,192,92586,1,0,0:0:0:0:
192,192,92683,1,0,0:0:0:0:
448,192,92780,1,0,0:0:0:0:
320,192,92780,1,0,0:0:0:0:
64,192,92876,1,0,0:0:0:0:
448,192,92973,1,0,0:0:0:0:
192,192,92973,1,0,0:0:0:0:
448,192,93070,1,0,0:0:0:0:
192,192,93167,1,0,0:0:0:0:
64,192,93167,1,0,0:0:0:0:
448,192,93264,1,0,0:0:0:0:
448,192,93360,1,0,0:0:0:0:
320,192,93360,1,0,0:0:0:0:
192,192,93457,1,0,0:0:0:0:
64,192,93554,1,0,0:0:0:0:
320,192,93554,1,0,0:0:0:0:
192,192,93651,1,0,0:0:0:0:
448,192,93747,1,0,0:0:0:0:
320,192,93796,1,0,0:0:0:0:
192,192,93844,1,0,0:0:0:0:
64,192,93893,1,0,0:0:0:0:
448,192,93941,1,0,0:0:0:0:
320,192,93941,1,0,0:0:0:0:
192,192,94038,1,0,0:0:0:0:
64,192,94134,1,0,0:0:0:0:
192,192,94183,1,0,0:0:0:0:
320,192,94231,1,0,0:0:0:0:
448,192,94280,1,0,0:0:0:0:
192,192,94328,1,0,0:0:0:0:
64,192,94328,1,0,0:0:0:0:
320,192,94425,1,0,0:0:0:0:
448,192,94522,1,0,0:0:0:0:
320,192,94570,1,0,0:0:0:0:
192,192,94618,1,0,0:0:0:0:
64,192,94667,1,0,0:0:0:0:
320,192,94715,1,0,0:0:0:0:
448,192,94715,1,0,0:0:0:0:
192,192,94812,1,0,0:0:0:0:
64,192,94909,1,0,0:0:0:0:
192,192,94957,1,0,0:0:0:0:
320,192,95005,1,0,0:0:0:0:
448,192,95054,1,0,0:0:0:0:
64,192,95102,1,0,0:0:0:0:
192,192,95102,1,0,0:0:0:0:
320,192,95199,1,0,0:0:0:0:
192,192,95247,1,0,0:0:0:0:
448,192,95296,1,0,0:0:0:0:
320,192,95344,1,0,0:0:0:0:
64,192,95393,1,0,0:0:0:0:
192,192,95441,1,0,0:0:0:0:
448,192,95489,1,0,0:0:0:0:
320,192,95489,1,0,0:0:0:0:
64,192,95538,1,0,0:0:0:0:
192,192,95586,1,0,0:0:0:0:
448,192,95634,1,0,0:0:0:0:
320,192,95683,1,0,0:0:0:0:
64,192,95731,1,0,0:0:0:0:
448,192,95780,1,0,0:0:0:0:
192,192,95828,1,0,0:0:0:0:
320,192,95876,1,0,0:0:0:0:
64,192,95925,1,0,0:0:0:0:
192,192,95973,1,0,0:0:0:0:
448,192,96022,1,0,0:0:0:0:
320,192,96070,1,0,0:0:0:0:
64,192,96118,1,0,0:0:0:0:
192,192,96167,1,0,0:0:0:0:
320,192,96215,1,0,0:0:0:0:
64,192,96264,128,0,96360:0:0:0:0:
448,192,96264,128,0,96360:0:0:0:0:
64,192,96651,128,0,96715:0:0:0:0:
192,192,96715,128,0,96780:0:0:0:0:
448,192,96780,128,0,96844:0:0:0:0:
64,192,96844,128,0,96909:0:0:0:0:
320,192,96909,128,0,96973:0:0:0:0:
448,192,96973,128,0,97038:0:0:0:0:
64,192,97038,1,0,0:0:0:0:
192,192,97038,128,0,97231:0:0:0:0:
320,192,97134,128,0,97328:0:0:0:0:
448,192,97231,128,0,97328:0:0:0:0:
64,192,97328,1,0,0:0:0:0:
192,192,97425,1,0,0:0:0:0:
448,192,97425,128,0,97618:0:0:0:0:
320,192,97522,128,0,97618:0:0:0:0:
64,192,97618,128,0,97715:0:0:0:0:
192,192,97715,128,0,97909:0:0:0:0:
64,192,97812,1,0,0:0:0:0:
448,192,97812,128,0,98005:0:0:0:0:
320,192,97909,128,0,98102:0:0:0:0:
192,192,98005,128,0,98199:0:0:0:0:
64,192,98102,128,0,98199:0:0:0:0:
320,192,98199,1,0,0:0:0:0:
448,192,98199,128,0,98393:0:0:0:0:
64,192,98296,128,0,98489:0:0:0:0:
192,192,98393,128,0,98586:0:0:0:0:
320,192,98489,128,0,98586:0:0:0:0:
64,192,98586,1,0,0:0:0:0:
448,192,98586,128,0,98780:0:0:0:0:
192,192,98683,128,0,98780:0:0:0:0:
64,192,98780,128,0,98876:0:0:0:0:
320,192,98876,128,0,98973:0:0:0:0:
448,192,98973,1,0,0:0:0:0:
192,192,98973,128,0,99167:0:0:0:0:
64,192,99070,128,0,99167:0:0:0:0:
320,192,99167,128,0,99360:0:0:0:0:
448,192,99264,128,0,99457:0:0:0:0:
64,192,99360,1,0,0:0:0:0:
192,192,99360,128,0,99554:0:0:0:0:
320,192,99457,128,0,99554:0:0:0:0:
448,192,99554,128,0,99651:0:0:0:0:
64,192,99651,128,0,99747:0:0:0:0:
192,192,99747,1,0,0:0:0:0:
320,192,99747,128,0,99941:0:0:0:0:
64,192,99844,128,0,99941:0:0:0:0:
448,192,99941,128,0,100134:0:0:0:0:
192,192,100038,128,0,100134:0:0:0:0:
320,192,100134,1,0,0:0:0:0:
64,192,100134,128,0,100328:0:0:0:0:
192,192,100231,128,0,100425:0:0:0:0:
448,192,100328,128,0,100425:0:0:0:0:
320,192,100425,1,0,0:0:0:0:
64,192,100522,1,0,0:0:0:0:
192,192,100522,128,0,100715:0:0:0:0:
320,192,100618,128,0,100715:0:0:0:0:
64,192,100715,128,0,100909:0:0:0:0:
192,192,100812,128,0,100909:0:0:0:0:
448,192,100909,1,0,0:0:0:0:
320,192,100909,1,0,0:0:0:0:
192,192,101005,128,0,101199:0:0:0:0:
448,192,101102,128,0,101296:0:0:0:0:
320,192,101199,128,0,101296:0:0:0:0:
64,192,101296,1,0,0:0:0:0:
192,192,101296,128,0,101489:0:0:0:0:
448,192,101393,128,0,101489:0:0:0:0:
64,192,101489,128,0,101586:0:0:0:0:
320,192,101586,128,0,101683:0:0:0:0:
64,192,101683,1,0,0:0:0:0:
192,192,101683,128,0,101876:0:0:0:0:
320,192,101780,128,0,101973:0:0:0:0:
448,192,101876,128,0,102070:0:0:0:0:
192,192,101973,128,0,102070:0:0:0:0:
320,192,102070,1,0,0:0:0:0:
64,192,102070,128,0,102264:0:0:0:0:
448,192,102167,128,0,102360:0:0:0:0:
192,192,102264,128,0,102457:0:0:0:0:
320,192,102360,128,0,102457:0:0:0:0:
448,192,102457,1,0,0:0:0:0:
64,192,102457,1,0,0:0:0:0:
320,192,102554,128,0,102747:0:0:0:0:
192,192,102651,128,0,102844:0:0:0:0:
64,192,102747,128,0,102844:0:0:0:0:
448,192,102844,1,0,0:0:0:0:
320,192,102844,128,0,103038:0:0:0:0:
192,192,102941,128,0,103038:0:0:0:0:
448,192,103038,128,0,103231:0:0:0:0:
320,192,103134,128,0,103231:0:0:0:0:
192,192,103231,128,0,103425:0:0:0:0:
64,192,103231,1,0,0:0:0:0:
320,192,103328,128,0,103522:0:0:0:0:
448,192,103425,128,0,103522:0:0:0:0:
64,192,103522,1,0,0:0:0:0:
192,192,103618,1,0,0:0:0:0:
448,192,103618,128,0,103812:0:0:0:0:
320,192,103715,128,0,103812:0:0:0:0:
64,192,103812,128,0,103909:0:0:0:0:
192,192,103909,128,0,104102:0:0:0:0:
64,192,104005,1,0,0:0:0:0:
448,192,104005,128,0,104199:0:0:0:0:
320,192,104102,128,0,104296:0:0:0:0:
192,192,104199,128,0,104393:0:0:0:0:
64,192,104296,128,0,104393:0:0:0:0:
320,192,104393,1,0,0:0:0:0:
448,192,104393,128,0,104586:0:0:0:0:
64,192,104489,128,0,104683:0:0:0:0:
192,192,104586,128,0,104780:0:0:0:0:
320,192,104683,128,0,104780:0:0:0:0:
64,192,104780,1,0,0:0:0:0:
448,192,104780,128,0,104973:0:0:0:0:
192,192,104876,1,0,0:0:0:0:
64,192,104973,1,0,0:0:0:0:
320,192,105070,128,0,105167:0:0:0:0:
448,192,105167,1,0,0:0:0:0:
192,192,105167,128,0,105360:0:0:0:0:
64,192,105264,128,0,105360:0:0:0:0:
320,192,105360,128,0,105554:0:0:0:0:
448,192,105457,128,0,105651:0:0:0:0:
64,192,105554,1,0,0:0:0:0:
192,192,105554,128,0,105747:0:0:0:0:
320,192,105651,128,0,105747:0:0:0:0:
448,192,105747,128,0,105844:0:0:0:0:
64,192,105844,128,0,105941:0:0:0:0:
448,192,105941,1,0,0:0:0:0:
320,192,105941,128,0,106134:0:0:0:0:
192,192,106038,128,0,106134:0:0:0:0:
448,192,106134,128,0,106328:0:0:0:0:
64,192,106231,128,0,106328:0:0:0:0:
320,192,106328,1,0,0:0:0:0:
192,192,106328,128,0,106522:0:0:0:0:
448,192,106425,128,0,106522:0:0:0:0:
320,192,106522,128,0,106618:0:0:0:0:
192,192,106618,1,0,0:0:0:0:
64,192,106715,1,0,0:0:0:0:
448,192,106715,128,0,106909:0:0:0:0:
320,192,106812,128,0,106909:0:0:0:0:
192,192,106909,1,0,0:0:0:0:
448,192,107005,128,0,107199:0:0:0:0:
192,192,107102,1,0,0:0:0:0:
64,192,107102,1,0,0:0:0:0:
320,192,107199,128,0,107393:0:0:0:0:
64,192,107296,128,0,107489:0:0:0:0:
448,192,107393,128,0,107586:0:0:0:0:
320,192,107489,1,0,0:0:0:0:
192,192,107489,128,0,107683:0:0:0:0:
64,192,107586,128,0,107780:0:0:0:0:
320,192,107683,128,0,107876:0:0:0:0:
192,192,107780,128,0,107973:0:0:0:0:
64,192,107876,1,0,0:0:0:0:
448,192,107876,128,0,108070:0:0:0:0:
320,192,107973,128,0,108167:0:0:0:0:
64,192,108070,128,0,108167:0:0:0:0:
448,192,108167,128,0,108264:0:0:0:0:
320,192,108264,1,0,0:0:0:0:
192,192,108264,128,0,108457:0:0:0:0:
64,192,108360,128,0,108457:0:0:0:0:
448,192,108457,1,0,0:0:0:0:
320,192,108505,1,0,0:0:0:0:
192,192,108554,1,0,0:0:0:0:
64,192,108602,1,0,0:0:0:0:
448,192,108651,1,0,0:0:0:0:
320,192,108651,128,0,108909:0:0:0:0:
448,192,108780,128,0,108909:0:0:0:0:
64,192,108909,1,0,0:0:0:0:
192,192,108909,128,0,109167:0:0:0:0:
64,192,109038,128,0,109167:0:0:0:0:
448,192,109167,1,0,0:0:0:0:
320,192,109167,128,0,109425:0:0:0:0:
448,192,109296,128,0,109425:0:0:0:0:
64,192,109425,128,0,109715:0:0:0:0:
192,192,109425,1,0,0:0:0:0:
320,192,109522,128,0,109715:0:0:0:0:
448,192,109618,128,0,109715:0:0:0:0:
192,192,109812,1,0,0:0:0:0:
448,192,109812,128,0,110005:0:0:0:0:
64,192,109812,1,0,0:0:0:0:
320,192,109909,128,0,110005:0:0:0:0:
64,192,110005,128,0,110102:0:0:0:0:
192,192,110102,128,0,110296:0:0:0:0:
64,192,110199,1,0,0:0:0:0:
448,192,110199,128,0,110393:0:0:0:0:
320,192,110296,128,0,110489:0:0:0:0:
192,192,110393,128,0,110586:0:0:0:0:
64,192,110489,128,0,110586:0:0:0:0:
320,192,110586,1,0,0:0:0:0:
448,192,110586,128,0,110780:0:0:0:0:
64,192,110683,128,0,110876:0:0:0:0:
192,192,110780,128,0,110973:0:0:0:0:
320,192,110876,128,0,110973:0:0:0:0:
64,192,110973,1,0,0:0:0:0:
448,192,110973,128,0,111167:0:0:0:0:
192,192,111070,1,0,0:0:0:0:
64,192,111167,1,0,0:0:0:0:
320,192,111264,128,0,111360:0:0:0:0:
448,192,111360,1,0,0:0:0:0:
192,192,111360,128,0,111554:0:0:0:0:
64,192,111457,128,0,111554:0:0:0:0:
320,192,111554,128,0,111747:0:0:0:0:
448,192,111651,128,0,111844:0:0:0:0:
64,192,111747,1,0,0:0:0:0:
192,192,111747,128,0,111941:0:0:0:0:
320,192,111844,128,0,111941:0:0:0:0:
448,192,111941,128,0,112038:0:0:0:0:
64,192,112038,128,0,112134:0:0:0:0:
192,192,112134,1,0,0:0:0:0:
320,192,112134,128,0,112328:0:0:0:0:
64,192,112231,128,0,112328:0:0:0:0:
448,192,112328,128,0,112522:0:0:0:0:
192,192,112425,128,0,112522:0:0:0:0:
320,192,112522,1,0,0:0:0:0:
64,192,112522,128,0,112715:0:0:0:0:
192,192,112618,128,0,112812:0:0:0:0:
448,192,112715,128,0,112812:0:0:0:0:
320,192,112812,1,0,0:0:0:0:
64,192,112909,1,0,0:0:0:0:
192,192,112909,128,0,113102:0:0:0:0:
320,192,113005,128,0,113102:0:0:0:0:
448,192,113102,1,0,0:0:0:0:
64,192,113199,128,0,113393:0:0:0:0:
320,192,113296,1,0,0:0:0:0:
192,192,113296,1,0,0:0:0:0:
448,192,113393,128,0,113586:0:0:0:0:
320,192,113489,128,0,113586:0:0:0:0:
192,192,113586,128,0,113683:0:0:0:0:
448,192,113683,1,0,0:0:0:0:
64,192,113683,128,0,113876:0:0:0:0:
192,192,113780,128,0,113876:0:0:0:0:
320,192,113876,128,0,113973:0:0:0:0:
448,192,113973,128,0,114167:0:0:0:0:
192,192,114070,1,0,0:0:0:0:
64,192,114070,1,0,0:0:0:0:
320,192,114167,128,0,114264:0:0:0:0:
64,192,114264,128,0,114360:0:0:0:0:
448,192,114360,128,0,114457:0:0:0:0:
192,192,114457,1,0,0:0:0:0:
320,192,114457,128,0,114554:0:0:0:0:
64,192,114554,128,0,114651:0:0:0:0:
448,192,114651,128,0,114747:0:0:0:0:
192,192,114747,128,0,114844:0:0:0:0:
320,192,114844,1,0,0:0:0:0:
448,192,114844,128,0,114941:0:0:0:0:
64,192,114909,1,0,0:0:0:0:
192,192,114973,1,0,0:0:0:0:
320,192,115038,128,0,115231:0:0:0:0:
64,192,115134,128,0,115231:0:0:0:0:
192,192,115231,1,0,0:0:0:0:
448,192,115231,128,0,115425:0:0:0:0:
320,192,115328,128,0,115522:0:0:0:0:
192,192,115425,128,0,115618:0:0:0:0:
64,192,115522,128,0,115618:0:0:0:0:
320,192,115618,1,0,0:0:0:0:
448,192,115618,128,0,115812:0:0:0:0:
64,192,115715,128,0,115812:0:0:0:0:
320,192,115812,128,0,116005:0:0:0:0:
192,192,115909,1,0,0:0:0:0:
64,192,116005,1,0,0:0:0:0:
448,192,116005,128,0,116199:0:0:0:0:
320,192,116102,128,0,116199:0:0:0:0:
64,192,116199,128,0,116393:0:0:0:0:
192,192,116296,128,0,116393:0:0:0:0:
448,192,116393,1,0,0:0:0:0:
320,192,116393,128,0,116489:0:0:0:0:
64,192,116489,1,0,0:0:0:0:
192,192,116538,1,0,0:0:0:0:
448,192,116586,128,0,116780:0:0:0:0:
320,192,116683,1,0,0:0:0:0:
64,192,116780,1,0,0:0:0:0:
192,192,116780,128,0,116973:0:0:0:0:
448,192,116876,128,0,117070:0:0:0:0:
64,192,116973,128,0,117167:0:0:0:0:
192,192,117070,128,0,117167:0:0:0:0:
320,192,117167,1,0,0:0:0:0:
448,192,117167,128,0,117360:0:0:0:0:
64,192,117264,128,0,117360:0:0:0:0:
320,192,117360,128,0,117554:0:0:0:0:
192,192,117457,1,0,0:0:0:0:
448,192,117554,1,0,0:0:0:0:
64,192,117554,128,0,117747:0:0:0:0:
320,192,117651,128,0,117844:0:0:0:0:
192,192,117747,128,0,117844:0:0:0:0:
448,192,117844,128,0,117941:0:0:0:0:
64,192,117941,1,0,0:0:0:0:
192,192,117941,128,0,118134:0:0:0:0:
448,192,118038,128,0,118134:0:0:0:0:
64,192,118134,128,0,118231:0:0:0:0:
320,192,118231,128,0,118425:0:0:0:0:
64,192,118328,1,0,0:0:0:0:
448,192,118328,128,0,118425:0:0:0:0:
192,192,118425,128,0,118522:0:0:0:0:
320,192,118522,128,0,118618:0:0:0:0:
448,192,118618,128,0,118715:0:0:0:0:
64,192,118715,1,0,0:0:0:0:
192,192,118715,128,0,118909:0:0:0:0:
320,192,118812,128,0,118909:0:0:0:0:
64,192,118909,128,0,119102:0:0:0:0:
448,192,119005,1,0,0:0:0:0:
192,192,119102,1,0,0:0:0:0:
320,192,119102,128,0,119296:0:0:0:0:
64,192,119199,128,0,119296:0:0:0:0:
448,192,119296,128,0,119393:0:0:0:0:
192,192,119393,128,0,119489:0:0:0:0:
448,192,119489,1,0,0:0:0:0:
320,192,119489,128,0,119586:0:0:0:0:
64,192,119586,1,0,0:0:0:0:
192,192,119634,1,0,0:0:0:0:
448,192,119683,128,0,119876:0:0:0:0:
320,192,119780,1,0,0:0:0:0:
192,192,119876,1,0,0:0:0:0:
64,192,119876,128,0,120070:0:0:0:0:
320,192,119973,128,0,120167:0:0:0:0:
448,192,120070,128,0,120167:0:0:0:0:
192,192,120167,128,0,120264:0:0:0:0:
64,192,120264,1,0,0:0:0:0:
448,192,120264,128,0,120457:0:0:0:0:
320,192,120360,128,0,120457:0:0:0:0:
192,192,120457,128,0,120554:0:0:0:0:
448,192,120554,128,0,120747:0:0:0:0:
320,192,120651,1,0,0:0:0:0:
64,192,120651,128,0,120747:0:0:0:0:
192,192,120747,128,0,120844:0:0:0:0:
448,192,120844,128,0,121038:0:0:0:0:
320,192,120941,128,0,121038:0:0:0:0:
64,192,121038,1,0,0:0:0:0:
192,192,121038,128,0,121231:0:0:0:0:
448,192,121134,128,0,121231:0:0:0:0:
64,192,121231,1,0,0:0:0:0:
320,192,121328,128,0,121425:0:0:0:0:
448,192,121425,1,0,0:0:0:0:
192,192,121425,128,0,121618:0:0:0:0:
64,192,121522,128,0,121618:0:0:0:0:
320,192,121618,128,0,121812:0:0:0:0:
192,192,121715,128,0,121812:0:0:0:0:
448,192,121812,1,0,0:0:0:0:
64,192,121812,128,0,122005:0:0:0:0:
320,192,121909,128,0,122005:0:0:0:0:
448,192,122005,128,0,122199:0:0:0:0:
192,192,122102,128,0,122199:0:0:0:0:
320,192,122199,128,0,122393:0:0:0:0:
192,192,122296,128,0,122393:0:0:0:0:
64,192,122393,128,0,122489:0:0:0:0:
320,192,122489,1,0,0:0:0:0:
448,192,122538,1,0,0:0:0:0:
192,192,122586,128,0,122780:0:0:0:0:
64,192,122683,128,0,122780:0:0:0:0:
448,192,122780,128,0,122973:0:0:0:0:
320,192,122876,128,0,122973:0:0:0:0:
64,192,122973,1,0,0:0:0:0:
192,192,123070,128,0,123264:0:0:0:0:
320,192,123167,128,0,123360:0:0:0:0:
448,192,123264,128,0,123457:0:0:0:0:
64,192,123360,1,0,0:0:0:0:
192,192,123457,128,0,123651:0:0:0:0:
320,192,123554,128,0,123747:0:0:0:0:
448,192,123651,128,0,123844:0:0:0:0:
64,192,123747,1,0,0:0:0:0:
192,192,123844,128,0,124134:0:0:0:0:
320,192,123941,128,0,124231:0:0:0:0:
448,192,124038,128,0,124328:0:0:0:0:
64,192,124134,1,0,0:0:0:0:
192,192,124231,128,0,124328:0:0:0:0:
64,192,124328,128,0,124522:0:0:0:0:
448,192,124425,128,0,124522:0:0:0:0:
192,192,124522,128,0,124715:0:0:0:0:
448,192,124618,128,0,124715:0:0:0:0:
320,192,124715,128,0,124909:0:0:0:0:
64,192,124812,128,0,124909:0:0:0:0:
448,192,124909,128,0,125102:0:0:0:0:
64,192,125005,128,0,125199:0:0:0:0:
192,192,125102,128,0,125296:0:0:0:0:
448,192,125199,128,0,125393:0:0:0:0:
64,192,125296,128,0,125393:0:0:0:0:
320,192,125393,128,0,125586:0:0:0:0:
192,192,125489,128,0,125683:0:0:0:0:
448,192,125586,128,0,125780:0:0:0:0:
64,192,125683,128,0,125780:0:0:0:0:
192,192,125780,128,0,125973:0:0:0:0:
320,192,125876,128,0,126070:0:0:0:0:
448,192,125973,128,0,126167:0:0:0:0:
64,192,126070,128,0,126167:0:0:0:0:
320,192,126167,128,0,126264:0:0:0:0:
192,192,126264,128,0,126360:0:0:0:0:
448,192,126360,1,0,0:0:0:0:
320,192,126409,1,0,0:0:0:0:
64,192,126457,128,0,126747:0:0:0:0:
192,192,126554,128,0,126651:0:0:0:0:
448,192,126651,128,0,126941:0:0:0:0:
320,192,126747,128,0,127038:0:0:0:0:
192,192,126844,128,0,127134:0:0:0:0:
64,192,126941,128,0,127231:0:0:0:0:
448,192,127038,128,0,127134:0:0:0:0:
320,192,127134,128,0,127231:0:0:0:0:
192,192,127231,1,0,0:0:0:0:
448,192,127328,1,0,0:0:0:0:
64,192,127328,1,0,0:0:0:0:
320,192,127425,1,0,0:0:0:0:
192,192,127522,1,0,0:0:0:0:
64,192,127522,1,0,0:0:0:0:
320,192,127618,128,0,127715:0:0:0:0:
192,192,127715,1,0,0:0:0:0:
448,192,127715,1,0,0:0:0:0:
320,192,127812,128,0,127909:0:0:0:0:
64,192,127909,1,0,0:0:0:0:
192,192,128005,128,0,128199:0:0:0:0:
320,192,128005,128,0,128247:0:0:0:0:
448,192,128005,128,0,128296:0:0:0:0:
64,192,128199,128,0,128296:0:0:0:0:
64,192,128393,128,0,128489:0:0:0:0:
192,192,128393,128,0,128489:0:0:0:0:
64,192,128586,1,0,0:0:0:0:
320,192,128586,1,0,0:0:0:0:
64,192,128683,128,0,128780:0:0:0:0:
448,192,128683,128,0,128876:0:0:0:0:
64,192,128876,1,0,0:0:0:0:
64,192,128973,128,0,129070:0:0:0:0:
448,192,128973,128,0,129070:0:0:0:0:
192,192,129070,1,0,0:0:0:0:
192,192,129167,128,0,129360:0:0:0:0:
320,192,129167,128,0,129409:0:0:0:0:
448,192,129167,128,0,129457:0:0:0:0:
64,192,129360,128,0,129457:0:0:0:0:
64,192,129554,128,0,129651:0:0:0:0:
192,192,129554,1,0,0:0:0:0:
320,192,129651,1,0,0:0:0:0:
448,192,129699,128,0,129844:0:0:0:0:
64,192,129747,1,0,0:0:0:0:
192,192,129747,1,0,0:0:0:0:
64,192,129844,128,0,129941:0:0:0:0:
320,192,129844,1,0,0:0:0:0:
448,192,129941,1,0,0:0:0:0:
192,192,129989,1,0,0:0:0:0:
64,192,130038,128,0,130134:0:0:0:0:
320,192,130086,1,0,0:0:0:0:
448,192,130134,1,0,0:0:0:0:
192,192,130183,1,0,0:0:0:0:
64,192,130231,128,0,130328:0:0:0:0:
320,192,130280,1,0,0:0:0:0:
448,192,130328,1,0,0:0:0:0:
192,192,130376,1,0,0:0:0:0:
320,192,130425,1,0,0:0:0:0:
64,192,130473,1,0,0:0:0:0:
448,192,130522,128,0,130618:0:0:0:0:
320,192,130570,1,0,0:0:0:0:
64,192,130618,128,0,130909:0:0:0:0:
192,192,130667,1,0,0:0:0:0:
448,192,130715,128,0,130909:0:0:0:0:
192,192,130812,128,0,130909:0:0:0:0:
320,192,130909,128,0,131005:0:0:0:0:
448,192,131005,128,0,131102:0:0:0:0:
320,192,131102,128,0,131296:0:0:0:0:
192,192,131102,128,0,131344:0:0:0:0:
64,192,131102,128,0,131393:0:0:0:0:
448,192,131296,128,0,131393:0:0:0:0:
320,192,131425,1,0,0:0:0:0:
448,192,131489,128,0,131586:0:0:0:0:
64,192,131554,1,0,0:0:0:0:
192,192,131618,1,0,0:0:0:0:
448,192,131683,1,0,0:0:0:0:
64,192,131747,1,0,0:0:0:0:
448,192,131780,128,0,131876:0:0:0:0:
320,192,131812,1,0,0:0:0:0:
192,192,131876,1,0,0:0:0:0:
64,192,131876,1,0,0:0:0:0:
448,192,131973,1,0,0:0:0:0:
448,192,132070,128,0,132167:0:0:0:0:
192,192,132070,1,0,0:0:0:0:
64,192,132070,1,0,0:0:0:0:
320,192,132167,1,0,0:0:0:0:
320,192,132264,128,0,132457:0:0:0:0:
192,192,132264,128,0,132505:0:0:0:0:
64,192,132264,128,0,132554:0:0:0:0:
448,192,132457,128,0,132554:0:0:0:0:
448,192,132651,128,0,132747:0:0:0:0:
64,192,132651,128,0,132844:0:0:0:0:
192,192,132747,128,0,132844:0:0:0:0:
448,192,132844,1,0,0:0:0:0:
448,192,132941,128,0,133038:0:0:0:0:
64,192,132941,128,0,133134:0:0:0:0:
320,192,133038,128,0,133134:0:0:0:0:
448,192,133134,1,0,0:0:0:0:
192,192,133183,1,0,0:0:0:0:
448,192,133231,128,0,133328:0:0:0:0:
64,192,133328,1,0,0:0:0:0:
320,192,133425,128,0,133618:0:0:0:0:
448,192,133425,128,0,133618:0:0:0:0:
64,192,133522,1,0,0:0:0:0:
192,192,133618,1,0,0:0:0:0:
448,192,133715,128,0,133909:0:0:0:0:
320,192,133715,128,0,133812:0:0:0:0:
192,192,133812,128,0,133909:0:0:0:0:
64,192,133909,128,0,134005:0:0:0:0:
320,192,134005,128,0,134102:0:0:0:0:
448,192,134005,1,0,0:0:0:0:
192,192,134102,128,0,134199:0:0:0:0:
64,192,134199,128,0,134393:0:0:0:0:
448,192,134199,128,0,134489:0:0:0:0:
192,192,134393,128,0,134489:0:0:0:0:
192,192,134586,128,0,134683:0:0:0:0:
320,192,134586,128,0,134876:0:0:0:0:
448,192,134586,128,0,134780:0:0:0:0:
192,192,134780,1,0,0:0:0:0:
192,192,134876,128,0,134973:0:0:0:0:
448,192,134973,1,0,0:0:0:0:
64,192,134973,1,0,0:0:0:0:
192,192,135070,1,0,0:0:0:0:
192,192,135167,128,0,135264:0:0:0:0:
448,192,135264,1,0,0:0:0:0:
64,192,135360,128,0,135554:0:0:0:0:
320,192,135360,128,0,135602:0:0:0:0:
448,192,135360,128,0,135651:0:0:0:0:
192,192,135554,128,0,135651:0:0:0:0:
192,192,135747,128,0,135844:0:0:0:0:
448,192,135844,1,0,0:0:0:0:
64,192,135844,1,0,0:0:0:0:
192,192,135941,1,0,0:0:0:0:
320,192,135989,1,0,0:0:0:0:
192,192,136038,128,0,136134:0:0:0:0:
448,192,136038,1,0,0:0:0:0:
64,192,136134,1,0,0:0:0:0:
320,192,136134,128,0,136231:0:0:0:0:
448,192,136231,128,0,136328:0:0:0:0:
64,192,136328,1,0,0:0:0:0:
192,192,136328,128,0,136425:0:0:0:0:
320,192,136425,1,0,0:0:0:0:
64,192,136522,1,0,0:0:0:0:
192,192,136522,128,0,136618:0:0:0:0:
448,192,136618,1,0,0:0:0:0:
320,192,136715,1,0,0:0:0:0:
192,192,136812,1,0,0:0:0:0:
64,192,136909,128,0,137102:0:0:0:0:
320,192,137005,128,0,137102:0:0:0:0:
448,192,137102,1,0,0:0:0:0:
192,192,137167,1,0,0:0:0:0:
320,192,137231,1,0,0:0:0:0:
64,192,137296,128,0,137489:0:0:0:0:
192,192,137296,128,0,137538:0:0:0:0:
448,192,137296,128,0,137586:0:0:0:0:
320,192,137489,128,0,137586:0:0:0:0:
320,192,137683,128,0,137780:0:0:0:0:
64,192,137683,128,0,137973:0:0:0:0:
192,192,137780,1,0,0:0:0:0:
320,192,137876,1,0,0:0:0:0:
320,192,137973,128,0,138070:0:0:0:0:
448,192,138070,128,0,138360:0:0:0:0:
64,192,138070,1,0,0:0:0:0:
320,192,138167,1,0,0:0:0:0:
320,192,138264,128,0,138360:0:0:0:0:
64,192,138264,128,0,138457:0:0:0:0:
448,192,138457,128,0,138747:0:0:0:0:
320,192,138457,1,0,0:0:0:0:
192,192,138457,1,0,0:0:0:0:
64,192,138651,128,0,138844:0:0:0:0:
448,192,138844,1,0,0:0:0:0:
320,192,138893,1,0,0:0:0:0:
64,192,138941,1,0,0:0:0:0:
192,192,138989,1,0,0:0:0:0:
448,192,139038,1,0,0:0:0:0:
320,192,139086,1,0,0:0:0:0:
64,192,139134,1,0,0:0:0:0:
192,192,139183,1,0,0:0:0:0:
448,192,139231,128,0,139522:0:0:0:0:
64,192,139328,1,0,0:0:0:0:
64,192,139425,128,0,139715:0:0:0:0:
320,192,139522,1,0,0:0:0:0:
320,192,139618,128,0,139909:0:0:0:0:
448,192,139618,1,0,0:0:0:0:
192,192,139812,128,0,140102:0:0:0:0:
64,192,139812,1,0,0:0:0:0:
448,192,139909,128,0,140005:0:0:0:0:
320,192,140005,128,0,140296:0:0:0:0:
64,192,140151,128,0,140393:0:0:0:0:
448,192,140199,128,0,140296:0:0:0:0:
192,192,140296,128,0,140393:0:0:0:0:
448,192,140393,1,0,0:0:0:0:
320,192,140489,128,0,140586:0:0:0:0:
192,192,140489,128,0,140634:0:0:0:0:
64,192,140489,128,0,140683:0:0:0:0:
448,192,140586,128,0,140683:0:0:0:0:
448,192,140780,128,0,140876:0:0:0:0:
192,192,140780,128,0,140876:0:0:0:0:
64,192,140780,128,0,140925:0:0:0:0:
448,192,140973,1,0,0:0:0:0:
448,192,141070,128,0,141167:0:0:0:0:
192,192,141167,1,0,0:0:0:0:
64,192,141167,1,0,0:0:0:0:
448,192,141264,1,0,0:0:0:0:
192,192,141312,1,0,0:0:0:0:
448,192,141360,128,0,141457:0:0:0:0:
320,192,141360,1,0,0:0:0:0:
64,192,141457,1,0,0:0:0:0:
192,192,141457,1,0,0:0:0:0:
320,192,141554,128,0,141747:0:0:0:0:
192,192,141554,128,0,141796:0:0:0:0:
64,192,141554,128,0,141844:0:0:0:0:
448,192,141747,128,0,141844:0:0:0:0:
448,192,141941,128,0,142038:0:0:0:0:
192,192,142038,1,0,0:0:0:0:
448,192,142134,1,0,0:0:0:0:
64,192,142134,1,0,0:0:0:0:
448,192,142231,128,0,142328:0:0:0:0:
448,192,142425,1,0,0:0:0:0:
320,192,142425,1,0,0:0:0:0:
448,192,142522,128,0,142715:0:0:0:0:
64,192,142522,128,0,142618:0:0:0:0:
192,192,142618,1,0,0:0:0:0:
320,192,142715,128,0,142909:0:0:0:0:
192,192,142715,128,0,142957:0:0:0:0:
64,192,142715,128,0,143005:0:0:0:0:
448,192,142909,128,0,143005:0:0:0:0:
64,192,143102,128,0,143344:0:0:0:0:
448,192,143102,128,0,143296:0:0:0:0:
192,192,143102,128,0,143393:0:0:0:0:
320,192,143296,128,0,143393:0:0:0:0:
320,192,143489,128,0,143780:0:0:0:0:
448,192,143489,128,0,143683:0:0:0:0:
64,192,143489,128,0,143731:0:0:0:0:
192,192,143683,128,0,143780:0:0:0:0:
192,192,143876,128,0,143973:0:0:0:0:
448,192,143925,1,0,0:0:0:0:
64,192,143973,1,0,0:0:0:0:
192,192,144070,1,0,0:0:0:0:
320,192,144070,1,0,0:0:0:0:
448,192,144118,1,0,0:0:0:0:
192,192,144167,128,0,144264:0:0:0:0:
320,192,144215,1,0,0:0:0:0:
64,192,144264,1,0,0:0:0:0:
448,192,144264,128,0,144554:0:0:0:0:
192,192,144360,1,0,0:0:0:0:
192,192,144457,128,0,144651:0:0:0:0:
320,192,144554,128,0,144651:0:0:0:0:
448,192,144651,128,0,144844:0:0:0:0:
192,192,144844,128,0,144941:0:0:0:0:
320,192,144844,128,0,145231:0:0:0:0:
64,192,144844,128,0,145134:0:0:0:0:
192,192,145038,128,0,145134:0:0:0:0:
192,192,145231,1,0,0:0:0:0:
192,192,145328,1,0,0:0:0:0:
448,192,145425,1,0,0:0:0:0:
448,192,145522,1,0,0:0:0:0:
64,192,145618,1,0,0:0:0:0:
192,192,145667,1,0,0:0:0:0:
320,192,145715,1,0,0:0:0:0:
64,192,145812,1,0,0:0:0:0:
192,192,145812,128,0,146005:0:0:0:0:
320,192,145860,128,0,146054:0:0:0:0:
448,192,145909,128,0,146102:0:0:0:0:
64,192,146005,128,0,146070:0:0:0:0:
192,192,146070,128,0,146199:0:0:0:0:
64,192,146199,1,0,0:0:0:0:
448,192,146199,128,0,146457:0:0:0:0:
320,192,146328,128,0,146457:0:0:0:0:
64,192,146457,128,0,146586:0:0:0:0:
448,192,146586,128,0,146876:0:0:0:0:
320,192,146586,128,0,146973:0:0:0:0:
64,192,146780,128,0,146876:0:0:0:0:
64,192,146973,128,0,147070:0:0:0:0:
192,192,147022,1,0,0:0:0:0:
448,192,147070,1,0,0:0:0:0:
320,192,147118,1,0,0:0:0:0:
64,192,147167,1,0,0:0:0:0:
448,192,147215,1,0,0:0:0:0:
64,192,147264,128,0,147360:0:0:0:0:
192,192,147312,1,0,0:0:0:0:
448,192,147360,1,0,0:0:0:0:
320,192,147360,1,0,0:0:0:0:
64,192,147457,1,0,0:0:0:0:
64,192,147554,128,0,147651:0:0:0:0:
448,192,147747,128,0,148038:0:0:0:0:
320,192,147747,128,0,147844:0:0:0:0:
64,192,147941,128,0,148038:0:0:0:0:
192,192,147941,1,0,0:0:0:0:
64,192,148134,128,0,148231:0:0:0:0:
448,192,148134,1,0,0:0:0:0:
64,192,148328,1,0,0:0:0:0:
320,192,148328,1,0,0:0:0:0:
64,192,148425,128,0,148522:0:0:0:0:
320,192,148522,1,0,0:0:0:0:
448,192,148522,1,0,0:0:0:0:
192,192,148570,1,0,0:0:0:0:
64,192,148618,1,0,0:0:0:0:
64,192,148715,128,0,148812:0:0:0:0:
448,192,148715,1,0,0:0:0:0:
320,192,148812,1,0,0:0:0:0:
448,192,148909,1,0,0:0:0:0:
64,192,148909,128,0,149199:0:0:0:0:
192,192,149005,128,0,149199:0:0:0:0:
320,192,149102,128,0,149199:0:0:0:0:
448,192,149296,128,0,149554:0:0:0:0:
64,192,149296,1,0,0:0:0:0:
192,192,149425,128,0,149683:0:0:0:0:
64,192,149554,128,0,149683:0:0:0:0:
448,192,149683,128,0,149973:0:0:0:0:
320,192,149683,1,0,0:0:0:0:
64,192,149876,128,0,149973:0:0:0:0:
64,192,150070,128,0,150167:0:0:0:0:
320,192,150118,1,0,0:0:0:0:
448,192,150167,1,0,0:0:0:0:
192,192,150215,1,0,0:0:0:0:
64,192,150264,1,0,0:0:0:0:
320,192,150312,1,0,0:0:0:0:
64,192,150360,128,0,150457:0:0:0:0:
192,192,150409,1,0,0:0:0:0:
320,192,150457,1,0,0:0:0:0:
448,192,150457,1,0,0:0:0:0:
64,192,150554,1,0,0:0:0:0:
64,192,150651,128,0,150747:0:0:0:0:
448,192,150651,128,0,150747:0:0:0:0:
448,192,150844,128,0,151134:0:0:0:0:
320,192,150844,128,0,150941:0:0:0:0:
64,192,151038,128,0,151134:0:0:0:0:
192,192,151038,128,0,151134:0:0:0:0:
64,192,151231,128,0,151328:0:0:0:0:
320,192,151231,128,0,151328:0:0:0:0:
64,192,151425,1,0,0:0:0:0:
448,192,151425,1,0,0:0:0:0:
64,192,151522,128,0,151618:0:0:0:0:
320,192,151618,1,0,0:0:0:0:
192,192,151618,1,0,0:0:0:0:
448,192,151667,1,0,0:0:0:0:
64,192,151715,1,0,0:0:0:0:
320,192,151764,1,0,0:0:0:0:
64,192,151812,128,0,151909:0:0:0:0:
448,192,151812,128,0,152005:0:0:0:0:
192,192,152005,128,0,152102:0:0:0:0:
320,192,152005,1,0,0:0:0:0:
192,192,152199,1,0,0:0:0:0:
192,192,152296,128,0,152393:0:0:0:0:
64,192,152393,128,0,152586:0:0:0:0:
192,192,152489,1,0,0:0:0:0:
320,192,152586,128,0,152780:0:0:0:0:
192,192,152683,128,0,152780:0:0:0:0:
448,192,152780,128,0,153070:0:0:0:0:
64,192,152780,1,0,0:0:0:0:
192,192,152973,128,0,153070:0:0:0:0:
192,192,153167,128,0,153264:0:0:0:0:
64,192,153215,1,0,0:0:0:0:
448,192,153264,1,0,0:0:0:0:
320,192,153312,1,0,0:0:0:0:
192,192,153360,1,0,0:0:0:0:
448,192,153409,1,0,0:0:0:0:
192,192,153457,128,0,153554:0:0:0:0:
64,192,153505,1,0,0:0:0:0:
448,192,153554,1,0,0:0:0:0:
320,192,153554,1,0,0:0:0:0:
192,192,153651,1,0,0:0:0:0:
192,192,153747,128,0,153844:0:0:0:0:
448,192,153941,128,0,154231:0:0:0:0:
320,192,153941,1,0,0:0:0:0:
192,192,154134,128,0,154231:0:0:0:0:
64,192,154134,1,0,0:0:0:0:
320,192,154231,1,0,0:0:0:0:
192,192,154328,128,0,154425:0:0:0:0:
448,192,154328,1,0,0:0:0:0:
192,192,154522,1,0,0:0:0:0:
64,192,154522,1,0,0:0:0:0:
192,192,154618,128,0,154715:0:0:0:0:
320,192,154715,1,0,0:0:0:0:
448,192,154715,1,0,0:0:0:0:
64,192,154764,1,0,0:0:0:0:
192,192,154812,1,0,0:0:0:0:
448,192,154860,1,0,0:0:0:0:
192,192,154909,128,0,155005:0:0:0:0:
320,192,154909,1,0,0:0:0:0:
64,192,155005,1,0,0:0:0:0:
192,192,155102,128,0,155296:0:0:0:0:
448,192,155102,1,0,0:0:0:0:
320,192,155199,1,0,0:0:0:0:
448,192,155296,1,0,0:0:0:0:
192,192,155393,1,0,0:0:0:0:
320,192,155489,128,0,155554:0:0:0:0:
448,192,155489,128,0,155554:0:0:0:0:
64,192,155634,1,0,0:0:0:0:
192,192,155683,128,0,155876:0:0:0:0:
320,192,155780,128,0,155876:0:0:0:0:
64,192,155876,1,0,0:0:0:0:
448,192,155876,128,0,156070:0:0:0:0:
192,192,156005,1,0,0:0:0:0:
64,192,156070,128,0,156167:0:0:0:0:
320,192,156134,1,0,0:0:0:0:
64,192,156264,128,0,156360:0:0:0:0:
448,192,156264,128,0,156328:0:0:0:0:
192,192,156393,128,0,156457:0:0:0:0:
448,192,156457,1,0,0:0:0:0:
320,192,156522,128,0,156586:0:0:0:0:
64,192,156554,128,0,156651:0:0:0:0:
192,192,156651,128,0,156780:0:0:0:0:
448,192,156780,128,0,156909:0:0:0:0:
64,192,156844,128,0,156941:0:0:0:0:
320,192,156909,128,0,157038:0:0:0:0:
448,192,157038,128,0,157231:0:0:0:0:
64,192,157167,128,0,157554:0:0:0:0:
192,192,157296,128,0,157812:0:0:0:0:
448,192,157425,128,0,157683:0:0:0:0:
320,192,157554,128,0,157941:0:0:0:0:
64,192,157683,128,0,158070:0:0:0:0:
448,192,157812,128,0,158070:0:0:0:0:
192,192,157941,128,0,158199:0:0:0:0:
320,192,158070,128,0,158199:0:0:0:0:
448,192,158199,1,0,0:0:0:0:
64,192,158199,1,0,0:0:0:0:
192,192,158296,1,0,0:0:0:0:
320,192,158344,1,0,0:0:0:0:
448,192,158393,1,0,0:0:0:0:
64,192,158393,1,0,0:0:0:0:
192,192,158489,1,0,0:0:0:0:
64,192,158489,1,0,0:0:0:0:
320,192,158586,1,0,0:0:0:0:
448,192,158586,128,0,158780:0:0:0:0:
64,192,158683,128,0,158780:0:0:0:0:
320,192,158780,1,0,0:0:0:0:
192,192,158780,128,0,158876:0:0:0:0:
448,192,158876,128,0,158973:0:0:0:0:
64,192,158973,5,0,0:0:0:0:
320,192,158973,128,0,159264:0:0:0:0:
192,192,158973,128,0,159167:0:0:0:0:
64,192,159264,128,0,159360:0:0:0:0:
448,192,159360,1,0,0:0:0:0:
192,192,159360,1,0,0:0:0:0:
64,192,159554,128,0,159651:0:0:0:0:
448,192,159747,1,0,0:0:0:0:
320,192,159747,128,0,160425:0:0:0:0:
64,192,159844,128,0,159941:0:0:0:0:
192,192,160134,1,0,0:0:0:0:
64,192,160134,1,0,0:0:0:0:
64,192,160425,128,0,160522:0:0:0:0:
320,192,160522,1,0,0:0:0:0:
448,192,160522,128,0,161296:0:0:0:0:
64,192,160715,128,0,160812:0:0:0:0:
192,192,160909,1,0,0:0:0:0:
320,192,160909,1,0,0:0:0:0:
64,192,161005,128,0,161102:0:0:0:0:
320,192,161296,128,0,161973:0:0:0:0:
64,192,161296,1,0,0:0:0:0:
64,192,161586,128,0,161683:0:0:0:0:
448,192,161683,1,0,0:0:0:0:
192,192,161683,128,0,161973:0:0:0:0:
64,192,161876,128,0,161973:0:0:0:0:
448,192,162070,1,0,0:0:0:0:
320,192,162070,128,0,162264:0:0:0:0:
192,192,162070,128,0,162844:0:0:0:0:
448,192,162360,128,0,162457:0:0:0:0:
64,192,162457,1,0,0:0:0:0:
320,192,162457,1,0,0:0:0:0:
448,192,162651,128,0,162747:0:0:0:0:
64,192,162844,1,0,0:0:0:0:
320,192,162844,128,0,163618:0:0:0:0:
448,192,162941,128,0,163038:0:0:0:0:
192,192,163231,1,0,0:0:0:0:
64,192,163231,1,0,0:0:0:0:
448,192,163522,128,0,163618:0:0:0:0:
192,192,163618,1,0,0:0:0:0:
64,192,163618,128,0,164393:0:0:0:0:
448,192,163812,128,0,163909:0:0:0:0:
320,192,164005,1,0,0:0:0:0:
192,192,164005,1,0,0:0:0:0:
448,192,164102,128,0,164199:0:0:0:0:
192,192,164393,1,0,0:0:0:0:
320,192,164393,128,0,164780:0:0:0:0:
448,192,164683,128,0,164780:0:0:0:0:
192,192,164780,1,0,0:0:0:0:
64,192,164780,1,0,0:0:0:0:
320,192,164876,128,0,164973:0:0:0:0:
192,192,164973,1,0,0:0:0:0:
320,192,165070,128,0,165167:0:0:0:0:
192,192,165167,128,0,165360:0:0:0:0:
448,192,165167,1,0,0:0:0:0:
64,192,165167,128,0,165844:0:0:0:0:
320,192,165457,128,0,165554:0:0:0:0:
192,192,165554,1,0,0:0:0:0:
448,192,165554,1,0,0:0:0:0:
320,192,165747,128,0,165844:0:0:0:0:
448,192,165941,1,0,0:0:0:0:
64,192,165941,128,0,166618:0:0:0:0:
320,192,166038,128,0,166134:0:0:0:0:
448,192,166199,128,0,166328:0:0:0:0:
192,192,166328,1,0,0:0:0:0:
320,192,166328,1,0,0:0:0:0:
448,192,166457,128,0,166522:0:0:0:0:
192,192,166522,128,0,166618:0:0:0:0:
320,192,166618,128,0,166715:0:0:0:0:
448,192,166715,1,0,0:0:0:0:
64,192,166715,1,0,0:0:0:0:
64,192,166844,128,0,166909:0:0:0:0:
320,192,166909,128,0,167005:0:0:0:0:
192,192,167005,128,0,167102:0:0:0:0:
64,192,167102,1,0,0:0:0:0:
448,192,167102,128,0,167393:0:0:0:0:
320,192,167199,128,0,167296:0:0:0:0:
192,192,167360,128,0,167489:0:0:0:0:
448,192,167489,1,0,0:0:0:0:
64,192,167489,128,0,167683:0:0:0:0:
192,192,167683,128,0,168070:0:0:0:0:
320,192,167780,128,0,167876:0:0:0:0:
448,192,167876,1,0,0:0:0:0:
64,192,167876,1,0,0:0:0:0:
64,192,168070,128,0,168167:0:0:0:0:
192,192,168264,1,0,0:0:0:0:
320,192,168264,128,0,168457:0:0:0:0:
448,192,168264,128,0,169038:0:0:0:0:
192,192,168554,128,0,168651:0:0:0:0:
64,192,168651,1,0,0:0:0:0:
320,192,168651,1,0,0:0:0:0:
192,192,168844,128,0,168941:0:0:0:0:
320,192,169038,1,0,0:0:0:0:
64,192,169038,1,0,0:0:0:0:
192,192,169134,128,0,169231:0:0:0:0:
448,192,169167,128,0,169231:0:0:0:0:
320,192,169296,128,0,169360:0:0:0:0:
64,192,169425,1,0,0:0:0:0:
448,192,169425,128,0,169618:0:0:0:0:
192,192,169489,128,0,169554:0:0:0:0:
320,192,169618,128,0,169715:0:0:0:0:
192,192,169715,128,0,169812:0:0:0:0:
320,192,169812,128,0,170586:0:0:0:0:
448,192,169812,128,0,170005:0:0:0:0:
64,192,169812,1,0,0:0:0:0:
192,192,170005,128,0,170102:0:0:0:0:
64,192,170199,1,0,0:0:0:0:
448,192,170199,1,0,0:0:0:0:
192,192,170296,128,0,170393:0:0:0:0:
448,192,170393,1,0,0:0:0:0:
64,192,170586,128,0,170973:0:0:0:0:
192,192,170586,1,0,0:0:0:0:
448,192,170683,1,0,0:0:0:0:
320,192,170780,1,0,0:0:0:0:
192,192,170876,128,0,170973:0:0:0:0:
448,192,170973,1,0,0:0:0:0:
320,192,170973,1,0,0:0:0:0:
448,192,171167,128,0,171360:0:0:0:0:
192,192,171167,128,0,171264:0:0:0:0:
64,192,171360,1,0,0:0:0:0:
320,192,171360,128,0,172038:0:0:0:0:
64,192,171651,128,0,171747:0:0:0:0:
448,192,171747,1,0,0:0:0:0:
192,192,171747,1,0,0:0:0:0:
64,192,171941,128,0,172038:0:0:0:0:
448,192,172134,1,0,0:0:0:0:
320,192,172134,1,0,0:0:0:0:
64,192,172231,128,0,172328:0:0:0:0:
192,192,172522,1,0,0:0:0:0:
320,192,172522,128,0,172715:0:0:0:0:
192,192,172715,128,0,172812:0:0:0:0:
64,192,172812,128,0,172909:0:0:0:0:
320,192,172909,1,0,0:0:0:0:
448,192,172909,128,0,173199:0:0:0:0:
64,192,173102,128,0,173199:0:0:0:0:
320,192,173199,1,0,0:0:0:0:
192,192,173296,1,0,0:0:0:0:
448,192,173296,128,0,173683:0:0:0:0:
64,192,173393,128,0,173489:0:0:0:0:
320,192,173683,1,0,0:0:0:0:
192,192,173683,1,0,0:0:0:0:
192,192,173876,128,0,173973:0:0:0:0:
64,192,173973,128,0,174070:0:0:0:0:
448,192,174070,1,0,0:0:0:0:
320,192,174070,128,0,174264:0:0:0:0:
64,192,174264,128,0,174360:0:0:0:0:
448,192,174264,128,0,174360:0:0:0:0:
448,192,174457,1,0,0:0:0:0:
192,192,174457,128,0,175231:0:0:0:0:
448,192,174747,128,0,174844:0:0:0:0:
320,192,174844,1,0,0:0:0:0:
64,192,174844,1,0,0:0:0:0:
448,192,175038,128,0,175134:0:0:0:0:
320,192,175231,1,0,0:0:0:0:
64,192,175231,1,0,0:0:0:0:
448,192,175328,128,0,175425:0:0:0:0:
64,192,175522,128,0,175618:0:0:0:0:
192,192,175618,1,0,0:0:0:0:
448,192,175618,128,0,175812:0:0:0:0:
64,192,175812,128,0,175909:0:0:0:0:
192,192,175909,128,0,176005:0:0:0:0:
448,192,176005,1,0,0:0:0:0:
320,192,176005,128,0,176296:0:0:0:0:
64,192,176199,128,0,176296:0:0:0:0:
448,192,176296,1,0,0:0:0:0:
192,192,176393,1,0,0:0:0:0:
320,192,176393,128,0,176780:0:0:0:0:
448,192,176489,128,0,176586:0:0:0:0:
64,192,176586,128,0,176683:0:0:0:0:
192,192,176780,1,0,0:0:0:0:
448,192,176780,128,0,177070:0:0:0:0:
64,192,176973,128,0,177070:0:0:0:0:
192,192,177070,128,0,177167:0:0:0:0:
320,192,177167,1,0,0:0:0:0:
448,192,177167,128,0,177457:0:0:0:0:
64,192,177360,128,0,177457:0:0:0:0:
448,192,177554,128,0,177651:0:0:0:0:
320,192,177554,1,0,0:0:0:0:
192,192,177554,1,0,0:0:0:0:
64,192,177651,1,0,0:0:0:0:
320,192,177747,1,0,0:0:0:0:
448,192,177844,128,0,177941:0:0:0:0:
192,192,177941,1,0,0:0:0:0:
320,192,178038,1,0,0:0:0:0:
448,192,178134,128,0,178231:0:0:0:0:
64,192,178231,1,0,0:0:0:0:
192,192,178328,1,0,0:0:0:0:
448,192,178425,128,0,178522:0:0:0:0:
64,192,178522,1,0,0:0:0:0:
320,192,178618,1,0,0:0:0:0:
448,192,178715,128,0,178812:0:0:0:0:
192,192,178812,1,0,0:0:0:0:
64,192,178909,1,0,0:0:0:0:
448,192,179005,128,0,179102:0:0:0:0:
320,192,179102,1,0,0:0:0:0:
192,192,179199,1,0,0:0:0:0:
448,192,179296,128,0,179393:0:0:0:0:
64,192,179393,1,0,0:0:0:0:
320,192,179489,1,0,0:0:0:0:
448,192,179586,128,0,179683:0:0:0:0:
192,192,179683,1,0,0:0:0:0:
320,192,179780,1,0,0:0:0:0:
448,192,179876,128,0,179973:0:0:0:0:
64,192,179973,1,0,0:0:0:0:
192,192,180070,1,0,0:0:0:0:
448,192,180167,128,0,180264:0:0:0:0:
64,192,180264,1,0,0:0:0:0:
320,192,180360,1,0,0:0:0:0:
448,192,180457,128,0,180554:0:0:0:0:
192,192,180554,1,0,0:0:0:0:
448,192,180651,128,0,180844:0:0:0:0:
64,192,180747,1,0,0:0:0:0:
320,192,180844,1,0,0:0:0:0:
448,192,180941,128,0,181134:0:0:0:0:
192,192,181038,1,0,0:0:0:0:
64,192,181134,1,0,0:0:0:0:
448,192,181231,128,0,181425:0:0:0:0:
192,192,181328,1,0,0:0:0:0:
320,192,181425,128,0,181618:0:0:0:0:
448,192,181522,128,0,181715:0:0:0:0:
64,192,181618,1,0,0:0:0:0:
320,192,181715,128,0,182102:0:0:0:0:
448,192,181812,128,0,182005:0:0:0:0:
192,192,181909,1,0,0:0:0:0:
64,192,182005,1,0,0:0:0:0:
448,192,182102,128,0,182296:0:0:0:0:
320,192,182199,128,0,182489:0:0:0:0:
192,192,182296,128,0,182683:0:0:0:0:
448,192,182393,128,0,182586:0:0:0:0:
64,192,182489,1,0,0:0:0:0:
320,192,182586,128,0,182973:0:0:0:0:
448,192,182683,128,0,182876:0:0:0:0:
192,192,182780,128,0,183264:0:0:0:0:
64,192,182876,1,0,0:0:0:0:
448,192,182973,128,0,183167:0:0:0:0:
320,192,183070,128,0,183554:0:0:0:0:
64,192,183167,128,0,183360:0:0:0:0:
448,192,183264,128,0,183457:0:0:0:0:
192,192,183360,128,0,183651:0:0:0:0:
64,192,183457,128,0,183651:0:0:0:0:
448,192,183554,128,0,183651:0:0:0:0:
320,192,183651,128,0,183747:0:0:0:0:
448,192,183747,1,0,0:0:0:0:
64,192,183747,1,0,0:0:0:0:
192,192,183941,1,0,0:0:0:0:
448,192,184038,128,0,184134:0:0:0:0:
320,192,184134,1,0,0:0:0:0:
192,192,184231,1,0,0:0:0:0:
64,192,184328,128,0,184425:0:0:0:0:
448,192,184425,1,0,0:0:0:0:
192,192,184522,1,0,0:0:0:0:
448,192,184618,128,0,184715:0:0:0:0:
64,192,184715,1,0,0:0:0:0:
320,192,184812,1,0,0:0:0:0:
192,192,184909,128,0,185005:0:0:0:0:
448,192,185005,1,0,0:0:0:0:
64,192,185102,128,0,185167:0:0:0:0:
320,192,185199,128,0,185296:0:0:0:0:
448,192,185296,128,0,185360:0:0:0:0:
192,192,185393,1,0,0:0:0:0:
64,192,185489,128,0,185586:0:0:0:0:
448,192,185586,1,0,0:0:0:0:
192,192,185683,1,0,0:0:0:0:
320,192,185780,128,0,185876:0:0:0:0:
64,192,185876,1,0,0:0:0:0:
448,192,185973,1,0,0:0:0:0:
192,192,186070,128,0,186167:0:0:0:0:
320,192,186167,1,0,0:0:0:0:
64,192,186264,1,0,0:0:0:0:
448,192,186360,128,0,186457:0:0:0:0:
64,192,186457,1,0,0:0:0:0:
192,192,186554,1,0,0:0:0:0:
320,192,186651,128,0,186747:0:0:0:0:
64,192,186747,1,0,0:0:0:0:
448,192,186844,1,0,0:0:0:0:
192,192,186844,128,0,186941:0:0:0:0:
320,192,186941,1,0,0:0:0:0:
64,192,187038,1,0,0:0:0:0:
320,192,187134,128,0,187231:0:0:0:0:
192,192,187231,1,0,0:0:0:0:
448,192,187328,1,0,0:0:0:0:
64,192,187425,128,0,187522:0:0:0:0:
320,192,187522,1,0,0:0:0:0:
192,192,187618,1,0,0:0:0:0:
448,192,187715,128,0,187812:0:0:0:0:
64,192,187812,1,0,0:0:0:0:
320,192,187909,1,0,0:0:0:0:
192,192,188005,128,0,188102:0:0:0:0:
448,192,188102,1,0,0:0:0:0:
64,192,188199,128,0,188264:0:0:0:0:
320,192,188296,128,0,188393:0:0:0:0:
448,192,188393,128,0,188457:0:0:0:0:
192,192,188489,128,0,188586:0:0:0:0:
320,192,188586,128,0,188683:0:0:0:0:
64,192,188683,128,0,188780:0:0:0:0:
192,192,188780,128,0,188876:0:0:0:0:
448,192,188876,128,0,188973:0:0:0:0:
64,192,188973,128,0,189070:0:0:0:0:
320,192,189070,128,0,189167:0:0:0:0:
192,192,189167,128,0,189264:0:0:0:0:
448,192,189264,128,0,189360:0:0:0:0:
64,192,189360,128,0,189457:0:0:0:0:
320,192,189457,128,0,189554:0:0:0:0:
448,192,189554,128,0,189651:0:0:0:0:
192,192,189651,128,0,189747:0:0:0:0:
320,192,189747,128,0,189844:0:0:0:0:
64,192,189844,128,0,189941:0:0:0:0:
192,192,189941,1,0,0:0:0:0:
448,192,189941,128,0,190038:0:0:0:0:
320,192,190038,128,0,190134:0:0:0:0:
64,192,190134,128,0,190231:0:0:0:0:
192,192,190231,128,0,190328:0:0:0:0:
448,192,190328,128,0,190425:0:0:0:0:
64,192,190425,128,0,190522:0:0:0:0:
320,192,190522,128,0,190618:0:0:0:0:
192,192,190618,128,0,190715:0:0:0:0:
64,192,190715,128,0,190812:0:0:0:0:
448,192,190812,128,0,190909:0:0:0:0:
192,192,190909,128,0,191005:0:0:0:0:
320,192,191005,128,0,191102:0:0:0:0:
64,192,191102,128,0,191199:0:0:0:0:
192,192,191199,128,0,191296:0:0:0:0:
448,192,191296,128,0,191393:0:0:0:0:
64,192,191393,128,0,191489:0:0:0:0:
320,192,191489,128,0,191586:0:0:0:0:
448,192,191586,128,0,191683:0:0:0:0:
192,192,191683,128,0,191780:0:0:0:0:
320,192,191780,128,0,191876:0:0:0:0:
64,192,191876,128,0,191973:0:0:0:0:
448,192,191973,128,0,192070:0:0:0:0:
192,192,192070,128,0,192167:0:0:0:0:
64,192,192167,128,0,192264:0:0:0:0:
320,192,192215,128,0,192279:0:0:0:0:
448,192,192264,128,0,192360:0:0:0:0:
192,192,192360,128,0,192457:0:0:0:0:
320,192,192457,128,0,192554:0:0:0:0:
64,192,192554,128,0,192651:0:0:0:0:
192,192,192651,128,0,192747:0:0:0:0:
448,192,192747,128,0,192844:0:0:0:0:
64,192,192844,128,0,192941:0:0:0:0:
320,192,192941,128,0,193038:0:0:0:0:
64,192,193038,1,0,0:0:0:0:
192,192,193038,128,0,193231:0:0:0:0:
448,192,193134,128,0,193231:0:0:0:0:
64,192,193231,128,0,193425:0:0:0:0:
192,192,193328,128,0,193425:0:0:0:0:
320,192,193425,128,0,193618:0:0:0:0:
448,192,193522,128,0,193618:0:0:0:0:
192,192,193618,128,0,193812:0:0:0:0:
64,192,193715,128,0,193812:0:0:0:0:
448,192,193812,128,0,194005:0:0:0:0:
192,192,193909,128,0,194005:0:0:0:0:
320,192,194005,128,0,194199:0:0:0:0:
64,192,194102,128,0,194199:0:0:0:0:
192,192,194199,128,0,194393:0:0:0:0:
448,192,194296,128,0,194393:0:0:0:0:
64,192,194393,128,0,194586:0:0:0:0:
320,192,194489,128,0,194586:0:0:0:0:
448,192,194586,128,0,194780:0:0:0:0:
192,192,194683,128,0,194780:0:0:0:0:
320,192,194780,128,0,194973:0:0:0:0:
64,192,194876,128,0,194973:0:0:0:0:
192,192,194973,128,0,195167:0:0:0:0:
320,192,195070,128,0,195167:0:0:0:0:
64,192,195167,128,0,195360:0:0:0:0:
448,192,195264,128,0,195360:0:0:0:0:
320,192,195360,128,0,195651:0:0:0:0:
192,192,195457,128,0,195747:0:0:0:0:
448,192,195554,128,0,195941:0:0:0:0:
64,192,195651,128,0,195844:0:0:0:0:
320,192,195747,128,0,196038:0:0:0:0:
192,192,195844,128,0,196038:0:0:0:0:
64,192,195941,128,0,196038:0:0:0:0:
448,192,196038,128,0,196134:0:0:0:0:
192,192,196134,128,0,196328:0:0:0:0:
320,192,196134,128,0,196231:0:0:0:0:
64,192,196231,128,0,196328:0:0:0:0:
320,192,196328,128,0,196522:0:0:0:0:
448,192,196328,128,0,196425:0:0:0:0:
192,192,196425,128,0,196522:0:0:0:0:
64,192,196522,128,0,196715:0:0:0:0:
448,192,196522,128,0,196618:0:0:0:0:
320,192,196618,128,0,196715:0:0:0:0:
448,192,196715,128,0,196909:0:0:0:0:
192,192,196715,128,0,196812:0:0:0:0:
64,192,196812,128,0,196909:0:0:0:0:
192,192,196909,128,0,197102:0:0:0:0:
320,192,196909,128,0,197005:0:0:0:0:
448,192,197005,128,0,197102:0:0:0:0:
64,192,197102,128,0,197296:0:0:0:0:
320,192,197102,128,0,197199:0:0:0:0:
448,192,197199,128,0,197296:0:0:0:0:
320,192,197296,128,0,197489:0:0:0:0:
192,192,197296,128,0,197393:0:0:0:0:
64,192,197393,128,0,197489:0:0:0:0:
448,192,197489,128,0,197683:0:0:0:0:
192,192,197489,128,0,197586:0:0:0:0:
320,192,197586,128,0,197683:0:0:0:0:
192,192,197683,128,0,197876:0:0:0:0:
64,192,197683,128,0,197747:0:0:0:0:
320,192,197780,128,0,197876:0:0:0:0:
448,192,197876,128,0,198070:0:0:0:0:
64,192,197876,128,0,197941:0:0:0:0:
192,192,197973,128,0,198070:0:0:0:0:
64,192,198070,128,0,198264:0:0:0:0:
320,192,198070,128,0,198134:0:0:0:0:
192,192,198167,128,0,198264:0:0:0:0:
448,192,198264,128,0,198457:0:0:0:0:
320,192,198264,128,0,198328:0:0:0:0:
64,192,198360,128,0,198457:0:0:0:0:
320,192,198457,128,0,198651:0:0:0:0:
192,192,198457,128,0,198522:0:0:0:0:
448,192,198554,128,0,198651:0:0:0:0:
192,192,198651,128,0,198844:0:0:0:0:
64,192,198651,128,0,198715:0:0:0:0:
320,192,198747,128,0,198844:0:0:0:0:
64,192,198844,128,0,199038:0:0:0:0:
448,192,198844,128,0,198909:0:0:0:0:
192,192,198941,128,0,199038:0:0:0:0:
448,192,199038,1,0,0:0:0:0:
320,192,199086,1,0,0:0:0:0:
192,192,199134,1,0,0:0:0:0:
64,192,199183,1,0,0:0:0:0:
320,192,199231,128,0,199425:0:0:0:0:
448,192,199231,1,0,0:0:0:0:
64,192,199328,128,0,199425:0:0:0:0:
192,192,199425,128,0,199618:0:0:0:0:
448,192,199425,1,0,0:0:0:0:
320,192,199522,128,0,199618:0:0:0:0:
448,192,199618,128,0,199812:0:0:0:0:
64,192,199618,1,0,0:0:0:0:
192,192,199715,128,0,199812:0:0:0:0:
64,192,199812,128,0,200005:0:0:0:0:
320,192,199812,1,0,0:0:0:0:
448,192,199909,128,0,200005:0:0:0:0:
320,192,200005,128,0,200199:0:0:0:0:
192,192,200005,1,0,0:0:0:0:
64,192,200102,128,0,200199:0:0:0:0:
448,192,200199,128,0,200393:0:0:0:0:
192,192,200199,1,0,0:0:0:0:
64,192,200296,128,0,200393:0:0:0:0:
192,192,200393,128,0,200586:0:0:0:0:
320,192,200393,1,0,0:0:0:0:
448,192,200489,128,0,200586:0:0:0:0:
64,192,200586,128,0,200780:0:0:0:0:
320,192,200586,1,0,0:0:0:0:
192,192,200683,128,0,200780:0:0:0:0:
448,192,200780,1,0,0:0:0:0:
320,192,200780,128,0,200973:0:0:0:0:
192,192,200876,128,0,200973:0:0:0:0:
448,192,200973,1,0,0:0:0:0:
64,192,200973,128,0,201167:0:0:0:0:
320,192,201070,128,0,201167:0:0:0:0:
192,192,201167,1,0,0:0:0:0:
448,192,201167,128,0,201360:0:0:0:0:
320,192,201264,128,0,201360:0:0:0:0:
64,192,201360,128,0,201554:0:0:0:0:
192,192,201360,1,0,0:0:0:0:
448,192,201457,128,0,201554:0:0:0:0:
192,192,201554,128,0,201747:0:0:0:0:
320,192,201554,1,0,0:0:0:0:
64,192,201651,128,0,201747:0:0:0:0:
448,192,201747,1,0,0:0:0:0:
320,192,201747,128,0,201941:0:0:0:0:
192,192,201844,128,0,201941:0:0:0:0:
64,192,201941,1,0,0:0:0:0:
448,192,201941,128,0,202134:0:0:0:0:
320,192,202038,128,0,202134:0:0:0:0:
64,192,202134,1,0,0:0:0:0:
192,192,202183,1,0,0:0:0:0:
320,192,202231,1,0,0:0:0:0:
448,192,202280,1,0,0:0:0:0:
192,192,202328,1,0,0:0:0:0:
64,192,202328,1,0,0:0:0:0:
64,192,202425,1,0,0:0:0:0:
448,192,202522,1,0,0:0:0:0:
320,192,202522,1,0,0:0:0:0:
192,192,202618,1,0,0:0:0:0:
448,192,202715,1,0,0:0:0:0:
320,192,202715,1,0,0:0:0:0:
448,192,202812,1,0,0:0:0:0:
64,192,202909,1,0,0:0:0:0:
192,192,202909,1,0,0:0:0:0:
320,192,203005,1,0,0:0:0:0:
192,192,203102,1,0,0:0:0:0:
64,192,203102,1,0,0:0:0:0:
64,192,203199,1,0,0:0:0:0:
320,192,203296,1,0,0:0:0:0:
448,192,203296,1,0,0:0:0:0:
192,192,203393,1,0,0:0:0:0:
448,192,203489,1,0,0:0:0:0:
320,192,203489,1,0,0:0:0:0:
448,192,203586,1,0,0:0:0:0:
64,192,203683,1,0,0:0:0:0:
192,192,203731,1,0,0:0:0:0:
320,192,203780,1,0,0:0:0:0:
448,192,203828,1,0,0:0:0:0:
192,192,203876,1,0,0:0:0:0:
64,192,203876,1,0,0:0:0:0:
64,192,203973,1,0,0:0:0:0:
320,192,204070,1,0,0:0:0:0:
448,192,204070,1,0,0:0:0:0:
192,192,204167,1,0,0:0:0:0:
448,192,204264,1,0,0:0:0:0:
320,192,204264,1,0,0:0:0:0:
448,192,204360,1,0,0:0:0:0:
192,192,204457,1,0,0:0:0:0:
64,192,204457,1,0,0:0:0:0:
320,192,204554,1,0,0:0:0:0:
192,192,204651,1,0,0:0:0:0:
64,192,204651,1,0,0:0:0:0:
64,192,204747,1,0,0:0:0:0:
320,192,204844,1,0,0:0:0:0:
448,192,204844,1,0,0:0:0:0:
192,192,204941,1,0,0:0:0:0:
448,192,205038,1,0,0:0:0:0:
320,192,205038,1,0,0:0:0:0:
448,192,205134,1,0,0:0:0:0:
64,192,205231,1,0,0:0:0:0:
192,192,205280,1,0,0:0:0:0:
320,192,205328,1,0,0:0:0:0:
448,192,205376,1,0,0:0:0:0:
192,192,205425,1,0,0:0:0:0:
64,192,205425,1,0,0:0:0:0:
320,192,205522,1,0,0:0:0:0:
64,192,205618,1,0,0:0:0:0:
192,192,205667,1,0,0:0:0:0:
320,192,205715,1,0,0:0:0:0:
448,192,205764,1,0,0:0:0:0:
192,192,205812,1,0,0:0:0:0:
64,192,205812,1,0,0:0:0:0:
320,192,205909,1,0,0:0:0:0:
448,192,206005,1,0,0:0:0:0:
320,192,206054,1,0,0:0:0:0:
192,192,206102,1,0,0:0:0:0:
64,192,206151,1,0,0:0:0:0:
448,192,206199,1,0,0:0:0:0:
320,192,206199,1,0,0:0:0:0:
192,192,206296,1,0,0:0:0:0:
64,192,206393,1,0,0:0:0:0:
192,192,206441,1,0,0:0:0:0:
320,192,206489,1,0,0:0:0:0:
448,192,206538,1,0,0:0:0:0:
192,192,206586,1,0,0:0:0:0:
64,192,206586,1,0,0:0:0:0:
320,192,206683,1,0,0:0:0:0:
448,192,206780,1,0,0:0:0:0:
320,192,206828,1,0,0:0:0:0:
192,192,206876,1,0,0:0:0:0:
64,192,206925,1,0,0:0:0:0:
448,192,206973,1,0,0:0:0:0:
320,192,206973,1,0,0:0:0:0:
192,192,207022,1,0,0:0:0:0:
64,192,207070,1,0,0:0:0:0:
448,192,207118,1,0,0:0:0:0:
320,192,207167,1,0,0:0:0:0:
64,192,207215,1,0,0:0:0:0:
448,192,207264,1,0,0:0:0:0:
192,192,207312,1,0,0:0:0:0:
64,192,207360,1,0,0:0:0:0:
320,192,207409,1,0,0:0:0:0:
192,192,207457,1,0,0:0:0:0:
448,192,207505,1,0,0:0:0:0:
64,192,207554,1,0,0:0:0:0:
320,192,207602,1,0,0:0:0:0:
192,192,207651,1,0,0:0:0:0:
448,192,207699,1,0,0:0:0:0:
320,192,207747,1,0,0:0:0:0:
64,192,207747,1,0,0:0:0:0:
192,192,207796,1,0,0:0:0:0:
448,192,207844,1,0,0:0:0:0:
320,192,207893,1,0,0:0:0:0:
192,192,207941,1,0,0:0:0:0:
64,192,207989,1,0,0:0:0:0:
448,192,208038,1,0,0:0:0:0:
320,192,208086,1,0,0:0:0:0:
64,192,208134,1,0,0:0:0:0:
192,192,208134,1,0,0:0:0:0:
448,192,208183,1,0,0:0:0:0:
320,192,208231,1,0,0:0:0:0:
192,192,208280,1,0,0:0:0:0:
64,192,208328,1,0,0:0:0:0:
448,192,208376,1,0,0:0:0:0:
320,192,208425,1,0,0:0:0:0:
192,192,208473,1,0,0:0:0:0:
448,192,208522,1,0,0:0:0:0:
64,192,208522,128,0,208618:0:0:0:0:
192,192,208618,128,0,208715:0:0:0:0:
448,192,208715,128,0,208909:0:0:0:0:
320,192,208909,128,0,209005:0:0:0:0:
192,192,209005,128,0,209102:0:0:0:0:
64,192,209102,128,0,209199:0:0:0:0:
448,192,209199,128,0,209393:0:0:0:0:
192,192,209393,128,0,209489:0:0:0:0:
320,192,209489,128,0,209586:0:0:0:0:
64,192,209586,128,0,209780:0:0:0:0:
192,192,209780,128,0,209876:0:0:0:0:
320,192,209876,128,0,209973:0:0:0:0:
448,192,209973,128,0,210070:0:0:0:0:
64,192,210070,128,0,210264:0:0:0:0:
192,192,210167,128,0,210264:0:0:0:0:
448,192,210264,128,0,210457:0:0:0:0:
64,192,210360,1,0,0:0:0:0:
320,192,210457,128,0,210651:0:0:0:0:
192,192,210554,128,0,210651:0:0:0:0:
64,192,210651,128,0,210747:0:0:0:0:
448,192,210747,128,0,210941:0:0:0:0:
320,192,210844,1,0,0:0:0:0:
192,192,210941,128,0,211038:0:0:0:0:
320,192,211038,128,0,211134:0:0:0:0:
64,192,211134,128,0,211328:0:0:0:0:
448,192,211231,1,0,0:0:0:0:
192,192,211328,128,0,211425:0:0:0:0:
320,192,211425,128,0,211522:0:0:0:0:
448,192,211522,128,0,211618:0:0:0:0:
64,192,211618,128,0,211812:0:0:0:0:
192,192,211715,128,0,211812:0:0:0:0:
448,192,211812,128,0,212005:0:0:0:0:
64,192,211909,1,0,0:0:0:0:
320,192,212005,128,0,212199:0:0:0:0:
192,192,212102,128,0,212199:0:0:0:0:
64,192,212199,128,0,212296:0:0:0:0:
448,192,212296,128,0,212393:0:0:0:0:
64,192,212393,128,0,212586:0:0:0:0:
192,192,212489,128,0,212683:0:0:0:0:
448,192,212586,128,0,212973:0:0:0:0:
64,192,212683,1,0,0:0:0:0:
320,192,212780,128,0,212973:0:0:0:0:
192,192,212876,128,0,212973:0:0:0:0:
64,192,212973,128,0,213070:0:0:0:0:
448,192,213070,128,0,213167:0:0:0:0:
64,192,213167,128,0,213360:0:0:0:0:
320,192,213167,1,0,0:0:0:0:
192,192,213264,128,0,213457:0:0:0:0:
448,192,213360,128,0,213747:0:0:0:0:
64,192,213457,128,0,213554:0:0:0:0:
192,192,213554,1,0,0:0:0:0:
320,192,213554,128,0,213844:0:0:0:0:
64,192,213651,128,0,213941:0:0:0:0:
192,192,213747,128,0,213941:0:0:0:0:
448,192,213844,128,0,213941:0:0:0:0:
320,192,213941,128,0,214134:0:0:0:0:
64,192,214328,128,0,214393:0:0:0:0:
192,192,214393,128,0,214457:0:0:0:0:
448,192,214457,128,0,214522:0:0:0:0:
64,192,214522,128,0,214586:0:0:0:0:
320,192,214586,128,0,214651:0:0:0:0:
448,192,214651,128,0,214715:0:0:0:0:
64,192,214715,1,0,0:0:0:0:
192,192,214715,128,0,215005:0:0:0:0:
320,192,214812,128,0,215102:0:0:0:0:
448,192,214909,128,0,215005:0:0:0:0:
64,192,215005,1,0,0:0:0:0:
192,192,215102,1,0,0:0:0:0:
448,192,215102,128,0,215393:0:0:0:0:
320,192,215199,128,0,215489:0:0:0:0:
64,192,215296,128,0,215393:0:0:0:0:
192,192,215393,128,0,215586:0:0:0:0:
64,192,215489,1,0,0:0:0:0:
448,192,215489,128,0,215780:0:0:0:0:
320,192,215586,128,0,215780:0:0:0:0:
192,192,215683,128,0,215876:0:0:0:0:
64,192,215780,128,0,215876:0:0:0:0:
320,192,215876,1,0,0:0:0:0:
448,192,215876,128,0,216167:0:0:0:0:
64,192,215973,128,0,216167:0:0:0:0:
192,192,216070,128,0,216264:0:0:0:0:
320,192,216167,128,0,216360:0:0:0:0:
64,192,216264,1,0,0:0:0:0:
448,192,216264,128,0,216457:0:0:0:0:
192,192,216360,128,0,216554:0:0:0:0:
64,192,216457,128,0,216651:0:0:0:0:
320,192,216554,128,0,216747:0:0:0:0:
448,192,216651,1,0,0:0:0:0:
192,192,216651,128,0,216941:0:0:0:0:
64,192,216747,128,0,216941:0:0:0:0:
320,192,216844,128,0,217038:0:0:0:0:
448,192,216941,128,0,217134:0:0:0:0:
64,192,217038,1,0,0:0:0:0:
192,192,217038,128,0,217328:0:0:0:0:
320,192,217134,128,0,217328:0:0:0:0:
448,192,217231,128,0,217425:0:0:0:0:
64,192,217328,128,0,217425:0:0:0:0:
192,192,217425,1,0,0:0:0:0:
320,192,217425,128,0,217618:0:0:0:0:
64,192,217522,128,0,217715:0:0:0:0:
448,192,217618,128,0,217812:0:0:0:0:
192,192,217715,128,0,217812:0:0:0:0:
320,192,217812,1,0,0:0:0:0:
64,192,217812,128,0,218102:0:0:0:0:
192,192,217909,128,0,218102:0:0:0:0:
448,192,218005,128,0,218296:0:0:0:0:
320,192,218102,1,0,0:0:0:0:
64,192,218199,1,0,0:0:0:0:
192,192,218199,128,0,218393:0:0:0:0:
320,192,218296,128,0,218489:0:0:0:0:
64,192,218393,128,0,218586:0:0:0:0:
192,192,218489,128,0,218586:0:0:0:0:
448,192,218586,1,0,0:0:0:0:
320,192,218586,128,0,218780:0:0:0:0:
192,192,218683,128,0,218876:0:0:0:0:
448,192,218780,128,0,218973:0:0:0:0:
320,192,218876,128,0,218973:0:0:0:0:
64,192,218973,1,0,0:0:0:0:
192,192,218973,128,0,219167:0:0:0:0:
448,192,219070,128,0,219264:0:0:0:0:
64,192,219167,128,0,219264:0:0:0:0:
320,192,219264,128,0,219360:0:0:0:0:
64,192,219360,1,0,0:0:0:0:
192,192,219360,128,0,219554:0:0:0:0:
320,192,219457,128,0,219651:0:0:0:0:
448,192,219554,128,0,219747:0:0:0:0:
192,192,219651,128,0,219747:0:0:0:0:
320,192,219747,1,0,0:0:0:0:
64,192,219747,128,0,220038:0:0:0:0:
448,192,219844,128,0,220038:0:0:0:0:
192,192,219941,128,0,220038:0:0:0:0:
320,192,220038,128,0,220134:0:0:0:0:
64,192,220134,1,0,0:0:0:0:
448,192,220134,128,0,220328:0:0:0:0:
320,192,220231,128,0,220328:0:0:0:0:
192,192,220328,128,0,220425:0:0:0:0:
64,192,220425,128,0,220618:0:0:0:0:
448,192,220425,1,0,0:0:0:0:
192,192,220522,128,0,220618:0:0:0:0:
320,192,220618,128,0,220715:0:0:0:0:
448,192,220715,128,0,220909:0:0:0:0:
64,192,220715,1,0,0:0:0:0:
320,192,220812,128,0,220909:0:0:0:0:
192,192,220909,1,0,0:0:0:0:
64,192,220909,128,0,221005:0:0:0:0:
320,192,221005,128,0,221102:0:0:0:0:
64,192,221102,1,0,0:0:0:0:
448,192,221102,128,0,221199:0:0:0:0:
64,192,221199,128,0,221296:0:0:0:0:
320,192,221296,1,0,0:0:0:0:
192,192,221296,1,0,0:0:0:0:
448,192,221296,128,0,221586:0:0:0:0:
64,192,221393,128,0,221489:0:0:0:0:
320,192,221489,128,0,221586:0:0:0:0:
192,192,221586,128,0,221876:0:0:0:0:
64,192,221683,1,0,0:0:0:0:
448,192,221683,128,0,221973:0:0:0:0:
320,192,221780,128,0,221973:0:0:0:0:
64,192,221876,128,0,222070:0:0:0:0:
192,192,221973,128,0,222070:0:0:0:0:
320,192,222070,1,0,0:0:0:0:
448,192,222070,128,0,222360:0:0:0:0:
64,192,222167,128,0,222360:0:0:0:0:
192,192,222264,128,0,222457:0:0:0:0:
320,192,222360,128,0,222457:0:0:0:0:
64,192,222457,1,0,0:0:0:0:
448,192,222457,128,0,222651:0:0:0:0:
192,192,222554,128,0,222747:0:0:0:0:
64,192,222651,128,0,222844:0:0:0:0:
320,192,222747,128,0,222941:0:0:0:0:
448,192,222844,1,0,0:0:0:0:
192,192,222844,128,0,223038:0:0:0:0:
64,192,222941,128,0,223038:0:0:0:0:
320,192,223038,128,0,223231:0:0:0:0:
448,192,223134,128,0,223328:0:0:0:0:
64,192,223231,1,0,0:0:0:0:
192,192,223231,128,0,223425:0:0:0:0:
320,192,223328,128,0,223522:0:0:0:0:
448,192,223425,128,0,223522:0:0:0:0:
64,192,223522,128,0,223618:0:0:0:0:
448,192,223618,1,0,0:0:0:0:
320,192,223618,128,0,223812:0:0:0:0:
192,192,223715,128,0,223812:0:0:0:0:
64,192,223812,1,0,0:0:0:0:
448,192,223812,128,0,223909:0:0:0:0:
320,192,223909,128,0,224005:0:0:0:0:
64,192,224005,1,0,0:0:0:0:
192,192,224005,1,0,0:0:0:0:
448,192,224054,1,0,0:0:0:0:
320,192,224102,1,0,0:0:0:0:
192,192,224151,1,0,0:0:0:0:
64,192,224199,128,0,224296:0:0:0:0:
448,192,224393,128,0,224586:0:0:0:0:
192,192,224393,1,0,0:0:0:0:
320,192,224489,128,0,224683:0:0:0:0:
64,192,224586,128,0,224683:0:0:0:0:
448,192,224683,128,0,224780:0:0:0:0:
64,192,224780,1,0,0:0:0:0:
192,192,224780,1,0,0:0:0:0:
320,192,224844,1,0,0:0:0:0:
64,192,224909,128,0,225167:0:0:0:0:
448,192,224973,128,0,225167:0:0:0:0:
320,192,225167,1,0,0:0:0:0:
192,192,225167,128,0,225360:0:0:0:0:
64,192,225264,128,0,225457:0:0:0:0:
320,192,225360,128,0,225554:0:0:0:0:
192,192,225457,128,0,225554:0:0:0:0:
64,192,225554,1,0,0:0:0:0:
448,192,225554,1,0,0:0:0:0:
192,192,225618,1,0,0:0:0:0:
448,192,225683,1,0,0:0:0:0:
320,192,225747,1,0,0:0:0:0:
192,192,225747,1,0,0:0:0:0:
64,192,225812,1,0,0:0:0:0:
448,192,225876,1,0,0:0:0:0:
320,192,225941,1,0,0:0:0:0:
192,192,225941,128,0,226134:0:0:0:0:
64,192,226038,128,0,226134:0:0:0:0:
448,192,226134,1,0,0:0:0:0:
320,192,226183,1,0,0:0:0:0:
192,192,226231,1,0,0:0:0:0:
64,192,226280,1,0,0:0:0:0:
448,192,226328,1,0,0:0:0:0:
320,192,226328,128,0,226586:0:0:0:0:
448,192,226457,128,0,226586:0:0:0:0:
64,192,226586,1,0,0:0:0:0:
192,192,226586,128,0,226844:0:0:0:0:
64,192,226715,128,0,226844:0:0:0:0:
448,192,226844,1,0,0:0:0:0:
320,192,226844,128,0,227102:0:0:0:0:
448,192,226973,128,0,227102:0:0:0:0:
64,192,227102,128,0,227393:0:0:0:0:
192,192,227102,1,0,0:0:0:0:
320,192,227199,128,0,227393:0:0:0:0:
448,192,227296,128,0,227393:0:0:0:0:
64,192,227489,1,0,0:0:0:0:
448,192,227489,128,0,227780:0:0:0:0:
192,192,227489,1,0,0:0:0:0:
320,192,227586,128,0,227780:0:0:0:0:
64,192,227683,128,0,227780:0:0:0:0:
192,192,227780,128,0,227973:0:0:0:0:
64,192,227876,1,0,0:0:0:0:
448,192,227876,128,0,228167:0:0:0:0:
320,192,227973,128,0,228167:0:0:0:0:
192,192,228070,128,0,228264:0:0:0:0:
64,192,228167,128,0,228264:0:0:0:0:
320,192,228264,1,0,0:0:0:0:
448,192,228264,128,0,228554:0:0:0:0:
64,192,228360,128,0,228554:0:0:0:0:
192,192,228457,128,0,228651:0:0:0:0:
320,192,228554,128,0,228651:0:0:0:0:
64,192,228651,1,0,0:0:0:0:
448,192,228651,128,0,228844:0:0:0:0:
192,192,228747,128,0,228941:0:0:0:0:
64,192,228844,128,0,229038:0:0:0:0:
320,192,228941,128,0,229038:0:0:0:0:
448,192,229038,1,0,0:0:0:0:
192,192,229038,128,0,229328:0:0:0:0:
64,192,229134,128,0,229328:0:0:0:0:
320,192,229231,128,0,229425:0:0:0:0:
448,192,229328,128,0,229522:0:0:0:0:
64,192,229425,1,0,0:0:0:0:
192,192,229425,128,0,229715:0:0:0:0:
320,192,229522,128,0,229715:0:0:0:0:
448,192,229618,128,0,229812:0:0:0:0:
64,192,229715,128,0,229812:0:0:0:0:
192,192,229812,1,0,0:0:0:0:
320,192,229812,128,0,230102:0:0:0:0:
64,192,229909,128,0,230102:0:0:0:0:
448,192,230005,128,0,230199:0:0:0:0:
192,192,230102,128,0,230199:0:0:0:0:
320,192,230199,1,0,0:0:0:0:
64,192,230199,128,0,230489:0:0:0:0:
192,192,230296,128,0,230489:0:0:0:0:
448,192,230393,128,0,230586:0:0:0:0:
320,192,230489,128,0,230586:0:0:0:0:
64,192,230586,1,0,0:0:0:0:
192,192,230586,128,0,230876:0:0:0:0:
448,192,230683,128,0,230876:0:0:0:0:
320,192,230780,128,0,230876:0:0:0:0:
64,192,230876,128,0,231264:0:0:0:0:
320,192,230973,1,0,0:0:0:0:
192,192,230973,128,0,231167:0:0:0:0:
448,192,231070,128,0,231264:0:0:0:0:
320,192,231167,128,0,231360:0:0:0:0:
192,192,231264,128,0,231360:0:0:0:0:
448,192,231360,1,0,0:0:0:0:
64,192,231360,128,0,231554:0:0:0:0:
192,192,231457,128,0,231554:0:0:0:0:
320,192,231554,1,0,0:0:0:0:
448,192,231651,128,0,231844:0:0:0:0:
64,192,231651,128,0,231747:0:0:0:0:
192,192,231651,128,0,231796:0:0:0:0:
320,192,231844,128,0,231941:0:0:0:0:
192,192,231941,128,0,232038:0:0:0:0:
64,192,231941,128,0,232134:0:0:0:0:
448,192,232038,128,0,232134:0:0:0:0:
320,192,232134,128,0,232231:0:0:0:0:
192,192,232134,128,0,232328:0:0:0:0:
64,192,232231,128,0,232328:0:0:0:0:
448,192,232328,128,0,232425:0:0:0:0:
320,192,232328,128,0,232425:0:0:0:0:
192,192,232425,128,0,232522:0:0:0:0:
320,192,232522,1,0,0:0:0:0:
448,192,232522,128,0,232618:0:0:0:0:
64,192,232586,1,0,0:0:0:0:
192,192,232651,1,0,0:0:0:0:
320,192,232715,128,0,232909:0:0:0:0:
448,192,232715,1,0,0:0:0:0:
64,192,232812,128,0,232909:0:0:0:0:
192,192,232909,1,0,0:0:0:0:
448,192,232909,128,0,233199:0:0:0:0:
320,192,233005,128,0,233199:0:0:0:0:
192,192,233102,128,0,233296:0:0:0:0:
64,192,233199,128,0,233296:0:0:0:0:
320,192,233296,1,0,0:0:0:0:
448,192,233296,128,0,233489:0:0:0:0:
64,192,233393,128,0,233586:0:0:0:0:
320,192,233489,128,0,233683:0:0:0:0:
192,192,233586,128,0,233780:0:0:0:0:
64,192,233683,1,0,0:0:0:0:
448,192,233683,128,0,233876:0:0:0:0:
320,192,233780,128,0,233973:0:0:0:0:
64,192,233876,128,0,234070:0:0:0:0:
192,192,233973,128,0,234070:0:0:0:0:
448,192,234070,1,0,0:0:0:0:
320,192,234070,128,0,234167:0:0:0:0:
64,192,234167,1,0,0:0:0:0:
192,192,234215,1,0,0:0:0:0:
448,192,234264,128,0,234457:0:0:0:0:
320,192,234360,128,0,234554:0:0:0:0:
64,192,234457,1,0,0:0:0:0:
192,192,234457,128,0,234651:0:0:0:0:
448,192,234554,128,0,234747:0:0:0:0:
64,192,234651,128,0,234844:0:0:0:0:
192,192,234747,128,0,234844:0:0:0:0:
320,192,234844,1,0,0:0:0:0:
448,192,234844,128,0,235038:0:0:0:0:
64,192,234941,128,0,235134:0:0:0:0:
320,192,235038,128,0,235231:0:0:0:0:
192,192,235134,128,0,235328:0:0:0:0:
448,192,235231,1,0,0:0:0:0:
64,192,235231,128,0,235425:0:0:0:0:
320,192,235328,128,0,235618:0:0:0:0:
192,192,235425,128,0,235522:0:0:0:0:
448,192,235522,128,0,235618:0:0:0:0:
64,192,235618,1,0,0:0:0:0:
192,192,235618,128,0,235909:0:0:0:0:
448,192,235715,128,0,235909:0:0:0:0:
64,192,235812,128,0,235909:0:0:0:0:
320,192,235909,128,0,236102:0:0:0:0:
64,192,236005,1,0,0:0:0:0:
448,192,236005,128,0,236102:0:0:0:0:
192,192,236102,128,0,236296:0:0:0:0:
320,192,236199,128,0,236393:0:0:0:0:
448,192,236296,128,0,236393:0:0:0:0:
64,192,236393,1,0,0:0:0:0:
192,192,236393,128,0,236683:0:0:0:0:
320,192,236489,128,0,236683:0:0:0:0:
64,192,236586,128,0,236780:0:0:0:0:
448,192,236683,128,0,236780:0:0:0:0:
192,192,236780,1,0,0:0:0:0:
320,192,236780,128,0,236973:0:0:0:0:
448,192,236876,128,0,237070:0:0:0:0:
192,192,236973,128,0,237167:0:0:0:0:
64,192,237070,128,0,237167:0:0:0:0:
320,192,237167,1,0,0:0:0:0:
448,192,237167,128,0,237457:0:0:0:0:
64,192,237264,1,0,0:0:0:0:
192,192,237312,1,0,0:0:0:0:
320,192,237360,128,0,237457:0:0:0:0:
64,192,237457,128,0,237554:0:0:0:0:
192,192,237554,1,0,0:0:0:0:
448,192,237554,128,0,237844:0:0:0:0:
320,192,237651,128,0,237844:0:0:0:0:
64,192,237747,128,0,237844:0:0:0:0:
192,192,237844,128,0,237941:0:0:0:0:
448,192,237941,128,0,238134:0:0:0:0:
64,192,237941,1,0,0:0:0:0:
320,192,238038,128,0,238231:0:0:0:0:
192,192,238134,128,0,238328:0:0:0:0:
448,192,238231,128,0,238425:0:0:0:0:
320,192,238328,1,0,0:0:0:0:
64,192,238328,128,0,238522:0:0:0:0:
192,192,238425,128,0,238618:0:0:0:0:
320,192,238522,128,0,238715:0:0:0:0:
448,192,238618,128,0,238715:0:0:0:0:
64,192,238715,1,0,0:0:0:0:
192,192,238715,128,0,238909:0:0:0:0:
320,192,238812,128,0,239005:0:0:0:0:
64,192,238909,128,0,239102:0:0:0:0:
192,192,239005,128,0,239102:0:0:0:0:
320,192,239102,1,0,0:0:0:0:
448,192,239102,128,0,239393:0:0:0:0:
64,192,239199,128,0,239393:0:0:0:0:
320,192,239296,128,0,239489:0:0:0:0:
192,192,239393,128,0,239489:0:0:0:0:
64,192,239489,1,0,0:0:0:0:
448,192,239489,128,0,239683:0:0:0:0:
320,192,239586,128,0,239683:0:0:0:0:
192,192,239683,128,0,239876:0:0:0:0:
448,192,239780,128,0,239876:0:0:0:0:
64,192,239876,128,0,240070:0:0:0:0:
320,192,239973,128,0,240070:0:0:0:0:
192,192,240070,128,0,240167:0:0:0:0:
448,192,240167,1,0,0:0:0:0:
320,192,240215,1,0,0:0:0:0:
64,192,240264,128,0,240457:0:0:0:0:
448,192,240360,128,0,240457:0:0:0:0:
192,192,240457,128,0,240651:0:0:0:0:
320,192,240554,128,0,240651:0:0:0:0:
64,192,240651,1,0,0:0:0:0:
192,192,240747,128,0,240941:0:0:0:0:
320,192,240844,128,0,241038:0:0:0:0:
448,192,240941,128,0,241134:0:0:0:0:
64,192,241038,1,0,0:0:0:0:
192,192,241134,128,0,241328:0:0:0:0:
320,192,241231,128,0,241425:0:0:0:0:
448,192,241328,128,0,241522:0:0:0:0:
64,192,241425,1,0,0:0:0:0:
192,192,241522,128,0,241812:0:0:0:0:
320,192,241618,128,0,241909:0:0:0:0:
448,192,241715,128,0,242005:0:0:0:0:
64,192,241812,1,0,0:0:0:0:
192,192,241909,128,0,242005:0:0:0:0:
64,192,242005,128,0,242199:0:0:0:0:
448,192,242102,128,0,242199:0:0:0:0:
192,192,242199,128,0,242393:0:0:0:0:
448,192,242296,128,0,242393:0:0:0:0:
320,192,242393,128,0,242586:0:0:0:0:
64,192,242489,128,0,242586:0:0:0:0:
448,192,242586,128,0,242780:0:0:0:0:
64,192,242683,128,0,242876:0:0:0:0:
192,192,242780,128,0,242973:0:0:0:0:
448,192,242876,128,0,243070:0:0:0:0:
64,192,242973,128,0,243070:0:0:0:0:
320,192,243070,128,0,243264:0:0:0:0:
192,192,243167,128,0,243360:0:0:0:0:
448,192,243264,128,0,243457:0:0:0:0:
64,192,243360,128,0,243457:0:0:0:0:
192,192,243457,128,0,243651:0:0:0:0:
320,192,243554,128,0,243747:0:0:0:0:
448,192,243651,128,0,243844:0:0:0:0:
64,192,243747,128,0,243844:0:0:0:0:
320,192,243844,128,0,243941:0:0:0:0:
192,192,243941,128,0,244038:0:0:0:0:
448,192,244038,1,0,0:0:0:0:
320,192,244086,1,0,0:0:0:0:
64,192,244134,128,0,244425:0:0:0:0:
192,192,244231,128,0,244328:0:0:0:0:
448,192,244328,128,0,244618:0:0:0:0:
320,192,244425,128,0,244715:0:0:0:0:
192,192,244522,128,0,244812:0:0:0:0:
64,192,244618,128,0,244909:0:0:0:0:
448,192,244715,128,0,244812:0:0:0:0:
320,192,244812,128,0,244909:0:0:0:0:
192,192,244909,1,0,0:0:0:0:
320,192,245102,1,0,0:0:0:0:
320,192,245296,128,0,245393:0:0:0:0:
320,192,245489,128,0,245586:0:0:0:0:
448,192,245683,128,0,245973:0:0:0:0:
320,192,245683,1,0,0:0:0:0:
64,192,245876,1,0,0:0:0:0:
64,192,246070,1,0,0:0:0:0:
64,192,246264,1,0,0:0:0:0:
64,192,246360,1,0,0:0:0:0:
64,192,246554,1,0,0:0:0:0:
64,192,246651,1,0,0:0:0:0:
448,192,246844,128,0,247134:0:0:0:0:
192,192,246844,1,0,0:0:0:0:
64,192,247038,1,0,0:0:0:0:
64,192,247231,1,0,0:0:0:0:
320,192,247328,1,0,0:0:0:0:
448,192,247376,128,0,247522:0:0:0:0:
64,192,247425,1,0,0:0:0:0:
192,192,247425,1,0,0:0:0:0:
320,192,247473,1,0,0:0:0:0:
64,192,247522,1,0,0:0:0:0:
448,192,247618,1,0,0:0:0:0:
192,192,247618,1,0,0:0:0:0:
320,192,247715,128,0,247764:0:0:0:0:
448,192,247812,1,0,0:0:0:0:
192,192,247812,128,0,247876:0:0:0:0:
320,192,247909,128,0,248005:0:0:0:0:
448,192,248005,1,0,0:0:0:0:
64,192,248005,1,0,0:0:0:0:
192,192,248054,1,0,0:0:0:0:
320,192,248102,1,0,0:0:0:0:
448,192,248151,1,0,0:0:0:0:
64,192,248199,1,0,0:0:0:0:
320,192,248296,1,0,0:0:0:0:
192,192,248393,128,0,248489:0:0:0:0:
64,192,248489,128,0,248586:0:0:0:0:
320,192,248586,128,0,248683:0:0:0:0:
448,192,248683,128,0,248780:0:0:0:0:
320,192,248780,128,0,248973:0:0:0:0:
192,192,248780,128,0,249022:0:0:0:0:
64,192,248780,128,0,249070:0:0:0:0:
448,192,248973,128,0,249070:0:0:0:0:
320,192,249070,1,0,0:0:0:0:
448,192,249167,128,0,249264:0:0:0:0:
64,192,249231,1,0,0:0:0:0:
192,192,249296,1,0,0:0:0:0:
448,192,249360,1,0,0:0:0:0:
64,192,249425,1,0,0:0:0:0:
448,192,249457,128,0,249554:0:0:0:0:
320,192,249489,1,0,0:0:0:0:
192,192,249554,1,0,0:0:0:0:
64,192,249554,1,0,0:0:0:0:
448,192,249651,1,0,0:0:0:0:
448,192,249747,128,0,249844:0:0:0:0:
192,192,249747,1,0,0:0:0:0:
320,192,249844,1,0,0:0:0:0:
320,192,249941,128,0,250134:0:0:0:0:
192,192,249941,128,0,250183:0:0:0:0:
64,192,249941,128,0,250231:0:0:0:0:
448,192,250134,128,0,250231:0:0:0:0:
448,192,250328,128,0,250425:0:0:0:0:
64,192,250425,128,0,250522:0:0:0:0:
448,192,250522,1,0,0:0:0:0:
192,192,250570,1,0,0:0:0:0:
448,192,250618,128,0,250715:0:0:0:0:
320,192,250618,1,0,0:0:0:0:
64,192,250715,1,0,0:0:0:0:
192,192,250764,1,0,0:0:0:0:
448,192,250812,1,0,0:0:0:0:
320,192,250812,128,0,251005:0:0:0:0:
64,192,250909,128,0,251005:0:0:0:0:
192,192,251005,128,0,251102:0:0:0:0:
320,192,251102,1,0,0:0:0:0:
448,192,251102,1,0,0:0:0:0:
192,192,251151,1,0,0:0:0:0:
64,192,251199,128,0,251296:0:0:0:0:
448,192,251247,1,0,0:0:0:0:
192,192,251296,1,0,0:0:0:0:
320,192,251296,128,0,251489:0:0:0:0:
448,192,251393,128,0,251489:0:0:0:0:
64,192,251489,128,0,251586:0:0:0:0:
192,192,251586,1,0,0:0:0:0:
448,192,251586,128,0,251780:0:0:0:0:
320,192,251683,128,0,251780:0:0:0:0:
192,192,251780,128,0,251876:0:0:0:0:
64,192,251876,128,0,252070:0:0:0:0:
448,192,251876,128,0,252167:0:0:0:0:
320,192,251876,128,0,252118:0:0:0:0:
192,192,252070,128,0,252167:0:0:0:0:
64,192,252167,128,0,252264:0:0:0:0:
192,192,252264,128,0,252360:0:0:0:0:
448,192,252360,1,0,0:0:0:0:
192,192,252457,1,0,0:0:0:0:
320,192,252457,128,0,252651:0:0:0:0:
192,192,252554,128,0,252651:0:0:0:0:
448,192,252651,128,0,252844:0:0:0:0:
64,192,252651,1,0,0:0:0:0:
192,192,252747,1,0,0:0:0:0:
320,192,252844,128,0,252941:0:0:0:0:
64,192,252941,1,0,0:0:0:0:
192,192,252989,1,0,0:0:0:0:
448,192,253038,128,0,253231:0:0:0:0:
64,192,253134,1,0,0:0:0:0:
320,192,253231,128,0,253425:0:0:0:0:
64,192,253328,128,0,253522:0:0:0:0:
192,192,253425,128,0,253522:0:0:0:0:
448,192,253554,1,0,0:0:0:0:
320,192,253554,1,0,0:0:0:0:
448,192,253683,1,0,0:0:0:0:
320,192,253683,1,0,0:0:0:0:
64,192,253812,1,0,0:0:0:0:
448,192,253812,1,0,0:0:0:0:
192,192,253812,128,0,254102:0:0:0:0:
320,192,254005,128,0,254199:0:0:0:0:
448,192,254102,128,0,254199:0:0:0:0:
64,192,254199,1,0,0:0:0:0:
192,192,254199,1,0,0:0:0:0:
64,192,254328,1,0,0:0:0:0:
192,192,254393,1,0,0:0:0:0:
320,192,254457,128,0,254651:0:0:0:0:
448,192,254489,128,0,254586:0:0:0:0:
192,192,254586,1,0,0:0:0:0:
64,192,254683,1,0,0:0:0:0:
192,192,254747,1,0,0:0:0:0:
448,192,254780,128,0,254876:0:0:0:0:
320,192,254876,128,0,254973:0:0:0:0:
64,192,254973,128,0,255167:0:0:0:0:
192,192,254973,128,0,255215:0:0:0:0:
448,192,254973,128,0,255264:0:0:0:0:
320,192,255167,128,0,255264:0:0:0:0:
320,192,255360,128,0,255457:0:0:0:0:
320,192,255554,1,0,0:0:0:0:
64,192,255618,1,0,0:0:0:0:
320,192,255651,128,0,255747:0:0:0:0:
192,192,255683,1,0,0:0:0:0:
448,192,255747,128,0,256038:0:0:0:0:
64,192,255747,1,0,0:0:0:0:
320,192,255844,1,0,0:0:0:0:
320,192,255941,128,0,256038:0:0:0:0:
64,192,255941,128,0,256038:0:0:0:0:
192,192,256038,128,0,256134:0:0:0:0:
448,192,256134,128,0,256425:0:0:0:0:
64,192,256134,1,0,0:0:0:0:
320,192,256134,128,0,256328:0:0:0:0:
64,192,256328,128,0,256522:0:0:0:0:
192,192,256425,128,0,256522:0:0:0:0:
448,192,256522,1,0,0:0:0:0:
320,192,256570,1,0,0:0:0:0:
64,192,256618,1,0,0:0:0:0:
192,192,256667,1,0,0:0:0:0:
448,192,256715,1,0,0:0:0:0:
320,192,256764,1,0,0:0:0:0:
64,192,256812,1,0,0:0:0:0:
192,192,256860,1,0,0:0:0:0:
448,192,256909,128,0,257199:0:0:0:0:
64,192,257005,1,0,0:0:0:0:
64,192,257102,128,0,257393:0:0:0:0:
320,192,257199,1,0,0:0:0:0:
320,192,257296,128,0,257586:0:0:0:0:
192,192,257296,1,0,0:0:0:0:
448,192,257393,128,0,257489:0:0:0:0:
192,192,257489,128,0,257780:0:0:0:0:
64,192,257489,1,0,0:0:0:0:
448,192,257586,128,0,257683:0:0:0:0:
320,192,257683,128,0,257973:0:0:0:0:
64,192,257683,128,0,257780:0:0:0:0:
448,192,257828,128,0,257973:0:0:0:0:
320,192,258070,128,0,258167:0:0:0:0:
192,192,258070,128,0,258215:0:0:0:0:
64,192,258070,128,0,258264:0:0:0:0:
448,192,258264,128,0,258360:0:0:0:0:
320,192,258328,128,0,258425:0:0:0:0:
64,192,258328,128,0,258522:0:0:0:0:
192,192,258328,128,0,258473:0:0:0:0:
448,192,258457,128,0,258554:0:0:0:0:
192,192,258586,128,0,258731:0:0:0:0:
64,192,258586,128,0,258780:0:0:0:0:
320,192,258586,128,0,258683:0:0:0:0:
448,192,258699,128,0,258796:0:0:0:0:
64,192,258844,1,0,0:0:0:0:
192,192,258844,1,0,0:0:0:0:
320,192,258893,1,0,0:0:0:0:
448,192,258941,1,0,0:0:0:0:
448,192,259038,128,0,259134:0:0:0:0:
64,192,259086,1,0,0:0:0:0:
320,192,259231,128,0,259425:0:0:0:0:
192,192,259231,128,0,259473:0:0:0:0:
64,192,259231,128,0,259522:0:0:0:0:
448,192,259425,128,0,259522:0:0:0:0:
448,192,259618,128,0,259715:0:0:0:0:
320,192,259618,128,0,259715:0:0:0:0:
192,192,259715,1,0,0:0:0:0:
192,192,259812,128,0,259957:0:0:0:0:
64,192,259812,128,0,260005:0:0:0:0:
448,192,259909,1,0,0:0:0:0:
448,192,260005,128,0,260199:0:0:0:0:
320,192,260102,128,0,260199:0:0:0:0:
64,192,260199,128,0,260296:0:0:0:0:
192,192,260247,1,0,0:0:0:0:
448,192,260296,128,0,260393:0:0:0:0:
320,192,260393,128,0,260489:0:0:0:0:
192,192,260393,1,0,0:0:0:0:
64,192,260489,128,0,260586:0:0:0:0:
448,192,260586,128,0,260683:0:0:0:0:
320,192,260586,128,0,260780:0:0:0:0:
192,192,260586,128,0,260731:0:0:0:0:
448,192,260780,128,0,260925:0:0:0:0:
192,192,260780,128,0,260973:0:0:0:0:
64,192,260780,128,0,260876:0:0:0:0:
320,192,260973,128,0,261360:0:0:0:0:
64,192,260973,128,0,261167:0:0:0:0:
448,192,260973,128,0,261312:0:0:0:0:
192,192,261167,128,0,261264:0:0:0:0:
64,192,261360,1,0,0:0:0:0:
192,192,261457,1,0,0:0:0:0:
192,192,261554,128,0,261651:0:0:0:0:
320,192,261651,1,0,0:0:0:0:
64,192,261747,128,0,261941:0:0:0:0:
448,192,261747,128,0,261844:0:0:0:0:
192,192,261747,1,0,0:0:0:0:
320,192,261844,128,0,262038:0:0:0:0:
192,192,261844,128,0,261941:0:0:0:0:
448,192,261941,128,0,262038:0:0:0:0:
64,192,262038,1,0,0:0:0:0:
448,192,262134,1,0,0:0:0:0:
320,192,262134,128,0,262231:0:0:0:0:
192,192,262183,1,0,0:0:0:0:
64,192,262231,1,0,0:0:0:0:
448,192,262328,128,0,262425:0:0:0:0:
320,192,262425,128,0,262522:0:0:0:0:
448,192,262522,128,0,262715:0:0:0:0:
192,192,262522,128,0,262812:0:0:0:0:
64,192,262522,128,0,262764:0:0:0:0:
320,192,262715,128,0,262812:0:0:0:0:
320,192,262909,1,0,0:0:0:0:
448,192,262909,1,0,0:0:0:0:
64,192,262957,1,0,0:0:0:0:
320,192,263005,128,0,263102:0:0:0:0:
192,192,263054,1,0,0:0:0:0:
320,192,263199,1,0,0:0:0:0:
192,192,263296,1,0,0:0:0:0:
448,192,263296,128,0,263489:0:0:0:0:
64,192,263360,1,0,0:0:0:0:
320,192,263425,1,0,0:0:0:0:
64,192,263489,1,0,0:0:0:0:
192,192,263489,128,0,263683:0:0:0:0:
448,192,263586,1,0,0:0:0:0:
64,192,263683,1,0,0:0:0:0:
320,192,263683,128,0,263876:0:0:0:0:
192,192,263747,1,0,0:0:0:0:
64,192,263876,128,0,264070:0:0:0:0:
192,192,264005,128,0,264070:0:0:0:0:
448,192,264070,1,0,0:0:0:0:
320,192,264070,1,0,0:0:0:0:
448,192,264167,1,0,0:0:0:0:
320,192,264167,1,0,0:0:0:0:
64,192,264264,128,0,264554:0:0:0:0:
192,192,264264,1,0,0:0:0:0:
320,192,264457,128,0,264554:0:0:0:0:
320,192,264651,128,0,264747:0:0:0:0:
320,192,264844,1,0,0:0:0:0:
320,192,264941,128,0,265038:0:0:0:0:
320,192,265134,1,0,0:0:0:0:
320,192,265231,128,0,265328:0:0:0:0:
64,192,265425,128,0,265618:0:0:0:0:
320,192,265618,128,0,265715:0:0:0:0:
64,192,265812,128,0,266102:0:0:0:0:
320,192,266005,1,0,0:0:0:0:
320,192,266199,1,0,0:0:0:0:
320,192,266393,1,0,0:0:0:0:
320,192,266489,1,0,0:0:0:0:
320,192,266683,1,0,0:0:0:0:
320,192,266780,1,0,0:0:0:0:
64,192,266973,128,0,267167:0:0:0:0:
448,192,267167,1,0,0:0:0:0:
320,192,267215,1,0,0:0:0:0:
192,192,267264,1,0,0:0:0:0:
64,192,267312,1,0,0:0:0:0:
448,192,267360,1,0,0:0:0:0:
320,192,267360,1,0,0:0:0:0:
192,192,267457,1,0,0:0:0:0:
448,192,267554,1,0,0:0:0:0:
320,192,267602,1,0,0:0:0:0:
192,192,267651,1,0,0:0:0:0:
64,192,267699,1,0,0:0:0:0:
448,192,267747,1,0,0:0:0:0:
320,192,267747,1,0,0:0:0:0:
64,192,267844,1,0,0:0:0:0:
448,192,267941,1,0,0:0:0:0:
64,192,267989,1,0,0:0:0:0:
192,192,268038,1,0,0:0:0:0:
320,192,268086,1,0,0:0:0:0:
448,192,268134,1,0,0:0:0:0:
64,192,268134,1,0,0:0:0:0:
192,192,268231,1,0,0:0:0:0:
448,192,268328,1,0,0:0:0:0:
320,192,268376,1,0,0:0:0:0:
192,192,268425,1,0,0:0:0:0:
64,192,268473,1,0,0:0:0:0:
448,192,268522,1,0,0:0:0:0:
320,192,268522,1,0,0:0:0:0:
192,192,268618,1,0,0:0:0:0:
448,192,268715,1,0,0:0:0:0:
320,192,268764,1,0,0:0:0:0:
192,192,268812,1,0,0:0:0:0:
64,192,268860,1,0,0:0:0:0:
448,192,268909,1,0,0:0:0:0:
320,192,268909,1,0,0:0:0:0:
192,192,268957,1,0,0:0:0:0:
64,192,269005,1,0,0:0:0:0:
320,192,269054,1,0,0:0:0:0:
448,192,269102,1,0,0:0:0:0:
192,192,269151,1,0,0:0:0:0:
320,192,269199,1,0,0:0:0:0:
64,192,269247,1,0,0:0:0:0:
192,192,269296,1,0,0:0:0:0:
448,192,269296,1,0,0:0:0:0:
320,192,269344,1,0,0:0:0:0:
64,192,269393,1,0,0:0:0:0:
192,192,269441,1,0,0:0:0:0:
448,192,269489,1,0,0:0:0:0:
320,192,269538,1,0,0:0:0:0:
64,192,269586,1,0,0:0:0:0:
192,192,269634,1,0,0:0:0:0:
320,192,269683,1,0,0:0:0:0:
448,192,269683,1,0,0:0:0:0:
64,192,269731,1,0,0:0:0:0:
192,192,269780,1,0,0:0:0:0:
320,192,269828,1,0,0:0:0:0:
448,192,269876,1,0,0:0:0:0:
64,192,269925,1,0,0:0:0:0:
320,192,269973,1,0,0:0:0:0:
192,192,270022,1,0,0:0:0:0:
448,192,270070,128,0,270134:0:0:0:0:
64,192,270070,1,0,0:0:0:0:
320,192,270134,128,0,270199:0:0:0:0:
64,192,270199,128,0,270264:0:0:0:0:
448,192,270264,128,0,270328:0:0:0:0:
192,192,270328,128,0,270393:0:0:0:0:
64,192,270393,128,0,270457:0:0:0:0:
320,192,270457,128,0,270651:0:0:0:0:
448,192,270457,128,0,270747:0:0:0:0:
192,192,270554,128,0,270747:0:0:0:0:
64,192,270651,128,0,270747:0:0:0:0:
320,192,270747,128,0,270844:0:0:0:0:
448,192,270844,1,0,0:0:0:0:
64,192,270844,1,0,0:0:0:0:
192,192,271038,1,0,0:0:0:0:
320,192,271134,128,0,271231:0:0:0:0:
192,192,271231,1,0,0:0:0:0:
64,192,271231,1,0,0:0:0:0:
448,192,271328,128,0,271522:0:0:0:0:
320,192,271425,128,0,271522:0:0:0:0:
192,192,271522,128,0,271618:0:0:0:0:
64,192,271522,128,0,271618:0:0:0:0:
448,192,271618,1,0,0:0:0:0:
320,192,271618,1,0,0:0:0:0:
448,192,271715,1,0,0:0:0:0:
64,192,271812,128,0,272005:0:0:0:0:
192,192,271909,128,0,272005:0:0:0:0:
320,192,272005,128,0,272102:0:0:0:0:
448,192,272005,128,0,272102:0:0:0:0:
192,192,272102,1,0,0:0:0:0:
320,192,272199,128,0,272296:0:0:0:0:
448,192,272199,128,0,272296:0:0:0:0:
64,192,272296,1,0,0:0:0:0:
192,192,272393,1,0,0:0:0:0:
320,192,272393,1,0,0:0:0:0:
448,192,272489,128,0,272586:0:0:0:0:
64,192,272586,1,0,0:0:0:0:
320,192,272683,128,0,272780:0:0:0:0:
192,192,272780,1,0,0:0:0:0:
64,192,272780,1,0,0:0:0:0:
448,192,272876,1,0,0:0:0:0:
64,192,272973,1,0,0:0:0:0:
320,192,273022,1,0,0:0:0:0:
192,192,273070,128,0,273167:0:0:0:0:
448,192,273167,128,0,273457:0:0:0:0:
64,192,273167,128,0,273264:0:0:0:0:
320,192,273264,128,0,273360:0:0:0:0:
192,192,273360,1,0,0:0:0:0:
192,192,273457,1,0,0:0:0:0:
64,192,273554,128,0,273844:0:0:0:0:
320,192,273554,128,0,273747:0:0:0:0:
448,192,273554,128,0,273651:0:0:0:0:
192,192,273651,128,0,273844:0:0:0:0:
448,192,273747,128,0,273844:0:0:0:0:
320,192,273844,128,0,273941:0:0:0:0:
192,192,273941,128,0,274231:0:0:0:0:
64,192,273941,128,0,274038:0:0:0:0:
64,192,274134,128,0,274231:0:0:0:0:
448,192,274134,128,0,274231:0:0:0:0:
192,192,274328,1,0,0:0:0:0:
64,192,274328,1,0,0:0:0:0:
320,192,274457,1,0,0:0:0:0:
192,192,274522,1,0,0:0:0:0:
64,192,274586,128,0,274715:0:0:0:0:
320,192,274586,128,0,274715:0:0:0:0:
448,192,274715,1,0,0:0:0:0:
192,192,274715,1,0,0:0:0:0:
320,192,274812,1,0,0:0:0:0:
64,192,274909,1,0,0:0:0:0:
192,192,274957,1,0,0:0:0:0:
448,192,275005,1,0,0:0:0:0:
320,192,275054,1,0,0:0:0:0:
64,192,275102,1,0,0:0:0:0:
192,192,275102,128,0,275199:0:0:0:0:
448,192,275134,128,0,275231:0:0:0:0:
192,192,275296,128,0,275489:0:0:0:0:
448,192,275328,128,0,275489:0:0:0:0:
320,192,275489,1,0,0:0:0:0:
64,192,275489,1,0,0:0:0:0:
64,192,275586,1,0,0:0:0:0:
448,192,275683,128,0,275876:0:0:0:0:
320,192,275780,128,0,275876:0:0:0:0:
192,192,275876,1,0,0:0:0:0:
64,192,275876,128,0,276070:0:0:0:0:
320,192,275973,128,0,276070:0:0:0:0:
448,192,276070,128,0,276264:0:0:0:0:
192,192,276167,128,0,276264:0:0:0:0:
64,192,276264,128,0,276554:0:0:0:0:
448,192,276360,128,0,276554:0:0:0:0:
192,192,276457,128,0,276554:0:0:0:0:
320,192,276554,128,0,276651:0:0:0:0:
64,192,276651,128,0,276844:0:0:0:0:
448,192,276651,128,0,276941:0:0:0:0:
192,192,276651,128,0,276747:0:0:0:0:
320,192,276747,128,0,276941:0:0:0:0:
192,192,276844,128,0,276941:0:0:0:0:
64,192,276941,128,0,277038:0:0:0:0:
448,192,277038,1,0,0:0:0:0:
320,192,277038,1,0,0:0:0:0:
448,192,277231,1,0,0:0:0:0:
192,192,277425,1,0,0:0:0:0:
64,192,277425,1,0,0:0:0:0:
64,192,277554,128,0,277618:0:0:0:0:
320,192,277554,128,0,277618:0:0:0:0:
192,192,277683,128,0,277747:0:0:0:0:
448,192,277683,128,0,277747:0:0:0:0:
320,192,277812,128,0,277876:0:0:0:0:
448,192,277812,128,0,277876:0:0:0:0:
192,192,277941,128,0,278005:0:0:0:0:
64,192,277941,128,0,278005:0:0:0:0:
448,192,278005,1,0,0:0:0:0:
320,192,278005,1,0,0:0:0:0:
448,192,278102,1,0,0:0:0:0:
64,192,278199,128,0,278393:0:0:0:0:
192,192,278199,128,0,278489:0:0:0:0:
320,192,278199,128,0,278296:0:0:0:0:
448,192,278296,128,0,278489:0:0:0:0:
320,192,278393,128,0,278489:0:0:0:0:
64,192,278489,128,0,278586:0:0:0:0:
448,192,278586,1,0,0:0:0:0:
192,192,278586,1,0,0:0:0:0:
448,192,278683,1,0,0:0:0:0:
320,192,278780,1,0,0:0:0:0:
64,192,278876,128,0,278973:0:0:0:0:
448,192,278973,1,0,0:0:0:0:
192,192,278973,1,0,0:0:0:0:
320,192,279070,1,0,0:0:0:0:
64,192,279167,128,0,279360:0:0:0:0:
448,192,279167,128,0,279264:0:0:0:0:
192,192,279264,128,0,279360:0:0:0:0:
448,192,279360,1,0,0:0:0:0:
320,192,279360,1,0,0:0:0:0:
448,192,279457,128,0,279651:0:0:0:0:
64,192,279554,128,0,279651:0:0:0:0:
192,192,279651,1,0,0:0:0:0:
320,192,279699,1,0,0:0:0:0:
64,192,279747,128,0,280038:0:0:0:0:
448,192,279747,128,0,279844:0:0:0:0:
192,192,279747,128,0,279941:0:0:0:0:
320,192,279844,128,0,280038:0:0:0:0:
448,192,279941,128,0,280038:0:0:0:0:
192,192,280038,128,0,280134:0:0:0:0:
64,192,280134,128,0,280231:0:0:0:0:
320,192,280134,128,0,280328:0:0:0:0:
192,192,280231,1,0,0:0:0:0:
448,192,280328,128,0,280425:0:0:0:0:
64,192,280328,128,0,280425:0:0:0:0:
320,192,280425,1,0,0:0:0:0:
192,192,280522,1,0,0:0:0:0:
64,192,280522,1,0,0:0:0:0:
192,192,280618,1,0,0:0:0:0:
448,192,280715,1,0,0:0:0:0:
448,192,280812,128,0,281005:0:0:0:0:
320,192,280909,128,0,281005:0:0:0:0:
192,192,280957,1,0,0:0:0:0:
64,192,281005,1,0,0:0:0:0:
64,192,281102,128,0,281199:0:0:0:0:
320,192,281151,1,0,0:0:0:0:
192,192,281199,1,0,0:0:0:0:
448,192,281247,1,0,0:0:0:0:
320,192,281296,128,0,281393:0:0:0:0:
64,192,281393,1,0,0:0:0:0:
192,192,281489,1,0,0:0:0:0:
192,192,281586,128,0,281683:0:0:0:0:
448,192,281651,1,0,0:0:0:0:
64,192,281715,1,0,0:0:0:0:
320,192,281780,128,0,281876:0:0:0:0:
448,192,281876,1,0,0:0:0:0:
192,192,281876,1,0,0:0:0:0:
448,192,281973,1,0,0:0:0:0:
64,192,282070,1,0,0:0:0:0:
192,192,282070,128,0,282264:0:0:0:0:
320,192,282167,128,0,282264:0:0:0:0:
64,192,282264,128,0,282457:0:0:0:0:
448,192,282360,128,0,282457:0:0:0:0:
320,192,282457,128,0,282747:0:0:0:0:
192,192,282554,128,0,282747:0:0:0:0:
448,192,282651,128,0,282747:0:0:0:0:
64,192,282747,128,0,282844:0:0:0:0:
448,192,282844,128,0,283134:0:0:0:0:
320,192,282844,128,0,283038:0:0:0:0:
192,192,282844,128,0,282941:0:0:0:0:
64,192,282941,128,0,283134:0:0:0:0:
192,192,283038,128,0,283134:0:0:0:0:
320,192,283134,128,0,283231:0:0:0:0:
448,192,283231,1,0,0:0:0:0:
64,192,283231,1,0,0:0:0:0:
192,192,283425,1,0,0:0:0:0:
448,192,283522,128,0,283618:0:0:0:0:
192,192,283618,1,0,0:0:0:0:
64,192,283618,1,0,0:0:0:0:
64,192,283715,128,0,283909:0:0:0:0:
192,192,283812,128,0,283909:0:0:0:0:
448,192,283909,1,0,0:0:0:0:
320,192,283957,1,0,0:0:0:0:
192,192,284005,1,0,0:0:0:0:
64,192,284005,1,0,0:0:0:0:
448,192,284102,128,0,284199:0:0:0:0:
64,192,284199,1,0,0:0:0:0:
320,192,284296,1,0,0:0:0:0:
448,192,284393,128,0,284683:0:0:0:0:
192,192,284393,128,0,284586:0:0:0:0:
64,192,284393,128,0,284489:0:0:0:0:
320,192,284489,128,0,284683:0:0:0:0:
64,192,284586,128,0,284683:0:0:0:0:
192,192,284683,128,0,284780:0:0:0:0:
448,192,284780,1,0,0:0:0:0:
64,192,284780,1,0,0:0:0:0:
448,192,284876,1,0,0:0:0:0:
192,192,284973,128,0,285070:0:0:0:0:
64,192,284973,128,0,285167:0:0:0:0:
320,192,285070,1,0,0:0:0:0:
448,192,285167,1,0,0:0:0:0:
192,192,285167,1,0,0:0:0:0:
320,192,285264,128,0,285360:0:0:0:0:
64,192,285360,1,0,0:0:0:0:
192,192,285360,128,0,285457:0:0:0:0:
320,192,285457,128,0,285554:0:0:0:0:
448,192,285554,1,0,0:0:0:0:
64,192,285554,1,0,0:0:0:0:
448,192,285651,1,0,0:0:0:0:
64,192,285747,128,0,285941:0:0:0:0:
448,192,285941,128,0,286038:0:0:0:0:
320,192,285941,128,0,286086:0:0:0:0:
192,192,285941,128,0,286134:0:0:0:0:
64,192,286038,128,0,286183:0:0:0:0:
448,192,286134,1,0,0:0:0:0:
320,192,286183,1,0,0:0:0:0:
192,192,286231,1,0,0:0:0:0:
64,192,286280,1,0,0:0:0:0:
448,192,286328,1,0,0:0:0:0:
320,192,286328,1,0,0:0:0:0:
448,192,286425,1,0,0:0:0:0:
64,192,286522,128,0,286715:0:0:0:0:
192,192,286618,128,0,286715:0:0:0:0:
448,192,286715,1,0,0:0:0:0:
320,192,286715,1,0,0:0:0:0:
448,192,286812,128,0,286909:0:0:0:0:
64,192,287005,128,0,287102:0:0:0:0:
320,192,287102,1,0,0:0:0:0:
192,192,287102,1,0,0:0:0:0:
192,192,287199,1,0,0:0:0:0:
448,192,287296,128,0,287489:0:0:0:0:
320,192,287393,128,0,287489:0:0:0:0:
192,192,287489,1,0,0:0:0:0:
64,192,287489,1,0,0:0:0:0:
320,192,287586,1,0,0:0:0:0:
448,192,287683,1,0,0:0:0:0:
64,192,287683,1,0,0:0:0:0:
192,192,287731,1,0,0:0:0:0:
320,192,287780,1,0,0:0:0:0:
448,192,287876,1,0,0:0:0:0:
64,192,287876,128,0,287973:0:0:0:0:
192,192,287973,128,0,288070:0:0:0:0:
320,192,288070,128,0,288167:0:0:0:0:
448,192,288167,128,0,288264:0:0:0:0:
192,192,288264,128,0,288554:0:0:0:0:
64,192,288264,128,0,288457:0:0:0:0:
320,192,288264,128,0,288360:0:0:0:0:
448,192,288360,128,0,288554:0:0:0:0:
320,192,288457,128,0,288554:0:0:0:0:
64,192,288554,1,0,0:0:0:0:
64,192,288651,128,0,288941:0:0:0:0:
320,192,288651,128,0,288747:0:0:0:0:
448,192,288651,128,0,288844:0:0:0:0:
192,192,288747,128,0,288941:0:0:0:0:
320,192,288844,128,0,288941:0:0:0:0:
448,192,288941,128,0,289038:0:0:0:0:
320,192,289038,128,0,289231:0:0:0:0:
192,192,289038,128,0,289280:0:0:0:0:
64,192,289038,128,0,289328:0:0:0:0:
448,192,289231,128,0,289425:0:0:0:0:
320,192,289425,1,0,0:0:0:0:
192,192,289473,1,0,0:0:0:0:
448,192,289522,1,0,0:0:0:0:
64,192,289618,128,0,289812:0:0:0:0:
192,192,289715,128,0,289812:0:0:0:0:
448,192,289812,1,0,0:0:0:0:
320,192,289812,1,0,0:0:0:0:
448,192,289909,1,0,0:0:0:0:
192,192,290005,128,0,290102:0:0:0:0:
320,192,290102,128,0,290199:0:0:0:0:
64,192,290199,128,0,290489:0:0:0:0:
192,192,290199,128,0,290393:0:0:0:0:
448,192,290199,128,0,290296:0:0:0:0:
320,192,290296,128,0,290489:0:0:0:0:
448,192,290393,128,0,290489:0:0:0:0:
192,192,290489,128,0,290586:0:0:0:0:
320,192,290586,1,0,0:0:0:0:
64,192,290683,1,0,0:0:0:0:
64,192,290780,128,0,290973:0:0:0:0:
448,192,290876,128,0,290973:0:0:0:0:
192,192,290973,128,0,291167:0:0:0:0:
320,192,291070,1,0,0:0:0:0:
448,192,291167,128,0,291360:0:0:0:0:
320,192,291264,128,0,291360:0:0:0:0:
64,192,291360,128,0,291457:0:0:0:0:
192,192,291457,128,0,291554:0:0:0:0:
320,192,291554,1,0,0:0:0:0:
448,192,291602,1,0,0:0:0:0:
64,192,291651,1,0,0:0:0:0:
192,192,291699,1,0,0:0:0:0:
448,192,291747,128,0,291941:0:0:0:0:
320,192,291844,128,0,292038:0:0:0:0:
192,192,291941,128,0,292038:0:0:0:0:
64,192,292038,128,0,292134:0:0:0:0:
448,192,292134,128,0,292425:0:0:0:0:
320,192,292134,128,0,292231:0:0:0:0:
192,192,292134,128,0,292328:0:0:0:0:
64,192,292231,128,0,292425:0:0:0:0:
320,192,292328,128,0,292425:0:0:0:0:
192,192,292425,128,0,292522:0:0:0:0:
448,192,292522,1,0,0:0:0:0:
320,192,292570,1,0,0:0:0:0:
64,192,292618,1,0,0:0:0:0:
192,192,292667,1,0,0:0:0:0:
448,192,292715,1,0,0:0:0:0:
64,192,292812,128,0,293102:0:0:0:0:
320,192,292909,1,0,0:0:0:0:
192,192,293005,128,0,293102:0:0:0:0:
448,192,293102,1,0,0:0:0:0:
448,192,293199,1,0,0:0:0:0:
64,192,293296,128,0,293586:0:0:0:0:
192,192,293296,128,0,293489:0:0:0:0:
320,192,293296,128,0,293393:0:0:0:0:
448,192,293393,128,0,293586:0:0:0:0:
320,192,293489,128,0,293586:0:0:0:0:
192,192,293586,128,0,293683:0:0:0:0:
448,192,293683,1,0,0:0:0:0:
320,192,293731,1,0,0:0:0:0:
64,192,293780,1,0,0:0:0:0:
448,192,293828,1,0,0:0:0:0:
192,192,293876,1,0,0:0:0:0:
320,192,293925,1,0,0:0:0:0:
64,192,293973,1,0,0:0:0:0:
192,192,294022,1,0,0:0:0:0:
448,192,294070,1,0,0:0:0:0:
320,192,294118,1,0,0:0:0:0:
192,192,294167,1,0,0:0:0:0:
64,192,294215,1,0,0:0:0:0:
448,192,294264,1,0,0:0:0:0:
320,192,294312,1,0,0:0:0:0:
192,192,294360,1,0,0:0:0:0:
64,192,294409,1,0,0:0:0:0:
448,192,294457,1,0,0:0:0:0:
320,192,294457,128,0,294715:0:0:0:0:
192,192,294586,128,0,294844:0:0:0:0:
448,192,294715,128,0,294973:0:0:0:0:
64,192,294844,128,0,295102:0:0:0:0:
320,192,294973,128,0,295231:0:0:0:0:
192,192,295102,128,0,295231:0:0:0:0:
64,192,295231,1,0,0:0:0:0:
448,192,295231,128,0,295425:0:0:0:0:
320,192,295328,128,0,295618:0:0:0:0:
64,192,295425,128,0,295715:0:0:0:0:
448,192,295522,128,0,295715:0:0:0:0:
192,192,295618,128,0,295812:0:0:0:0:
320,192,295715,128,0,295812:0:0:0:0:
64,192,295812,1,0,0:0:0:0:
448,192,295860,1,0,0:0:0:0:
192,192,295909,1,0,0:0:0:0:
64,192,295957,1,0,0:0:0:0:
320,192,296005,1,0,0:0:0:0:
448,192,296054,1,0,0:0:0:0:
64,192,296102,1,0,0:0:0:0:
192,192,296199,1,0,0:0:0:0:
320,192,296247,1,0,0:0:0:0:
448,192,296296,1,0,0:0:0:0:
64,192,296344,1,0,0:0:0:0:
192,192,296393,1,0,0:0:0:0:
320,192,296489,1,0,0:0:0:0:
64,192,296586,1,0,0:0:0:0:
448,192,296634,1,0,0:0:0:0:
320,192,296683,1,0,0:0:0:0:
192,192,296731,1,0,0:0:0:0:
64,192,296780,1,0,0:0:0:0:
448,192,296828,1,0,0:0:0:0:
320,192,296876,1,0,0:0:0:0:
192,192,296973,1,0,0:0:0:0:
448,192,297022,1,0,0:0:0:0:
64,192,297070,1,0,0:0:0:0:
320,192,297118,1,0,0:0:0:0:
192,192,297167,1,0,0:0:0:0:
448,192,297264,1,0,0:0:0:0:
64,192,297360,1,0,0:0:0:0:
320,192,297409,1,0,0:0:0:0:
192,192,297457,1,0,0:0:0:0:
448,192,297505,1,0,0:0:0:0:
64,192,297554,1,0,0:0:0:0:
320,192,297651,1,0,0:0:0:0:
192,192,297747,1,0,0:0:0:0:
64,192,297796,1,0,0:0:0:0:
448,192,297844,1,0,0:0:0:0:
320,192,297893,1,0,0:0:0:0:
192,192,297941,1,0,0:0:0:0:
64,192,298038,1,0,0:0:0:0:
448,192,298134,1,0,0:0:0:0:
320,192,298183,1,0,0:0:0:0:
192,192,298231,1,0,0:0:0:0:
64,192,298280,1,0,0:0:0:0:
448,192,298328,1,0,0:0:0:0:
320,192,298328,128,0,298522:0:0:0:0:
192,192,298425,128,0,298522:0:0:0:0:
64,192,298522,128,0,298618:0:0:0:0:
320,192,298618,128,0,298715:0:0:0:0:
448,192,298715,1,0,0:0:0:0:
64,192,298715,128,0,298909:0:0:0:0:
192,192,298812,128,0,298909:0:0:0:0:
320,192,298909,128,0,299005:0:0:0:0:
64,192,299005,128,0,299102:0:0:0:0:
320,192,299102,1,0,0:0:0:0:
448,192,299102,128,0,299296:0:0:0:0:
192,192,299199,128,0,299296:0:0:0:0:
64,192,299296,128,0,299393:0:0:0:0:
448,192,299393,128,0,299489:0:0:0:0:
64,192,299489,1,0,0:0:0:0:
192,192,299538,1,0,0:0:0:0:
320,192,299586,1,0,0:0:0:0:
448,192,299634,1,0,0:0:0:0:
64,192,299683,1,0,0:0:0:0:
192,192,299731,1,0,0:0:0:0:
320,192,299780,1,0,0:0:0:0:
448,192,299828,1,0,0:0:0:0:
192,192,299876,1,0,0:0:0:0:
64,192,299876,1,0,0:0:0:0:
320,192,300651,1,0,0:0:0:0:
448,192,300699,1,0,0:0:0:0:
64,192,301425,1,0,0:0:0:0:
192,192,301425,128,0,301570:0:0:0:0:
192,192,302489,128,0,302586:0:0:0:0:
448,192,302586,128,0,302780:0:0:0:0:
320,192,302586,1,0,0:0:0:0:
192,192,302780,128,0,302973:0:0:0:0:
448,192,304134,128,0,304199:0:0:0:0:
320,192,304199,128,0,304328:0:0:0:0:
192,192,304328,128,0,304522:0:0:0:0:
64,192,304522,128,0,304667:0:0:0:0:
448,192,304522,1,0,0:0:0:0:
64,192,305683,1,0,0:0:0:0:
192,192,305683,128,0,305828:0:0:0:0:
320,192,305876,128,0,306070:0:0:0:0:
192,192,306651,128,0,306747:0:0:0:0:
320,192,307231,1,0,0:0:0:0:
448,192,307618,1,0,0:0:0:0:
64,192,307618,128,0,307764:0:0:0:0:
320,192,308780,1,0,0:0:0:0:
64,192,308780,128,0,308925:0:0:0:0:
448,192,308828,1,0,0:0:0:0:
192,192,308973,128,0,309070:0:0:0:0:
320,192,310328,128,0,310393:0:0:0:0:
192,192,310393,128,0,310522:0:0:0:0:
64,192,310522,128,0,310715:0:0:0:0:
320,192,310715,128,0,310860:0:0:0:0:
448,192,310715,1,0,0:0:0:0:
64,192,311296,128,0,311489:0:0:0:0:
192,192,311489,128,0,311683:0:0:0:0:
320,192,311683,128,0,311876:0:0:0:0:
448,192,311731,1,0,0:0:0:0:
192,192,311780,1,0,0:0:0:0:
64,192,311828,1,0,0:0:0:0:
448,192,311876,128,0,312264:0:0:0:0:
64,192,312844,1,0,0:0:0:0:
448,192,313038,128,0,313167:0:0:0:0:
320,192,313167,128,0,313296:0:0:0:0:
192,192,313296,128,0,313425:0:0:0:0:
64,192,313425,128,0,313554:0:0:0:0:
320,192,313618,1,0,0:0:0:0:
448,192,313941,1,0,0:0:0:0:
192,192,314005,1,0,0:0:0:0:
64,192,314167,128,0,314264:0:0:0:0:
320,192,314425,128,0,314522:0:0:0:0:
320,192,314941,1,0,0:0:0:0:
448,192,315005,128,0,322328:0:0:0:0:
