osu file format v14

[General]
AudioFilename: audio.mp3
AudioLeadIn: 0
PreviewTime: 86483
Countdown: 0
SampleSet: Normal
StackLeniency: 0.2
Mode: 1
LetterboxInBreaks: 0
WidescreenStoryboard: 0

[Editor]
Bookmarks: 49543,86530,134530,140530,164530,178030,188530,282279
DistanceSpacing: 0.3
BeatDivisor: 8
GridSize: 32
TimelineZoom: 1.9

[Metadata]
Title:We Could Get More Machinegun Psystyle! (And More Genre Switches)
TitleUnicode:We Could Get More Machinegun Psystyle! (And More Genre Switches)
Artist:Camellia
ArtistUnicode:かめりあ
Creator:Alchyr
Version:Relentless
Source:
Tags:featured artist fa blackmagik blackmagic blazing comiket 96 c96 かめるかめりあ kamelcamellia cametek osu!
BeatmapID:2139297
BeatmapSetID:1022545

[Difficulty]
HPDrainRate:4
CircleSize:2
OverallDifficulty:7
ApproachRate:10
SliderMultiplier:1.4
SliderTickRate:1

[Events]
//Background and Video events
0,0,"h.jpg",0,-100
//Break Periods
//Storyboard Layer 0 (Background)
//Storyboard Layer 1 (Fail)
//Storyboard Layer 2 (Pass)
//Storyboard Layer 3 (Foreground)
//Storyboard Layer 4 (Overlay)
//Storyboard Sound Samples

[TimingPoints]
1543,375,4,1,0,60,1,0
13543,-50,4,1,0,80,0,0
13730,-66.6666666666667,4,1,0,80,0,0
25543,-50,4,1,0,80,0,0
26293,-66.6666666666667,4,1,0,80,0,0
27043,-50,4,1,0,80,0,0
27793,-66.6666666666667,4,1,0,80,0,0
28543,-50,4,1,0,80,0,0
29293,-66.6666666666667,4,1,0,80,0,0
30043,-50,4,1,0,80,0,0
30793,-66.6666666666667,4,1,0,80,0,0
31543,-50,4,1,0,80,0,0
32293,-66.6666666666667,4,1,0,80,0,0
33043,-50,4,1,0,80,0,0
33793,-66.6666666666667,4,1,0,80,0,0
34543,-50,4,1,0,80,0,0
35293,-66.6666666666667,4,1,0,80,0,0
36043,-50,4,1,0,80,0,0
36793,-66.6666666666667,4,1,0,80,0,0
37543,-60.2409638554217,4,1,0,80,0,0
39793,-54.054054054054,4,1,0,80,0,0
40543,-60.2409638554217,4,1,0,80,0,0
42793,-54.054054054054,4,1,0,80,0,0
43543,-60.2409638554217,4,1,0,80,0,0
48980,-66.6666666666667,4,1,0,80,0,0
49074,-71.4285714285714,4,1,0,80,0,0
49168,-76.9230769230769,4,1,0,80,0,0
49355,-86.9565217391304,4,1,0,80,0,0
49543,352.941176470588,4,1,0,80,1,0
49631,-98.5507246379668,4,1,0,80,0,0
49719,342.857142857143,4,1,0,80,1,8
49804,-98.5915492953581,4,1,0,80,0,0
49890,333.333333333333,4,1,0,80,1,8
49973,-98.7166831194472,4,1,0,80,0,0
50056,324.324324324324,4,1,0,80,1,8
50137,-98.7166831194472,4,1,0,80,0,0
50218,315.789473684211,4,1,0,80,1,8
50296,-98.7166831194472,4,1,0,80,0,0
50375,307.692307692308,4,1,0,80,1,8
50451,-98.7166831194472,4,1,0,80,0,0
50528,300,4,1,0,80,1,8
50603,-98.7654320987654,4,1,0,80,0,0
50678,292.682926829268,4,1,0,80,1,8
50751,-98.7951807230106,4,1,0,80,0,0
50824,285.714285714286,4,1,0,80,1,0
50895,-98.8235294122298,4,1,0,80,0,0
50966,279.06976744186,4,1,0,80,1,8
51035,-98.8505747123255,4,1,0,80,0,0
51103,272.727272727273,4,1,0,80,1,8
51171,-98.8764044947375,4,1,0,80,0,0
51238,266.666666666667,4,1,0,80,1,8
51304,-99.009900990099,4,1,0,80,0,0
51370,260.869565217391,4,1,0,80,1,8
51435,-99.009900990099,4,1,0,80,0,0
51498,255.31914893617,4,1,0,80,1,8
51561,-99.009900990099,4,1,0,80,0,0
51623,250,4,1,0,80,1,8
51685,-99.009900990099,4,1,0,80,0,0
51746,244.897959183673,4,1,0,80,1,8
51807,-99.009900990099,4,1,0,80,0,0
51868,240,4,1,0,80,1,0
51928,-99.009900990099,4,1,0,80,0,0
51982,235.294117647059,4,1,0,80,1,8
52040,-99.009900990099,4,1,0,80,0,0
52097,230.769230769231,4,1,0,80,1,8
52154,-99.2063492063492,4,1,0,80,0,0
52206,226.415094339623,4,1,0,80,1,8
52262,-99.2063492063492,4,1,0,80,0,0
52315,222.222222222222,4,1,0,80,1,8
52370,-99.2063492063492,4,1,0,80,0,0
52424,218.181818181818,4,1,0,80,1,8
52478,-99.2063492063492,4,1,0,80,0,0
52531,214.285714285714,4,1,0,80,1,8
52584,-99.2063492063492,4,1,0,80,0,0
52636,210.526315789474,4,1,0,80,1,8
52688,-99.2063492063492,4,1,0,80,0,0
52741,206.896551724138,4,1,0,80,1,0
52792,-99.2063492063492,4,1,0,80,0,0
52844,203.389830508475,4,1,0,80,1,8
52894,-99.2063492063492,4,1,0,80,0,0
52945,200,4,1,0,80,1,8
52995,-99.502487562189,4,1,0,80,0,0
53045,198.347107438017,4,1,0,80,1,8
53094,-99.502487562189,4,1,0,80,0,0
53144,196.72131147541,4,1,0,80,1,8
53193,-99.502487562189,4,1,0,80,0,0
53242,195.121951219512,4,1,0,80,1,8
53290,-99.502487562189,4,1,0,80,0,0
53339,193.548387096774,4,1,0,80,1,8
53387,-99.502487562189,4,1,0,80,0,0
53435,192,4,1,0,80,1,8
53483,-99.502487562189,4,1,0,80,0,0
53531,190.47619047619,4,1,0,80,1,0
53578,-99.502487562189,4,1,0,80,0,0
53626,188.976377952756,4,1,0,80,1,8
53673,-99.502487562189,4,1,0,80,0,0
53720,187.5,4,1,0,80,1,8
54282,187.5,4,1,0,80,1,0
56530,375,4,1,0,80,1,0
56530,-50,4,1,0,80,0,0
62530,-50,4,1,0,80,0,1
73780,-50,4,1,0,80,0,0
74530,-50,4,1,0,80,0,1
85030,-50,4,1,0,80,0,0
85592,-60.2409638554217,4,1,0,80,0,0
86248,-43.859649122807,4,1,0,80,0,0
86530,-50,4,1,0,80,0,1
98530,-50,4,1,0,80,0,0
98905,-52.1739130433875,4,1,0,80,0,0
99280,-54.5454545455537,4,1,0,80,0,0
99655,-57.1428571428571,4,1,0,80,0,0
100030,-60,4,1,0,80,0,0
100405,-63.1578947369751,4,1,0,80,0,0
100780,-66.6666666666667,4,1,0,80,0,0
101155,-70.5882352939516,4,1,0,80,0,0
101530,-75.0000000001875,4,1,0,80,0,0
101905,-80,4,1,0,80,0,0
102280,-85.7142857140408,4,1,0,80,0,0
102655,-92.3076923079763,4,1,0,80,0,0
103030,-100,4,1,0,80,0,0
103311,-76.9230769230769,4,1,0,80,0,0
104530,-66.6666666666667,4,1,0,80,0,0
104717,-65.9740273449148,4,1,0,80,0,0
104811,-65.6330769705347,4,1,0,80,0,0
104905,-65.295632505733,4,1,0,80,0,0
104998,-64.9616401514905,4,1,0,80,0,0
105092,-64.6310472039316,4,1,0,80,0,0
105280,-63.9798540235651,4,1,0,80,0,0
105467,-63.3416522036561,4,1,0,80,0,0
105561,-63.0273021667526,4,1,0,80,0,0
105655,-62.7160568157302,4,1,0,80,0,0
105748,-62.4078703813495,4,1,0,80,0,0
105842,-62.1026979896115,4,1,0,80,0,0
106030,-61.5012201842084,4,1,0,80,0,0
106217,-60.9112815002692,4,1,0,80,0,0
106311,-60.6205360552762,4,1,0,80,0,0
106405,-60.3325530323141,4,1,0,80,0,0
106498,-60.0472932481623,4,1,0,80,0,0
106592,-59.7647182571652,4,1,0,80,0,0
106780,-59.2074724566838,4,1,0,80,0,0
106967,-58.6605221725042,4,1,0,80,0,0
107061,-58.3908190947321,4,1,0,80,0,0
107155,-58.1235846907128,4,1,0,80,0,0
107248,-57.858785220089,4,1,0,80,0,0
107342,-57.5963875545726,4,1,0,80,0,0
107530,-57.0786355238021,4,1,0,80,0,0
107623,-56.8232507104327,4,1,0,80,0,0
107717,-56.5701410350186,4,1,0,80,0,0
107811,-56.3192762297173,4,1,0,80,0,0
107905,-56.0706265612165,4,1,0,80,0,0
107998,-55.8241628189862,4,1,0,80,0,0
108092,-55.5798563038395,4,1,0,80,0,0
108186,-55.3376788167919,4,1,0,80,0,0
108280,-55.0976026482112,4,1,0,80,0,0
108373,-54.8596005672483,4,1,0,80,0,0
108467,-54.6236458115408,4,1,0,80,0,0
108561,-54.3897120771812,4,1,0,80,0,0
108655,-54.1577735089417,4,1,0,80,0,0
108748,-53.9278046907483,4,1,0,80,0,0
108842,-53.6997806363961,4,1,0,80,0,0
108936,-53.4736767804996,4,1,0,80,0,0
109030,-53.2494689696707,4,1,0,80,0,0
109076,-53.1380686437571,4,1,0,80,0,0
109123,-53.027133453917,4,1,0,80,0,0
109170,-52.9166604930563,4,1,0,80,0,0
109217,-52.8066468782559,4,1,0,80,0,0
109264,-52.6970897505214,4,1,0,80,0,0
109311,-52.5879862745356,4,1,0,80,0,0
109358,-52.4793336384132,4,1,0,80,0,0
109405,-52.3711290534599,4,1,0,80,0,0
109451,-52.2633697539336,4,1,0,80,0,0
109498,-52.1560529968086,4,1,0,80,0,0
109545,-52.0491760615429,4,1,0,80,0,0
109592,-51.9427362498487,4,1,0,80,0,0
109639,-51.8367308854647,4,1,0,80,0,0
109686,-51.7311573139321,4,1,0,80,0,0
109733,-51.6260129023731,4,1,0,80,0,0
109780,-51.5212950392721,4,1,0,80,0,0
109826,-51.417001134259,4,1,0,80,0,0
109873,-51.3131286178963,4,1,0,80,0,0
109920,-51.2096749414673,4,1,0,80,0,0
109967,-51.1066375767686,4,1,0,80,0,0
110014,-51.004014015903,4,1,0,80,0,0
110061,-50.9018017710773,4,1,0,80,0,0
110108,-50.7999983744001,4,1,0,80,0,0
110155,-50.6986013776838,4,1,0,80,0,0
110201,-50.5976083522484,4,1,0,80,0,0
110248,-50.4970168887273,4,1,0,80,0,0
110295,-50.3968245968758,4,1,0,80,0,0
110342,-50.2970291053818,4,1,0,80,0,0
110389,-50.1976280616788,4,1,0,80,0,0
110436,-50.0986191317609,4,1,0,80,0,0
110483,-50,4,1,0,80,0,0
110530,-50,4,1,0,10,0,0
110905,-52.6315789473684,4,1,0,10,0,0
112030,-55.5555555555556,4,1,0,10,0,0
113530,-58.8235294117647,4,1,0,10,0,0
115030,-62.5,4,1,0,10,0,0
115967,-62.5,4,1,0,20,0,0
116061,-62.5,4,1,0,30,0,0
116155,-62.5,4,1,0,40,0,0
116248,-62.5,4,1,0,50,0,0
116342,-62.5,4,1,0,60,0,0
116436,-62.5,4,1,0,70,0,0
116530,-62.5,4,1,0,80,0,0
116717,-66.6666666666667,4,1,0,50,0,0
119530,-58.8235294117647,4,1,0,50,0,0
119905,-66.6666666666667,4,1,0,50,0,0
122530,-58.8235294117647,4,1,0,80,0,0
122905,-66.6666666666667,4,1,0,50,0,0
128155,-58.8235294117647,4,1,0,60,0,0
128530,-66.6666666666667,4,1,0,70,0,0
134530,-58.8235294117647,4,1,0,80,0,0
137530,-58.8235294117647,4,1,0,80,0,0
137623,-58.1395348837209,4,1,0,80,0,0
137717,-57.4712643678161,4,1,0,80,0,0
137811,-56.8181818181818,4,1,0,80,0,0
137905,-56.1797752808989,4,1,0,80,0,0
137998,-55.5555555555556,4,1,0,80,0,0
138092,-54.9450549450549,4,1,0,80,0,0
138186,-54.3478260869565,4,1,0,80,0,0
138280,-53.763440860215,4,1,0,80,0,0
138373,-53.1914893617021,4,1,0,80,0,0
138467,-52.6315789473684,4,1,0,80,0,0
138561,-52.0833333333333,4,1,0,80,0,0
138655,-51.5463917525773,4,1,0,80,0,0
138748,-51.0204081632653,4,1,0,80,0,0
138842,-50.5050505050505,4,1,0,80,0,0
138936,-50,4,1,0,80,0,0
139030,-50,4,1,0,80,0,0
139592,-66.6666666666667,4,1,0,80,0,0
140530,-58.8235294117647,4,1,0,80,0,0
140717,-66.6666666666667,4,1,0,80,0,0
146530,-58.8235294117647,4,1,0,80,0,0
146717,-66.6666666666667,4,1,0,80,0,0
150467,-58.8235294117647,4,1,0,80,0,0
150655,-66.6666666666667,4,1,0,80,0,0
150748,-62.5,4,1,0,80,0,0
150842,-58.8235294117647,4,1,0,80,0,0
151217,-66.6666666666667,4,1,0,80,0,0
151780,-66.6666666666667,4,1,0,80,0,0
151905,-69.4444444444444,4,1,0,80,0,0
152030,-72.463768115942,4,1,0,80,0,0
152155,-75.7575757575758,4,1,0,80,0,0
152280,-79.3650793650794,4,1,0,80,0,0
152405,-83.3333333333333,4,1,0,80,0,0
152530,-87.719298245614,4,1,0,80,0,0
155905,-66.6666666666667,4,1,0,80,0,0
156092,-87.719298245614,4,1,0,80,0,0
156530,-79.3650793650794,4,1,0,80,0,0
156592,-72.463768115942,4,1,0,80,0,0
156655,-66.6666666666667,4,1,0,80,0,0
157030,-58.8235294117647,4,1,0,80,0,0
157967,-43.859649122807,4,1,0,80,0,0
158530,-58.8235294117647,4,1,0,80,0,0
159561,-54.054054054054,4,1,0,80,0,0
160030,-58.8235294117647,4,1,0,80,0,0
161061,-54.054054054054,4,1,0,80,0,0
161530,-58.8235294117647,4,1,0,80,0,0
162561,-58.8235294117647,4,1,0,80,0,0
162608,-57.8199117899426,4,1,0,80,0,0
162655,-56.8499661174202,4,1,0,80,0,0
162701,-55.9119945206245,4,1,0,80,0,0
162748,-55.0045021184984,4,1,0,80,0,0
162795,-54.1259977451109,4,1,0,80,0,0
162842,-53.2751142884389,4,1,0,80,0,0
162889,-52.4505692722536,4,1,0,80,0,0
162936,-51.6511317279473,4,1,0,80,0,0
162983,-50.8757238343609,4,1,0,80,0,0
163030,-50.1232530793221,4,1,0,80,0,0
163311,-53.475935828877,4,1,0,80,0,0
163592,-57.4712643678161,4,1,0,80,0,0
163780,-62.5,4,1,0,80,0,0
163967,-50,4,1,0,80,0,0
164905,-75.187969924812,4,1,0,50,0,0
178030,-71.4285714285714,4,1,0,80,0,0
188530,-58.8235294117647,4,1,0,80,0,0
188717,-66.6666666666667,4,1,0,80,0,0
200530,-50,4,1,0,80,0,0
201280,-66.6666666666667,4,1,0,80,0,0
202030,-50,4,1,0,80,0,0
202780,-66.6666666666667,4,1,0,80,0,0
203530,-50,4,1,0,80,0,0
204280,-66.6666666666667,4,1,0,80,0,0
205030,-50,4,1,0,80,0,0
205780,-66.6666666666667,4,1,0,80,0,0
206530,-50,4,1,0,80,0,0
207280,-66.6666666666667,4,1,0,80,0,0
208030,-50,4,1,0,80,0,0
208780,-66.6666666666667,4,1,0,80,0,0
209530,-50,4,1,0,80,0,0
210280,-66.6666666666667,4,1,0,80,0,0
211030,-50,4,1,0,80,0,0
211780,-66.6666666666667,4,1,0,80,0,0
212530,-60.2409638554217,4,1,0,80,0,0
214780,-54.054054054054,4,1,0,80,0,0
215530,-60.2409638554217,4,1,0,80,0,0
217780,-54.054054054054,4,1,0,80,0,0
218530,-60.2409638554217,4,1,0,80,0,0
223967,-66.6666666666667,4,1,0,80,0,0
224061,-71.4285714285714,4,1,0,80,0,0
224155,-76.9230769230769,4,1,0,80,0,0
224342,-86.9565217391304,4,1,0,80,0,0
224530,-100,4,1,0,80,0,0
224619,-101.010101010101,4,1,0,80,0,0
224716,384.615384615385,4,1,0,80,1,8
224812,-101.010101010101,4,1,0,80,0,0
224908,394.736842105263,4,1,0,80,1,8
225006,-101.010101010101,4,1,0,80,0,0
225100,405.405405405405,4,1,0,80,1,8
225201,-101.010101010101,4,1,0,80,0,0
225302,410.958904109589,4,1,0,80,1,8
225404,-101.010101010101,4,1,0,80,0,0
225507,416.666666666667,4,1,0,80,1,8
225611,-101.010101010101,4,1,0,80,0,0
225715,422.535211267606,4,1,0,80,1,8
225820,-101.010101010101,4,1,0,80,0,0
225926,428.571428571429,4,1,0,80,1,8
226033,-101.010101010101,4,1,0,80,0,0
226140,434.782608695652,4,1,0,80,1,0
226248,-101.010101010101,4,1,0,80,0,0
226357,441.176470588235,4,1,0,80,1,8
226467,-101.010101010101,4,1,0,80,0,0
226577,451.127819548872,4,1,0,80,1,8
226689,-101.010101010101,4,1,0,80,0,0
226802,461.538461538462,4,1,0,80,1,8
226917,-101.010101010101,4,1,0,80,0,0
227032,472.44094488189,4,1,0,80,1,8
227150,-101.010101010101,4,1,0,80,0,0
227268,483.870967741935,4,1,0,80,1,8
227388,-101.010101010101,4,1,0,80,0,0
227509,497.92531120332,4,1,0,80,1,8
227633,-101.522842639594,4,1,0,80,0,0
227757,512.820512820513,4,1,0,80,1,8
227885,-101.522842639594,4,1,0,80,0,0
228013,528.63436123348,4,1,0,80,1,0
228145,-101.522842639594,4,1,0,80,0,0
228277,545.454545454546,4,1,0,80,1,8
228413,-102.040816326531,4,1,0,80,0,0
228549,566.037735849057,4,1,0,80,1,8
228690,-102.040816326531,4,1,0,80,0,0
228832,588.235294117647,4,1,0,80,1,8
228979,-102.040816326531,4,1,0,80,0,0
229126,612.244897959184,4,1,0,80,1,8
229279,-102.040816326531,4,1,0,80,0,0
229432,638.297872340426,4,1,0,80,1,8
229591,-102.040816326531,4,1,0,80,0,0
229751,666.666666666667,4,1,0,80,1,8
229917,-102.040816326531,4,1,0,80,0,0
230084,697.674418604651,4,1,0,80,1,8
230258,-102.040816326531,4,1,0,80,0,0
230432,731.707317073171,4,1,0,80,1,0
230614,-102.564102564103,4,1,0,80,0,0
230797,769.230769230769,4,1,0,80,1,8
230989,-102.564102564103,4,1,0,80,0,0
231181,816.326530612245,4,1,0,80,1,8
231385,-103.092783505155,4,1,0,80,0,0
231589,875.912408759124,4,1,0,80,1,8
231807,-104.166666666667,4,1,0,80,0,0
232026,952.380952380952,4,1,0,80,1,8
232264,1016.94915254237,4,1,0,80,1,8
232518,1071.42857142857,4,1,0,80,1,8
232785,1153.84615384615,4,1,0,80,1,8
233073,1250,4,1,0,80,1,8
233385,1333.33333333333,4,1,0,80,1,8
233718,1500,4,1,0,80,1,8
234093,1739.13043478261,4,1,0,80,1,8
234527,1875,4,1,0,80,1,0
238277,468.75,4,1,0,80,1,0
238277,-150.01500150015,4,1,0,80,0,0
245777,-58.8235294117647,4,1,0,80,0,0
246011,-66.6666666666667,4,1,0,80,0,0
247652,-58.8235294117647,4,1,0,80,0,0
247886,-66.6666666666667,4,1,0,80,0,0
253277,-50,4,1,0,80,0,1
267339,-50,4,1,0,80,0,0
268277,-50,4,1,0,80,0,1
275777,-50,4,1,0,80,0,1
275835,-49.867377708983,4,1,0,80,0,1
275894,-49.7354571036656,4,1,0,80,0,1
275952,-49.6042326299618,4,1,0,80,0,1
276011,-49.4736743157915,4,1,0,80,0,1
276128,-49.2146571091803,4,1,0,80,0,1
276245,458.015267175573,4,1,0,80,1,9
276245,-50.105798968252,4,1,0,80,0,1
276359,-49.8461906369159,4,1,0,80,0,1
276474,-49.5892345784294,4,1,0,80,0,1
276588,-49.3349379214334,4,1,0,80,0,1
276703,447.761194029851,4,1,0,80,1,9
276703,-50.2072796299085,4,1,0,80,0,1
276814,-49.9524035605477,4,1,0,80,0,1
276926,-49.7001257606048,4,1,0,80,0,1
277038,-49.4503833452762,4,1,0,80,0,1
277150,437.956204379562,4,1,0,80,1,9
277150,-50.3046774390645,4,1,0,80,0,1
277259,-50.0544124345624,4,1,0,80,0,1
277368,-49.8066252322079,4,1,0,80,0,1
277478,-49.5612792152526,4,1,0,80,0,1
277587,428.571428571429,4,1,0,80,1,1
277587,-50.398278878617,4,1,0,80,0,1
277640,-50.2750591579439,4,1,0,80,0,1
277694,-50.1524404922666,4,1,0,80,0,1
277747,-50.0304184944446,4,1,0,80,0,1
277801,-49.9089888199302,4,1,0,80,0,1
277908,-49.6678667180109,4,1,0,80,0,1
278015,419.58041958042,4,1,0,80,1,9
278015,-50.4882802790715,4,1,0,80,0,1
278119,-50.2467162962736,4,1,0,80,0,1
278224,-50.0074304747044,4,1,0,80,0,1
278329,-49.7704350863218,4,1,0,80,0,1
278434,410.958904109589,4,1,0,80,1,9
278434,-50.5748854153226,4,1,0,80,0,1
278536,-50.3374512402486,4,1,0,80,0,1
278639,-50.1022140072283,4,1,0,80,0,1
278742,-49.8691869743105,4,1,0,80,0,1
278844,402.684563758389,4,1,0,80,1,9
278844,-50.6582829678938,4,1,0,80,0,1
278944,-50.4248192882772,4,1,0,80,0,1
279045,-50.1935192607288,4,1,0,80,0,1
279146,-49.9643315032662,4,1,0,80,0,1
279246,396.039603960396,4,1,0,80,1,1
279246,-50.5717228402009,4,1,0,80,0,1
279295,-50.4570509582244,4,1,0,80,0,1
279345,-50.3428979389757,4,1,0,80,0,1
279394,-50.2292602688103,4,1,0,80,0,1
279444,-50.116134465737,4,1,0,80,0,1
279543,-49.8914046890412,4,1,0,80,0,1
279642,389.61038961039,4,1,0,80,1,9
279642,-50.4882753897537,4,1,0,80,0,1
279690,-50.3758324966147,4,1,0,80,0,1
279739,-50.263889335679,4,1,0,80,0,1
279788,-50.1524425828784,4,1,0,80,0,1
279836,-50.0414889435605,4,1,0,80,0,1
279934,-49.8210273411587,4,1,0,80,0,1
280031,382.165605095541,4,1,0,80,1,9
280031,-50.5688030502174,4,1,0,80,0,1
280078,-50.4581523096233,4,1,0,80,0,1
280126,-50.3479847465489,4,1,0,80,0,1
280174,-50.2382972030593,4,1,0,80,0,1
280222,-50.1290660611433,4,1,0,80,0,1
280317,-49.9120632103154,4,1,0,80,0,1
280413,377.358490566038,4,1,0,80,1,9
280413,-50.3300129452592,4,1,0,80,0,1
280460,-50.2217793777321,4,1,0,80,0,1
280507,-50.1140103190231,4,1,0,80,0,1
280554,-50.0066826540442,4,1,0,80,0,1
280601,-49.8998337726695,4,1,0,80,0,1
280696,-49.6875,4,1,0,80,0,0
280779,375,4,1,0,80,1,0
280779,-50,4,1,0,80,0,0
280966,-66.6666666666667,4,1,0,80,0,0
281904,-46.7289719626168,4,1,0,80,0,0
282091,-52.6315789473684,4,1,0,80,0,0
282279,-50,4,1,0,80,0,1
294279,-43.859649122807,4,1,0,80,0,0
294466,-57.1428571428571,4,1,0,80,0,0
294654,-50,4,1,0,80,0,1
306279,-50,4,1,0,80,0,0
306654,-66.6666666666667,4,1,0,50,0,0

[HitObjects]
320,64,1543,5,8,0:0:0:0:
64,64,1636,1,0,0:0:0:0:
64,64,1824,1,0,0:0:0:0:
64,64,2105,1,0,0:0:0:0:
320,64,2293,1,8,0:0:0:0:
64,64,3043,1,0,0:0:0:0:
64,64,3136,1,0,0:0:0:0:
64,64,3324,1,0,0:0:0:0:
320,64,3605,1,8,0:0:0:0:
320,64,3793,1,8,0:0:0:0:
64,64,4074,1,0,0:0:0:0:
64,64,4355,1,0,0:0:0:0:
320,64,4543,1,8,0:0:0:0:
64,64,4636,1,0,0:0:0:0:
64,64,4824,1,0,0:0:0:0:
64,64,5105,1,0,0:0:0:0:
320,64,5293,1,8,0:0:0:0:
64,64,6043,1,0,0:0:0:0:
64,64,6136,1,0,0:0:0:0:
64,64,6324,1,0,0:0:0:0:
320,64,6605,1,8,0:0:0:0:
320,64,6793,1,8,0:0:0:0:
64,64,7074,1,0,0:0:0:0:
64,64,7355,1,0,0:0:0:0:
320,64,7543,1,8,0:0:0:0:
64,64,7636,1,0,0:0:0:0:
64,64,7824,1,0,0:0:0:0:
64,64,8105,1,0,0:0:0:0:
320,64,8293,1,8,0:0:0:0:
64,64,9043,1,0,0:0:0:0:
64,64,9136,1,0,0:0:0:0:
64,64,9324,1,0,0:0:0:0:
320,64,9605,1,8,0:0:0:0:
320,64,9793,1,8,0:0:0:0:
64,64,10074,1,0,0:0:0:0:
64,64,10355,1,0,0:0:0:0:
320,64,10543,1,8,0:0:0:0:
64,64,10636,1,0,0:0:0:0:
64,64,10824,1,0,0:0:0:0:
64,64,11105,1,0,0:0:0:0:
320,64,11293,1,8,0:0:0:0:
64,64,11574,1,0,0:0:0:0:
320,64,11855,1,8,0:0:0:0:
320,64,12043,1,8,0:0:0:0:
64,64,12136,1,0,0:0:0:0:
64,64,12324,1,0,0:0:0:0:
320,64,12605,1,8,0:0:0:0:
320,64,12793,1,8,0:0:0:0:
64,64,12980,1,0,0:0:0:0:
320,64,13074,1,8,0:0:0:0:
320,64,13355,1,8,0:0:0:0:
64,64,13543,1,4,0:0:0:0:
320,64,13730,1,8,0:0:0:0:
64,64,13824,1,0,0:0:0:0:
64,64,14011,1,0,0:0:0:0:
320,64,14105,1,8,0:0:0:0:
64,64,14293,1,0,0:0:0:0:
320,64,14480,1,8,0:0:0:0:
64,64,14574,1,0,0:0:0:0:
64,64,14761,1,0,0:0:0:0:
320,64,14855,1,8,0:0:0:0:
64,64,15043,1,0,0:0:0:0:
320,64,15230,1,8,0:0:0:0:
64,64,15324,1,0,0:0:0:0:
64,64,15511,1,0,0:0:0:0:
320,64,15605,1,8,0:0:0:0:
64,64,15793,1,0,0:0:0:0:
64,64,16168,1,0,0:0:0:0:
64,64,16355,1,0,0:0:0:0:
320,64,16543,1,8,0:0:0:0:
64,64,16730,1,0,0:0:0:0:
320,64,16824,1,8,0:0:0:0:
320,64,17011,1,8,0:0:0:0:
64,64,17105,1,0,0:0:0:0:
320,64,17293,1,8,0:0:0:0:
64,64,17480,1,0,0:0:0:0:
320,64,17574,1,8,0:0:0:0:
320,64,17761,1,8,0:0:0:0:
64,64,17855,1,0,0:0:0:0:
320,64,18043,1,8,0:0:0:0:
64,64,18230,1,0,0:0:0:0:
320,64,18324,1,8,0:0:0:0:
320,64,18511,1,8,0:0:0:0:
64,64,18605,1,0,0:0:0:0:
320,64,18793,1,8,0:0:0:0:
64,64,18918,1,0,0:0:0:0:
320,64,18980,1,8,0:0:0:0:
64,64,19168,1,0,0:0:0:0:
320,64,19355,1,8,0:0:0:0:
64,64,19543,1,0,0:0:0:0:
320,64,19730,1,8,0:0:0:0:
64,64,19824,1,0,0:0:0:0:
64,64,20011,1,0,0:0:0:0:
320,64,20105,1,8,0:0:0:0:
64,64,20293,1,0,0:0:0:0:
320,64,20480,1,8,0:0:0:0:
64,64,20574,1,0,0:0:0:0:
64,64,20761,1,0,0:0:0:0:
320,64,20855,1,8,0:0:0:0:
64,64,21043,1,0,0:0:0:0:
320,64,21230,1,8,0:0:0:0:
64,64,21324,1,0,0:0:0:0:
64,64,21511,1,0,0:0:0:0:
320,64,21605,1,8,0:0:0:0:
64,64,21793,1,0,0:0:0:0:
64,64,22168,1,0,0:0:0:0:
64,64,22355,1,0,0:0:0:0:
320,64,22543,1,8,0:0:0:0:
64,64,22730,1,0,0:0:0:0:
320,64,22824,1,8,0:0:0:0:
320,64,23011,1,8,0:0:0:0:
64,64,23105,1,0,0:0:0:0:
320,64,23293,1,8,0:0:0:0:
64,64,23480,1,0,0:0:0:0:
320,64,23574,1,8,0:0:0:0:
320,64,23761,1,8,0:0:0:0:
64,64,23855,1,0,0:0:0:0:
320,64,24043,1,8,0:0:0:0:
64,64,24230,1,0,0:0:0:0:
320,64,24324,1,8,0:0:0:0:
320,64,24511,1,8,0:0:0:0:
64,64,24605,1,0,0:0:0:0:
320,64,24793,1,8,0:0:0:0:
64,64,24918,1,0,0:0:0:0:
320,64,24980,1,8,0:0:0:0:
64,64,25168,1,0,0:0:0:0:
320,64,25355,1,8,0:0:0:0:
64,64,25543,1,4,0:0:0:0:
64,64,25824,1,4,0:0:0:0:
64,64,26105,1,4,0:0:0:0:
320,64,26293,1,8,0:0:0:0:
320,64,26355,1,8,0:0:0:0:
320,64,26418,1,8,0:0:0:0:
64,64,26480,1,0,0:0:0:0:
320,64,26574,1,8,0:0:0:0:
320,64,26636,1,8,0:0:0:0:
320,64,26699,1,8,0:0:0:0:
64,64,26761,1,0,0:0:0:0:
320,64,26855,1,8,0:0:0:0:
320,64,26918,1,8,0:0:0:0:
320,64,26980,1,8,0:0:0:0:
64,64,27043,1,4,0:0:0:0:
64,64,27324,1,4,0:0:0:0:
64,64,27605,1,4,0:0:0:0:
64,64,27793,1,0,0:0:0:0:
320,64,27839,1,8,0:0:0:0:
320,64,27886,1,8,0:0:0:0:
64,64,27980,1,0,0:0:0:0:
64,64,28074,1,0,0:0:0:0:
320,64,28121,1,8,0:0:0:0:
320,64,28168,1,8,0:0:0:0:
64,64,28261,1,0,0:0:0:0:
320,64,28355,1,8,0:0:0:0:
320,64,28402,1,8,0:0:0:0:
64,64,28449,1,0,0:0:0:0:
64,64,28543,1,4,0:0:0:0:
64,64,28824,1,4,0:0:0:0:
64,64,29105,1,4,0:0:0:0:
320,64,29293,1,8,0:0:0:0:
64,64,29339,1,0,0:0:0:0:
320,64,29480,1,8,0:0:0:0:
320,64,29574,1,8,0:0:0:0:
64,64,29621,1,0,0:0:0:0:
320,64,29761,1,8,0:0:0:0:
320,64,29855,1,8,0:0:0:0:
64,64,29902,1,0,0:0:0:0:
64,64,30043,1,4,0:0:0:0:
64,64,30324,1,4,0:0:0:0:
64,64,30605,1,4,0:0:0:0:
320,64,30793,1,8,0:0:0:0:
64,64,30839,1,0,0:0:0:0:
320,64,30886,1,8,0:0:0:0:
64,64,30933,1,0,0:0:0:0:
320,64,30980,1,8,0:0:0:0:
320,64,31043,1,8,0:0:0:0:
320,64,31105,1,8,0:0:0:0:
64,64,31168,1,0,0:0:0:0:
64,64,31261,1,0,0:0:0:0:
64,64,31355,1,0,0:0:0:0:
64,64,31543,1,4,0:0:0:0:
64,64,31824,1,4,0:0:0:0:
64,64,32105,1,4,0:0:0:0:
320,64,32293,1,8,0:0:0:0:
320,64,32355,1,8,0:0:0:0:
320,64,32418,1,8,0:0:0:0:
320,64,32480,1,8,0:0:0:0:
64,64,32574,1,0,0:0:0:0:
64,64,32636,1,0,0:0:0:0:
64,64,32699,1,0,0:0:0:0:
64,64,32761,1,0,0:0:0:0:
320,64,32855,1,8,0:0:0:0:
320,64,32918,1,8,0:0:0:0:
320,64,32980,1,8,0:0:0:0:
64,64,33043,1,4,0:0:0:0:
64,64,33324,1,4,0:0:0:0:
64,64,33605,1,4,0:0:0:0:
320,64,33793,1,8,0:0:0:0:
320,64,33824,1,8,0:0:0:0:
64,64,33980,1,0,0:0:0:0:
64,64,34011,1,0,0:0:0:0:
320,64,34074,1,8,0:0:0:0:
320,64,34105,1,8,0:0:0:0:
64,64,34261,1,0,0:0:0:0:
64,64,34293,1,0,0:0:0:0:
320,64,34355,1,8,0:0:0:0:
320,64,34386,1,8,0:0:0:0:
64,64,34449,1,0,0:0:0:0:
64,64,34543,1,4,0:0:0:0:
64,64,34824,1,4,0:0:0:0:
64,64,35105,1,4,0:0:0:0:
64,64,35293,1,0,0:0:0:0:
320,64,35339,1,8,0:0:0:0:
64,64,35480,1,0,0:0:0:0:
64,64,35574,1,0,0:0:0:0:
320,64,35621,1,8,0:0:0:0:
64,64,35761,1,0,0:0:0:0:
64,64,35855,1,0,0:0:0:0:
320,64,35902,1,8,0:0:0:0:
64,64,36043,1,4,0:0:0:0:
64,64,36324,1,4,0:0:0:0:
64,64,36605,1,4,0:0:0:0:
64,64,36793,1,0,0:0:0:0:
320,64,36886,1,8,0:0:0:0:
320,64,36980,1,8,0:0:0:0:
320,64,37168,1,8,0:0:0:0:
320,64,37355,1,8,0:0:0:0:
64,64,37543,1,4,0:0:0:0:
320,64,37824,1,8,0:0:0:0:
64,64,37918,1,0,0:0:0:0:
320,64,38105,1,8,0:0:0:0:
320,64,38199,1,8,0:0:0:0:
64,64,38293,1,0,0:0:0:0:
320,64,38386,1,8,0:0:0:0:
320,64,38574,1,8,0:0:0:0:
64,64,38668,1,0,0:0:0:0:
320,64,38855,1,8,0:0:0:0:
320,64,38949,1,8,0:0:0:0:
64,64,39043,1,0,0:0:0:0:
320,64,39136,1,8,0:0:0:0:
320,64,39324,1,8,0:0:0:0:
64,64,39418,1,0,0:0:0:0:
320,64,39605,1,8,0:0:0:0:
320,64,39699,1,8,0:0:0:0:
64,64,39793,1,0,0:0:0:0:
64,64,39839,1,0,0:0:0:0:
64,64,39886,1,0,0:0:0:0:
64,64,39933,1,0,0:0:0:0:
64,64,39980,1,0,0:0:0:0:
64,64,40074,1,0,0:0:0:0:
320,64,40168,1,8,0:0:0:0:
320,64,40214,1,8,0:0:0:0:
64,64,40261,1,0,0:0:0:0:
320,64,40355,1,8,0:0:0:0:
64,64,40543,1,0,0:0:0:0:
320,64,40636,1,8,0:0:0:0:
320,64,40824,1,8,0:0:0:0:
64,64,40918,1,0,0:0:0:0:
320,64,41011,1,8,0:0:0:0:
320,64,41105,1,8,0:0:0:0:
320,64,41199,1,8,0:0:0:0:
64,64,41293,1,0,0:0:0:0:
320,64,41386,1,8,0:0:0:0:
320,64,41574,1,8,0:0:0:0:
64,64,41668,1,0,0:0:0:0:
320,64,41761,1,8,0:0:0:0:
320,64,41855,1,8,0:0:0:0:
320,64,41949,1,8,0:0:0:0:
64,64,42043,1,0,0:0:0:0:
64,64,42136,1,0,0:0:0:0:
320,64,42230,1,8,0:0:0:0:
320,64,42324,1,8,0:0:0:0:
64,64,42418,1,0,0:0:0:0:
64,64,42511,1,0,0:0:0:0:
320,64,42605,1,8,0:0:0:0:
320,64,42699,1,8,0:0:0:0:
64,64,42793,1,0,0:0:0:0:
320,64,42839,1,8,0:0:0:0:
320,64,42886,1,8,0:0:0:0:
64,64,43074,1,0,0:0:0:0:
320,64,43121,1,8,0:0:0:0:
320,64,43168,1,8,0:0:0:0:
64,64,43355,1,0,0:0:0:0:
320,64,43402,1,8,0:0:0:0:
320,64,43449,1,8,0:0:0:0:
64,64,43543,1,0,0:0:0:0:
64,64,43636,1,0,0:0:0:0:
320,64,43730,1,8,0:0:0:0:
64,64,43824,1,0,0:0:0:0:
320,64,43918,1,8,0:0:0:0:
64,64,44011,1,0,0:0:0:0:
320,64,44105,1,8,0:0:0:0:
320,64,44152,1,8,0:0:0:0:
320,64,44199,1,8,0:0:0:0:
64,64,44293,1,0,0:0:0:0:
320,64,44386,1,8,0:0:0:0:
320,64,44433,1,8,0:0:0:0:
64,64,44480,1,0,0:0:0:0:
320,64,44574,1,8,0:0:0:0:
320,64,44621,1,8,0:0:0:0:
64,64,44668,1,0,0:0:0:0:
64,64,44761,1,0,0:0:0:0:
320,64,44855,1,8,0:0:0:0:
320,64,44902,1,8,0:0:0:0:
320,64,44949,1,8,0:0:0:0:
320,64,44996,1,8,0:0:0:0:
64,64,45043,1,0,0:0:0:0:
64,64,45136,1,0,0:0:0:0:
320,64,45230,1,8,0:0:0:0:
64,64,45324,1,0,0:0:0:0:
320,64,45418,1,8,0:0:0:0:
64,64,45511,1,0,0:0:0:0:
320,64,45605,1,8,0:0:0:0:
320,64,45652,1,8,0:0:0:0:
320,64,45699,1,8,0:0:0:0:
64,64,45793,1,0,0:0:0:0:
320,64,45886,1,8,0:0:0:0:
320,64,45933,1,8,0:0:0:0:
64,64,45980,1,0,0:0:0:0:
320,64,46074,1,8,0:0:0:0:
320,64,46121,1,8,0:0:0:0:
64,64,46168,1,0,0:0:0:0:
64,64,46261,1,0,0:0:0:0:
320,64,46355,1,8,0:0:0:0:
320,64,46402,1,8,0:0:0:0:
320,64,46449,1,8,0:0:0:0:
320,64,46496,1,8,0:0:0:0:
64,64,46543,1,0,0:0:0:0:
64,64,46636,1,0,0:0:0:0:
320,64,46730,1,8,0:0:0:0:
320,64,46777,1,8,0:0:0:0:
320,64,46824,1,8,0:0:0:0:
320,64,46871,1,8,0:0:0:0:
64,64,46918,1,0,0:0:0:0:
64,64,47011,1,0,0:0:0:0:
320,64,47105,1,8,0:0:0:0:
320,64,47152,1,8,0:0:0:0:
320,64,47199,1,8,0:0:0:0:
320,64,47246,1,8,0:0:0:0:
64,64,47293,1,0,0:0:0:0:
64,64,47386,1,0,0:0:0:0:
320,64,47480,1,8,0:0:0:0:
320,64,47527,1,8,0:0:0:0:
320,64,47574,1,8,0:0:0:0:
320,64,47621,1,8,0:0:0:0:
64,64,47668,1,0,0:0:0:0:
64,64,47761,1,0,0:0:0:0:
320,64,47855,1,8,0:0:0:0:
320,64,47902,1,8,0:0:0:0:
64,64,47949,1,0,0:0:0:0:
64,64,47996,1,0,0:0:0:0:
320,64,48043,1,8,0:0:0:0:
64,64,48089,1,0,0:0:0:0:
320,64,48136,1,8,0:0:0:0:
64,64,48183,1,0,0:0:0:0:
320,64,48230,1,8,0:0:0:0:
320,64,48277,1,8,0:0:0:0:
64,64,48324,1,0,0:0:0:0:
64,64,48371,1,0,0:0:0:0:
320,64,48418,1,8,0:0:0:0:
320,64,48464,1,8,0:0:0:0:
64,64,48511,1,0,0:0:0:0:
64,64,48558,1,0,0:0:0:0:
320,64,48605,1,8,0:0:0:0:
64,64,48652,1,0,0:0:0:0:
320,64,48699,1,8,0:0:0:0:
320,64,48746,1,8,0:0:0:0:
64,64,48793,1,0,0:0:0:0:
320,64,48980,1,8,0:0:0:0:
64,64,49074,1,0,0:0:0:0:
320,64,49168,1,8,0:0:0:0:
320,64,49355,1,8,0:0:0:0:
64,64,49543,1,0,0:0:0:0:
64,64,49631,1,0,0:0:0:0:
320,64,49719,1,8,0:0:0:0:
320,64,49804,1,8,0:0:0:0:
64,64,49890,1,0,0:0:0:0:
64,64,49973,1,0,0:0:0:0:
320,64,50056,1,8,0:0:0:0:
320,64,50137,1,8,0:0:0:0:
64,64,50218,1,0,0:0:0:0:
64,64,50296,1,0,0:0:0:0:
320,64,50375,1,8,0:0:0:0:
320,64,50451,1,8,0:0:0:0:
64,64,50528,1,0,0:0:0:0:
64,64,50603,1,0,0:0:0:0:
320,64,50678,1,8,0:0:0:0:
320,64,50751,1,8,0:0:0:0:
64,64,50824,1,0,0:0:0:0:
64,64,50895,1,0,0:0:0:0:
320,64,50966,1,8,0:0:0:0:
320,64,51035,1,8,0:0:0:0:
64,64,51103,1,0,0:0:0:0:
64,64,51171,1,0,0:0:0:0:
320,64,51238,1,8,0:0:0:0:
320,64,51304,1,8,0:0:0:0:
64,64,51370,1,0,0:0:0:0:
64,64,51435,1,0,0:0:0:0:
320,64,51498,1,8,0:0:0:0:
320,64,51561,1,8,0:0:0:0:
64,64,51623,1,0,0:0:0:0:
64,64,51685,1,0,0:0:0:0:
320,64,51746,1,8,0:0:0:0:
320,64,51807,1,8,0:0:0:0:
64,64,51868,1,0,0:0:0:0:
64,64,51928,1,0,0:0:0:0:
320,64,51982,1,8,0:0:0:0:
320,64,52040,1,8,0:0:0:0:
64,64,52097,1,0,0:0:0:0:
64,64,52154,1,0,0:0:0:0:
320,64,52206,1,8,0:0:0:0:
320,64,52262,1,8,0:0:0:0:
64,64,52315,1,0,0:0:0:0:
64,64,52370,1,0,0:0:0:0:
320,64,52424,1,8,0:0:0:0:
320,64,52478,1,8,0:0:0:0:
64,64,52531,1,0,0:0:0:0:
64,64,52584,1,0,0:0:0:0:
320,64,52636,1,8,0:0:0:0:
320,64,52688,1,8,0:0:0:0:
64,64,52741,1,0,0:0:0:0:
64,64,52792,1,0,0:0:0:0:
320,64,52844,1,8,0:0:0:0:
320,64,52894,1,8,0:0:0:0:
64,64,52945,1,0,0:0:0:0:
64,64,52995,1,0,0:0:0:0:
320,64,53045,1,8,0:0:0:0:
320,64,53094,1,8,0:0:0:0:
64,64,53144,1,0,0:0:0:0:
64,64,53193,1,0,0:0:0:0:
320,64,53242,1,8,0:0:0:0:
320,64,53290,1,8,0:0:0:0:
64,64,53339,1,0,0:0:0:0:
64,64,53387,1,0,0:0:0:0:
320,64,53435,1,8,0:0:0:0:
320,64,53483,1,8,0:0:0:0:
64,64,53531,1,0,0:0:0:0:
64,64,53578,1,0,0:0:0:0:
320,64,53626,1,8,0:0:0:0:
320,64,53673,1,8,0:0:0:0:
64,64,53720,1,0,0:0:0:0:
64,64,53766,1,0,0:0:0:0:
320,64,53813,1,8,0:0:0:0:
320,64,53860,1,8,0:0:0:0:
64,64,53907,1,0,0:0:0:0:
64,64,53954,1,0,0:0:0:0:
320,64,54001,1,8,0:0:0:0:
320,64,54048,1,8,0:0:0:0:
64,64,54095,1,0,0:0:0:0:
64,64,54141,1,0,0:0:0:0:
320,64,54188,1,8,0:0:0:0:
320,64,54235,1,8,0:0:0:0:
64,64,54282,1,0,0:0:0:0:
64,64,54328,1,0,0:0:0:0:
320,64,54375,1,8,0:0:0:0:
320,64,54422,1,8,0:0:0:0:
64,64,54469,1,0,0:0:0:0:
64,64,54516,1,0,0:0:0:0:
320,64,54563,1,8,0:0:0:0:
320,64,54610,1,8,0:0:0:0:
64,64,54657,1,0,0:0:0:0:
64,64,54703,1,0,0:0:0:0:
320,64,54750,1,8,0:0:0:0:
320,64,54797,1,8,0:0:0:0:
64,64,54844,1,0,0:0:0:0:
64,64,54891,1,0,0:0:0:0:
320,64,54938,1,8,0:0:0:0:
320,64,54985,1,8,0:0:0:0:
64,64,55032,1,0,0:0:0:0:
64,64,55078,1,0,0:0:0:0:
320,64,55125,1,8,0:0:0:0:
320,64,55172,1,8,0:0:0:0:
64,64,55219,1,0,0:0:0:0:
64,64,55266,1,0,0:0:0:0:
320,64,55313,1,8,0:0:0:0:
320,64,55360,1,8,0:0:0:0:
64,64,55407,1,0,0:0:0:0:
64,64,55453,1,0,0:0:0:0:
320,64,55500,1,8,0:0:0:0:
320,64,55547,1,8,0:0:0:0:
64,64,55594,1,0,0:0:0:0:
64,64,55641,1,0,0:0:0:0:
320,64,55688,1,8,0:0:0:0:
320,64,55735,1,8,0:0:0:0:
64,64,55782,1,0,0:0:0:0:
64,64,55828,1,0,0:0:0:0:
320,64,55875,1,8,0:0:0:0:
320,64,55922,1,8,0:0:0:0:
64,64,55969,1,0,0:0:0:0:
64,64,56016,1,0,0:0:0:0:
320,64,56063,1,8,0:0:0:0:
320,64,56110,1,8,0:0:0:0:
64,64,56157,1,0,0:0:0:0:
64,64,56203,1,0,0:0:0:0:
320,64,56250,1,8,0:0:0:0:
320,64,56297,1,8,0:0:0:0:
64,64,56344,1,0,0:0:0:0:
64,64,56391,1,0,0:0:0:0:
320,64,56438,1,8,0:0:0:0:
320,64,56485,1,8,0:0:0:0:
64,64,56530,1,0,0:0:0:0:
320,64,56717,1,8,0:0:0:0:
320,64,56811,1,8,0:0:0:0:
64,64,56905,1,0,0:0:0:0:
64,64,56998,1,0,0:0:0:0:
320,64,57092,1,8,0:0:0:0:
64,64,57280,1,0,0:0:0:0:
64,64,57467,1,0,0:0:0:0:
64,64,57561,1,0,0:0:0:0:
320,64,57655,1,8,0:0:0:0:
64,64,57748,1,0,0:0:0:0:
320,64,57842,1,8,0:0:0:0:
320,64,58030,1,8,0:0:0:0:
320,64,58217,1,8,0:0:0:0:
320,64,58311,1,8,0:0:0:0:
64,64,58405,1,0,0:0:0:0:
64,64,58498,1,0,0:0:0:0:
320,64,58592,1,8,0:0:0:0:
64,64,58780,1,0,0:0:0:0:
64,64,58967,1,0,0:0:0:0:
64,64,59061,1,0,0:0:0:0:
320,64,59155,1,8,0:0:0:0:
64,64,59248,1,0,0:0:0:0:
320,64,59342,1,8,0:0:0:0:
320,64,59530,1,8,0:0:0:0:
64,64,59623,1,0,0:0:0:0:
64,64,59717,1,0,0:0:0:0:
64,64,59811,1,0,0:0:0:0:
320,64,59905,1,8,0:0:0:0:
320,64,59951,1,8,0:0:0:0:
64,64,59998,1,0,0:0:0:0:
64,64,60045,1,0,0:0:0:0:
320,64,60092,1,8,0:0:0:0:
320,64,60186,1,8,0:0:0:0:
64,64,60280,1,0,0:0:0:0:
64,64,60373,1,0,0:0:0:0:
320,64,60467,1,8,0:0:0:0:
64,64,60561,1,0,0:0:0:0:
320,64,60655,1,8,0:0:0:0:
320,64,60701,1,8,0:0:0:0:
320,64,60748,1,8,0:0:0:0:
320,64,60795,1,8,0:0:0:0:
64,64,60842,1,0,0:0:0:0:
64,64,60936,1,0,0:0:0:0:
320,64,61030,1,8,0:0:0:0:
64,64,61217,1,0,0:0:0:0:
64,64,61311,1,0,0:0:0:0:
320,64,61405,1,8,0:0:0:0:
320,64,61451,1,8,0:0:0:0:
320,64,61498,1,8,0:0:0:0:
64,64,61592,1,0,0:0:0:0:
320,64,61780,1,8,0:0:0:0:
320,64,61826,1,8,0:0:0:0:
64,64,61873,1,0,0:0:0:0:
64,64,61920,1,0,0:0:0:0:
320,64,61967,1,8,0:0:0:0:
64,64,62061,1,0,0:0:0:0:
320,64,62155,1,8,0:0:0:0:
320,64,62248,1,8,0:0:0:0:
320,64,62342,1,8,0:0:0:0:
64,64,62436,1,0,0:0:0:0:
320,64,62530,1,8,0:0:0:0:
320,64,62576,1,8,0:0:0:0:
64,64,62623,1,0,0:0:0:0:
64,64,62670,1,0,0:0:0:0:
320,64,62717,1,8,0:0:0:0:
320,64,62764,1,8,0:0:0:0:
320,64,62811,1,8,0:0:0:0:
320,64,62858,1,8,0:0:0:0:
64,64,62905,1,0,0:0:0:0:
320,64,62998,1,8,0:0:0:0:
320,64,63045,1,8,0:0:0:0:
64,64,63092,1,0,0:0:0:0:
320,64,63186,1,8,0:0:0:0:
64,64,63280,1,0,0:0:0:0:
320,64,63373,1,8,0:0:0:0:
320,64,63420,1,8,0:0:0:0:
64,64,63467,1,0,0:0:0:0:
320,64,63561,1,8,0:0:0:0:
64,64,63655,1,0,0:0:0:0:
320,64,63748,1,8,0:0:0:0:
64,64,63795,1,0,0:0:0:0:
320,64,63842,1,8,0:0:0:0:
320,64,63936,1,8,0:0:0:0:
64,64,64030,1,0,0:0:0:0:
64,64,64076,1,0,0:0:0:0:
320,64,64123,1,8,0:0:0:0:
320,64,64170,1,8,0:0:0:0:
64,64,64217,1,0,0:0:0:0:
64,64,64264,1,0,0:0:0:0:
64,64,64311,1,0,0:0:0:0:
64,64,64358,1,0,0:0:0:0:
320,64,64405,1,8,0:0:0:0:
64,64,64498,1,0,0:0:0:0:
64,64,64545,1,0,0:0:0:0:
320,64,64592,1,8,0:0:0:0:
320,64,64686,1,8,0:0:0:0:
64,64,64780,1,0,0:0:0:0:
64,64,64873,1,0,0:0:0:0:
64,64,64920,1,0,0:0:0:0:
320,64,64967,1,8,0:0:0:0:
320,64,65061,1,8,0:0:0:0:
64,64,65155,1,0,0:0:0:0:
320,64,65248,1,8,0:0:0:0:
320,64,65295,1,8,0:0:0:0:
64,64,65342,1,0,0:0:0:0:
64,64,65436,1,0,0:0:0:0:
320,64,65530,1,8,0:0:0:0:
320,64,65576,1,8,0:0:0:0:
64,64,65623,1,0,0:0:0:0:
64,64,65670,1,0,0:0:0:0:
320,64,65717,1,8,0:0:0:0:
320,64,65764,1,8,0:0:0:0:
320,64,65811,1,8,0:0:0:0:
320,64,65858,1,8,0:0:0:0:
64,64,65905,1,0,0:0:0:0:
320,64,65998,1,8,0:0:0:0:
320,64,66045,1,8,0:0:0:0:
64,64,66092,1,0,0:0:0:0:
320,64,66186,1,8,0:0:0:0:
64,64,66280,1,0,0:0:0:0:
320,64,66373,1,8,0:0:0:0:
320,64,66420,1,8,0:0:0:0:
64,64,66467,1,0,0:0:0:0:
320,64,66561,1,8,0:0:0:0:
64,64,66655,1,0,0:0:0:0:
320,64,66748,1,8,0:0:0:0:
64,64,66795,1,0,0:0:0:0:
320,64,66842,1,8,0:0:0:0:
320,64,66936,1,8,0:0:0:0:
64,64,67030,1,0,0:0:0:0:
64,64,67076,1,0,0:0:0:0:
320,64,67123,1,8,0:0:0:0:
64,64,67170,1,0,0:0:0:0:
320,64,67217,1,8,0:0:0:0:
320,64,67264,1,8,0:0:0:0:
64,64,67311,1,0,0:0:0:0:
64,64,67405,1,0,0:0:0:0:
320,64,67498,1,8,0:0:0:0:
320,64,67545,1,8,0:0:0:0:
64,64,67592,1,0,0:0:0:0:
320,64,67686,1,8,0:0:0:0:
320,64,67733,1,8,0:0:0:0:
64,64,67780,1,0,0:0:0:0:
320,64,67873,1,8,0:0:0:0:
320,64,67967,1,8,0:0:0:0:
320,64,68061,1,8,0:0:0:0:
64,64,68248,1,0,0:0:0:0:
64,64,68342,1,0,0:0:0:0:
64,64,68436,1,0,0:0:0:0:
320,64,68530,1,8,0:0:0:0:
320,64,68576,1,8,0:0:0:0:
64,64,68623,1,0,0:0:0:0:
64,64,68670,1,0,0:0:0:0:
320,64,68717,1,8,0:0:0:0:
320,64,68764,1,8,0:0:0:0:
320,64,68811,1,8,0:0:0:0:
320,64,68858,1,8,0:0:0:0:
64,64,68905,1,0,0:0:0:0:
320,64,68998,1,8,0:0:0:0:
320,64,69045,1,8,0:0:0:0:
64,64,69092,1,0,0:0:0:0:
320,64,69186,1,8,0:0:0:0:
64,64,69280,1,0,0:0:0:0:
320,64,69373,1,8,0:0:0:0:
320,64,69420,1,8,0:0:0:0:
64,64,69467,1,0,0:0:0:0:
320,64,69561,1,8,0:0:0:0:
64,64,69655,1,0,0:0:0:0:
320,64,69748,1,8,0:0:0:0:
64,64,69795,1,0,0:0:0:0:
320,64,69842,1,8,0:0:0:0:
320,64,69936,1,8,0:0:0:0:
64,64,70030,1,0,0:0:0:0:
64,64,70076,1,0,0:0:0:0:
320,64,70123,1,8,0:0:0:0:
320,64,70170,1,8,0:0:0:0:
64,64,70217,1,0,0:0:0:0:
64,64,70264,1,0,0:0:0:0:
64,64,70311,1,0,0:0:0:0:
64,64,70358,1,0,0:0:0:0:
320,64,70405,1,8,0:0:0:0:
64,64,70498,1,0,0:0:0:0:
64,64,70545,1,0,0:0:0:0:
320,64,70592,1,8,0:0:0:0:
320,64,70686,1,8,0:0:0:0:
64,64,70780,1,0,0:0:0:0:
64,64,70873,1,0,0:0:0:0:
64,64,70920,1,0,0:0:0:0:
320,64,70967,1,8,0:0:0:0:
320,64,71061,1,8,0:0:0:0:
64,64,71155,1,0,0:0:0:0:
320,64,71248,1,8,0:0:0:0:
320,64,71295,1,8,0:0:0:0:
64,64,71342,1,0,0:0:0:0:
64,64,71436,1,0,0:0:0:0:
320,64,71530,1,8,0:0:0:0:
320,64,71576,1,8,0:0:0:0:
64,64,71623,1,0,0:0:0:0:
64,64,71670,1,0,0:0:0:0:
320,64,71717,1,8,0:0:0:0:
320,64,71764,1,8,0:0:0:0:
320,64,71811,1,8,0:0:0:0:
320,64,71858,1,8,0:0:0:0:
64,64,71905,1,0,0:0:0:0:
320,64,71998,1,8,0:0:0:0:
320,64,72045,1,8,0:0:0:0:
64,64,72092,1,0,0:0:0:0:
320,64,72186,1,8,0:0:0:0:
64,64,72280,1,0,0:0:0:0:
320,64,72373,1,8,0:0:0:0:
320,64,72420,1,8,0:0:0:0:
64,64,72467,1,0,0:0:0:0:
320,64,72561,1,8,0:0:0:0:
64,64,72655,1,0,0:0:0:0:
64,64,72748,1,0,0:0:0:0:
320,64,72842,1,8,0:0:0:0:
64,64,72936,1,0,0:0:0:0:
320,64,73030,1,8,0:0:0:0:
320,64,73123,1,8,0:0:0:0:
64,64,73217,1,0,0:0:0:0:
64,64,73264,1,0,0:0:0:0:
64,64,73311,1,0,0:0:0:0:
64,64,73358,1,0,0:0:0:0:
320,64,73405,1,8,0:0:0:0:
320,64,73498,1,8,0:0:0:0:
64,64,73592,1,0,0:0:0:0:
64,64,73686,1,0,0:0:0:0:
320,64,73780,1,8,0:0:0:0:
320,64,73967,1,8,0:0:0:0:
320,64,74014,1,8,0:0:0:0:
320,64,74155,1,8,0:0:0:0:
320,64,74201,1,8,0:0:0:0:
64,64,74342,1,0,0:0:0:0:
320,64,74530,1,8,0:0:0:0:
320,64,74576,1,8,0:0:0:0:
320,64,74623,1,8,0:0:0:0:
320,64,74670,1,8,0:0:0:0:
64,64,74717,1,0,0:0:0:0:
64,64,74764,1,0,0:0:0:0:
320,64,74811,1,8,0:0:0:0:
320,64,74858,1,8,0:0:0:0:
64,64,74905,1,0,0:0:0:0:
320,64,74998,1,8,0:0:0:0:
320,64,75045,1,8,0:0:0:0:
64,64,75092,1,0,0:0:0:0:
320,64,75186,1,8,0:0:0:0:
64,64,75280,1,0,0:0:0:0:
320,64,75373,1,8,0:0:0:0:
320,64,75420,1,8,0:0:0:0:
320,64,75467,1,8,0:0:0:0:
320,64,75561,1,8,0:0:0:0:
64,64,75655,1,0,0:0:0:0:
320,64,75748,1,8,0:0:0:0:
320,64,75795,1,8,0:0:0:0:
64,64,75842,1,0,0:0:0:0:
320,64,75936,1,8,0:0:0:0:
64,64,76030,1,0,0:0:0:0:
64,64,76076,1,0,0:0:0:0:
64,64,76123,1,0,0:0:0:0:
64,64,76170,1,0,0:0:0:0:
320,64,76217,1,8,0:0:0:0:
320,64,76264,1,8,0:0:0:0:
64,64,76311,1,0,0:0:0:0:
64,64,76358,1,0,0:0:0:0:
320,64,76405,1,8,0:0:0:0:
64,64,76498,1,0,0:0:0:0:
64,64,76545,1,0,0:0:0:0:
320,64,76592,1,8,0:0:0:0:
64,64,76686,1,0,0:0:0:0:
320,64,76780,1,8,0:0:0:0:
64,64,76873,1,0,0:0:0:0:
64,64,76920,1,0,0:0:0:0:
64,64,76967,1,0,0:0:0:0:
64,64,77061,1,0,0:0:0:0:
320,64,77155,1,8,0:0:0:0:
64,64,77248,1,0,0:0:0:0:
64,64,77295,1,0,0:0:0:0:
320,64,77342,1,8,0:0:0:0:
64,64,77436,1,0,0:0:0:0:
320,64,77530,1,8,0:0:0:0:
320,64,77576,1,8,0:0:0:0:
320,64,77623,1,8,0:0:0:0:
320,64,77670,1,8,0:0:0:0:
64,64,77717,1,0,0:0:0:0:
64,64,77764,1,0,0:0:0:0:
320,64,77811,1,8,0:0:0:0:
320,64,77858,1,8,0:0:0:0:
64,64,77905,1,0,0:0:0:0:
320,64,77998,1,8,0:0:0:0:
320,64,78045,1,8,0:0:0:0:
64,64,78092,1,0,0:0:0:0:
320,64,78186,1,8,0:0:0:0:
64,64,78280,1,0,0:0:0:0:
320,64,78373,1,8,0:0:0:0:
320,64,78420,1,8,0:0:0:0:
320,64,78467,1,8,0:0:0:0:
320,64,78561,1,8,0:0:0:0:
64,64,78655,1,0,0:0:0:0:
320,64,78748,1,8,0:0:0:0:
320,64,78795,1,8,0:0:0:0:
64,64,78842,1,0,0:0:0:0:
320,64,78936,1,8,0:0:0:0:
64,64,79030,1,0,0:0:0:0:
64,64,79076,1,0,0:0:0:0:
64,64,79123,1,0,0:0:0:0:
64,64,79170,1,0,0:0:0:0:
320,64,79217,1,8,0:0:0:0:
320,64,79264,1,8,0:0:0:0:
64,64,79311,1,0,0:0:0:0:
64,64,79405,1,0,0:0:0:0:
320,64,79498,1,8,0:0:0:0:
320,64,79545,1,8,0:0:0:0:
64,64,79592,1,0,0:0:0:0:
320,64,79686,1,8,0:0:0:0:
64,64,79780,1,0,0:0:0:0:
320,64,79873,1,8,0:0:0:0:
320,64,79967,1,8,0:0:0:0:
64,64,80061,1,0,0:0:0:0:
320,64,80155,1,8,0:0:0:0:
320,64,80201,1,8,0:0:0:0:
64,64,80248,1,0,0:0:0:0:
320,64,80342,1,8,0:0:0:0:
320,64,80436,1,8,0:0:0:0:
64,64,80530,1,0,0:0:0:0:
64,64,80576,1,0,0:0:0:0:
320,64,80623,1,8,0:0:0:0:
320,64,80717,1,8,0:0:0:0:
64,64,80811,1,0,0:0:0:0:
320,64,80905,1,8,0:0:0:0:
320,64,80998,1,8,0:0:0:0:
64,64,81092,1,0,0:0:0:0:
64,64,81186,1,0,0:0:0:0:
320,64,81280,1,8,0:0:0:0:
320,64,81326,1,8,0:0:0:0:
64,64,81373,1,0,0:0:0:0:
64,64,81467,1,0,0:0:0:0:
320,64,81561,1,8,0:0:0:0:
64,64,81655,1,0,0:0:0:0:
64,64,81748,1,0,0:0:0:0:
320,64,81842,1,8,0:0:0:0:
320,64,81936,1,8,0:0:0:0:
64,64,82030,1,0,0:0:0:0:
64,64,82076,1,0,0:0:0:0:
320,64,82123,1,8,0:0:0:0:
320,64,82217,1,8,0:0:0:0:
64,64,82311,1,0,0:0:0:0:
320,64,82405,1,8,0:0:0:0:
320,64,82498,1,8,0:0:0:0:
64,64,82592,1,0,0:0:0:0:
64,64,82686,1,0,0:0:0:0:
320,64,82780,1,8,0:0:0:0:
320,64,82826,1,8,0:0:0:0:
320,64,82873,1,8,0:0:0:0:
64,64,82967,1,0,0:0:0:0:
320,64,83061,1,8,0:0:0:0:
64,64,83155,1,0,0:0:0:0:
64,64,83248,1,0,0:0:0:0:
320,64,83342,1,8,0:0:0:0:
64,64,83436,1,0,0:0:0:0:
320,64,83530,1,8,0:0:0:0:
320,64,83576,1,8,0:0:0:0:
64,64,83623,1,0,0:0:0:0:
320,64,83717,1,8,0:0:0:0:
64,64,83764,1,0,0:0:0:0:
64,64,83811,1,0,0:0:0:0:
64,64,83858,1,0,0:0:0:0:
320,64,83905,1,8,0:0:0:0:
64,64,83998,1,0,0:0:0:0:
320,64,84092,1,8,0:0:0:0:
320,64,84139,1,8,0:0:0:0:
64,64,84186,1,0,0:0:0:0:
64,64,84233,1,0,0:0:0:0:
320,64,84280,1,8,0:0:0:0:
64,64,84373,1,0,0:0:0:0:
64,64,84420,1,0,0:0:0:0:
320,64,84467,1,8,0:0:0:0:
64,64,84561,1,0,0:0:0:0:
64,64,84608,1,0,0:0:0:0:
320,64,84655,1,8,0:0:0:0:
320,64,84701,1,8,0:0:0:0:
64,64,84748,1,0,0:0:0:0:
64,64,84795,1,0,0:0:0:0:
320,64,84842,1,8,0:0:0:0:
64,64,84889,1,0,0:0:0:0:
320,64,84936,1,8,0:0:0:0:
320,64,84983,1,8,0:0:0:0:
64,64,85030,1,0,0:0:0:0:
64,64,85592,1,0,0:0:0:0:
64,64,85639,1,0,0:0:0:0:
64,64,85686,1,0,0:0:0:0:
320,64,85780,1,8,0:0:0:0:
64,64,85873,1,0,0:0:0:0:
64,64,86061,1,0,0:0:0:0:
64,64,86155,1,0,0:0:0:0:
320,64,86248,1,8,0:0:0:0:
64,64,86342,1,0,0:0:0:0:
320,64,86530,1,8,0:0:0:0:
320,64,86576,1,8,0:0:0:0:
64,64,86623,1,0,0:0:0:0:
64,64,86717,1,0,0:0:0:0:
320,64,86811,1,8,0:0:0:0:
64,64,86905,1,0,0:0:0:0:
64,64,86998,1,0,0:0:0:0:
320,64,87092,1,8,0:0:0:0:
64,64,87186,1,0,0:0:0:0:
320,64,87280,1,8,0:0:0:0:
320,64,87326,1,8,0:0:0:0:
64,64,87373,1,0,0:0:0:0:
64,64,87467,1,0,0:0:0:0:
320,64,87561,1,8,0:0:0:0:
64,64,87655,1,0,0:0:0:0:
320,64,87748,1,8,0:0:0:0:
320,64,87842,1,8,0:0:0:0:
64,64,87936,1,0,0:0:0:0:
320,64,88030,1,8,0:0:0:0:
320,64,88076,1,8,0:0:0:0:
64,64,88123,1,0,0:0:0:0:
64,64,88217,1,0,0:0:0:0:
320,64,88311,1,8,0:0:0:0:
64,64,88405,1,0,0:0:0:0:
64,64,88498,1,0,0:0:0:0:
320,64,88592,1,8,0:0:0:0:
64,64,88686,1,0,0:0:0:0:
320,64,88780,1,8,0:0:0:0:
320,64,88826,1,8,0:0:0:0:
64,64,88873,1,0,0:0:0:0:
64,64,88967,1,0,0:0:0:0:
64,64,89061,1,0,0:0:0:0:
320,64,89155,1,8,0:0:0:0:
64,64,89248,1,0,0:0:0:0:
320,64,89342,1,8,0:0:0:0:
320,64,89530,1,8,0:0:0:0:
320,64,89576,1,8,0:0:0:0:
64,64,89623,1,0,0:0:0:0:
64,64,89717,1,0,0:0:0:0:
320,64,89811,1,8,0:0:0:0:
64,64,89905,1,0,0:0:0:0:
64,64,89998,1,0,0:0:0:0:
320,64,90092,1,8,0:0:0:0:
64,64,90186,1,0,0:0:0:0:
320,64,90280,1,8,0:0:0:0:
320,64,90326,1,8,0:0:0:0:
64,64,90373,1,0,0:0:0:0:
64,64,90467,1,0,0:0:0:0:
320,64,90561,1,8,0:0:0:0:
64,64,90655,1,0,0:0:0:0:
320,64,90748,1,8,0:0:0:0:
320,64,90842,1,8,0:0:0:0:
64,64,90936,1,0,0:0:0:0:
320,64,91030,1,8,0:0:0:0:
320,64,91076,1,8,0:0:0:0:
64,64,91123,1,0,0:0:0:0:
320,64,91217,1,8,0:0:0:0:
64,64,91311,1,0,0:0:0:0:
64,64,91405,1,0,0:0:0:0:
320,64,91498,1,8,0:0:0:0:
64,64,91592,1,0,0:0:0:0:
320,64,91686,1,8,0:0:0:0:
64,64,91780,1,0,0:0:0:0:
64,64,91826,1,0,0:0:0:0:
320,64,91873,1,8,0:0:0:0:
320,64,91920,1,8,0:0:0:0:
64,64,91967,1,0,0:0:0:0:
64,64,92061,1,0,0:0:0:0:
320,64,92155,1,8,0:0:0:0:
320,64,92201,1,8,0:0:0:0:
64,64,92248,1,0,0:0:0:0:
320,64,92342,1,8,0:0:0:0:
320,64,92530,1,8,0:0:0:0:
320,64,92576,1,8,0:0:0:0:
64,64,92623,1,0,0:0:0:0:
64,64,92717,1,0,0:0:0:0:
320,64,92811,1,8,0:0:0:0:
64,64,92905,1,0,0:0:0:0:
64,64,92998,1,0,0:0:0:0:
320,64,93092,1,8,0:0:0:0:
64,64,93186,1,0,0:0:0:0:
320,64,93280,1,8,0:0:0:0:
320,64,93326,1,8,0:0:0:0:
64,64,93373,1,0,0:0:0:0:
64,64,93467,1,0,0:0:0:0:
320,64,93561,1,8,0:0:0:0:
64,64,93655,1,0,0:0:0:0:
320,64,93748,1,8,0:0:0:0:
320,64,93842,1,8,0:0:0:0:
64,64,93936,1,0,0:0:0:0:
320,64,94030,1,8,0:0:0:0:
320,64,94076,1,8,0:0:0:0:
64,64,94123,1,0,0:0:0:0:
64,64,94217,1,0,0:0:0:0:
320,64,94311,1,8,0:0:0:0:
64,64,94405,1,0,0:0:0:0:
64,64,94498,1,0,0:0:0:0:
320,64,94592,1,8,0:0:0:0:
64,64,94686,1,0,0:0:0:0:
320,64,94780,1,8,0:0:0:0:
320,64,94826,1,8,0:0:0:0:
64,64,94873,1,0,0:0:0:0:
64,64,94967,1,0,0:0:0:0:
64,64,95061,1,0,0:0:0:0:
320,64,95155,1,8,0:0:0:0:
64,64,95248,1,0,0:0:0:0:
320,64,95342,1,8,0:0:0:0:
64,64,95530,1,4,0:0:0:0:
320,64,95717,1,8,0:0:0:0:
64,64,95811,1,4,0:0:0:0:
320,64,95998,1,8,0:0:0:0:
64,64,96092,1,4,0:0:0:0:
64,64,96280,1,4,0:0:0:0:
320,64,96373,1,8,0:0:0:0:
320,64,96467,1,8,0:0:0:0:
64,64,96561,1,4,0:0:0:0:
320,64,96748,1,8,0:0:0:0:
64,64,96842,1,4,0:0:0:0:
64,64,97030,1,0,0:0:0:0:
64,64,97311,1,0,0:0:0:0:
320,64,97592,1,8,0:0:0:0:
64,64,97780,1,0,0:0:0:0:
320,64,97967,1,8,0:0:0:0:
320,64,98061,1,8,0:0:0:0:
64,64,98155,1,0,0:0:0:0:
64,64,98201,1,0,0:0:0:0:
64,64,98248,1,0,0:0:0:0:
64,64,98295,1,0,0:0:0:0:
64,64,98342,1,0,0:0:0:0:
64,64,98389,1,0,0:0:0:0:
64,64,98436,1,0,0:0:0:0:
64,64,98483,1,0,0:0:0:0:
320,64,98530,1,12,0:0:0:0:
64,64,98905,1,0,0:0:0:0:
64,64,99280,1,0,0:0:0:0:
64,64,99655,1,0,0:0:0:0:
64,64,100030,1,0,0:0:0:0:
64,64,100405,1,0,0:0:0:0:
64,64,100780,1,0,0:0:0:0:
64,64,101155,1,0,0:0:0:0:
64,64,101530,1,0,0:0:0:0:
64,64,101905,1,0,0:0:0:0:
64,64,102280,1,0,0:0:0:0:
64,64,102655,1,0,0:0:0:0:
64,64,103030,1,0,0:0:0:0:
320,64,103311,1,8,0:0:0:0:
64,64,103405,1,0,0:0:0:0:
320,64,103592,1,8,0:0:0:0:
64,64,103780,1,0,0:0:0:0:
320,64,103873,1,8,0:0:0:0:
320,64,103967,1,8,0:0:0:0:
320,64,104155,1,8,0:0:0:0:
64,64,104342,1,0,0:0:0:0:
64,64,104436,1,0,0:0:0:0:
320,64,104530,1,12,0:0:0:0:
64,64,104717,1,0,0:0:0:0:
320,64,104811,1,8,0:0:0:0:
64,64,104905,1,0,0:0:0:0:
64,64,104998,1,0,0:0:0:0:
320,64,105092,1,8,0:0:0:0:
320,64,105280,1,8,0:0:0:0:
64,64,105467,1,0,0:0:0:0:
64,64,105561,1,0,0:0:0:0:
320,64,105655,1,8,0:0:0:0:
64,64,105748,1,0,0:0:0:0:
320,64,105842,1,8,0:0:0:0:
320,64,106030,1,8,0:0:0:0:
64,64,106217,1,0,0:0:0:0:
320,64,106311,1,8,0:0:0:0:
320,64,106405,1,8,0:0:0:0:
64,64,106498,1,0,0:0:0:0:
320,64,106592,1,8,0:0:0:0:
320,64,106780,1,8,0:0:0:0:
320,64,106967,1,8,0:0:0:0:
320,64,107061,1,8,0:0:0:0:
64,64,107155,1,0,0:0:0:0:
64,64,107248,1,0,0:0:0:0:
320,64,107342,1,8,0:0:0:0:
320,64,107530,1,8,0:0:0:0:
64,64,107623,1,0,0:0:0:0:
320,64,107717,1,8,0:0:0:0:
64,64,107811,1,0,0:0:0:0:
320,64,107905,1,8,0:0:0:0:
64,64,107998,1,0,0:0:0:0:
320,64,108092,1,8,0:0:0:0:
64,64,108186,1,0,0:0:0:0:
320,64,108280,1,8,0:0:0:0:
64,64,108373,1,0,0:0:0:0:
320,64,108467,1,8,0:0:0:0:
64,64,108561,1,0,0:0:0:0:
320,64,108655,1,8,0:0:0:0:
64,64,108748,1,0,0:0:0:0:
320,64,108842,1,8,0:0:0:0:
64,64,108936,1,0,0:0:0:0:
320,64,109030,1,8,0:0:0:0:
64,64,109076,1,0,0:0:0:0:
64,64,109123,1,0,0:0:0:0:
64,64,109170,1,0,0:0:0:0:
320,64,109217,1,8,0:0:0:0:
64,64,109264,1,0,0:0:0:0:
64,64,109311,1,0,0:0:0:0:
64,64,109358,1,0,0:0:0:0:
320,64,109405,1,8,0:0:0:0:
320,64,109451,1,8,0:0:0:0:
64,64,109498,1,0,0:0:0:0:
64,64,109545,1,0,0:0:0:0:
320,64,109592,1,8,0:0:0:0:
320,64,109639,1,8,0:0:0:0:
64,64,109686,1,0,0:0:0:0:
64,64,109733,1,0,0:0:0:0:
320,64,109780,1,8,0:0:0:0:
320,64,109826,1,8,0:0:0:0:
320,64,109873,1,8,0:0:0:0:
320,64,109920,1,8,0:0:0:0:
64,64,109967,1,0,0:0:0:0:
64,64,110014,1,0,0:0:0:0:
64,64,110061,1,0,0:0:0:0:
64,64,110108,1,0,0:0:0:0:
320,64,110155,1,8,0:0:0:0:
320,64,110201,1,8,0:0:0:0:
320,64,110248,1,8,0:0:0:0:
320,64,110295,1,8,0:0:0:0:
320,64,110342,1,8,0:0:0:0:
320,64,110389,1,8,0:0:0:0:
320,64,110436,1,8,0:0:0:0:
320,64,110483,1,8,0:0:0:0:
256,192,111092,12,0,111842,0:0:0:0:
256,192,112592,12,0,113342,0:0:0:0:
256,192,114092,12,0,114842,0:0:0:0:
256,192,115592,12,0,116342,0:0:0:0:
320,64,116530,5,12,0:0:0:0:
64,64,116905,1,0,0:0:0:0:
64,64,116998,1,0,0:0:0:0:
64,64,117092,1,0,0:0:0:0:
64,64,117186,1,0,0:0:0:0:
64,64,117280,1,0,0:0:0:0:
64,64,117373,1,0,0:0:0:0:
64,64,117467,1,0,0:0:0:0:
64,64,117561,1,0,0:0:0:0:
320,64,117655,1,8,0:0:0:0:
64,64,117701,1,0,0:0:0:0:
320,64,117748,1,8,0:0:0:0:
64,64,117842,1,0,0:0:0:0:
64,64,117936,1,0,0:0:0:0:
320,64,118030,1,8,0:0:0:0:
64,64,118217,1,0,0:0:0:0:
64,64,118264,1,0,0:0:0:0:
320,64,118311,1,8,0:0:0:0:
64,64,118405,1,0,0:0:0:0:
64,64,118498,1,0,0:0:0:0:
320,64,118592,1,8,0:0:0:0:
64,64,118686,1,0,0:0:0:0:
64,64,118780,1,0,0:0:0:0:
320,64,118873,1,8,0:0:0:0:
64,64,118967,1,0,0:0:0:0:
64,64,119061,1,0,0:0:0:0:
320,64,119155,1,8,0:0:0:0:
64,64,119248,1,0,0:0:0:0:
64,64,119342,1,0,0:0:0:0:
64,64,119436,1,0,0:0:0:0:
256,192,119530,12,8,119811,0:0:0:0:
64,64,119905,5,0,0:0:0:0:
64,64,119951,1,0,0:0:0:0:
64,64,119998,1,0,0:0:0:0:
64,64,120092,1,0,0:0:0:0:
320,64,120186,1,8,0:0:0:0:
64,64,120373,1,0,0:0:0:0:
64,64,120420,1,0,0:0:0:0:
320,64,120467,1,8,0:0:0:0:
64,64,120655,1,0,0:0:0:0:
64,64,120748,1,0,0:0:0:0:
64,64,120842,1,0,0:0:0:0:
320,64,120936,1,8,0:0:0:0:
64,64,121030,1,0,0:0:0:0:
320,64,121217,1,8,0:0:0:0:
64,64,121264,1,0,0:0:0:0:
64,64,121311,1,0,0:0:0:0:
64,64,121405,1,0,0:0:0:0:
64,64,121498,1,0,0:0:0:0:
64,64,121592,1,0,0:0:0:0:
64,64,121639,1,0,0:0:0:0:
320,64,121686,1,8,0:0:0:0:
64,64,121780,1,0,0:0:0:0:
64,64,121873,1,0,0:0:0:0:
64,64,121967,1,0,0:0:0:0:
64,64,122061,1,0,0:0:0:0:
320,64,122155,1,8,0:0:0:0:
320,64,122217,1,8,0:0:0:0:
320,64,122280,1,8,0:0:0:0:
64,64,122342,1,0,0:0:0:0:
64,64,122405,1,0,0:0:0:0:
64,64,122467,1,0,0:0:0:0:
320,64,122530,1,12,0:0:0:0:
64,64,122905,1,0,0:0:0:0:
320,64,122998,1,8,0:0:0:0:
64,64,123092,1,0,0:0:0:0:
64,64,123186,1,0,0:0:0:0:
320,64,123280,1,8,0:0:0:0:
320,64,123342,1,8,0:0:0:0:
320,64,123405,1,8,0:0:0:0:
64,64,123467,1,0,0:0:0:0:
64,64,123561,1,0,0:0:0:0:
320,64,123655,1,8,0:0:0:0:
320,64,123842,1,8,0:0:0:0:
320,64,124030,1,8,0:0:0:0:
320,64,124076,1,8,0:0:0:0:
320,64,124123,1,8,0:0:0:0:
64,64,124217,1,0,0:0:0:0:
64,64,124264,1,0,0:0:0:0:
64,64,124311,1,0,0:0:0:0:
320,64,124405,1,8,0:0:0:0:
320,64,124498,1,8,0:0:0:0:
64,64,124592,1,0,0:0:0:0:
320,64,124686,1,8,0:0:0:0:
64,64,124780,1,0,0:0:0:0:
64,64,124873,1,0,0:0:0:0:
64,64,124967,1,0,0:0:0:0:
64,64,125061,1,0,0:0:0:0:
320,64,125155,1,8,0:0:0:0:
64,64,125342,1,0,0:0:0:0:
64,64,125389,1,0,0:0:0:0:
64,64,125436,1,0,0:0:0:0:
320,64,125530,1,8,0:0:0:0:
320,64,125576,1,8,0:0:0:0:
64,64,125623,1,0,0:0:0:0:
64,64,125670,1,0,0:0:0:0:
320,64,125717,1,8,0:0:0:0:
64,64,125811,1,0,0:0:0:0:
320,64,125905,1,8,0:0:0:0:
64,64,125998,1,0,0:0:0:0:
64,64,126092,1,0,0:0:0:0:
320,64,126186,1,8,0:0:0:0:
64,64,126280,1,0,0:0:0:0:
64,64,126373,1,0,0:0:0:0:
320,64,126467,1,8,0:0:0:0:
64,64,126561,1,0,0:0:0:0:
64,64,126655,1,0,0:0:0:0:
320,64,126748,1,8,0:0:0:0:
64,64,126842,1,0,0:0:0:0:
64,64,126936,1,0,0:0:0:0:
320,64,127030,1,8,0:0:0:0:
64,64,127123,1,0,0:0:0:0:
320,64,127217,1,8,0:0:0:0:
320,64,127264,1,8,0:0:0:0:
64,64,127311,1,0,0:0:0:0:
64,64,127358,1,0,0:0:0:0:
320,64,127405,1,8,0:0:0:0:
64,64,127498,1,0,0:0:0:0:
320,64,127592,1,8,0:0:0:0:
64,64,127686,1,0,0:0:0:0:
64,64,127780,1,0,0:0:0:0:
320,64,127873,1,8,0:0:0:0:
64,64,127967,1,0,0:0:0:0:
64,64,128061,1,0,0:0:0:0:
256,192,128155,12,0,128436,0:0:0:0:
320,64,128530,5,12,0:0:0:0:
320,64,128717,1,8,0:0:0:0:
64,64,128811,1,0,0:0:0:0:
320,64,128905,1,8,0:0:0:0:
320,64,128951,1,8,0:0:0:0:
320,64,128998,1,8,0:0:0:0:
64,64,129092,1,0,0:0:0:0:
64,64,129186,1,0,0:0:0:0:
320,64,129280,1,8,0:0:0:0:
320,64,129326,1,8,0:0:0:0:
64,64,129373,1,0,0:0:0:0:
64,64,129467,1,0,0:0:0:0:
64,64,129561,1,0,0:0:0:0:
320,64,129655,1,8,0:0:0:0:
64,64,129701,1,0,0:0:0:0:
64,64,129748,1,0,0:0:0:0:
320,64,129842,1,8,0:0:0:0:
320,64,129936,1,8,0:0:0:0:
64,64,130030,1,0,0:0:0:0:
64,64,130123,1,0,0:0:0:0:
320,64,130217,1,8,0:0:0:0:
320,64,130280,1,8,0:0:0:0:
320,64,130342,1,8,0:0:0:0:
64,64,130405,1,0,0:0:0:0:
64,64,130451,1,0,0:0:0:0:
64,64,130498,1,0,0:0:0:0:
64,64,130592,1,0,0:0:0:0:
320,64,130686,1,8,0:0:0:0:
64,64,130780,1,0,0:0:0:0:
320,64,130873,1,8,0:0:0:0:
320,64,130967,1,8,0:0:0:0:
320,64,131061,1,8,0:0:0:0:
64,64,131155,1,0,0:0:0:0:
64,64,131201,1,0,0:0:0:0:
64,64,131248,1,0,0:0:0:0:
320,64,131342,1,8,0:0:0:0:
320,64,131436,1,8,0:0:0:0:
64,64,131530,1,0,0:0:0:0:
64,64,131623,1,0,0:0:0:0:
320,64,131717,1,8,0:0:0:0:
320,64,131780,1,8,0:0:0:0:
320,64,131842,1,8,0:0:0:0:
64,64,131905,1,0,0:0:0:0:
64,64,131951,1,0,0:0:0:0:
64,64,131998,1,0,0:0:0:0:
320,64,132092,1,8,0:0:0:0:
64,64,132186,1,0,0:0:0:0:
320,64,132280,1,8,0:0:0:0:
320,64,132373,1,8,0:0:0:0:
320,64,132467,1,8,0:0:0:0:
64,64,132561,1,0,0:0:0:0:
320,64,132655,1,8,0:0:0:0:
320,64,132701,1,8,0:0:0:0:
320,64,132748,1,8,0:0:0:0:
64,64,132842,1,0,0:0:0:0:
64,64,132936,1,0,0:0:0:0:
320,64,133030,1,8,0:0:0:0:
320,64,133217,1,8,0:0:0:0:
64,64,133311,1,0,0:0:0:0:
64,64,133498,1,0,0:0:0:0:
320,64,133592,1,8,0:0:0:0:
320,64,133780,1,8,0:0:0:0:
64,64,133873,1,0,0:0:0:0:
64,64,134061,1,0,0:0:0:0:
320,64,134155,1,8,0:0:0:0:
320,64,134201,1,8,0:0:0:0:
64,64,134248,1,0,0:0:0:0:
64,64,134342,1,0,0:0:0:0:
320,64,134530,1,12,0:0:0:0:
64,64,134717,1,0,0:0:0:0:
320,64,134811,1,8,0:0:0:0:
64,64,134998,1,0,0:0:0:0:
320,64,135092,1,8,0:0:0:0:
320,64,135186,1,8,0:0:0:0:
64,64,135280,1,0,0:0:0:0:
320,64,135467,1,8,0:0:0:0:
64,64,135561,1,0,0:0:0:0:
320,64,135748,1,8,0:0:0:0:
64,64,135842,1,0,0:0:0:0:
64,64,135936,1,0,0:0:0:0:
320,64,136030,1,8,0:0:0:0:
64,64,136217,1,0,0:0:0:0:
320,64,136311,1,8,0:0:0:0:
64,64,136498,1,0,0:0:0:0:
320,64,136592,1,8,0:0:0:0:
320,64,136686,1,8,0:0:0:0:
64,64,136780,1,0,0:0:0:0:
320,64,136967,1,8,0:0:0:0:
64,64,137061,1,0,0:0:0:0:
320,64,137248,1,8,0:0:0:0:
64,64,137342,1,0,0:0:0:0:
64,64,137436,1,0,0:0:0:0:
320,64,137530,1,8,0:0:0:0:
320,64,137623,1,8,0:0:0:0:
64,64,137717,1,0,0:0:0:0:
64,64,137811,1,0,0:0:0:0:
320,64,137905,1,8,0:0:0:0:
64,64,137998,1,0,0:0:0:0:
320,64,138092,1,8,0:0:0:0:
64,64,138186,1,0,0:0:0:0:
320,64,138280,1,8,0:0:0:0:
320,64,138373,1,8,0:0:0:0:
320,64,138467,1,8,0:0:0:0:
64,64,138561,1,0,0:0:0:0:
320,64,138655,1,8,0:0:0:0:
320,64,138748,1,8,0:0:0:0:
320,64,138842,1,8,0:0:0:0:
320,64,138936,1,8,0:0:0:0:
64,64,139592,1,0,0:0:0:0:
64,64,139639,1,0,0:0:0:0:
64,64,139686,1,0,0:0:0:0:
320,64,139780,1,8,0:0:0:0:
64,64,139873,1,0,0:0:0:0:
64,64,140061,1,0,0:0:0:0:
320,64,140155,1,8,0:0:0:0:
320,64,140201,1,8,0:0:0:0:
64,64,140248,1,0,0:0:0:0:
320,64,140342,1,8,0:0:0:0:
320,64,140436,1,8,0:0:0:0:
64,64,140530,1,4,0:0:0:0:
64,64,140717,1,0,0:0:0:0:
320,64,140811,1,8,0:0:0:0:
320,64,140998,1,8,0:0:0:0:
64,64,141092,1,0,0:0:0:0:
64,64,141139,1,0,0:0:0:0:
320,64,141186,1,8,0:0:0:0:
64,64,141280,1,0,0:0:0:0:
64,64,141467,1,0,0:0:0:0:
320,64,141561,1,8,0:0:0:0:
64,64,141748,1,0,0:0:0:0:
320,64,141842,1,8,0:0:0:0:
320,64,141889,1,8,0:0:0:0:
320,64,141936,1,8,0:0:0:0:
64,64,142030,1,0,0:0:0:0:
64,64,142217,1,0,0:0:0:0:
320,64,142311,1,8,0:0:0:0:
320,64,142498,1,8,0:0:0:0:
64,64,142592,1,0,0:0:0:0:
64,64,142639,1,0,0:0:0:0:
320,64,142686,1,8,0:0:0:0:
64,64,142780,1,0,0:0:0:0:
64,64,142967,1,0,0:0:0:0:
64,64,143061,1,0,0:0:0:0:
320,64,143155,1,8,0:0:0:0:
64,64,143342,1,0,0:0:0:0:
320,64,143530,1,8,0:0:0:0:
320,64,143717,1,8,0:0:0:0:
64,64,143811,1,0,0:0:0:0:
64,64,143998,1,0,0:0:0:0:
320,64,144092,1,8,0:0:0:0:
320,64,144139,1,8,0:0:0:0:
64,64,144186,1,0,0:0:0:0:
320,64,144280,1,8,0:0:0:0:
320,64,144467,1,8,0:0:0:0:
64,64,144561,1,0,0:0:0:0:
320,64,144748,1,8,0:0:0:0:
64,64,144842,1,0,0:0:0:0:
64,64,144889,1,0,0:0:0:0:
64,64,144936,1,0,0:0:0:0:
320,64,145030,1,8,0:0:0:0:
320,64,145217,1,8,0:0:0:0:
64,64,145311,1,0,0:0:0:0:
64,64,145498,1,0,0:0:0:0:
320,64,145592,1,8,0:0:0:0:
64,64,145686,1,0,0:0:0:0:
320,64,145780,1,8,0:0:0:0:
64,64,145826,1,0,0:0:0:0:
64,64,145873,1,0,0:0:0:0:
320,64,145967,1,8,0:0:0:0:
320,64,146061,1,8,0:0:0:0:
64,64,146155,1,0,0:0:0:0:
64,64,146201,1,0,0:0:0:0:
64,64,146248,1,0,0:0:0:0:
320,64,146342,1,8,0:0:0:0:
64,64,146436,1,0,0:0:0:0:
320,64,146530,1,12,0:0:0:0:
320,64,146717,1,8,0:0:0:0:
64,64,146811,1,0,0:0:0:0:
320,64,146998,1,8,0:0:0:0:
64,64,147092,1,0,0:0:0:0:
64,64,147139,1,0,0:0:0:0:
64,64,147186,1,0,0:0:0:0:
320,64,147280,1,8,0:0:0:0:
64,64,147467,1,0,0:0:0:0:
320,64,147561,1,8,0:0:0:0:
64,64,147748,1,0,0:0:0:0:
320,64,147842,1,8,0:0:0:0:
320,64,147889,1,8,0:0:0:0:
320,64,147936,1,8,0:0:0:0:
64,64,148030,1,0,0:0:0:0:
320,64,148217,1,8,0:0:0:0:
64,64,148311,1,0,0:0:0:0:
320,64,148498,1,8,0:0:0:0:
64,64,148592,1,0,0:0:0:0:
64,64,148639,1,0,0:0:0:0:
320,64,148686,1,8,0:0:0:0:
64,64,148780,1,0,0:0:0:0:
64,64,148967,1,0,0:0:0:0:
64,64,149061,1,0,0:0:0:0:
320,64,149155,1,8,0:0:0:0:
320,64,149342,1,8,0:0:0:0:
64,64,149530,1,0,0:0:0:0:
64,64,149717,1,0,0:0:0:0:
320,64,149811,1,8,0:0:0:0:
64,64,149998,1,0,0:0:0:0:
320,64,150092,1,8,0:0:0:0:
320,64,150139,1,8,0:0:0:0:
64,64,150186,1,0,0:0:0:0:
320,64,150280,1,8,0:0:0:0:
320,64,150467,1,12,0:0:0:0:
64,64,150655,1,0,0:0:0:0:
64,64,150748,1,0,0:0:0:0:
320,64,150842,1,12,0:0:0:0:
320,64,151030,1,12,0:0:0:0:
64,64,151217,1,0,0:0:0:0:
64,64,151280,1,0,0:0:0:0:
64,64,151342,1,0,0:0:0:0:
320,64,151405,1,8,0:0:0:0:
320,64,151451,1,8,0:0:0:0:
64,64,151498,1,0,0:0:0:0:
64,64,151545,1,0,0:0:0:0:
320,64,151592,1,8,0:0:0:0:
64,64,151686,1,0,0:0:0:0:
320,64,151780,1,8,0:0:0:0:
320,64,151905,1,8,0:0:0:0:
320,64,152030,1,8,0:0:0:0:
320,64,152155,1,8,0:0:0:0:
320,64,152280,1,8,0:0:0:0:
320,64,152405,1,8,0:0:0:0:
64,64,152530,1,0,0:0:0:0:
320,64,152592,1,8,0:0:0:0:
320,64,152655,1,8,0:0:0:0:
64,64,152780,1,0,0:0:0:0:
64,64,152842,1,0,0:0:0:0:
64,64,152905,1,0,0:0:0:0:
320,64,153030,1,8,0:0:0:0:
320,64,153092,1,8,0:0:0:0:
64,64,153155,1,0,0:0:0:0:
320,64,153280,1,8,0:0:0:0:
320,64,153342,1,8,0:0:0:0:
320,64,153405,1,8,0:0:0:0:
64,64,153530,1,0,0:0:0:0:
64,64,153592,1,0,0:0:0:0:
64,64,153655,1,0,0:0:0:0:
320,64,153780,1,8,0:0:0:0:
320,64,153842,1,8,0:0:0:0:
320,64,153905,1,8,0:0:0:0:
64,64,154030,1,0,0:0:0:0:
320,64,154092,1,8,0:0:0:0:
320,64,154155,1,8,0:0:0:0:
320,64,154280,1,8,0:0:0:0:
320,64,154342,1,8,0:0:0:0:
64,64,154405,1,0,0:0:0:0:
320,64,154530,1,8,0:0:0:0:
320,64,154592,1,8,0:0:0:0:
320,64,154655,1,8,0:0:0:0:
64,64,154780,1,0,0:0:0:0:
320,64,154842,1,8,0:0:0:0:
320,64,154905,1,8,0:0:0:0:
64,64,155030,1,0,0:0:0:0:
64,64,155092,1,0,0:0:0:0:
320,64,155155,1,8,0:0:0:0:
64,64,155217,1,0,0:0:0:0:
320,64,155280,1,8,0:0:0:0:
64,64,155530,1,0,0:0:0:0:
320,64,155592,1,8,0:0:0:0:
64,64,155655,1,0,0:0:0:0:
320,64,155905,1,12,0:0:0:0:
64,64,156280,1,0,0:0:0:0:
64,64,156467,1,0,0:0:0:0:
64,64,156530,1,0,0:0:0:0:
64,64,156592,1,0,0:0:0:0:
320,64,156655,1,12,0:0:0:0:
320,64,157030,1,12,0:0:0:0:
320,64,157280,1,12,0:0:0:0:
320,64,157530,1,12,0:0:0:0:
320,64,157780,1,12,0:0:0:0:
320,64,157967,1,8,0:0:0:0:
64,64,158061,1,0,0:0:0:0:
320,64,158155,1,8,0:0:0:0:
64,64,158530,1,0,0:0:0:0:
64,64,158623,1,0,0:0:0:0:
64,64,158811,1,0,0:0:0:0:
320,64,158905,1,8,0:0:0:0:
320,64,158998,1,8,0:0:0:0:
64,64,159092,1,0,0:0:0:0:
64,64,159139,1,0,0:0:0:0:
320,64,159186,1,8,0:0:0:0:
64,64,159280,1,0,0:0:0:0:
64,64,159373,1,0,0:0:0:0:
320,64,159561,1,8,0:0:0:0:
320,64,159842,1,8,0:0:0:0:
64,64,160030,1,0,0:0:0:0:
64,64,160076,1,0,0:0:0:0:
64,64,160123,1,0,0:0:0:0:
320,64,160217,1,8,0:0:0:0:
64,64,160311,1,0,0:0:0:0:
320,64,160405,1,8,0:0:0:0:
320,64,160498,1,8,0:0:0:0:
64,64,160592,1,0,0:0:0:0:
64,64,160639,1,0,0:0:0:0:
320,64,160686,1,8,0:0:0:0:
64,64,160780,1,0,0:0:0:0:
64,64,160967,1,0,0:0:0:0:
320,64,161061,1,8,0:0:0:0:
320,64,161342,1,8,0:0:0:0:
64,64,161530,1,0,0:0:0:0:
64,64,161576,1,0,0:0:0:0:
64,64,161623,1,0,0:0:0:0:
320,64,161717,1,8,0:0:0:0:
64,64,161811,1,0,0:0:0:0:
320,64,161905,1,8,0:0:0:0:
320,64,161998,1,8,0:0:0:0:
64,64,162092,1,0,0:0:0:0:
64,64,162139,1,0,0:0:0:0:
320,64,162186,1,8,0:0:0:0:
64,64,162280,1,0,0:0:0:0:
64,64,162373,1,0,0:0:0:0:
64,64,162561,1,0,0:0:0:0:
64,64,162608,1,0,0:0:0:0:
320,64,162655,1,8,0:0:0:0:
64,64,162701,1,0,0:0:0:0:
320,64,162748,1,8,0:0:0:0:
320,64,162795,1,8,0:0:0:0:
64,64,162842,1,0,0:0:0:0:
64,64,162889,1,0,0:0:0:0:
320,64,162936,1,8,0:0:0:0:
320,64,162983,1,8,0:0:0:0:
64,64,163030,1,0,0:0:0:0:
64,64,163311,1,0,0:0:0:0:
64,64,163592,1,0,0:0:0:0:
320,64,163780,1,8,0:0:0:0:
64,64,163967,1,0,0:0:0:0:
64,64,164061,1,0,0:0:0:0:
320,64,164155,1,8,0:0:0:0:
320,64,164201,1,8,0:0:0:0:
320,64,164248,1,8,0:0:0:0:
320,64,164295,1,8,0:0:0:0:
320,64,164342,1,8,0:0:0:0:
320,64,164389,1,8,0:0:0:0:
320,64,164436,1,8,0:0:0:0:
320,64,164483,1,8,0:0:0:0:
64,64,164530,1,4,0:0:0:0:
64,64,165092,1,0,0:0:0:0:
64,64,165186,1,0,0:0:0:0:
64,64,165467,1,0,0:0:0:0:
64,64,165561,1,0,0:0:0:0:
320,64,165655,1,8,0:0:0:0:
64,64,165936,1,0,0:0:0:0:
64,64,166030,1,0,0:0:0:0:
64,64,166311,1,0,0:0:0:0:
320,64,166405,1,8,0:0:0:0:
64,64,166592,1,0,0:0:0:0:
64,64,166686,1,0,0:0:0:0:
64,64,166780,1,0,0:0:0:0:
64,64,166967,1,0,0:0:0:0:
64,64,167061,1,0,0:0:0:0:
64,64,167155,1,0,0:0:0:0:
320,64,167248,1,8,0:0:0:0:
64,64,167295,1,0,0:0:0:0:
320,64,167342,1,8,0:0:0:0:
320,64,167436,1,8,0:0:0:0:
64,64,167530,1,0,0:0:0:0:
320,64,167717,1,8,0:0:0:0:
64,64,167811,1,0,0:0:0:0:
320,64,167905,1,8,0:0:0:0:
320,64,168092,1,8,0:0:0:0:
320,64,168186,1,8,0:0:0:0:
64,64,168280,1,0,0:0:0:0:
64,64,168467,1,0,0:0:0:0:
320,64,168561,1,8,0:0:0:0:
64,64,168655,1,0,0:0:0:0:
64,64,168748,1,0,0:0:0:0:
320,64,168842,1,8,0:0:0:0:
320,64,168936,1,8,0:0:0:0:
64,64,169030,1,0,0:0:0:0:
64,64,169311,1,0,0:0:0:0:
320,64,169405,1,8,0:0:0:0:
320,64,169498,1,8,0:0:0:0:
64,64,169592,1,0,0:0:0:0:
320,64,169686,1,8,0:0:0:0:
64,64,169780,1,0,0:0:0:0:
64,64,169967,1,0,0:0:0:0:
64,64,170061,1,0,0:0:0:0:
320,64,170155,1,8,0:0:0:0:
64,64,170248,1,0,0:0:0:0:
320,64,170342,1,8,0:0:0:0:
320,64,170436,1,8,0:0:0:0:
64,64,170530,1,0,0:0:0:0:
320,64,170717,1,8,0:0:0:0:
64,64,170811,1,0,0:0:0:0:
320,64,170905,1,8,0:0:0:0:
64,64,171092,1,0,0:0:0:0:
64,64,171186,1,0,0:0:0:0:
64,64,171280,1,0,0:0:0:0:
64,64,171467,1,0,0:0:0:0:
64,64,171561,1,0,0:0:0:0:
320,64,171655,1,8,0:0:0:0:
320,64,171936,1,8,0:0:0:0:
64,64,172030,1,0,0:0:0:0:
64,64,172311,1,0,0:0:0:0:
320,64,172405,1,8,0:0:0:0:
64,64,172592,1,0,0:0:0:0:
64,64,172686,1,0,0:0:0:0:
64,64,172780,1,0,0:0:0:0:
320,64,172967,1,8,0:0:0:0:
320,64,173061,1,8,0:0:0:0:
64,64,173155,1,0,0:0:0:0:
64,64,173248,1,0,0:0:0:0:
320,64,173342,1,8,0:0:0:0:
64,64,173436,1,0,0:0:0:0:
320,64,173530,1,8,0:0:0:0:
320,64,173717,1,8,0:0:0:0:
320,64,173811,1,8,0:0:0:0:
64,64,173905,1,0,0:0:0:0:
64,64,174092,1,0,0:0:0:0:
64,64,174186,1,0,0:0:0:0:
320,64,174280,1,8,0:0:0:0:
320,64,174467,1,8,0:0:0:0:
320,64,174561,1,8,0:0:0:0:
64,64,174655,1,0,0:0:0:0:
320,64,174748,1,8,0:0:0:0:
64,64,174842,1,0,0:0:0:0:
64,64,174936,1,0,0:0:0:0:
320,64,175030,1,8,0:0:0:0:
320,64,175311,1,8,0:0:0:0:
64,64,175405,1,0,0:0:0:0:
320,64,175592,1,8,0:0:0:0:
64,64,175686,1,0,0:0:0:0:
320,64,175780,1,8,0:0:0:0:
64,64,175967,1,0,0:0:0:0:
320,64,176061,1,8,0:0:0:0:
320,64,176155,1,8,0:0:0:0:
64,64,176248,1,0,0:0:0:0:
320,64,176436,1,8,0:0:0:0:
64,64,176530,1,0,0:0:0:0:
320,64,176717,1,8,0:0:0:0:
64,64,176811,1,0,0:0:0:0:
320,64,176905,1,8,0:0:0:0:
64,64,177092,1,0,0:0:0:0:
64,64,177186,1,0,0:0:0:0:
64,64,177280,1,0,0:0:0:0:
64,64,177561,1,0,0:0:0:0:
320,64,177655,1,8,0:0:0:0:
320,64,178030,1,8,0:0:0:0:
64,64,178123,1,0,0:0:0:0:
64,64,178311,1,0,0:0:0:0:
64,64,178405,1,0,0:0:0:0:
320,64,178592,1,8,0:0:0:0:
64,64,178686,1,0,0:0:0:0:
320,64,178780,1,8,0:0:0:0:
320,64,179061,1,8,0:0:0:0:
64,64,179155,1,0,0:0:0:0:
64,64,179248,1,0,0:0:0:0:
320,64,179342,1,8,0:0:0:0:
64,64,179436,1,0,0:0:0:0:
320,64,179530,1,8,0:0:0:0:
320,64,179717,1,8,0:0:0:0:
64,64,179811,1,0,0:0:0:0:
320,64,180092,1,8,0:0:0:0:
64,64,180186,1,0,0:0:0:0:
320,64,180280,1,8,0:0:0:0:
64,64,180467,1,0,0:0:0:0:
320,64,180561,1,8,0:0:0:0:
64,64,180655,1,0,0:0:0:0:
64,64,180748,1,0,0:0:0:0:
320,64,180842,1,8,0:0:0:0:
64,64,181030,1,0,0:0:0:0:
64,64,181123,1,0,0:0:0:0:
320,64,181311,1,8,0:0:0:0:
320,64,181498,1,8,0:0:0:0:
64,64,181592,1,0,0:0:0:0:
64,64,181686,1,0,0:0:0:0:
320,64,181780,1,8,0:0:0:0:
64,64,181967,1,0,0:0:0:0:
64,64,182061,1,0,0:0:0:0:
320,64,182155,1,8,0:0:0:0:
320,64,182248,1,8,0:0:0:0:
64,64,182342,1,0,0:0:0:0:
64,64,182436,1,0,0:0:0:0:
320,64,182530,1,8,0:0:0:0:
320,64,182717,1,8,0:0:0:0:
64,64,182811,1,0,0:0:0:0:
64,64,183092,1,0,0:0:0:0:
64,64,183186,1,0,0:0:0:0:
320,64,183280,1,8,0:0:0:0:
64,64,183467,1,0,0:0:0:0:
64,64,183561,1,0,0:0:0:0:
64,64,183655,1,0,0:0:0:0:
64,64,183842,1,0,0:0:0:0:
64,64,183936,1,0,0:0:0:0:
320,64,184030,1,8,0:0:0:0:
64,64,184123,1,0,0:0:0:0:
64,64,184311,1,0,0:0:0:0:
64,64,184405,1,0,0:0:0:0:
64,64,184592,1,0,0:0:0:0:
64,64,184686,1,0,0:0:0:0:
320,64,184780,1,8,0:0:0:0:
64,64,184967,1,0,0:0:0:0:
320,64,185061,1,8,0:0:0:0:
64,64,185155,1,0,0:0:0:0:
64,64,185248,1,0,0:0:0:0:
320,64,185342,1,8,0:0:0:0:
64,64,185436,1,0,0:0:0:0:
320,64,185530,1,8,0:0:0:0:
320,64,185717,1,8,0:0:0:0:
64,64,185811,1,0,0:0:0:0:
64,64,186092,1,0,0:0:0:0:
64,64,186186,1,0,0:0:0:0:
320,64,186280,1,8,0:0:0:0:
64,64,186467,1,0,0:0:0:0:
320,64,186561,1,8,0:0:0:0:
64,64,186655,1,0,0:0:0:0:
64,64,186748,1,0,0:0:0:0:
311,64,186842,1,8,0:0:0:0:
64,64,186936,1,0,0:0:0:0:
311,64,187030,1,8,0:0:0:0:
64,64,187123,1,0,0:0:0:0:
64,64,187311,1,0,0:0:0:0:
64,64,187405,1,0,0:0:0:0:
64,64,187592,1,0,0:0:0:0:
320,64,187686,1,8,0:0:0:0:
64,64,187780,1,0,0:0:0:0:
64,64,187967,1,0,0:0:0:0:
64,64,188061,1,0,0:0:0:0:
320,64,188155,1,8,0:0:0:0:
64,64,188248,1,0,0:0:0:0:
320,64,188342,1,8,0:0:0:0:
320,64,188436,1,8,0:0:0:0:
64,64,188530,1,4,0:0:0:0:
320,64,188717,1,8,0:0:0:0:
64,64,188811,1,0,0:0:0:0:
64,64,188998,1,0,0:0:0:0:
320,64,189092,1,8,0:0:0:0:
64,64,189280,1,0,0:0:0:0:
320,64,189467,1,8,0:0:0:0:
64,64,189561,1,0,0:0:0:0:
64,64,189748,1,0,0:0:0:0:
320,64,189842,1,8,0:0:0:0:
64,64,190030,1,0,0:0:0:0:
320,64,190217,1,8,0:0:0:0:
64,64,190311,1,0,0:0:0:0:
64,64,190498,1,0,0:0:0:0:
320,64,190592,1,8,0:0:0:0:
64,64,190780,1,0,0:0:0:0:
64,64,191155,1,0,0:0:0:0:
64,64,191342,1,0,0:0:0:0:
320,64,191530,1,8,0:0:0:0:
64,64,191717,1,0,0:0:0:0:
320,64,191811,1,8,0:0:0:0:
320,64,191998,1,8,0:0:0:0:
64,64,192092,1,0,0:0:0:0:
320,64,192280,1,8,0:0:0:0:
64,64,192467,1,0,0:0:0:0:
320,64,192561,1,8,0:0:0:0:
320,64,192748,1,8,0:0:0:0:
64,64,192842,1,0,0:0:0:0:
320,64,193030,1,8,0:0:0:0:
64,64,193217,1,0,0:0:0:0:
320,64,193311,1,8,0:0:0:0:
320,64,193498,1,8,0:0:0:0:
64,64,193592,1,0,0:0:0:0:
320,64,193780,1,8,0:0:0:0:
64,64,193905,1,0,0:0:0:0:
320,64,193967,1,8,0:0:0:0:
64,64,194155,1,0,0:0:0:0:
320,64,194342,1,8,0:0:0:0:
64,64,194530,1,0,0:0:0:0:
320,64,194717,1,8,0:0:0:0:
64,64,194811,1,0,0:0:0:0:
64,64,194998,1,0,0:0:0:0:
320,64,195092,1,8,0:0:0:0:
64,64,195280,1,0,0:0:0:0:
320,64,195467,1,8,0:0:0:0:
64,64,195561,1,0,0:0:0:0:
64,64,195748,1,0,0:0:0:0:
320,64,195842,1,8,0:0:0:0:
64,64,196030,1,0,0:0:0:0:
320,64,196217,1,8,0:0:0:0:
64,64,196311,1,0,0:0:0:0:
64,64,196498,1,0,0:0:0:0:
320,64,196592,1,8,0:0:0:0:
64,64,196780,1,0,0:0:0:0:
64,64,197155,1,0,0:0:0:0:
64,64,197342,1,0,0:0:0:0:
320,64,197530,1,8,0:0:0:0:
64,64,197717,1,0,0:0:0:0:
320,64,197811,1,8,0:0:0:0:
320,64,197998,1,8,0:0:0:0:
64,64,198092,1,0,0:0:0:0:
320,64,198280,1,8,0:0:0:0:
64,64,198467,1,0,0:0:0:0:
320,64,198561,1,8,0:0:0:0:
320,64,198748,1,8,0:0:0:0:
64,64,198842,1,0,0:0:0:0:
320,64,199030,1,8,0:0:0:0:
64,64,199217,1,0,0:0:0:0:
320,64,199311,1,8,0:0:0:0:
320,64,199498,1,8,0:0:0:0:
64,64,199592,1,0,0:0:0:0:
320,64,199780,1,8,0:0:0:0:
64,64,199905,1,0,0:0:0:0:
320,64,199967,1,8,0:0:0:0:
64,64,200155,1,0,0:0:0:0:
320,64,200342,1,8,0:0:0:0:
64,64,200530,1,4,0:0:0:0:
64,64,200811,1,4,0:0:0:0:
64,64,201092,1,4,0:0:0:0:
320,64,201280,1,8,0:0:0:0:
320,64,201342,1,8,0:0:0:0:
320,64,201405,1,8,0:0:0:0:
64,64,201467,1,0,0:0:0:0:
320,64,201561,1,8,0:0:0:0:
320,64,201623,1,8,0:0:0:0:
320,64,201686,1,8,0:0:0:0:
64,64,201748,1,0,0:0:0:0:
320,64,201842,1,8,0:0:0:0:
320,64,201905,1,8,0:0:0:0:
320,64,201967,1,8,0:0:0:0:
64,64,202030,1,4,0:0:0:0:
64,64,202311,1,4,0:0:0:0:
64,64,202592,1,4,0:0:0:0:
64,64,202780,1,0,0:0:0:0:
320,64,202826,1,8,0:0:0:0:
320,64,202873,1,8,0:0:0:0:
64,64,202967,1,0,0:0:0:0:
64,64,203061,1,0,0:0:0:0:
320,64,203108,1,8,0:0:0:0:
320,64,203155,1,8,0:0:0:0:
64,64,203248,1,0,0:0:0:0:
320,64,203342,1,8,0:0:0:0:
320,64,203389,1,8,0:0:0:0:
64,64,203436,1,0,0:0:0:0:
64,64,203530,1,4,0:0:0:0:
64,64,203811,1,4,0:0:0:0:
64,64,204092,1,4,0:0:0:0:
320,64,204280,1,8,0:0:0:0:
64,64,204326,1,0,0:0:0:0:
320,64,204467,1,8,0:0:0:0:
320,64,204561,1,8,0:0:0:0:
64,64,204608,1,0,0:0:0:0:
320,64,204748,1,8,0:0:0:0:
320,64,204842,1,8,0:0:0:0:
64,64,204889,1,0,0:0:0:0:
64,64,205030,1,4,0:0:0:0:
64,64,205311,1,4,0:0:0:0:
64,64,205592,1,4,0:0:0:0:
320,64,205780,1,8,0:0:0:0:
64,64,205826,1,0,0:0:0:0:
320,64,205873,1,8,0:0:0:0:
64,64,205920,1,0,0:0:0:0:
320,64,205967,1,8,0:0:0:0:
320,64,206030,1,8,0:0:0:0:
320,64,206092,1,8,0:0:0:0:
64,64,206155,1,0,0:0:0:0:
64,64,206248,1,0,0:0:0:0:
64,64,206342,1,0,0:0:0:0:
64,64,206530,1,4,0:0:0:0:
64,64,206811,1,4,0:0:0:0:
64,64,207092,1,4,0:0:0:0:
320,64,207280,1,8,0:0:0:0:
320,64,207342,1,8,0:0:0:0:
320,64,207405,1,8,0:0:0:0:
320,64,207467,1,8,0:0:0:0:
64,64,207561,1,0,0:0:0:0:
64,64,207623,1,0,0:0:0:0:
64,64,207686,1,0,0:0:0:0:
64,64,207748,1,0,0:0:0:0:
320,64,207842,1,8,0:0:0:0:
320,64,207905,1,8,0:0:0:0:
320,64,207967,1,8,0:0:0:0:
64,64,208030,1,4,0:0:0:0:
64,64,208311,1,4,0:0:0:0:
64,64,208592,1,4,0:0:0:0:
320,64,208780,1,8,0:0:0:0:
320,64,208811,1,8,0:0:0:0:
64,64,208967,1,0,0:0:0:0:
64,64,208998,1,0,0:0:0:0:
320,64,209061,1,8,0:0:0:0:
320,64,209092,1,8,0:0:0:0:
64,64,209248,1,0,0:0:0:0:
64,64,209280,1,0,0:0:0:0:
320,64,209342,1,8,0:0:0:0:
320,64,209373,1,8,0:0:0:0:
64,64,209436,1,0,0:0:0:0:
64,64,209530,1,4,0:0:0:0:
64,64,209811,1,4,0:0:0:0:
64,64,210092,1,4,0:0:0:0:
64,64,210280,1,0,0:0:0:0:
320,64,210326,1,8,0:0:0:0:
64,64,210467,1,0,0:0:0:0:
64,64,210561,1,0,0:0:0:0:
320,64,210608,1,8,0:0:0:0:
64,64,210748,1,0,0:0:0:0:
64,64,210842,1,0,0:0:0:0:
320,64,210889,1,8,0:0:0:0:
64,64,211030,1,4,0:0:0:0:
64,64,211311,1,4,0:0:0:0:
64,64,211592,1,4,0:0:0:0:
64,64,211780,1,0,0:0:0:0:
320,64,211873,1,8,0:0:0:0:
320,64,211967,1,8,0:0:0:0:
320,64,212155,1,8,0:0:0:0:
320,64,212342,1,8,0:0:0:0:
64,64,212530,1,4,0:0:0:0:
320,64,212811,1,8,0:0:0:0:
64,64,212905,1,0,0:0:0:0:
320,64,213092,1,8,0:0:0:0:
320,64,213186,1,8,0:0:0:0:
64,64,213280,1,0,0:0:0:0:
320,64,213373,1,8,0:0:0:0:
320,64,213561,1,8,0:0:0:0:
64,64,213655,1,0,0:0:0:0:
320,64,213842,1,8,0:0:0:0:
320,64,213936,1,8,0:0:0:0:
64,64,214030,1,0,0:0:0:0:
320,64,214123,1,8,0:0:0:0:
320,64,214311,1,8,0:0:0:0:
64,64,214405,1,0,0:0:0:0:
320,64,214592,1,8,0:0:0:0:
320,64,214686,1,8,0:0:0:0:
64,64,214780,1,0,0:0:0:0:
64,64,214826,1,0,0:0:0:0:
64,64,214873,1,0,0:0:0:0:
64,64,214920,1,0,0:0:0:0:
64,64,214967,1,0,0:0:0:0:
64,64,215061,1,0,0:0:0:0:
320,64,215155,1,8,0:0:0:0:
320,64,215201,1,8,0:0:0:0:
64,64,215248,1,0,0:0:0:0:
320,64,215342,1,8,0:0:0:0:
64,64,215530,1,0,0:0:0:0:
320,64,215623,1,8,0:0:0:0:
320,64,215811,1,8,0:0:0:0:
64,64,215905,1,0,0:0:0:0:
320,64,215998,1,8,0:0:0:0:
320,64,216092,1,8,0:0:0:0:
320,64,216186,1,8,0:0:0:0:
64,64,216280,1,0,0:0:0:0:
320,64,216373,1,8,0:0:0:0:
320,64,216561,1,8,0:0:0:0:
64,64,216655,1,0,0:0:0:0:
320,64,216748,1,8,0:0:0:0:
320,64,216842,1,8,0:0:0:0:
320,64,216936,1,8,0:0:0:0:
64,64,217030,1,0,0:0:0:0:
64,64,217123,1,0,0:0:0:0:
320,64,217217,1,8,0:0:0:0:
320,64,217311,1,8,0:0:0:0:
64,64,217405,1,0,0:0:0:0:
64,64,217498,1,0,0:0:0:0:
320,64,217592,1,8,0:0:0:0:
320,64,217686,1,8,0:0:0:0:
64,64,217780,1,0,0:0:0:0:
320,64,217826,1,8,0:0:0:0:
320,64,217873,1,8,0:0:0:0:
64,64,218061,1,0,0:0:0:0:
320,64,218108,1,8,0:0:0:0:
320,64,218155,1,8,0:0:0:0:
64,64,218342,1,0,0:0:0:0:
320,64,218389,1,8,0:0:0:0:
320,64,218436,1,8,0:0:0:0:
64,64,218530,1,0,0:0:0:0:
64,64,218623,1,0,0:0:0:0:
320,64,218717,1,8,0:0:0:0:
64,64,218811,1,0,0:0:0:0:
320,64,218905,1,8,0:0:0:0:
64,64,218998,1,0,0:0:0:0:
320,64,219092,1,8,0:0:0:0:
320,64,219139,1,8,0:0:0:0:
320,64,219186,1,8,0:0:0:0:
64,64,219280,1,0,0:0:0:0:
320,64,219373,1,8,0:0:0:0:
320,64,219420,1,8,0:0:0:0:
64,64,219467,1,0,0:0:0:0:
320,64,219561,1,8,0:0:0:0:
320,64,219608,1,8,0:0:0:0:
64,64,219655,1,0,0:0:0:0:
64,64,219748,1,0,0:0:0:0:
320,64,219842,1,8,0:0:0:0:
320,64,219889,1,8,0:0:0:0:
320,64,219936,1,8,0:0:0:0:
320,64,219983,1,8,0:0:0:0:
64,64,220030,1,0,0:0:0:0:
64,64,220123,1,0,0:0:0:0:
320,64,220217,1,8,0:0:0:0:
64,64,220311,1,0,0:0:0:0:
64,64,220358,1,0,0:0:0:0:
320,64,220405,1,8,0:0:0:0:
64,64,220498,1,0,0:0:0:0:
320,64,220592,1,8,0:0:0:0:
320,64,220639,1,8,0:0:0:0:
320,64,220686,1,8,0:0:0:0:
64,64,220780,1,0,0:0:0:0:
320,64,220873,1,8,0:0:0:0:
320,64,220920,1,8,0:0:0:0:
64,64,220967,1,0,0:0:0:0:
320,64,221061,1,8,0:0:0:0:
320,64,221108,1,8,0:0:0:0:
64,64,221155,1,0,0:0:0:0:
64,64,221248,1,0,0:0:0:0:
320,64,221342,1,8,0:0:0:0:
320,64,221389,1,8,0:0:0:0:
320,64,221436,1,8,0:0:0:0:
320,64,221483,1,8,0:0:0:0:
64,64,221530,1,0,0:0:0:0:
64,64,221623,1,0,0:0:0:0:
320,64,221717,1,8,0:0:0:0:
320,64,221764,1,8,0:0:0:0:
320,64,221811,1,8,0:0:0:0:
320,64,221858,1,8,0:0:0:0:
64,64,221905,1,0,0:0:0:0:
64,64,221998,1,0,0:0:0:0:
320,64,222092,1,8,0:0:0:0:
320,64,222139,1,8,0:0:0:0:
320,64,222186,1,8,0:0:0:0:
320,64,222233,1,8,0:0:0:0:
64,64,222280,1,0,0:0:0:0:
64,64,222373,1,0,0:0:0:0:
320,64,222467,1,8,0:0:0:0:
320,64,222514,1,8,0:0:0:0:
320,64,222561,1,8,0:0:0:0:
320,64,222608,1,8,0:0:0:0:
64,64,222655,1,0,0:0:0:0:
64,64,222748,1,0,0:0:0:0:
320,64,222842,1,8,0:0:0:0:
320,64,222889,1,8,0:0:0:0:
64,64,222936,1,0,0:0:0:0:
64,64,222983,1,0,0:0:0:0:
320,64,223030,1,8,0:0:0:0:
64,64,223076,1,0,0:0:0:0:
64,64,223123,1,0,0:0:0:0:
64,64,223170,1,0,0:0:0:0:
320,64,223217,1,8,0:0:0:0:
320,64,223264,1,8,0:0:0:0:
64,64,223311,1,0,0:0:0:0:
64,64,223358,1,0,0:0:0:0:
320,64,223405,1,8,0:0:0:0:
64,64,223451,1,0,0:0:0:0:
320,64,223498,1,8,0:0:0:0:
320,64,223545,1,8,0:0:0:0:
64,64,223592,1,0,0:0:0:0:
64,64,223639,1,0,0:0:0:0:
320,64,223686,1,8,0:0:0:0:
64,64,223733,1,0,0:0:0:0:
320,64,223780,1,8,0:0:0:0:
320,64,223967,1,8,0:0:0:0:
64,64,224061,1,0,0:0:0:0:
320,64,224155,1,8,0:0:0:0:
64,64,224342,1,0,0:0:0:0:
320,64,224530,1,8,0:0:0:0:
320,64,224623,1,8,0:0:0:0:
64,64,224716,1,0,0:0:0:0:
64,64,224812,1,0,0:0:0:0:
320,64,224908,1,8,0:0:0:0:
320,64,225006,1,8,0:0:0:0:
64,64,225100,1,0,0:0:0:0:
64,64,225201,1,0,0:0:0:0:
320,64,225302,1,8,0:0:0:0:
64,64,225404,1,0,0:0:0:0:
320,64,225507,1,8,0:0:0:0:
320,64,225611,1,8,0:0:0:0:
64,64,225715,1,0,0:0:0:0:
320,64,225820,1,8,0:0:0:0:
320,64,225926,1,8,0:0:0:0:
64,64,226033,1,0,0:0:0:0:
320,64,226140,1,8,0:0:0:0:
320,64,226248,1,8,0:0:0:0:
64,64,226357,1,0,0:0:0:0:
320,64,226467,1,8,0:0:0:0:
320,64,226577,1,8,0:0:0:0:
64,64,226689,1,0,0:0:0:0:
64,64,226802,1,0,0:0:0:0:
320,64,226917,1,8,0:0:0:0:
64,64,227032,1,0,0:0:0:0:
320,64,227150,1,8,0:0:0:0:
320,64,227268,1,8,0:0:0:0:
64,64,227388,1,0,0:0:0:0:
64,64,227509,1,0,0:0:0:0:
64,64,227633,1,0,0:0:0:0:
64,64,227757,1,0,0:0:0:0:
64,64,227885,1,0,0:0:0:0:
64,64,228013,1,0,0:0:0:0:
64,64,228145,1,0,0:0:0:0:
64,64,228277,1,0,0:0:0:0:
64,64,228413,1,0,0:0:0:0:
64,64,228549,1,0,0:0:0:0:
64,64,228690,1,0,0:0:0:0:
64,64,228832,1,0,0:0:0:0:
64,64,228979,1,0,0:0:0:0:
64,64,229126,1,0,0:0:0:0:
64,64,229279,1,0,0:0:0:0:
64,64,229432,1,0,0:0:0:0:
64,64,229591,1,0,0:0:0:0:
64,64,229751,1,0,0:0:0:0:
64,64,229917,1,0,0:0:0:0:
64,64,230084,1,0,0:0:0:0:
64,64,230258,1,0,0:0:0:0:
64,64,230432,1,0,0:0:0:0:
64,64,230614,1,0,0:0:0:0:
64,64,230797,1,0,0:0:0:0:
64,64,230989,1,0,0:0:0:0:
64,64,231181,1,0,0:0:0:0:
64,64,231385,1,0,0:0:0:0:
64,64,231589,1,0,0:0:0:0:
64,64,231807,1,0,0:0:0:0:
64,64,232026,1,0,0:0:0:0:
64,64,232264,1,0,0:0:0:0:
64,64,232518,1,0,0:0:0:0:
64,64,232785,1,0,0:0:0:0:
64,64,233073,1,0,0:0:0:0:
64,64,233385,1,0,0:0:0:0:
64,64,233718,1,0,0:0:0:0:
64,64,234093,1,0,0:0:0:0:
64,64,234527,1,0,0:0:0:0:
64,64,234995,1,0,0:0:0:0:
64,64,235464,1,0,0:0:0:0:
64,64,235933,1,0,0:0:0:0:
64,64,236402,1,0,0:0:0:0:
64,64,236870,1,0,0:0:0:0:
64,64,237339,1,0,0:0:0:0:
64,64,237808,1,0,0:0:0:0:
320,64,238277,1,8,0:0:0:0:
64,64,238511,1,0,0:0:0:0:
64,64,238628,1,0,0:0:0:0:
320,64,238980,1,8,0:0:0:0:
320,64,239214,1,8,0:0:0:0:
64,64,239448,1,0,0:0:0:0:
64,64,239566,1,0,0:0:0:0:
320,64,239917,1,8,0:0:0:0:
320,64,240152,1,8,0:0:0:0:
64,64,240386,1,0,0:0:0:0:
64,64,240503,1,0,0:0:0:0:
320,64,240855,1,8,0:0:0:0:
320,64,241089,1,8,0:0:0:0:
64,64,241323,1,0,0:0:0:0:
320,64,241441,1,8,0:0:0:0:
64,64,241558,1,0,0:0:0:0:
64,64,241792,1,0,0:0:0:0:
320,64,242027,1,8,0:0:0:0:
64,64,242261,1,0,0:0:0:0:
320,64,242378,1,8,0:0:0:0:
64,64,242495,1,0,0:0:0:0:
64,64,242612,1,0,0:0:0:0:
320,64,242730,1,8,0:0:0:0:
320,64,242964,1,8,0:0:0:0:
64,64,243198,1,0,0:0:0:0:
320,64,243316,1,8,0:0:0:0:
64,64,243433,1,0,0:0:0:0:
64,64,243550,1,0,0:0:0:0:
320,64,243667,1,8,0:0:0:0:
320,64,243902,1,8,0:0:0:0:
64,64,244136,1,0,0:0:0:0:
320,64,244253,1,8,0:0:0:0:
64,64,244370,1,0,0:0:0:0:
64,64,244487,1,0,0:0:0:0:
320,64,244605,1,8,0:0:0:0:
320,64,244839,1,8,0:0:0:0:
320,64,245073,1,8,0:0:0:0:
320,64,245191,1,8,0:0:0:0:
64,64,245308,1,0,0:0:0:0:
320,64,245542,1,8,0:0:0:0:
64,64,245777,1,4,0:0:0:0:
320,64,246011,1,8,0:0:0:0:
64,64,246128,1,0,0:0:0:0:
320,64,246362,1,8,0:0:0:0:
64,64,246480,1,0,0:0:0:0:
64,64,246714,1,0,0:0:0:0:
320,64,246948,1,8,0:0:0:0:
64,64,247066,1,0,0:0:0:0:
320,64,247300,1,8,0:0:0:0:
64,64,247417,1,0,0:0:0:0:
320,64,247534,1,8,0:0:0:0:
64,64,247652,1,4,0:0:0:0:
320,64,247886,1,8,0:0:0:0:
64,64,248003,1,0,0:0:0:0:
320,64,248237,1,8,0:0:0:0:
64,64,248355,1,0,0:0:0:0:
64,64,248589,1,0,0:0:0:0:
320,64,248823,1,8,0:0:0:0:
64,64,248941,1,0,0:0:0:0:
320,64,249175,1,8,0:0:0:0:
64,64,249292,1,0,0:0:0:0:
320,64,249409,1,8,0:0:0:0:
64,64,249527,1,0,0:0:0:0:
64,64,249644,1,0,0:0:0:0:
64,64,249761,1,0,0:0:0:0:
64,64,249878,1,0,0:0:0:0:
320,64,249995,1,8,0:0:0:0:
64,64,250112,1,0,0:0:0:0:
320,64,250230,1,8,0:0:0:0:
320,64,250347,1,8,0:0:0:0:
64,64,250464,1,0,0:0:0:0:
64,64,250581,1,0,0:0:0:0:
64,64,250698,1,0,0:0:0:0:
64,64,250816,1,0,0:0:0:0:
320,64,250933,1,8,0:0:0:0:
64,64,251050,1,0,0:0:0:0:
320,64,251167,1,8,0:0:0:0:
320,64,251284,1,8,0:0:0:0:
64,64,251402,1,0,0:0:0:0:
64,64,251460,1,0,0:0:0:0:
320,64,251519,1,8,0:0:0:0:
64,64,251577,1,0,0:0:0:0:
320,64,251636,1,8,0:0:0:0:
320,64,251694,1,8,0:0:0:0:
64,64,251753,1,0,0:0:0:0:
64,64,251812,1,0,0:0:0:0:
320,64,251870,1,8,0:0:0:0:
320,64,251929,1,8,0:0:0:0:
64,64,251987,1,0,0:0:0:0:
320,64,252046,1,8,0:0:0:0:
64,64,252105,1,0,0:0:0:0:
64,64,252163,1,0,0:0:0:0:
64,64,252222,1,0,0:0:0:0:
64,64,252280,1,0,0:0:0:0:
320,64,252339,1,8,0:0:0:0:
320,64,252573,1,8,0:0:0:0:
64,64,252691,1,0,0:0:0:0:
320,64,252808,1,8,0:0:0:0:
64,64,253042,1,0,0:0:0:0:
320,64,253277,1,8,0:0:0:0:
320,64,253335,1,8,0:0:0:0:
320,64,253394,1,8,0:0:0:0:
320,64,253452,1,8,0:0:0:0:
320,64,253511,1,8,0:0:0:0:
320,64,253569,1,8,0:0:0:0:
320,64,253628,1,8,0:0:0:0:
320,64,253687,1,8,0:0:0:0:
64,64,253745,1,0,0:0:0:0:
64,64,253862,1,0,0:0:0:0:
320,64,253980,1,8,0:0:0:0:
64,64,254097,1,0,0:0:0:0:
320,64,254214,1,8,0:0:0:0:
64,64,254331,1,0,0:0:0:0:
320,64,254448,1,8,0:0:0:0:
320,64,254566,1,8,0:0:0:0:
64,64,254683,1,0,0:0:0:0:
64,64,254800,1,0,0:0:0:0:
320,64,254917,1,8,0:0:0:0:
320,64,255034,1,8,0:0:0:0:
64,64,255152,1,0,0:0:0:0:
64,64,255210,1,0,0:0:0:0:
64,64,255269,1,0,0:0:0:0:
64,64,255327,1,0,0:0:0:0:
64,64,255386,1,0,0:0:0:0:
64,64,255444,1,0,0:0:0:0:
64,64,255503,1,0,0:0:0:0:
64,64,255562,1,0,0:0:0:0:
320,64,255620,1,8,0:0:0:0:
64,64,255737,1,0,0:0:0:0:
320,64,255855,1,8,0:0:0:0:
320,64,255972,1,8,0:0:0:0:
64,64,256089,1,0,0:0:0:0:
64,64,256206,1,0,0:0:0:0:
320,64,256323,1,8,0:0:0:0:
320,64,256441,1,8,0:0:0:0:
64,64,256558,1,0,0:0:0:0:
64,64,256616,1,0,0:0:0:0:
320,64,256675,1,8,0:0:0:0:
64,64,256792,1,0,0:0:0:0:
320,64,257027,1,8,0:0:0:0:
320,64,257085,1,8,0:0:0:0:
320,64,257144,1,8,0:0:0:0:
320,64,257202,1,8,0:0:0:0:
320,64,257261,1,8,0:0:0:0:
320,64,257319,1,8,0:0:0:0:
320,64,257378,1,8,0:0:0:0:
320,64,257437,1,8,0:0:0:0:
64,64,257495,1,0,0:0:0:0:
64,64,257612,1,0,0:0:0:0:
320,64,257730,1,8,0:0:0:0:
64,64,257847,1,0,0:0:0:0:
320,64,257964,1,8,0:0:0:0:
64,64,258081,1,0,0:0:0:0:
64,64,258198,1,0,0:0:0:0:
320,64,258316,1,8,0:0:0:0:
64,64,258433,1,0,0:0:0:0:
64,64,258550,1,0,0:0:0:0:
320,64,258667,1,8,0:0:0:0:
320,64,258784,1,8,0:0:0:0:
64,64,258902,1,0,0:0:0:0:
64,64,258960,1,0,0:0:0:0:
64,64,259019,1,0,0:0:0:0:
64,64,259077,1,0,0:0:0:0:
64,64,259136,1,0,0:0:0:0:
64,64,259194,1,0,0:0:0:0:
64,64,259253,1,0,0:0:0:0:
64,64,259312,1,0,0:0:0:0:
320,64,259370,1,8,0:0:0:0:
64,64,259487,1,0,0:0:0:0:
320,64,259605,1,8,0:0:0:0:
64,64,259722,1,0,0:0:0:0:
320,64,259839,1,8,0:0:0:0:
320,64,259956,1,8,0:0:0:0:
64,64,260073,1,0,0:0:0:0:
64,64,260191,1,0,0:0:0:0:
320,64,260308,1,8,0:0:0:0:
320,64,260542,1,8,0:0:0:0:
64,64,260777,1,0,0:0:0:0:
64,64,260835,1,0,0:0:0:0:
64,64,260894,1,0,0:0:0:0:
64,64,260952,1,0,0:0:0:0:
64,64,261011,1,0,0:0:0:0:
64,64,261069,1,0,0:0:0:0:
64,64,261128,1,0,0:0:0:0:
64,64,261187,1,0,0:0:0:0:
320,64,261245,1,8,0:0:0:0:
64,64,261362,1,0,0:0:0:0:
320,64,261480,1,8,0:0:0:0:
64,64,261597,1,0,0:0:0:0:
320,64,261714,1,8,0:0:0:0:
64,64,261831,1,0,0:0:0:0:
64,64,261948,1,0,0:0:0:0:
320,64,262066,1,8,0:0:0:0:
64,64,262183,1,0,0:0:0:0:
64,64,262300,1,0,0:0:0:0:
320,64,262417,1,8,0:0:0:0:
64,64,262534,1,0,0:0:0:0:
320,64,262652,1,8,0:0:0:0:
320,64,262710,1,8,0:0:0:0:
320,64,262769,1,8,0:0:0:0:
320,64,262827,1,8,0:0:0:0:
320,64,262886,1,8,0:0:0:0:
320,64,262944,1,8,0:0:0:0:
320,64,263003,1,8,0:0:0:0:
320,64,263062,1,8,0:0:0:0:
64,64,263120,1,0,0:0:0:0:
64,64,263237,1,0,0:0:0:0:
320,64,263355,1,8,0:0:0:0:
320,64,263472,1,8,0:0:0:0:
64,64,263589,1,0,0:0:0:0:
64,64,263706,1,0,0:0:0:0:
320,64,263823,1,8,0:0:0:0:
320,64,263941,1,8,0:0:0:0:
64,64,264058,1,0,0:0:0:0:
64,64,264116,1,0,0:0:0:0:
64,64,264175,1,0,0:0:0:0:
320,64,264292,1,8,0:0:0:0:
320,64,264527,1,8,0:0:0:0:
320,64,264585,1,8,0:0:0:0:
64,64,264644,1,0,0:0:0:0:
320,64,264878,1,8,0:0:0:0:
64,64,264995,1,0,0:0:0:0:
320,64,265112,1,8,0:0:0:0:
320,64,265171,1,8,0:0:0:0:
64,64,265230,1,0,0:0:0:0:
320,64,265347,1,8,0:0:0:0:
64,64,265464,1,0,0:0:0:0:
64,64,265581,1,0,0:0:0:0:
320,64,265698,1,8,0:0:0:0:
64,64,265816,1,0,0:0:0:0:
64,64,265874,1,0,0:0:0:0:
64,64,265933,1,0,0:0:0:0:
64,64,266167,1,0,0:0:0:0:
320,64,266402,1,8,0:0:0:0:
320,64,266519,1,8,0:0:0:0:
320,64,266636,1,8,0:0:0:0:
64,64,266694,1,0,0:0:0:0:
64,64,266753,1,0,0:0:0:0:
320,64,266870,1,8,0:0:0:0:
64,64,266987,1,0,0:0:0:0:
320,64,267105,1,8,0:0:0:0:
320,64,267222,1,8,0:0:0:0:
320,64,267573,1,8,0:0:0:0:
64,64,267730,1,0,0:0:0:0:
320,64,267808,1,8,0:0:0:0:
320,64,267886,1,8,0:0:0:0:
64,64,267964,1,0,0:0:0:0:
320,64,268042,1,8,0:0:0:0:
320,64,268120,1,8,0:0:0:0:
64,64,268198,1,0,0:0:0:0:
320,64,268277,1,8,0:0:0:0:
64,64,268335,1,0,0:0:0:0:
64,64,268394,1,0,0:0:0:0:
64,64,268452,1,0,0:0:0:0:
64,64,268511,1,0,0:0:0:0:
64,64,268569,1,0,0:0:0:0:
320,64,268628,1,8,0:0:0:0:
64,64,268687,1,0,0:0:0:0:
64,64,268745,1,0,0:0:0:0:
64,64,268804,1,0,0:0:0:0:
64,64,268862,1,0,0:0:0:0:
64,64,268921,1,0,0:0:0:0:
320,64,268980,1,8,0:0:0:0:
64,64,269097,1,0,0:0:0:0:
320,64,269214,1,8,0:0:0:0:
64,64,269331,1,0,0:0:0:0:
64,64,269448,1,0,0:0:0:0:
320,64,269566,1,8,0:0:0:0:
64,64,269683,1,0,0:0:0:0:
64,64,269800,1,0,0:0:0:0:
320,64,269917,1,8,0:0:0:0:
64,64,270034,1,0,0:0:0:0:
320,64,270152,1,8,0:0:0:0:
64,64,270210,1,0,0:0:0:0:
64,64,270269,1,0,0:0:0:0:
64,64,270327,1,0,0:0:0:0:
64,64,270386,1,0,0:0:0:0:
64,64,270444,1,0,0:0:0:0:
320,64,270503,1,8,0:0:0:0:
64,64,270562,1,0,0:0:0:0:
64,64,270620,1,0,0:0:0:0:
64,64,270679,1,0,0:0:0:0:
64,64,270737,1,0,0:0:0:0:
64,64,270796,1,0,0:0:0:0:
320,64,270855,1,8,0:0:0:0:
320,64,270972,1,8,0:0:0:0:
64,64,271089,1,0,0:0:0:0:
320,64,271206,1,8,0:0:0:0:
320,64,271323,1,8,0:0:0:0:
320,64,271441,1,8,0:0:0:0:
64,64,271558,1,0,0:0:0:0:
64,64,271616,1,0,0:0:0:0:
320,64,271675,1,8,0:0:0:0:
64,64,271792,1,0,0:0:0:0:
320,64,272027,1,8,0:0:0:0:
64,64,272085,1,0,0:0:0:0:
64,64,272144,1,0,0:0:0:0:
64,64,272202,1,0,0:0:0:0:
64,64,272261,1,0,0:0:0:0:
64,64,272319,1,0,0:0:0:0:
320,64,272378,1,8,0:0:0:0:
64,64,272437,1,0,0:0:0:0:
64,64,272495,1,0,0:0:0:0:
64,64,272554,1,0,0:0:0:0:
64,64,272612,1,0,0:0:0:0:
64,64,272671,1,0,0:0:0:0:
320,64,272730,1,8,0:0:0:0:
64,64,272847,1,0,0:0:0:0:
320,64,272964,1,8,0:0:0:0:
320,64,273081,1,8,0:0:0:0:
64,64,273198,1,0,0:0:0:0:
320,64,273316,1,8,0:0:0:0:
64,64,273433,1,0,0:0:0:0:
64,64,273550,1,0,0:0:0:0:
320,64,273667,1,8,0:0:0:0:
64,64,273784,1,0,0:0:0:0:
320,64,273902,1,8,0:0:0:0:
320,64,273960,1,8,0:0:0:0:
64,64,274019,1,0,0:0:0:0:
64,64,274077,1,0,0:0:0:0:
64,64,274136,1,0,0:0:0:0:
64,64,274194,1,0,0:0:0:0:
320,64,274253,1,8,0:0:0:0:
64,64,274312,1,0,0:0:0:0:
64,64,274370,1,0,0:0:0:0:
64,64,274429,1,0,0:0:0:0:
64,64,274487,1,0,0:0:0:0:
64,64,274546,1,0,0:0:0:0:
320,64,274605,1,8,0:0:0:0:
320,64,274722,1,8,0:0:0:0:
64,64,274839,1,0,0:0:0:0:
64,64,275073,1,0,0:0:0:0:
64,64,275191,1,0,0:0:0:0:
320,64,275308,1,8,0:0:0:0:
320,64,275542,1,8,0:0:0:0:
320,64,275777,1,8,0:0:0:0:
320,64,275835,1,8,0:0:0:0:
320,64,275894,1,8,0:0:0:0:
320,64,275952,1,8,0:0:0:0:
64,64,276011,1,0,0:0:0:0:
320,64,276128,1,8,0:0:0:0:
64,64,276245,1,0,0:0:0:0:
64,64,276359,1,0,0:0:0:0:
320,64,276474,1,8,0:0:0:0:
64,64,276588,1,0,0:0:0:0:
320,64,276703,1,8,0:0:0:0:
320,64,276758,1,8,0:0:0:0:
64,64,276814,1,0,0:0:0:0:
64,64,276926,1,0,0:0:0:0:
320,64,277038,1,8,0:0:0:0:
64,64,277150,1,0,0:0:0:0:
64,64,277259,1,0,0:0:0:0:
320,64,277368,1,8,0:0:0:0:
64,64,277478,1,0,0:0:0:0:
320,64,277587,1,8,0:0:0:0:
320,64,277640,1,8,0:0:0:0:
320,64,277694,1,8,0:0:0:0:
320,64,277747,1,8,0:0:0:0:
64,64,277801,1,0,0:0:0:0:
320,64,277908,1,8,0:0:0:0:
64,64,278015,1,0,0:0:0:0:
64,64,278119,1,0,0:0:0:0:
320,64,278224,1,8,0:0:0:0:
64,64,278329,1,0,0:0:0:0:
320,64,278434,1,8,0:0:0:0:
320,64,278485,1,8,0:0:0:0:
64,64,278536,1,0,0:0:0:0:
64,64,278639,1,0,0:0:0:0:
320,64,278742,1,8,0:0:0:0:
64,64,278844,1,0,0:0:0:0:
64,64,278944,1,0,0:0:0:0:
320,64,279045,1,8,0:0:0:0:
64,64,279146,1,0,0:0:0:0:
320,64,279246,1,8,0:0:0:0:
320,64,279295,1,8,0:0:0:0:
320,64,279345,1,8,0:0:0:0:
320,64,279394,1,8,0:0:0:0:
64,64,279444,1,0,0:0:0:0:
64,64,279543,1,0,0:0:0:0:
320,64,279642,1,8,0:0:0:0:
320,64,279690,1,8,0:0:0:0:
64,64,279739,1,0,0:0:0:0:
64,64,279788,1,0,0:0:0:0:
320,64,279836,1,8,0:0:0:0:
320,64,279934,1,8,0:0:0:0:
64,64,280031,1,0,0:0:0:0:
64,64,280078,1,0,0:0:0:0:
64,64,280126,1,0,0:0:0:0:
64,64,280174,1,0,0:0:0:0:
320,64,280222,1,8,0:0:0:0:
64,64,280317,1,0,0:0:0:0:
320,64,280413,1,8,0:0:0:0:
320,64,280460,1,8,0:0:0:0:
64,64,280507,1,0,0:0:0:0:
64,64,280554,1,0,0:0:0:0:
320,64,280601,1,8,0:0:0:0:
320,64,280696,1,8,0:0:0:0:
64,64,280966,1,0,0:0:0:0:
320,64,281154,1,8,0:0:0:0:
64,64,281341,1,0,0:0:0:0:
64,64,281388,1,0,0:0:0:0:
64,64,281435,1,0,0:0:0:0:
320,64,281529,1,8,0:0:0:0:
64,64,281716,1,0,0:0:0:0:
64,64,281810,1,0,0:0:0:0:
320,64,281904,1,12,0:0:0:0:
64,64,282091,1,0,0:0:0:0:
320,64,282279,1,8,0:0:0:0:
320,64,282325,1,8,0:0:0:0:
320,64,282372,1,8,0:0:0:0:
320,64,282419,1,8,0:0:0:0:
64,64,282466,1,0,0:0:0:0:
320,64,282560,1,8,0:0:0:0:
64,64,282654,1,0,0:0:0:0:
64,64,282747,1,0,0:0:0:0:
320,64,282841,1,8,0:0:0:0:
64,64,282935,1,0,0:0:0:0:
320,64,283029,1,8,0:0:0:0:
320,64,283122,1,8,0:0:0:0:
64,64,283216,1,0,0:0:0:0:
320,64,283310,1,8,0:0:0:0:
64,64,283404,1,0,0:0:0:0:
64,64,283497,1,0,0:0:0:0:
320,64,283591,1,8,0:0:0:0:
64,64,283685,1,0,0:0:0:0:
320,64,283779,1,8,0:0:0:0:
320,64,283825,1,8,0:0:0:0:
320,64,283872,1,8,0:0:0:0:
320,64,283919,1,8,0:0:0:0:
64,64,283966,1,0,0:0:0:0:
320,64,284060,1,8,0:0:0:0:
64,64,284154,1,0,0:0:0:0:
64,64,284247,1,0,0:0:0:0:
320,64,284341,1,8,0:0:0:0:
64,64,284435,1,0,0:0:0:0:
320,64,284529,1,8,0:0:0:0:
320,64,284622,1,8,0:0:0:0:
64,64,284716,1,0,0:0:0:0:
320,64,284810,1,8,0:0:0:0:
64,64,284904,1,0,0:0:0:0:
64,64,284950,1,0,0:0:0:0:
64,64,284997,1,0,0:0:0:0:
64,64,285044,1,0,0:0:0:0:
320,64,285091,1,8,0:0:0:0:
64,64,285185,1,0,0:0:0:0:
320,64,285279,1,8,0:0:0:0:
320,64,285325,1,8,0:0:0:0:
320,64,285372,1,8,0:0:0:0:
320,64,285419,1,8,0:0:0:0:
64,64,285466,1,0,0:0:0:0:
320,64,285560,1,8,0:0:0:0:
64,64,285654,1,0,0:0:0:0:
64,64,285747,1,0,0:0:0:0:
320,64,285841,1,8,0:0:0:0:
64,64,285935,1,0,0:0:0:0:
320,64,286029,1,8,0:0:0:0:
320,64,286122,1,8,0:0:0:0:
64,64,286216,1,0,0:0:0:0:
320,64,286310,1,8,0:0:0:0:
64,64,286404,1,0,0:0:0:0:
64,64,286497,1,0,0:0:0:0:
320,64,286591,1,8,0:0:0:0:
64,64,286685,1,0,0:0:0:0:
320,64,286779,1,8,0:0:0:0:
320,64,286825,1,8,0:0:0:0:
320,64,286872,1,8,0:0:0:0:
320,64,286919,1,8,0:0:0:0:
64,64,286966,1,0,0:0:0:0:
320,64,287060,1,8,0:0:0:0:
64,64,287154,1,0,0:0:0:0:
64,64,287247,1,0,0:0:0:0:
320,64,287341,1,8,0:0:0:0:
64,64,287435,1,0,0:0:0:0:
320,64,287529,1,8,0:0:0:0:
320,64,287575,1,8,0:0:0:0:
64,64,287622,1,0,0:0:0:0:
64,64,287669,1,0,0:0:0:0:
320,64,287716,1,8,0:0:0:0:
320,64,287810,1,8,0:0:0:0:
64,64,287904,1,0,0:0:0:0:
64,64,287950,1,0,0:0:0:0:
320,64,287997,1,8,0:0:0:0:
320,64,288044,1,8,0:0:0:0:
64,64,288091,1,0,0:0:0:0:
64,64,288185,1,0,0:0:0:0:
320,64,288279,1,8,0:0:0:0:
320,64,288325,1,8,0:0:0:0:
320,64,288372,1,8,0:0:0:0:
320,64,288419,1,8,0:0:0:0:
64,64,288466,1,0,0:0:0:0:
64,64,288560,1,0,0:0:0:0:
320,64,288607,1,8,0:0:0:0:
64,64,288654,1,0,0:0:0:0:
64,64,288747,1,0,0:0:0:0:
320,64,288841,1,8,0:0:0:0:
64,64,288935,1,0,0:0:0:0:
320,64,289029,1,8,0:0:0:0:
320,64,289122,1,8,0:0:0:0:
64,64,289216,1,0,0:0:0:0:
320,64,289310,1,8,0:0:0:0:
64,64,289404,1,0,0:0:0:0:
64,64,289497,1,0,0:0:0:0:
320,64,289591,1,8,0:0:0:0:
64,64,289685,1,0,0:0:0:0:
320,64,289779,1,8,0:0:0:0:
320,64,289825,1,8,0:0:0:0:
320,64,289872,1,8,0:0:0:0:
320,64,289919,1,8,0:0:0:0:
64,64,289966,1,0,0:0:0:0:
320,64,290060,1,8,0:0:0:0:
64,64,290154,1,0,0:0:0:0:
64,64,290247,1,0,0:0:0:0:
320,64,290341,1,8,0:0:0:0:
64,64,290435,1,0,0:0:0:0:
320,64,290529,1,8,0:0:0:0:
320,64,290622,1,8,0:0:0:0:
64,64,290716,1,0,0:0:0:0:
320,64,290810,1,8,0:0:0:0:
64,64,290904,1,0,0:0:0:0:
64,64,290950,1,0,0:0:0:0:
64,64,290997,1,0,0:0:0:0:
64,64,291044,1,0,0:0:0:0:
320,64,291091,1,8,0:0:0:0:
64,64,291185,1,0,0:0:0:0:
320,64,291279,1,8,0:0:0:0:
320,64,291325,1,8,0:0:0:0:
320,64,291372,1,8,0:0:0:0:
320,64,291419,1,8,0:0:0:0:
64,64,291466,1,0,0:0:0:0:
320,64,291560,1,8,0:0:0:0:
320,64,291607,1,8,0:0:0:0:
64,64,291654,1,0,0:0:0:0:
320,64,291747,1,8,0:0:0:0:
64,64,291841,1,0,0:0:0:0:
64,64,291888,1,0,0:0:0:0:
320,64,291935,1,8,0:0:0:0:
64,64,292029,1,0,0:0:0:0:
64,64,292075,1,0,0:0:0:0:
64,64,292122,1,0,0:0:0:0:
64,64,292169,1,0,0:0:0:0:
320,64,292216,1,8,0:0:0:0:
64,64,292310,1,0,0:0:0:0:
64,64,292357,1,0,0:0:0:0:
320,64,292404,1,8,0:0:0:0:
64,64,292497,1,0,0:0:0:0:
320,64,292591,1,8,0:0:0:0:
320,64,292638,1,8,0:0:0:0:
64,64,292685,1,0,0:0:0:0:
64,64,292779,1,0,0:0:0:0:
320,64,292872,1,8,0:0:0:0:
320,64,292919,1,8,0:0:0:0:
320,64,292966,1,8,0:0:0:0:
320,64,293013,1,8,0:0:0:0:
64,64,293060,1,0,0:0:0:0:
320,64,293154,1,8,0:0:0:0:
320,64,293200,1,8,0:0:0:0:
64,64,293247,1,0,0:0:0:0:
64,64,293341,1,0,0:0:0:0:
320,64,293435,1,8,0:0:0:0:
320,64,293482,1,8,0:0:0:0:
64,64,293529,1,0,0:0:0:0:
320,64,293622,1,8,0:0:0:0:
64,64,293669,1,0,0:0:0:0:
320,64,293716,1,8,0:0:0:0:
64,64,293810,1,0,0:0:0:0:
320,64,293904,1,8,0:0:0:0:
64,64,293997,1,0,0:0:0:0:
64,64,294044,1,0,0:0:0:0:
320,64,294091,1,8,0:0:0:0:
64,64,294185,1,0,0:0:0:0:
320,64,294279,1,12,0:0:0:0:
64,64,294466,1,0,0:0:0:0:
64,64,294654,1,0,0:0:0:0:
64,64,294700,1,0,0:0:0:0:
320,64,294747,1,8,0:0:0:0:
64,64,294794,1,0,0:0:0:0:
320,64,294841,1,8,0:0:0:0:
64,64,294935,1,0,0:0:0:0:
320,64,295029,1,8,0:0:0:0:
320,64,295122,1,8,0:0:0:0:
64,64,295216,1,0,0:0:0:0:
320,64,295310,1,8,0:0:0:0:
64,64,295404,1,0,0:0:0:0:
64,64,295497,1,0,0:0:0:0:
320,64,295591,1,8,0:0:0:0:
64,64,295685,1,0,0:0:0:0:
320,64,295779,1,8,0:0:0:0:
320,64,295825,1,8,0:0:0:0:
320,64,295872,1,8,0:0:0:0:
320,64,295919,1,8,0:0:0:0:
64,64,295966,1,0,0:0:0:0:
320,64,296060,1,8,0:0:0:0:
64,64,296154,1,0,0:0:0:0:
64,64,296247,1,0,0:0:0:0:
320,64,296341,1,8,0:0:0:0:
64,64,296435,1,0,0:0:0:0:
320,64,296529,1,8,0:0:0:0:
64,64,296575,1,0,0:0:0:0:
320,64,296622,1,8,0:0:0:0:
64,64,296716,1,0,0:0:0:0:
320,64,296810,1,8,0:0:0:0:
64,64,296904,1,0,0:0:0:0:
64,64,296997,1,0,0:0:0:0:
64,64,297044,1,0,0:0:0:0:
320,64,297091,1,8,0:0:0:0:
64,64,297185,1,0,0:0:0:0:
320,64,297279,1,8,0:0:0:0:
320,64,297325,1,8,0:0:0:0:
320,64,297372,1,8,0:0:0:0:
320,64,297419,1,8,0:0:0:0:
64,64,297466,1,0,0:0:0:0:
64,64,297654,1,4,0:0:0:0:
320,64,297841,1,8,0:0:0:0:
64,64,297935,1,0,0:0:0:0:
320,64,298029,1,8,0:0:0:0:
320,64,298122,1,8,0:0:0:0:
64,64,298216,1,0,0:0:0:0:
320,64,298310,1,8,0:0:0:0:
64,64,298404,1,0,0:0:0:0:
64,64,298497,1,0,0:0:0:0:
320,64,298591,1,8,0:0:0:0:
64,64,298685,1,0,0:0:0:0:
320,64,298779,1,8,0:0:0:0:
320,64,298825,1,8,0:0:0:0:
64,64,298872,1,0,0:0:0:0:
320,64,298966,1,8,0:0:0:0:
64,64,299060,1,0,0:0:0:0:
64,64,299107,1,0,0:0:0:0:
320,64,299154,1,8,0:0:0:0:
64,64,299247,1,0,0:0:0:0:
320,64,299341,1,8,0:0:0:0:
320,64,299435,1,8,0:0:0:0:
64,64,299529,1,4,0:0:0:0:
320,64,299716,1,8,0:0:0:0:
64,64,299810,1,0,0:0:0:0:
320,64,299904,1,8,0:0:0:0:
320,64,299966,1,8,0:0:0:0:
320,64,300029,1,8,0:0:0:0:
64,64,300091,1,0,0:0:0:0:
320,64,300185,1,8,0:0:0:0:
64,64,300279,1,0,0:0:0:0:
64,64,300325,1,0,0:0:0:0:
64,64,300372,1,0,0:0:0:0:
64,64,300419,1,0,0:0:0:0:
320,64,300466,1,8,0:0:0:0:
64,64,300560,1,0,0:0:0:0:
64,64,300607,1,0,0:0:0:0:
320,64,300654,1,8,0:0:0:0:
320,64,300747,1,8,0:0:0:0:
64,64,300841,1,0,0:0:0:0:
64,64,300888,1,0,0:0:0:0:
320,64,300935,1,8,0:0:0:0:
320,64,301029,1,8,0:0:0:0:
320,64,301075,1,8,0:0:0:0:
320,64,301122,1,8,0:0:0:0:
320,64,301169,1,8,0:0:0:0:
64,64,301216,1,0,0:0:0:0:
320,64,301310,1,8,0:0:0:0:
320,64,301357,1,8,0:0:0:0:
64,64,301404,1,0,0:0:0:0:
64,64,301497,1,0,0:0:0:0:
320,64,301591,1,8,0:0:0:0:
320,64,301638,1,8,0:0:0:0:
64,64,301685,1,0,0:0:0:0:
64,64,301779,1,0,0:0:0:0:
64,64,301825,1,0,0:0:0:0:
64,64,301872,1,0,0:0:0:0:
64,64,301919,1,0,0:0:0:0:
320,64,301966,1,8,0:0:0:0:
64,64,302060,1,0,0:0:0:0:
64,64,302107,1,0,0:0:0:0:
320,64,302154,1,8,0:0:0:0:
320,64,302247,1,8,0:0:0:0:
64,64,302341,1,0,0:0:0:0:
64,64,302388,1,0,0:0:0:0:
320,64,302435,1,8,0:0:0:0:
64,64,302529,1,0,0:0:0:0:
64,64,302622,1,0,0:0:0:0:
320,64,302716,1,8,0:0:0:0:
64,64,302810,1,0,0:0:0:0:
64,64,302997,1,0,0:0:0:0:
320,64,303091,1,8,0:0:0:0:
320,64,303279,1,8,0:0:0:0:
320,64,303325,1,8,0:0:0:0:
64,64,303372,1,0,0:0:0:0:
320,64,303466,1,8,0:0:0:0:
320,64,303560,1,8,0:0:0:0:
320,64,303607,1,8,0:0:0:0:
64,64,303654,1,0,0:0:0:0:
320,64,303747,1,8,0:0:0:0:
320,64,303841,1,8,0:0:0:0:
320,64,303888,1,8,0:0:0:0:
320,64,303935,1,8,0:0:0:0:
320,64,303982,1,8,0:0:0:0:
64,64,304029,1,0,0:0:0:0:
320,64,304122,1,8,0:0:0:0:
320,64,304169,1,8,0:0:0:0:
64,64,304216,1,0,0:0:0:0:
320,64,304310,1,8,0:0:0:0:
320,64,304404,1,8,0:0:0:0:
64,64,304450,1,0,0:0:0:0:
320,64,304497,1,8,0:0:0:0:
320,64,304591,1,8,0:0:0:0:
320,64,304638,1,8,0:0:0:0:
320,64,304685,1,8,0:0:0:0:
320,64,304732,1,8,0:0:0:0:
64,64,304779,1,0,0:0:0:0:
64,64,305341,1,0,0:0:0:0:
64,64,305388,1,0,0:0:0:0:
64,64,305435,1,0,0:0:0:0:
320,64,305529,1,8,0:0:0:0:
320,64,305622,1,8,0:0:0:0:
64,64,305716,1,0,0:0:0:0:
320,64,305810,1,8,0:0:0:0:
64,64,305904,1,0,0:0:0:0:
64,64,305950,1,0,0:0:0:0:
64,64,305997,1,0,0:0:0:0:
64,64,306044,1,0,0:0:0:0:
64,64,306091,1,0,0:0:0:0:
64,64,306138,1,0,0:0:0:0:
64,64,306185,1,0,0:0:0:0:
64,64,306232,1,0,0:0:0:0:
320,64,306279,1,12,0:0:0:0:
64,64,306935,1,0,0:0:0:0:
64,64,307029,1,0,0:0:0:0:
64,64,307216,1,0,0:0:0:0:
64,64,307310,1,0,0:0:0:0:
320,64,307404,1,8,0:0:0:0:
320,64,307685,1,8,0:0:0:0:
64,64,307779,1,0,0:0:0:0:
64,64,308060,1,0,0:0:0:0:
320,64,308154,1,8,0:0:0:0:
64,64,308341,1,0,0:0:0:0:
64,64,308435,1,0,0:0:0:0:
64,64,308529,1,0,0:0:0:0:
64,64,308716,1,0,0:0:0:0:
64,64,308810,1,0,0:0:0:0:
320,64,308904,1,8,0:0:0:0:
64,64,308997,1,0,0:0:0:0:
64,64,309091,1,0,0:0:0:0:
320,64,309185,1,8,0:0:0:0:
64,64,309279,1,0,0:0:0:0:
320,64,309466,1,8,0:0:0:0:
64,64,309841,1,0,0:0:0:0:
64,64,309935,1,0,0:0:0:0:
64,64,310029,1,0,0:0:0:0:
64,64,310216,1,0,0:0:0:0:
64,64,310310,1,0,0:0:0:0:
320,64,310404,1,8,0:0:0:0:
64,64,310497,1,0,0:0:0:0:
320,64,310591,1,8,0:0:0:0:
320,64,310685,1,8,0:0:0:0:
64,64,310779,1,0,0:0:0:0:
64,64,311060,1,0,0:0:0:0:
320,64,311154,1,8,0:0:0:0:
64,64,311435,1,0,0:0:0:0:
64,64,311529,1,0,0:0:0:0:
64,64,311716,1,0,0:0:0:0:
64,64,311810,1,0,0:0:0:0:
320,64,311904,1,8,0:0:0:0:
320,64,311997,1,8,0:0:0:0:
64,64,312091,1,0,0:0:0:0:
320,64,312185,1,8,0:0:0:0:
64,64,312279,1,0,0:0:0:0:
