osu file format v14

[General]
AudioFilename: audio.mp3
AudioLeadIn: 0
PreviewTime: 140530
Countdown: 0
SampleSet: None
StackLeniency: 0.7
Mode: 3
LetterboxInBreaks: 0
SpecialStyle: 0
WidescreenStoryboard: 1

[Editor]
DistanceSpacing: 1
BeatDivisor: 8
GridSize: 32
TimelineZoom: 2.1

[Metadata]
Title:We Could Get More Machinegun Psystyle! (And More Genre Switches)
TitleUnicode:We Could Get More Machinegun Psystyle! (And More Genre Switches)
Artist:Camellia
ArtistUnicode:かめりあ
Creator:[OSC]Amagai
Version:ChordStream! [And More Pattern Switches]
Source:
Tags:Blackmagik Blazing comiket 96 c96
BeatmapID:3087004
BeatmapSetID:1507220

[Difficulty]
HPDrainRate:8
CircleSize:7
OverallDifficulty:7
ApproachRate:5
SliderMultiplier:2
SliderTickRate:1

[Events]
//Background and Video events
0,0,"72006819_p0_master1200.jpg",0,0
//Break Periods
//Storyboard Layer 0 (Background)
//Storyboard Layer 1 (Fail)
//Storyboard Layer 2 (Pass)
//Storyboard Layer 3 (Foreground)
//Storyboard Layer 4 (Overlay)
//Storyboard Sound Samples

[TimingPoints]
1543,375,4,3,0,20,1,0
1543,-100,4,3,0,20,0,0
49543,352.941176470588,4,3,0,20,1,0
49543,-106.382978723404,4,3,0,20,0,0
49719,342.857142857143,4,3,0,20,1,8
49719,-109.89010989011,4,3,0,20,0,8
49890,333.333333333333,4,3,0,20,1,8
49890,-112.359550561798,4,3,0,20,0,8
50056,324.324324324324,4,3,0,20,1,8
50056,-116.279069767442,4,3,0,20,0,8
50218,315.789473684211,4,3,0,20,1,8
50218,-119.047619047619,4,3,0,20,0,8
50375,307.692307692308,4,3,0,20,1,8
50375,-121.951219512195,4,3,0,20,0,8
50528,300,4,3,0,20,1,8
50528,-125,4,3,0,20,0,8
50678,292.682926829268,4,3,0,20,1,8
50678,-128.205128205128,4,3,0,20,0,8
50824,285.714285714286,4,3,0,20,1,0
50824,-131.578947368421,4,3,0,20,0,0
50966,279.06976744186,4,3,0,20,1,8
50966,-135.135135135135,4,3,0,20,0,8
51103,272.727272727273,4,3,0,20,1,8
51103,-136.986301369863,4,3,0,20,0,8
51238,266.666666666667,4,3,0,20,1,8
51238,-140.845070422535,4,3,0,20,0,8
51370,260.869565217391,4,3,0,20,1,8
51370,-142.857142857143,4,3,0,20,0,8
51498,255.31914893617,4,3,0,20,1,8
51498,-147.058823529412,4,3,0,20,0,8
51623,250,4,3,0,20,1,8
51623,-149.253731343284,4,3,0,20,0,8
51746,244.897959183673,4,3,0,20,1,8
51746,-153.846153846154,4,3,0,20,0,8
51868,240,4,3,0,20,1,0
51868,-156.25,4,3,0,20,0,0
51982,235.294117647059,4,3,0,20,1,8
51982,-158.730158730159,4,3,0,20,0,8
52097,230.769230769231,4,3,0,20,1,8
52097,-161.290322580645,4,3,0,20,0,8
52206,226.415094339623,4,3,0,20,1,8
52206,-166.666666666667,4,3,0,20,0,8
52315,222.222222222222,4,3,0,20,1,8
52315,-169.491525423729,4,3,0,20,0,8
52424,218.181818181818,4,3,0,20,1,8
52424,-172.413793103448,4,3,0,20,0,8
52531,214.285714285714,4,3,0,20,1,8
52531,-175.438596491228,4,3,0,20,0,8
52636,210.526315789474,4,3,0,20,1,8
52636,-178.571428571429,4,3,0,20,0,8
52741,206.896551724138,4,3,0,20,1,0
52741,-181.818181818182,4,3,0,20,0,0
52844,203.389830508475,4,3,0,20,1,8
52844,-185.185185185185,4,3,0,20,0,8
52945,200,4,3,0,20,1,8
52945,-188.679245283019,4,3,0,20,0,8
53045,198.347107438017,4,3,0,20,1,8
53045,-188.679245283019,4,3,0,20,0,8
53144,196.72131147541,4,3,0,20,1,8
53144,-192.307692307692,4,3,0,20,0,8
53242,195.121951219512,4,3,0,20,1,8
53242,-192.307692307692,4,3,0,20,0,8
53339,193.548387096774,4,3,0,20,1,8
53339,-192.307692307692,4,3,0,20,0,8
53435,192,4,3,0,20,1,8
53435,-196.078431372549,4,3,0,20,0,8
53531,190.47619047619,4,3,0,20,1,0
53531,-196.078431372549,4,3,0,20,0,0
53626,188.976377952756,4,3,0,20,1,8
53626,-200,4,3,0,20,0,8
53720,187.5,4,3,0,20,1,8
53720,-200,4,3,0,20,0,8
54282,187.5,4,3,0,20,1,0
54282,-200,4,3,0,20,0,0
56530,375,4,3,0,20,1,0
56530,-100,4,3,0,20,0,0
62530,-100,4,3,0,20,0,1
73030,-100,4,3,0,20,0,0
74530,-100,4,3,0,20,0,1
85030,-100,4,3,0,20,0,0
86530,-100,4,3,0,20,0,1
98530,-100,4,3,0,20,0,0
140530,-100,4,3,0,20,0,1
164530,-100,4,3,0,20,0,0
224716,384.615384615385,4,3,0,20,1,8
224716,-97.0873786407767,4,3,0,20,0,8
224908,394.736842105263,4,3,0,20,1,8
224908,-95.2380952380952,4,3,0,20,0,8
225100,405.405405405405,4,3,0,20,1,8
225100,-92.5925925925926,4,3,0,20,0,8
225302,410.958904109589,4,3,0,20,1,8
225302,-90.9090909090909,4,3,0,20,0,8
225507,416.666666666667,4,3,0,20,1,8
225507,-90.0900900900901,4,3,0,20,0,8
225715,422.535211267606,4,3,0,20,1,8
225715,-88.495575221239,4,3,0,20,0,8
225926,428.571428571429,4,3,0,20,1,8
225926,-87.719298245614,4,3,0,20,0,8
226140,434.782608695652,4,3,0,20,1,0
226140,-86.2068965517241,4,3,0,20,0,0
226357,441.176470588235,4,3,0,20,1,8
226357,-84.7457627118644,4,3,0,20,0,8
226577,451.127819548872,4,3,0,20,1,8
226577,-83.3333333333333,4,3,0,20,0,8
226802,461.538461538462,4,3,0,20,1,8
226802,-81.3008130081301,4,3,0,20,0,8
227032,472.44094488189,4,3,0,20,1,8
227032,-79.3650793650794,4,3,0,20,0,8
227268,483.870967741935,4,3,0,20,1,8
227268,-77.5193798449612,4,3,0,20,0,8
227509,497.92531120332,4,3,0,20,1,8
227509,-75.187969924812,4,3,0,20,0,8
227757,512.820512820513,4,3,0,20,1,8
227757,-72.992700729927,4,3,0,20,0,8
228013,528.63436123348,4,3,0,20,1,0
228013,-70.9219858156028,4,3,0,20,0,0
228277,545.454545454546,4,3,0,20,1,8
228277,-68.9655172413793,4,3,0,20,0,8
228549,566.037735849057,4,3,0,20,1,8
228549,-66.2251655629139,4,3,0,20,0,8
228832,588.235294117647,4,3,0,20,1,8
228832,-63.6942675159236,4,3,0,20,0,8
229126,612.244897959184,4,3,0,20,1,8
229126,-61.3496932515337,4,3,0,20,0,8
229432,638.297872340426,4,3,0,20,1,8
229432,-58.8235294117647,4,3,0,20,0,8
229751,666.666666666667,4,3,0,20,1,8
229751,-56.1797752808989,4,3,0,20,0,8
230084,697.674418604651,4,3,0,20,1,8
230084,-53.763440860215,4,3,0,20,0,8
230432,731.707317073171,4,3,0,20,1,0
230432,-51.2820512820513,4,3,0,20,0,0
230797,769.230769230769,4,3,0,20,1,8
230797,-48.780487804878,4,3,0,20,0,8
231181,816.326530612245,4,3,0,20,1,8
231181,-45.8715596330275,4,3,0,20,0,8
231589,875.912408759124,4,3,0,20,1,8
231589,-42.7350427350427,4,3,0,20,0,8
232026,952.380952380952,4,3,0,20,1,8
232026,-39.3700787401575,4,3,0,20,0,8
232264,1016.94915254237,4,3,0,20,1,8
232264,-36.90036900369,4,3,0,20,0,8
232518,1071.42857142857,4,3,0,20,1,8
232518,-34.965034965035,4,3,0,20,0,8
232785,1153.84615384615,4,3,0,20,1,8
232785,-32.4675324675325,4,3,0,20,0,8
233073,1250,4,3,0,20,1,8
233073,-30.03003003003,4,3,0,20,0,8
233385,1333.33333333333,4,3,0,20,1,8
233385,-28.0898876404494,4,3,0,20,0,8
233718,1500,4,3,0,20,1,8
233718,-25,4,3,0,20,0,8
234093,1739.13043478261,4,3,0,20,1,8
234093,-21.551724137931,4,3,0,20,0,8
234527,1875,4,3,0,20,1,0
234527,-20,4,3,0,20,0,0
238277,468.75,4,3,0,20,1,0
238277,-80,4,3,0,20,0,0
253277,-80,4,3,0,20,0,1
266402,-80,4,3,0,20,0,0
268277,-80,4,3,0,20,0,1
276245,458.015267175573,4,3,0,20,1,9
276245,-81.9672131147541,4,3,0,20,0,9
276703,447.761194029851,4,3,0,20,1,9
276703,-84.0336134453782,4,3,0,20,0,9
277150,437.956204379562,4,3,0,20,1,9
277150,-85.4700854700855,4,3,0,20,0,9
277587,428.571428571429,4,3,0,20,1,1
277587,-87.719298245614,4,3,0,20,0,1
278015,419.58041958042,4,3,0,20,1,9
278015,-89.2857142857143,4,3,0,20,0,9
278434,410.958904109589,4,3,0,20,1,1
278434,-90.9090909090909,4,3,0,20,0,1
278844,402.684563758389,4,3,0,20,1,1
278844,-93.4579439252336,4,3,0,20,0,1
279246,396.039603960396,4,3,0,20,1,1
279246,-94.3396226415094,4,3,0,20,0,1
279642,389.61038961039,4,3,0,20,1,1
279642,-96.1538461538461,4,3,0,20,0,1
280031,382.165605095541,4,3,0,20,1,1
280031,-98.0392156862745,4,3,0,20,0,1
280413,377.358490566038,4,3,0,20,1,1
280413,-99.009900990099,4,3,0,20,0,1
280779,375,4,3,0,20,1,1
280779,-100,4,3,0,20,0,1
281904,-100,4,3,0,20,0,0
282279,-100,4,3,0,20,0,1
306279,-100,4,3,0,20,0,0

[HitObjects]
320,192,1543,5,0,0:0:0:0:
448,192,1543,1,0,0:0:0:0:
182,192,1730,1,0,0:0:0:0:
192,192,1918,1,0,0:0:0:0:
64,192,2105,1,0,0:0:0:0:
64,192,2293,1,0,0:0:0:0:
329,192,3043,1,0,0:0:0:0:
64,192,3043,1,0,0:0:0:0:
182,192,3324,1,0,0:0:0:0:
256,192,3605,1,0,0:0:0:0:
475,192,3793,1,0,0:0:0:0:
329,192,4074,1,0,0:0:0:0:
109,192,4355,1,0,0:0:0:0:
475,192,4543,1,0,0:0:0:0:
64,192,4543,1,0,0:0:0:0:
182,192,4730,1,0,0:0:0:0:
182,192,4918,1,0,0:0:0:0:
256,192,5105,1,0,0:0:0:0:
256,192,5293,1,0,0:0:0:0:
448,192,6043,1,0,0:0:0:0:
256,192,6043,1,0,0:0:0:0:
192,192,6324,1,0,0:0:0:0:
329,192,6605,1,0,0:0:0:0:
402,192,6793,1,0,0:0:0:0:
192,192,7074,1,0,0:0:0:0:
36,192,7355,1,0,0:0:0:0:
448,192,7543,1,0,0:0:0:0:
192,192,7543,1,0,0:0:0:0:
109,192,7730,1,0,0:0:0:0:
109,192,7918,1,0,0:0:0:0:
256,192,8105,1,0,0:0:0:0:
256,192,8293,1,0,0:0:0:0:
320,192,9043,1,0,0:0:0:0:
448,192,9043,1,0,0:0:0:0:
192,192,9324,1,0,0:0:0:0:
402,192,9605,1,0,0:0:0:0:
256,192,9793,1,0,0:0:0:0:
192,192,10074,1,0,0:0:0:0:
320,192,10355,1,0,0:0:0:0:
182,192,10543,1,0,0:0:0:0:
448,192,10543,1,0,0:0:0:0:
36,192,10730,1,0,0:0:0:0:
36,192,10918,1,0,0:0:0:0:
402,192,11105,1,0,0:0:0:0:
402,192,11293,1,0,0:0:0:0:
64,192,11293,128,0,11480:0:0:0:0:
192,192,11574,128,0,11761:0:0:0:0:
320,192,11855,128,0,11949:0:0:0:0:
192,192,12043,1,0,0:0:0:0:
64,192,12043,1,0,0:0:0:0:
448,192,12043,128,0,12230:0:0:0:0:
320,192,12324,128,0,12511:0:0:0:0:
448,192,12605,1,0,0:0:0:0:
192,192,12605,128,0,12699:0:0:0:0:
64,192,12793,1,0,0:0:0:0:
320,192,12793,128,0,12980:0:0:0:0:
402,192,13074,1,0,0:0:0:0:
64,192,13074,128,0,13168:0:0:0:0:
320,192,13261,128,0,13449:0:0:0:0:
192,192,13355,1,0,0:0:0:0:
448,192,13543,1,0,0:0:0:0:
64,192,13543,128,0,13730:0:0:0:0:
192,192,13824,128,0,14011:0:0:0:0:
64,192,13918,1,0,0:0:0:0:
402,192,13918,1,0,0:0:0:0:
320,192,14105,128,0,14199:0:0:0:0:
448,192,14293,128,0,14480:0:0:0:0:
64,192,14293,1,0,0:0:0:0:
402,192,14293,1,0,0:0:0:0:
192,192,14574,128,0,14761:0:0:0:0:
64,192,14668,1,0,0:0:0:0:
402,192,14668,1,0,0:0:0:0:
320,192,14855,128,0,14949:0:0:0:0:
448,192,15043,128,0,15230:0:0:0:0:
64,192,15043,1,0,0:0:0:0:
402,192,15043,1,0,0:0:0:0:
192,192,15324,128,0,15511:0:0:0:0:
64,192,15418,1,0,0:0:0:0:
402,192,15418,1,0,0:0:0:0:
320,192,15605,128,0,15699:0:0:0:0:
448,192,15793,128,0,15980:0:0:0:0:
64,192,15793,1,0,0:0:0:0:
402,192,15793,1,0,0:0:0:0:
320,192,16168,128,0,16261:0:0:0:0:
64,192,16168,1,0,0:0:0:0:
402,192,16168,1,0,0:0:0:0:
192,192,16355,128,0,16449:0:0:0:0:
64,192,16543,128,0,16730:0:0:0:0:
402,192,16543,1,0,0:0:0:0:
192,192,16824,128,0,17011:0:0:0:0:
64,192,16918,1,0,0:0:0:0:
402,192,16918,1,0,0:0:0:0:
320,192,17105,128,0,17199:0:0:0:0:
448,192,17293,128,0,17480:0:0:0:0:
64,192,17293,1,0,0:0:0:0:
402,192,17293,1,0,0:0:0:0:
192,192,17574,128,0,17761:0:0:0:0:
64,192,17668,1,0,0:0:0:0:
402,192,17668,1,0,0:0:0:0:
320,192,17855,128,0,17949:0:0:0:0:
448,192,18043,128,0,18230:0:0:0:0:
64,192,18043,1,0,0:0:0:0:
402,192,18043,1,0,0:0:0:0:
192,192,18324,128,0,18511:0:0:0:0:
64,192,18418,1,0,0:0:0:0:
402,192,18418,1,0,0:0:0:0:
320,192,18605,128,0,18699:0:0:0:0:
109,192,18793,128,0,18933:0:0:0:0:
64,192,18793,1,0,0:0:0:0:
109,192,18980,128,0,19121:0:0:0:0:
402,192,19168,128,0,19308:0:0:0:0:
448,192,19168,1,0,0:0:0:0:
402,192,19355,128,0,19496:0:0:0:0:
64,192,19543,128,0,19730:0:0:0:0:
448,192,19543,1,0,0:0:0:0:
192,192,19824,128,0,20011:0:0:0:0:
64,192,19918,1,0,0:0:0:0:
402,192,19918,1,0,0:0:0:0:
320,192,20105,128,0,20199:0:0:0:0:
448,192,20293,128,0,20480:0:0:0:0:
64,192,20293,1,0,0:0:0:0:
402,192,20293,1,0,0:0:0:0:
192,192,20574,128,0,20761:0:0:0:0:
64,192,20668,1,0,0:0:0:0:
402,192,20668,1,0,0:0:0:0:
320,192,20855,128,0,20949:0:0:0:0:
448,192,21043,128,0,21230:0:0:0:0:
64,192,21043,1,0,0:0:0:0:
402,192,21043,1,0,0:0:0:0:
192,192,21324,128,0,21511:0:0:0:0:
64,192,21418,1,0,0:0:0:0:
402,192,21418,1,0,0:0:0:0:
320,192,21605,128,0,21699:0:0:0:0:
448,192,21793,128,0,21980:0:0:0:0:
64,192,21793,1,0,0:0:0:0:
402,192,21793,1,0,0:0:0:0:
320,192,22168,128,0,22261:0:0:0:0:
64,192,22168,1,0,0:0:0:0:
402,192,22168,1,0,0:0:0:0:
192,192,22355,128,0,22449:0:0:0:0:
64,192,22543,128,0,22730:0:0:0:0:
448,192,22543,1,0,0:0:0:0:
402,192,22543,1,0,0:0:0:0:
192,192,22824,128,0,23011:0:0:0:0:
64,192,22918,1,0,0:0:0:0:
402,192,22918,1,0,0:0:0:0:
320,192,23105,128,0,23199:0:0:0:0:
448,192,23293,128,0,23480:0:0:0:0:
64,192,23293,1,0,0:0:0:0:
402,192,23293,1,0,0:0:0:0:
192,192,23574,128,0,23761:0:0:0:0:
64,192,23668,1,0,0:0:0:0:
402,192,23668,1,0,0:0:0:0:
320,192,23855,128,0,23949:0:0:0:0:
448,192,24043,128,0,24230:0:0:0:0:
64,192,24043,1,0,0:0:0:0:
402,192,24043,1,0,0:0:0:0:
192,192,24324,128,0,24511:0:0:0:0:
64,192,24418,1,0,0:0:0:0:
402,192,24418,1,0,0:0:0:0:
320,192,24605,128,0,24699:0:0:0:0:
109,192,24793,128,0,24933:0:0:0:0:
64,192,24793,1,0,0:0:0:0:
402,192,24793,1,0,0:0:0:0:
109,192,24980,128,0,25121:0:0:0:0:
402,192,25168,128,0,25308:0:0:0:0:
448,192,25168,1,0,0:0:0:0:
402,192,25355,128,0,25496:0:0:0:0:
109,192,25543,128,0,25730:0:0:0:0:
448,192,25543,1,0,0:0:0:0:
192,192,25543,1,0,0:0:0:0:
256,192,25543,1,0,0:0:0:0:
256,192,25824,128,0,26011:0:0:0:0:
192,192,25824,1,0,0:0:0:0:
448,192,25824,1,0,0:0:0:0:
109,192,25824,1,0,0:0:0:0:
109,192,26105,128,0,26293:0:0:0:0:
192,192,26105,1,0,0:0:0:0:
448,192,26105,1,0,0:0:0:0:
256,192,26105,1,0,0:0:0:0:
402,192,26293,1,0,0:0:0:0:
320,192,26339,1,0,0:0:0:0:
256,192,26386,1,0,0:0:0:0:
182,192,26480,1,0,0:0:0:0:
109,192,26527,1,0,0:0:0:0:
64,192,26574,1,0,0:0:0:0:
256,192,26621,1,0,0:0:0:0:
182,192,26668,1,0,0:0:0:0:
329,192,26761,1,0,0:0:0:0:
402,192,26808,1,0,0:0:0:0:
448,192,26855,1,0,0:0:0:0:
256,192,26902,1,0,0:0:0:0:
192,192,26949,1,0,0:0:0:0:
402,192,27043,128,0,27230:0:0:0:0:
64,192,27043,1,0,0:0:0:0:
320,192,27043,1,0,0:0:0:0:
256,192,27043,1,0,0:0:0:0:
320,192,27324,1,0,0:0:0:0:
256,192,27324,128,0,27511:0:0:0:0:
64,192,27324,1,0,0:0:0:0:
402,192,27324,1,0,0:0:0:0:
320,192,27605,1,0,0:0:0:0:
64,192,27605,1,0,0:0:0:0:
402,192,27605,128,0,27793:0:0:0:0:
256,192,27605,1,0,0:0:0:0:
64,192,27793,1,0,0:0:0:0:
109,192,27839,1,0,0:0:0:0:
182,192,27886,1,0,0:0:0:0:
402,192,27980,1,0,0:0:0:0:
329,192,28027,1,0,0:0:0:0:
256,192,28074,1,0,0:0:0:0:
475,192,28121,1,0,0:0:0:0:
402,192,28168,1,0,0:0:0:0:
109,192,28261,1,0,0:0:0:0:
182,192,28308,1,0,0:0:0:0:
256,192,28355,1,0,0:0:0:0:
329,192,28402,1,0,0:0:0:0:
402,192,28449,1,0,0:0:0:0:
109,192,28449,1,0,0:0:0:0:
192,192,28496,1,0,0:0:0:0:
256,192,28543,1,0,0:0:0:0:
64,192,28543,1,0,0:0:0:0:
448,192,28543,128,0,28730:0:0:0:0:
329,192,28543,1,0,0:0:0:0:
402,192,28824,128,0,29011:0:0:0:0:
64,192,28824,1,0,0:0:0:0:
256,192,28824,1,0,0:0:0:0:
329,192,28824,1,0,0:0:0:0:
448,192,29105,128,0,29293:0:0:0:0:
64,192,29105,1,0,0:0:0:0:
256,192,29105,1,0,0:0:0:0:
329,192,29105,1,0,0:0:0:0:
192,192,29293,1,0,0:0:0:0:
36,192,29339,1,0,0:0:0:0:
329,192,29386,1,0,0:0:0:0:
256,192,29433,1,0,0:0:0:0:
109,192,29480,1,0,0:0:0:0:
320,192,29574,1,0,0:0:0:0:
475,192,29621,1,0,0:0:0:0:
182,192,29668,1,0,0:0:0:0:
256,192,29714,1,0,0:0:0:0:
402,192,29761,1,0,0:0:0:0:
192,192,29855,1,0,0:0:0:0:
36,192,29902,1,0,0:0:0:0:
329,192,29949,1,0,0:0:0:0:
256,192,29996,1,0,0:0:0:0:
64,192,30043,128,0,30230:0:0:0:0:
402,192,30043,1,0,0:0:0:0:
182,192,30043,1,0,0:0:0:0:
64,192,30324,128,0,30511:0:0:0:0:
320,192,30324,1,0,0:0:0:0:
448,192,30324,1,0,0:0:0:0:
64,192,30605,128,0,30793:0:0:0:0:
320,192,30605,1,0,0:0:0:0:
448,192,30605,1,0,0:0:0:0:
192,192,30793,1,0,0:0:0:0:
256,192,30855,1,0,0:0:0:0:
402,192,30918,1,0,0:0:0:0:
109,192,30933,1,0,0:0:0:0:
64,192,30980,1,0,0:0:0:0:
256,192,31027,1,0,0:0:0:0:
192,192,31074,1,0,0:0:0:0:
109,192,31105,1,0,0:0:0:0:
320,192,31168,1,0,0:0:0:0:
402,192,31230,1,0,0:0:0:0:
256,192,31261,1,0,0:0:0:0:
320,192,31308,1,0,0:0:0:0:
402,192,31355,1,0,0:0:0:0:
109,192,31402,1,0,0:0:0:0:
192,192,31418,1,0,0:0:0:0:
256,192,31480,1,0,0:0:0:0:
329,192,31543,1,0,0:0:0:0:
64,192,31543,1,0,0:0:0:0:
448,192,31543,128,0,31730:0:0:0:0:
402,192,31543,1,0,0:0:0:0:
256,192,31824,128,0,32011:0:0:0:0:
64,192,31824,1,0,0:0:0:0:
329,192,31824,1,0,0:0:0:0:
182,192,31824,1,0,0:0:0:0:
109,192,32105,128,0,32293:0:0:0:0:
64,192,32105,1,0,0:0:0:0:
192,192,32105,1,0,0:0:0:0:
329,192,32105,1,0,0:0:0:0:
475,192,32293,128,0,32386:0:0:0:0:
402,192,32339,128,0,32433:0:0:0:0:
329,192,32386,128,0,32480:0:0:0:0:
256,192,32433,128,0,32527:0:0:0:0:
182,192,32480,1,0,0:0:0:0:
109,192,32527,1,0,0:0:0:0:
36,192,32574,128,0,32668:0:0:0:0:
109,192,32621,128,0,32714:0:0:0:0:
182,192,32668,128,0,32761:0:0:0:0:
256,192,32714,128,0,32808:0:0:0:0:
329,192,32761,1,0,0:0:0:0:
402,192,32808,1,0,0:0:0:0:
475,192,32855,128,0,32949:0:0:0:0:
402,192,32902,128,0,32996:0:0:0:0:
329,192,32949,128,0,33043:0:0:0:0:
256,192,32996,128,0,33089:0:0:0:0:
64,192,33043,128,0,33230:0:0:0:0:
192,192,33043,1,0,0:0:0:0:
109,192,33043,1,0,0:0:0:0:
329,192,33324,128,0,33511:0:0:0:0:
256,192,33324,1,0,0:0:0:0:
448,192,33324,1,0,0:0:0:0:
182,192,33324,1,0,0:0:0:0:
109,192,33605,1,0,0:0:0:0:
402,192,33605,128,0,33793:0:0:0:0:
329,192,33605,1,0,0:0:0:0:
448,192,33605,1,0,0:0:0:0:
36,192,33793,1,0,0:0:0:0:
256,192,33855,1,0,0:0:0:0:
192,192,33918,1,0,0:0:0:0:
329,192,33980,1,0,0:0:0:0:
109,192,33980,1,0,0:0:0:0:
36,192,34074,1,0,0:0:0:0:
402,192,34074,1,0,0:0:0:0:
329,192,34136,1,0,0:0:0:0:
182,192,34199,1,0,0:0:0:0:
256,192,34261,1,0,0:0:0:0:
109,192,34261,1,0,0:0:0:0:
329,192,34355,1,0,0:0:0:0:
402,192,34418,1,0,0:0:0:0:
256,192,34449,1,0,0:0:0:0:
109,192,34449,1,0,0:0:0:0:
448,192,34496,1,0,0:0:0:0:
192,192,34543,1,0,0:0:0:0:
64,192,34543,128,0,34730:0:0:0:0:
329,192,34543,1,0,0:0:0:0:
402,192,34543,1,0,0:0:0:0:
109,192,34824,128,0,35011:0:0:0:0:
192,192,34824,1,0,0:0:0:0:
329,192,34824,1,0,0:0:0:0:
402,192,34824,1,0,0:0:0:0:
192,192,35105,1,0,0:0:0:0:
256,192,35105,128,0,35293:0:0:0:0:
36,192,35105,1,0,0:0:0:0:
402,192,35105,1,0,0:0:0:0:
36,192,35293,128,0,35386:0:0:0:0:
109,192,35339,128,0,35433:0:0:0:0:
182,192,35386,128,0,35480:0:0:0:0:
256,192,35433,128,0,35527:0:0:0:0:
329,192,35480,1,0,0:0:0:0:
402,192,35527,1,0,0:0:0:0:
475,192,35574,128,0,35668:0:0:0:0:
402,192,35621,128,0,35714:0:0:0:0:
329,192,35668,128,0,35761:0:0:0:0:
256,192,35714,128,0,35808:0:0:0:0:
182,192,35761,1,0,0:0:0:0:
109,192,35808,1,0,0:0:0:0:
36,192,35855,128,0,35949:0:0:0:0:
109,192,35902,128,0,35996:0:0:0:0:
182,192,35949,128,0,36043:0:0:0:0:
256,192,35996,128,0,36089:0:0:0:0:
402,192,36043,128,0,36230:0:0:0:0:
475,192,36043,1,0,0:0:0:0:
329,192,36043,1,0,0:0:0:0:
36,192,36043,1,0,0:0:0:0:
256,192,36324,128,0,36511:0:0:0:0:
320,192,36324,1,0,0:0:0:0:
64,192,36324,1,0,0:0:0:0:
109,192,36324,1,0,0:0:0:0:
109,192,36605,128,0,36793:0:0:0:0:
64,192,36605,1,0,0:0:0:0:
475,192,36605,1,0,0:0:0:0:
402,192,36605,1,0,0:0:0:0:
256,192,36793,1,0,0:0:0:0:
256,192,36886,1,0,0:0:0:0:
256,192,36980,1,0,0:0:0:0:
256,192,37168,1,0,0:0:0:0:
256,192,37355,1,0,0:0:0:0:
329,192,37543,1,0,0:0:0:0:
475,192,37543,1,0,0:0:0:0:
402,192,37543,1,0,0:0:0:0:
36,192,37824,1,0,0:0:0:0:
256,192,37918,1,0,0:0:0:0:
329,192,37918,1,0,0:0:0:0:
402,192,37918,1,0,0:0:0:0:
109,192,38105,1,0,0:0:0:0:
109,192,38199,1,0,0:0:0:0:
402,192,38293,1,0,0:0:0:0:
329,192,38293,1,0,0:0:0:0:
475,192,38293,1,0,0:0:0:0:
36,192,38574,1,0,0:0:0:0:
329,192,38668,1,0,0:0:0:0:
402,192,38668,1,0,0:0:0:0:
256,192,38668,1,0,0:0:0:0:
109,192,38855,1,0,0:0:0:0:
109,192,38949,1,0,0:0:0:0:
329,192,39043,1,0,0:0:0:0:
402,192,39043,1,0,0:0:0:0:
475,192,39043,1,0,0:0:0:0:
36,192,39324,1,0,0:0:0:0:
402,192,39418,1,0,0:0:0:0:
329,192,39418,1,0,0:0:0:0:
256,192,39418,1,0,0:0:0:0:
109,192,39605,1,0,0:0:0:0:
109,192,39699,1,0,0:0:0:0:
320,192,39793,1,0,0:0:0:0:
448,192,39793,1,0,0:0:0:0:
402,192,39793,1,0,0:0:0:0:
256,192,39855,1,0,0:0:0:0:
182,192,39918,1,0,0:0:0:0:
402,192,39980,1,0,0:0:0:0:
448,192,39980,128,0,40105:0:0:0:0:
320,192,40168,128,0,40293:0:0:0:0:
256,192,40168,1,0,0:0:0:0:
192,192,40355,128,0,40480:0:0:0:0:
109,192,40355,1,0,0:0:0:0:
182,192,40543,1,0,0:0:0:0:
36,192,40543,1,0,0:0:0:0:
109,192,40543,1,0,0:0:0:0:
475,192,40824,1,0,0:0:0:0:
256,192,40918,1,0,0:0:0:0:
182,192,40918,1,0,0:0:0:0:
109,192,40918,1,0,0:0:0:0:
402,192,41105,1,0,0:0:0:0:
402,192,41199,1,0,0:0:0:0:
109,192,41293,1,0,0:0:0:0:
182,192,41293,1,0,0:0:0:0:
36,192,41293,1,0,0:0:0:0:
475,192,41574,1,0,0:0:0:0:
182,192,41668,1,0,0:0:0:0:
109,192,41668,1,0,0:0:0:0:
256,192,41668,1,0,0:0:0:0:
402,192,41855,1,0,0:0:0:0:
402,192,41949,1,0,0:0:0:0:
182,192,42043,1,0,0:0:0:0:
109,192,42043,1,0,0:0:0:0:
36,192,42043,1,0,0:0:0:0:
475,192,42324,1,0,0:0:0:0:
109,192,42418,1,0,0:0:0:0:
182,192,42418,1,0,0:0:0:0:
256,192,42418,1,0,0:0:0:0:
402,192,42605,1,0,0:0:0:0:
402,192,42699,1,0,0:0:0:0:
329,192,42793,128,0,42886:0:0:0:0:
192,192,42855,128,0,42980:0:0:0:0:
36,192,42918,128,0,42980:0:0:0:0:
192,192,43074,128,0,43168:0:0:0:0:
320,192,43136,128,0,43261:0:0:0:0:
448,192,43199,128,0,43261:0:0:0:0:
320,192,43355,128,0,43449:0:0:0:0:
192,192,43418,128,0,43543:0:0:0:0:
36,192,43480,128,0,43543:0:0:0:0:
402,192,43543,1,0,0:0:0:0:
448,192,43543,1,0,0:0:0:0:
256,192,43543,1,0,0:0:0:0:
109,192,43543,1,0,0:0:0:0:
448,192,43636,1,0,0:0:0:0:
329,192,43636,1,0,0:0:0:0:
109,192,43730,1,0,0:0:0:0:
256,192,43730,1,0,0:0:0:0:
256,192,43824,1,0,0:0:0:0:
402,192,43824,1,0,0:0:0:0:
182,192,43918,1,0,0:0:0:0:
64,192,43918,1,0,0:0:0:0:
402,192,44011,1,0,0:0:0:0:
329,192,44011,1,0,0:0:0:0:
36,192,44105,1,0,0:0:0:0:
109,192,44152,1,0,0:0:0:0:
192,192,44199,1,0,0:0:0:0:
256,192,44246,1,0,0:0:0:0:
320,192,44293,1,0,0:0:0:0:
402,192,44293,1,0,0:0:0:0:
475,192,44293,1,0,0:0:0:0:
64,192,44386,1,0,0:0:0:0:
109,192,44433,1,0,0:0:0:0:
182,192,44480,1,0,0:0:0:0:
256,192,44527,1,0,0:0:0:0:
402,192,44574,1,0,0:0:0:0:
475,192,44574,1,0,0:0:0:0:
329,192,44574,1,0,0:0:0:0:
448,192,44668,1,0,0:0:0:0:
402,192,44668,1,0,0:0:0:0:
256,192,44761,1,0,0:0:0:0:
320,192,44761,1,0,0:0:0:0:
475,192,44855,1,0,0:0:0:0:
402,192,44902,1,0,0:0:0:0:
320,192,44949,1,0,0:0:0:0:
256,192,44996,1,0,0:0:0:0:
109,192,45043,1,0,0:0:0:0:
64,192,45043,1,0,0:0:0:0:
475,192,45043,1,0,0:0:0:0:
109,192,45136,1,0,0:0:0:0:
64,192,45136,1,0,0:0:0:0:
320,192,45230,1,0,0:0:0:0:
182,192,45230,1,0,0:0:0:0:
320,192,45324,1,0,0:0:0:0:
182,192,45324,1,0,0:0:0:0:
402,192,45418,1,0,0:0:0:0:
475,192,45418,1,0,0:0:0:0:
36,192,45418,1,0,0:0:0:0:
402,192,45511,1,0,0:0:0:0:
475,192,45511,1,0,0:0:0:0:
329,192,45605,1,0,0:0:0:0:
256,192,45652,1,0,0:0:0:0:
192,192,45699,1,0,0:0:0:0:
109,192,45746,1,0,0:0:0:0:
320,192,45793,1,0,0:0:0:0:
402,192,45793,1,0,0:0:0:0:
182,192,45886,1,0,0:0:0:0:
256,192,45933,1,0,0:0:0:0:
320,192,45980,1,0,0:0:0:0:
402,192,46027,1,0,0:0:0:0:
109,192,46074,1,0,0:0:0:0:
192,192,46074,1,0,0:0:0:0:
402,192,46168,1,0,0:0:0:0:
448,192,46168,1,0,0:0:0:0:
109,192,46261,1,0,0:0:0:0:
64,192,46261,1,0,0:0:0:0:
402,192,46355,1,0,0:0:0:0:
320,192,46402,1,0,0:0:0:0:
192,192,46449,1,0,0:0:0:0:
109,192,46496,1,0,0:0:0:0:
256,192,46543,1,0,0:0:0:0:
448,192,46543,1,0,0:0:0:0:
448,192,46636,1,0,0:0:0:0:
256,192,46636,1,0,0:0:0:0:
109,192,46730,1,0,0:0:0:0:
192,192,46777,1,0,0:0:0:0:
320,192,46824,1,0,0:0:0:0:
402,192,46871,1,0,0:0:0:0:
256,192,46918,1,0,0:0:0:0:
64,192,46918,1,0,0:0:0:0:
256,192,47011,1,0,0:0:0:0:
64,192,47011,1,0,0:0:0:0:
475,192,47105,1,0,0:0:0:0:
320,192,47152,1,0,0:0:0:0:
192,192,47199,1,0,0:0:0:0:
64,192,47246,1,0,0:0:0:0:
402,192,47293,1,0,0:0:0:0:
109,192,47293,1,0,0:0:0:0:
109,192,47386,1,0,0:0:0:0:
402,192,47386,1,0,0:0:0:0:
64,192,47480,1,0,0:0:0:0:
192,192,47527,1,0,0:0:0:0:
320,192,47574,1,0,0:0:0:0:
448,192,47621,1,0,0:0:0:0:
402,192,47668,1,0,0:0:0:0:
109,192,47668,1,0,0:0:0:0:
402,192,47761,1,0,0:0:0:0:
109,192,47761,1,0,0:0:0:0:
329,192,47855,1,0,0:0:0:0:
256,192,47902,1,0,0:0:0:0:
192,192,47949,1,0,0:0:0:0:
109,192,47996,1,0,0:0:0:0:
402,192,48043,1,0,0:0:0:0:
475,192,48043,1,0,0:0:0:0:
329,192,48105,1,0,0:0:0:0:
256,192,48105,1,0,0:0:0:0:
109,192,48168,1,0,0:0:0:0:
182,192,48168,1,0,0:0:0:0:
36,192,48230,1,0,0:0:0:0:
475,192,48230,1,0,0:0:0:0:
402,192,48293,1,0,0:0:0:0:
329,192,48293,1,0,0:0:0:0:
256,192,48355,1,0,0:0:0:0:
182,192,48355,1,0,0:0:0:0:
109,192,48418,1,0,0:0:0:0:
36,192,48418,1,0,0:0:0:0:
402,192,48480,1,0,0:0:0:0:
475,192,48480,1,0,0:0:0:0:
256,192,48543,1,0,0:0:0:0:
329,192,48543,1,0,0:0:0:0:
109,192,48605,1,0,0:0:0:0:
182,192,48605,1,0,0:0:0:0:
36,192,48668,1,0,0:0:0:0:
475,192,48668,1,0,0:0:0:0:
402,192,48730,1,0,0:0:0:0:
329,192,48730,1,0,0:0:0:0:
182,192,48793,1,0,0:0:0:0:
256,192,48793,1,0,0:0:0:0:
109,192,48793,1,0,0:0:0:0:
36,192,48793,1,0,0:0:0:0:
192,192,48980,1,0,0:0:0:0:
64,192,48980,1,0,0:0:0:0:
256,192,49074,1,0,0:0:0:0:
402,192,49074,1,0,0:0:0:0:
329,192,49168,1,0,0:0:0:0:
64,192,49168,1,0,0:0:0:0:
192,192,49355,1,0,0:0:0:0:
256,192,49355,1,0,0:0:0:0:
402,192,49543,1,0,0:0:0:0:
475,192,49543,1,0,0:0:0:0:
182,192,49543,1,0,0:0:0:0:
256,192,49543,1,0,0:0:0:0:
109,192,49543,1,0,0:0:0:0:
36,192,49543,1,0,0:0:0:0:
329,192,49631,1,0,0:0:0:0:
256,192,49719,1,0,0:0:0:0:
182,192,49804,1,0,0:0:0:0:
109,192,49890,1,0,0:0:0:0:
36,192,49973,1,0,0:0:0:0:
475,192,50056,1,0,0:0:0:0:
402,192,50137,1,0,0:0:0:0:
329,192,50218,1,0,0:0:0:0:
256,192,50296,1,0,0:0:0:0:
182,192,50375,1,0,0:0:0:0:
109,192,50451,1,0,0:0:0:0:
36,192,50528,1,0,0:0:0:0:
475,192,50603,1,0,0:0:0:0:
402,192,50678,1,0,0:0:0:0:
329,192,50751,1,0,0:0:0:0:
256,192,50824,1,0,0:0:0:0:
182,192,50895,1,0,0:0:0:0:
109,192,50966,1,0,0:0:0:0:
36,192,51035,1,0,0:0:0:0:
475,192,51103,1,0,0:0:0:0:
402,192,51171,1,0,0:0:0:0:
329,192,51239,1,0,0:0:0:0:
256,192,51304,1,0,0:0:0:0:
36,192,51370,1,0,0:0:0:0:
109,192,51435,1,0,0:0:0:0:
182,192,51498,1,0,0:0:0:0:
256,192,51561,1,0,0:0:0:0:
329,192,51623,1,0,0:0:0:0:
402,192,51685,1,0,0:0:0:0:
475,192,51746,1,0,0:0:0:0:
36,192,51807,1,0,0:0:0:0:
109,192,51868,1,0,0:0:0:0:
182,192,51928,1,0,0:0:0:0:
256,192,51988,1,0,0:0:0:0:
329,192,52040,1,0,0:0:0:0:
402,192,52097,1,0,0:0:0:0:
475,192,52154,1,0,0:0:0:0:
36,192,52206,1,0,0:0:0:0:
109,192,52262,1,0,0:0:0:0:
182,192,52315,1,0,0:0:0:0:
256,192,52370,1,0,0:0:0:0:
329,192,52424,1,0,0:0:0:0:
402,192,52478,1,0,0:0:0:0:
475,192,52531,1,0,0:0:0:0:
36,192,52584,1,0,0:0:0:0:
109,192,52638,1,0,0:0:0:0:
182,192,52688,1,0,0:0:0:0:
256,192,52741,1,0,0:0:0:0:
329,192,52792,1,0,0:0:0:0:
402,192,52844,1,0,0:0:0:0:
36,192,52894,1,0,0:0:0:0:
109,192,52945,1,0,0:0:0:0:
182,192,52995,1,0,0:0:0:0:
256,192,53045,1,0,0:0:0:0:
329,192,53094,1,0,0:0:0:0:
36,192,53144,1,0,0:0:0:0:
109,192,53193,1,0,0:0:0:0:
182,192,53242,1,0,0:0:0:0:
256,192,53290,1,0,0:0:0:0:
36,192,53339,1,0,0:0:0:0:
109,192,53387,1,0,0:0:0:0:
182,192,53435,1,0,0:0:0:0:
36,192,53483,1,0,0:0:0:0:
109,192,53531,1,0,0:0:0:0:
475,192,53578,1,0,0:0:0:0:
402,192,53626,1,0,0:0:0:0:
329,192,53673,1,0,0:0:0:0:
256,192,53720,1,0,0:0:0:0:
182,192,53766,1,0,0:0:0:0:
109,192,53813,1,0,0:0:0:0:
36,192,53860,1,0,0:0:0:0:
475,192,53907,1,0,0:0:0:0:
402,192,53954,1,0,0:0:0:0:
329,192,54001,1,0,0:0:0:0:
256,192,54048,1,0,0:0:0:0:
182,192,54095,1,0,0:0:0:0:
109,192,54141,1,0,0:0:0:0:
475,192,54188,1,0,0:0:0:0:
402,192,54235,1,0,0:0:0:0:
329,192,54282,1,0,0:0:0:0:
256,192,54328,1,0,0:0:0:0:
182,192,54375,1,0,0:0:0:0:
475,192,54422,1,0,0:0:0:0:
402,192,54469,1,0,0:0:0:0:
329,192,54516,1,0,0:0:0:0:
256,192,54563,1,0,0:0:0:0:
475,192,54610,1,0,0:0:0:0:
402,192,54657,1,0,0:0:0:0:
329,192,54703,1,0,0:0:0:0:
475,192,54750,1,0,0:0:0:0:
402,192,54797,1,0,0:0:0:0:
256,192,54844,1,0,0:0:0:0:
182,192,54891,1,0,0:0:0:0:
36,192,54938,1,0,0:0:0:0:
109,192,54985,1,0,0:0:0:0:
402,192,55032,1,0,0:0:0:0:
329,192,55078,1,0,0:0:0:0:
182,192,55125,1,0,0:0:0:0:
256,192,55172,1,0,0:0:0:0:
475,192,55219,1,0,0:0:0:0:
402,192,55266,1,0,0:0:0:0:
256,192,55313,1,0,0:0:0:0:
329,192,55360,1,0,0:0:0:0:
36,192,55407,1,0,0:0:0:0:
109,192,55453,1,0,0:0:0:0:
256,192,55500,1,0,0:0:0:0:
182,192,55547,1,0,0:0:0:0:
402,192,55594,1,0,0:0:0:0:
329,192,55641,1,0,0:0:0:0:
182,192,55688,1,0,0:0:0:0:
256,192,55735,1,0,0:0:0:0:
475,192,55782,1,0,0:0:0:0:
402,192,55828,1,0,0:0:0:0:
256,192,55875,1,0,0:0:0:0:
329,192,55922,1,0,0:0:0:0:
402,192,55969,1,0,0:0:0:0:
475,192,56016,1,0,0:0:0:0:
182,192,56063,1,0,0:0:0:0:
256,192,56110,1,0,0:0:0:0:
329,192,56157,1,0,0:0:0:0:
402,192,56203,1,0,0:0:0:0:
36,192,56250,1,0,0:0:0:0:
109,192,56297,1,0,0:0:0:0:
182,192,56344,1,0,0:0:0:0:
256,192,56391,1,0,0:0:0:0:
329,192,56438,1,0,0:0:0:0:
402,192,56485,1,0,0:0:0:0:
36,192,56530,1,0,0:0:0:0:
109,192,56532,1,0,0:0:0:0:
182,192,56532,1,0,0:0:0:0:
256,192,56532,1,0,0:0:0:0:
109,192,56717,1,0,0:0:0:0:
182,192,56717,1,0,0:0:0:0:
256,192,56717,1,0,0:0:0:0:
329,192,56717,1,0,0:0:0:0:
182,192,56905,1,0,0:0:0:0:
256,192,56905,1,0,0:0:0:0:
329,192,56905,1,0,0:0:0:0:
402,192,56905,1,0,0:0:0:0:
256,192,57092,1,0,0:0:0:0:
329,192,57092,1,0,0:0:0:0:
402,192,57092,1,0,0:0:0:0:
475,192,57092,1,0,0:0:0:0:
36,192,57280,1,0,0:0:0:0:
109,192,57280,1,0,0:0:0:0:
402,192,57280,1,0,0:0:0:0:
475,192,57280,1,0,0:0:0:0:
256,192,57467,1,0,0:0:0:0:
329,192,57467,1,0,0:0:0:0:
402,192,57467,1,0,0:0:0:0:
475,192,57467,1,0,0:0:0:0:
402,192,57655,1,0,0:0:0:0:
329,192,57655,1,0,0:0:0:0:
256,192,57655,1,0,0:0:0:0:
182,192,57655,1,0,0:0:0:0:
329,192,57842,1,0,0:0:0:0:
256,192,57842,1,0,0:0:0:0:
182,192,57842,1,0,0:0:0:0:
109,192,57842,1,0,0:0:0:0:
109,192,58030,1,0,0:0:0:0:
36,192,58030,1,0,0:0:0:0:
402,192,58030,1,0,0:0:0:0:
475,192,58030,1,0,0:0:0:0:
256,192,58217,1,0,0:0:0:0:
329,192,58217,1,0,0:0:0:0:
402,192,58217,1,0,0:0:0:0:
475,192,58217,1,0,0:0:0:0:
36,192,58405,1,0,0:0:0:0:
109,192,58405,1,0,0:0:0:0:
182,192,58405,1,0,0:0:0:0:
256,192,58405,1,0,0:0:0:0:
109,192,58592,1,0,0:0:0:0:
182,192,58592,1,0,0:0:0:0:
329,192,58592,1,0,0:0:0:0:
402,192,58592,1,0,0:0:0:0:
402,192,58780,1,0,0:0:0:0:
475,192,58780,1,0,0:0:0:0:
109,192,58780,1,0,0:0:0:0:
36,192,58780,1,0,0:0:0:0:
182,192,58967,1,0,0:0:0:0:
256,192,58967,1,0,0:0:0:0:
329,192,58967,1,0,0:0:0:0:
109,192,58967,1,0,0:0:0:0:
182,192,59155,1,0,0:0:0:0:
256,192,59155,1,0,0:0:0:0:
329,192,59155,1,0,0:0:0:0:
402,192,59155,1,0,0:0:0:0:
329,192,59342,1,0,0:0:0:0:
402,192,59342,1,0,0:0:0:0:
475,192,59342,1,0,0:0:0:0:
256,192,59342,1,0,0:0:0:0:
36,192,59530,1,0,0:0:0:0:
109,192,59530,1,0,0:0:0:0:
182,192,59530,1,0,0:0:0:0:
329,192,59623,1,0,0:0:0:0:
402,192,59623,1,0,0:0:0:0:
475,192,59623,1,0,0:0:0:0:
182,192,59717,1,0,0:0:0:0:
109,192,59717,1,0,0:0:0:0:
36,192,59717,1,0,0:0:0:0:
329,192,59811,1,0,0:0:0:0:
475,192,59811,1,0,0:0:0:0:
402,192,59811,1,0,0:0:0:0:
182,192,59905,1,0,0:0:0:0:
109,192,59905,1,0,0:0:0:0:
36,192,59905,1,0,0:0:0:0:
256,192,59998,1,0,0:0:0:0:
329,192,59998,1,0,0:0:0:0:
402,192,59998,1,0,0:0:0:0:
182,192,60092,1,0,0:0:0:0:
109,192,60092,1,0,0:0:0:0:
36,192,60092,1,0,0:0:0:0:
329,192,60186,1,0,0:0:0:0:
402,192,60186,1,0,0:0:0:0:
475,192,60186,1,0,0:0:0:0:
182,192,60280,1,0,0:0:0:0:
109,192,60280,1,0,0:0:0:0:
36,192,60280,1,0,0:0:0:0:
329,192,60373,1,0,0:0:0:0:
475,192,60373,1,0,0:0:0:0:
402,192,60373,1,0,0:0:0:0:
256,192,60467,1,0,0:0:0:0:
182,192,60467,1,0,0:0:0:0:
109,192,60467,1,0,0:0:0:0:
329,192,60561,1,0,0:0:0:0:
402,192,60561,1,0,0:0:0:0:
475,192,60561,1,0,0:0:0:0:
182,192,60655,1,0,0:0:0:0:
109,192,60655,1,0,0:0:0:0:
36,192,60655,1,0,0:0:0:0:
329,192,60748,1,0,0:0:0:0:
402,192,60748,1,0,0:0:0:0:
475,192,60748,1,0,0:0:0:0:
182,192,60842,1,0,0:0:0:0:
256,192,60842,1,0,0:0:0:0:
402,192,60936,128,0,61030:0:0:0:0:
109,192,60936,1,0,0:0:0:0:
402,192,61123,128,0,61311:0:0:0:0:
64,192,61123,1,0,0:0:0:0:
109,192,61311,1,0,0:0:0:0:
402,192,61405,128,0,61592:0:0:0:0:
192,192,61498,1,0,0:0:0:0:
256,192,61592,1,0,0:0:0:0:
402,192,61686,128,0,61873:0:0:0:0:
64,192,61686,128,0,62155:0:0:0:0:
192,192,61780,1,0,0:0:0:0:
256,192,61826,1,0,0:0:0:0:
329,192,61873,1,0,0:0:0:0:
402,192,61920,1,0,0:0:0:0:
448,192,61967,1,0,0:0:0:0:
109,192,61967,1,0,0:0:0:0:
192,192,62014,1,0,0:0:0:0:
256,192,62061,1,0,0:0:0:0:
329,192,62108,1,0,0:0:0:0:
402,192,62155,128,0,62248:0:0:0:0:
475,192,62155,1,0,0:0:0:0:
256,192,62248,128,0,62436:0:0:0:0:
109,192,62295,128,0,62530:0:0:0:0:
329,192,62530,1,0,0:0:0:0:
402,192,62530,1,0,0:0:0:0:
475,192,62530,1,0,0:0:0:0:
256,192,62576,1,0,0:0:0:0:
182,192,62623,1,0,0:0:0:0:
109,192,62670,1,0,0:0:0:0:
402,192,62717,1,0,0:0:0:0:
36,192,62717,1,0,0:0:0:0:
329,192,62764,1,0,0:0:0:0:
256,192,62811,1,0,0:0:0:0:
109,192,62905,1,0,0:0:0:0:
36,192,62905,1,0,0:0:0:0:
475,192,62905,1,0,0:0:0:0:
402,192,62951,1,0,0:0:0:0:
329,192,62998,1,0,0:0:0:0:
256,192,63045,1,0,0:0:0:0:
182,192,63092,1,0,0:0:0:0:
109,192,63092,1,0,0:0:0:0:
475,192,63092,1,0,0:0:0:0:
329,192,63186,1,0,0:0:0:0:
36,192,63186,1,0,0:0:0:0:
256,192,63186,1,0,0:0:0:0:
182,192,63280,1,0,0:0:0:0:
402,192,63280,1,0,0:0:0:0:
109,192,63280,1,0,0:0:0:0:
329,192,63373,1,0,0:0:0:0:
256,192,63373,1,0,0:0:0:0:
475,192,63373,1,0,0:0:0:0:
36,192,63467,1,0,0:0:0:0:
109,192,63467,1,0,0:0:0:0:
182,192,63467,1,0,0:0:0:0:
256,192,63561,1,0,0:0:0:0:
402,192,63561,1,0,0:0:0:0:
475,192,63561,1,0,0:0:0:0:
329,192,63655,1,0,0:0:0:0:
182,192,63655,1,0,0:0:0:0:
36,192,63655,1,0,0:0:0:0:
256,192,63748,1,0,0:0:0:0:
402,192,63748,1,0,0:0:0:0:
109,192,63748,1,0,0:0:0:0:
182,192,63842,1,0,0:0:0:0:
329,192,63842,1,0,0:0:0:0:
475,192,63842,1,0,0:0:0:0:
256,192,63936,1,0,0:0:0:0:
402,192,63936,1,0,0:0:0:0:
36,192,63936,1,0,0:0:0:0:
182,192,64030,1,0,0:0:0:0:
109,192,64030,1,0,0:0:0:0:
475,192,64030,1,0,0:0:0:0:
256,192,64076,1,0,0:0:0:0:
329,192,64123,1,0,0:0:0:0:
402,192,64170,1,0,0:0:0:0:
182,192,64217,1,0,0:0:0:0:
475,192,64217,1,0,0:0:0:0:
256,192,64217,1,0,0:0:0:0:
109,192,64264,1,0,0:0:0:0:
36,192,64311,1,0,0:0:0:0:
329,192,64405,1,0,0:0:0:0:
402,192,64405,1,0,0:0:0:0:
475,192,64405,1,0,0:0:0:0:
256,192,64451,1,0,0:0:0:0:
182,192,64498,1,0,0:0:0:0:
109,192,64592,1,0,0:0:0:0:
36,192,64592,1,0,0:0:0:0:
329,192,64592,1,0,0:0:0:0:
182,192,64686,1,0,0:0:0:0:
256,192,64686,1,0,0:0:0:0:
475,192,64686,1,0,0:0:0:0:
329,192,64780,1,0,0:0:0:0:
402,192,64780,1,0,0:0:0:0:
36,192,64780,1,0,0:0:0:0:
109,192,64873,1,0,0:0:0:0:
182,192,64873,1,0,0:0:0:0:
475,192,64873,1,0,0:0:0:0:
256,192,64967,1,0,0:0:0:0:
329,192,64967,1,0,0:0:0:0:
36,192,64967,1,0,0:0:0:0:
402,192,65061,1,0,0:0:0:0:
475,192,65061,1,0,0:0:0:0:
182,192,65061,1,0,0:0:0:0:
329,192,65155,1,0,0:0:0:0:
36,192,65155,1,0,0:0:0:0:
109,192,65155,1,0,0:0:0:0:
256,192,65248,1,0,0:0:0:0:
402,192,65248,1,0,0:0:0:0:
475,192,65248,1,0,0:0:0:0:
329,192,65342,1,0,0:0:0:0:
182,192,65342,1,0,0:0:0:0:
109,192,65342,1,0,0:0:0:0:
256,192,65436,1,0,0:0:0:0:
36,192,65436,1,0,0:0:0:0:
475,192,65436,1,0,0:0:0:0:
329,192,65530,1,0,0:0:0:0:
402,192,65530,1,0,0:0:0:0:
109,192,65530,1,0,0:0:0:0:
182,192,65576,1,0,0:0:0:0:
256,192,65623,1,0,0:0:0:0:
475,192,65670,1,0,0:0:0:0:
402,192,65717,1,0,0:0:0:0:
36,192,65717,1,0,0:0:0:0:
182,192,65717,1,0,0:0:0:0:
329,192,65764,1,0,0:0:0:0:
109,192,65764,1,0,0:0:0:0:
256,192,65811,1,0,0:0:0:0:
402,192,65905,1,0,0:0:0:0:
475,192,65905,1,0,0:0:0:0:
36,192,65905,1,0,0:0:0:0:
109,192,65951,1,0,0:0:0:0:
182,192,65998,1,0,0:0:0:0:
256,192,66045,1,0,0:0:0:0:
329,192,66092,1,0,0:0:0:0:
475,192,66092,1,0,0:0:0:0:
36,192,66092,1,0,0:0:0:0:
402,192,66186,1,0,0:0:0:0:
109,192,66186,1,0,0:0:0:0:
182,192,66186,1,0,0:0:0:0:
36,192,66280,1,0,0:0:0:0:
256,192,66280,1,0,0:0:0:0:
475,192,66280,1,0,0:0:0:0:
329,192,66373,1,0,0:0:0:0:
402,192,66373,1,0,0:0:0:0:
109,192,66373,1,0,0:0:0:0:
256,192,66467,1,0,0:0:0:0:
182,192,66467,1,0,0:0:0:0:
36,192,66467,1,0,0:0:0:0:
109,192,66561,1,0,0:0:0:0:
329,192,66561,1,0,0:0:0:0:
402,192,66561,1,0,0:0:0:0:
475,192,66655,1,0,0:0:0:0:
182,192,66655,1,0,0:0:0:0:
36,192,66655,1,0,0:0:0:0:
329,192,66748,1,0,0:0:0:0:
256,192,66748,1,0,0:0:0:0:
109,192,66748,1,0,0:0:0:0:
402,192,66842,1,0,0:0:0:0:
475,192,66842,1,0,0:0:0:0:
182,192,66842,1,0,0:0:0:0:
329,192,66936,1,0,0:0:0:0:
256,192,66936,1,0,0:0:0:0:
36,192,66936,1,0,0:0:0:0:
109,192,67030,1,0,0:0:0:0:
182,192,67030,1,0,0:0:0:0:
475,192,67030,1,0,0:0:0:0:
402,192,67076,1,0,0:0:0:0:
329,192,67123,1,0,0:0:0:0:
256,192,67170,1,0,0:0:0:0:
182,192,67217,1,0,0:0:0:0:
475,192,67217,1,0,0:0:0:0:
402,192,67217,1,0,0:0:0:0:
109,192,67264,1,0,0:0:0:0:
36,192,67311,1,0,0:0:0:0:
329,192,67311,1,0,0:0:0:0:
256,192,67311,1,0,0:0:0:0:
109,192,67405,1,0,0:0:0:0:
475,192,67405,1,0,0:0:0:0:
182,192,67451,1,0,0:0:0:0:
256,192,67498,1,0,0:0:0:0:
329,192,67545,1,0,0:0:0:0:
475,192,67592,1,0,0:0:0:0:
402,192,67592,1,0,0:0:0:0:
36,192,67592,1,0,0:0:0:0:
109,192,67639,1,0,0:0:0:0:
182,192,67686,1,0,0:0:0:0:
256,192,67733,1,0,0:0:0:0:
329,192,67780,1,0,0:0:0:0:
36,192,67780,1,0,0:0:0:0:
402,192,67780,1,0,0:0:0:0:
329,192,67873,1,0,0:0:0:0:
256,192,67873,1,0,0:0:0:0:
256,192,67967,1,0,0:0:0:0:
182,192,67967,1,0,0:0:0:0:
256,192,68155,1,0,0:0:0:0:
182,192,68155,1,0,0:0:0:0:
182,192,68248,1,0,0:0:0:0:
109,192,68248,1,0,0:0:0:0:
109,192,68342,1,0,0:0:0:0:
36,192,68342,1,0,0:0:0:0:
475,192,68436,1,0,0:0:0:0:
36,192,68436,1,0,0:0:0:0:
256,192,68530,1,0,0:0:0:0:
329,192,68530,1,0,0:0:0:0:
402,192,68530,1,0,0:0:0:0:
36,192,68576,1,0,0:0:0:0:
109,192,68623,1,0,0:0:0:0:
182,192,68670,1,0,0:0:0:0:
256,192,68717,1,0,0:0:0:0:
475,192,68717,1,0,0:0:0:0:
36,192,68717,1,0,0:0:0:0:
329,192,68764,1,0,0:0:0:0:
402,192,68811,1,0,0:0:0:0:
182,192,68905,1,0,0:0:0:0:
109,192,68905,1,0,0:0:0:0:
36,192,68905,1,0,0:0:0:0:
475,192,68951,1,0,0:0:0:0:
402,192,68998,1,0,0:0:0:0:
329,192,69045,1,0,0:0:0:0:
256,192,69092,1,0,0:0:0:0:
182,192,69092,1,0,0:0:0:0:
36,192,69092,1,0,0:0:0:0:
109,192,69186,1,0,0:0:0:0:
402,192,69186,1,0,0:0:0:0:
475,192,69186,1,0,0:0:0:0:
256,192,69280,1,0,0:0:0:0:
329,192,69280,1,0,0:0:0:0:
182,192,69280,1,0,0:0:0:0:
109,192,69373,1,0,0:0:0:0:
402,192,69373,1,0,0:0:0:0:
36,192,69373,1,0,0:0:0:0:
256,192,69467,1,0,0:0:0:0:
475,192,69467,1,0,0:0:0:0:
36,192,69467,1,0,0:0:0:0:
109,192,69561,1,0,0:0:0:0:
182,192,69561,1,0,0:0:0:0:
329,192,69561,1,0,0:0:0:0:
256,192,69655,1,0,0:0:0:0:
402,192,69655,1,0,0:0:0:0:
475,192,69655,1,0,0:0:0:0:
329,192,69748,1,0,0:0:0:0:
36,192,69748,1,0,0:0:0:0:
109,192,69748,1,0,0:0:0:0:
182,192,69842,1,0,0:0:0:0:
256,192,69842,1,0,0:0:0:0:
402,192,69842,1,0,0:0:0:0:
475,192,69936,1,0,0:0:0:0:
329,192,69936,1,0,0:0:0:0:
109,192,69936,1,0,0:0:0:0:
256,192,70030,1,0,0:0:0:0:
182,192,70030,1,0,0:0:0:0:
36,192,70030,1,0,0:0:0:0:
329,192,70076,1,0,0:0:0:0:
402,192,70123,1,0,0:0:0:0:
475,192,70170,1,0,0:0:0:0:
109,192,70217,1,0,0:0:0:0:
329,192,70217,1,0,0:0:0:0:
36,192,70217,1,0,0:0:0:0:
182,192,70264,1,0,0:0:0:0:
256,192,70311,1,0,0:0:0:0:
402,192,70405,1,0,0:0:0:0:
475,192,70405,1,0,0:0:0:0:
109,192,70405,1,0,0:0:0:0:
36,192,70405,1,0,0:0:0:0:
329,192,70451,1,0,0:0:0:0:
256,192,70498,1,0,0:0:0:0:
182,192,70545,1,0,0:0:0:0:
109,192,70592,1,0,0:0:0:0:
475,192,70592,1,0,0:0:0:0:
402,192,70686,1,0,0:0:0:0:
329,192,70686,1,0,0:0:0:0:
256,192,70686,1,0,0:0:0:0:
182,192,70780,1,0,0:0:0:0:
109,192,70780,1,0,0:0:0:0:
36,192,70780,1,0,0:0:0:0:
329,192,70873,1,0,0:0:0:0:
402,192,70873,1,0,0:0:0:0:
475,192,70873,1,0,0:0:0:0:
256,192,70967,1,0,0:0:0:0:
182,192,70967,1,0,0:0:0:0:
109,192,70967,1,0,0:0:0:0:
329,192,71061,1,0,0:0:0:0:
402,192,71061,1,0,0:0:0:0:
475,192,71061,1,0,0:0:0:0:
182,192,71155,1,0,0:0:0:0:
109,192,71155,1,0,0:0:0:0:
36,192,71155,1,0,0:0:0:0:
256,192,71248,1,0,0:0:0:0:
329,192,71248,1,0,0:0:0:0:
402,192,71248,1,0,0:0:0:0:
182,192,71342,1,0,0:0:0:0:
109,192,71342,1,0,0:0:0:0:
36,192,71342,1,0,0:0:0:0:
402,192,71436,1,0,0:0:0:0:
475,192,71436,1,0,0:0:0:0:
256,192,71436,1,0,0:0:0:0:
329,192,71530,1,0,0:0:0:0:
109,192,71530,1,0,0:0:0:0:
36,192,71530,1,0,0:0:0:0:
402,192,71576,1,0,0:0:0:0:
475,192,71623,1,0,0:0:0:0:
182,192,71670,1,0,0:0:0:0:
256,192,71717,1,0,0:0:0:0:
36,192,71717,1,0,0:0:0:0:
109,192,71717,1,0,0:0:0:0:
329,192,71764,1,0,0:0:0:0:
402,192,71811,1,0,0:0:0:0:
182,192,71905,1,0,0:0:0:0:
36,192,71905,1,0,0:0:0:0:
329,192,71905,1,0,0:0:0:0:
256,192,71998,1,0,0:0:0:0:
109,192,71998,1,0,0:0:0:0:
402,192,71998,1,0,0:0:0:0:
475,192,72092,1,0,0:0:0:0:
329,192,72092,1,0,0:0:0:0:
182,192,72092,1,0,0:0:0:0:
402,192,72186,1,0,0:0:0:0:
256,192,72186,1,0,0:0:0:0:
109,192,72186,1,0,0:0:0:0:
329,192,72280,1,0,0:0:0:0:
182,192,72280,1,0,0:0:0:0:
36,192,72280,1,0,0:0:0:0:
402,192,72373,1,0,0:0:0:0:
475,192,72373,1,0,0:0:0:0:
109,192,72373,1,0,0:0:0:0:
182,192,72467,1,0,0:0:0:0:
256,192,72467,1,0,0:0:0:0:
329,192,72467,1,0,0:0:0:0:
36,192,72561,1,0,0:0:0:0:
109,192,72561,1,0,0:0:0:0:
402,192,72561,1,0,0:0:0:0:
475,192,72655,1,0,0:0:0:0:
329,192,72655,1,0,0:0:0:0:
256,192,72655,1,0,0:0:0:0:
182,192,72655,1,0,0:0:0:0:
182,192,72748,1,0,0:0:0:0:
256,192,72748,1,0,0:0:0:0:
329,192,72748,1,0,0:0:0:0:
256,192,72842,1,0,0:0:0:0:
329,192,72842,1,0,0:0:0:0:
182,192,72842,1,0,0:0:0:0:
182,192,72936,1,0,0:0:0:0:
256,192,72936,1,0,0:0:0:0:
329,192,72936,1,0,0:0:0:0:
36,192,73030,1,0,0:0:0:0:
475,192,73030,1,0,0:0:0:0:
109,192,73030,1,0,0:0:0:0:
402,192,73030,1,0,0:0:0:0:
402,192,73123,1,0,0:0:0:0:
475,192,73123,1,0,0:0:0:0:
109,192,73123,1,0,0:0:0:0:
36,192,73123,1,0,0:0:0:0:
329,192,73217,1,0,0:0:0:0:
182,192,73217,1,0,0:0:0:0:
256,192,73311,1,0,0:0:0:0:
109,192,73311,1,0,0:0:0:0:
475,192,73405,1,0,0:0:0:0:
329,192,73405,1,0,0:0:0:0:
402,192,73498,1,0,0:0:0:0:
256,192,73498,1,0,0:0:0:0:
36,192,73498,1,0,0:0:0:0:
109,192,73592,1,0,0:0:0:0:
182,192,73592,1,0,0:0:0:0:
475,192,73686,128,0,73873:0:0:0:0:
402,192,73709,128,0,73873:0:0:0:0:
329,192,73733,128,0,73873:0:0:0:0:
256,192,73756,128,0,73873:0:0:0:0:
182,192,73780,128,0,73873:0:0:0:0:
109,192,73803,128,0,73873:0:0:0:0:
36,192,73826,128,0,73873:0:0:0:0:
448,192,73967,128,0,74061:0:0:0:0:
320,192,73967,128,0,74061:0:0:0:0:
192,192,73967,128,0,74061:0:0:0:0:
256,192,73967,128,0,74061:0:0:0:0:
109,192,73967,128,0,74061:0:0:0:0:
36,192,73967,128,0,74061:0:0:0:0:
402,192,73967,128,0,74061:0:0:0:0:
64,192,74155,128,0,74530:0:0:0:0:
192,192,74155,128,0,74436:0:0:0:0:
320,192,74155,128,0,74342:0:0:0:0:
448,192,74155,128,0,74248:0:0:0:0:
256,192,74155,128,0,74248:0:0:0:0:
109,192,74155,128,0,74342:0:0:0:0:
402,192,74155,1,0,0:0:0:0:
402,192,74248,1,0,0:0:0:0:
448,192,74342,1,0,0:0:0:0:
256,192,74342,1,0,0:0:0:0:
320,192,74436,1,0,0:0:0:0:
109,192,74436,1,0,0:0:0:0:
192,192,74530,1,0,0:0:0:0:
402,192,74530,1,0,0:0:0:0:
475,192,74530,1,0,0:0:0:0:
256,192,74576,1,0,0:0:0:0:
329,192,74623,1,0,0:0:0:0:
402,192,74670,1,0,0:0:0:0:
475,192,74717,1,0,0:0:0:0:
109,192,74717,1,0,0:0:0:0:
182,192,74764,1,0,0:0:0:0:
256,192,74811,1,0,0:0:0:0:
329,192,74811,1,0,0:0:0:0:
109,192,74905,1,0,0:0:0:0:
36,192,74905,1,0,0:0:0:0:
402,192,74905,1,0,0:0:0:0:
475,192,74905,1,0,0:0:0:0:
182,192,74951,1,0,0:0:0:0:
256,192,74998,1,0,0:0:0:0:
329,192,75045,1,0,0:0:0:0:
402,192,75092,1,0,0:0:0:0:
475,192,75092,1,0,0:0:0:0:
109,192,75092,1,0,0:0:0:0:
256,192,75186,1,0,0:0:0:0:
182,192,75186,1,0,0:0:0:0:
36,192,75186,1,0,0:0:0:0:
329,192,75280,1,0,0:0:0:0:
402,192,75280,1,0,0:0:0:0:
475,192,75280,1,0,0:0:0:0:
182,192,75373,1,0,0:0:0:0:
109,192,75373,1,0,0:0:0:0:
36,192,75373,1,0,0:0:0:0:
256,192,75467,1,0,0:0:0:0:
402,192,75467,1,0,0:0:0:0:
475,192,75467,1,0,0:0:0:0:
329,192,75561,1,0,0:0:0:0:
182,192,75561,1,0,0:0:0:0:
109,192,75561,1,0,0:0:0:0:
36,192,75655,1,0,0:0:0:0:
256,192,75655,1,0,0:0:0:0:
475,192,75655,1,0,0:0:0:0:
402,192,75748,1,0,0:0:0:0:
329,192,75748,1,0,0:0:0:0:
182,192,75748,1,0,0:0:0:0:
256,192,75842,1,0,0:0:0:0:
36,192,75842,1,0,0:0:0:0:
475,192,75842,1,0,0:0:0:0:
182,192,75936,1,0,0:0:0:0:
109,192,75936,1,0,0:0:0:0:
402,192,75936,1,0,0:0:0:0:
256,192,76030,1,0,0:0:0:0:
329,192,76030,1,0,0:0:0:0:
36,192,76030,1,0,0:0:0:0:
475,192,76030,1,0,0:0:0:0:
109,192,76076,1,0,0:0:0:0:
182,192,76123,1,0,0:0:0:0:
256,192,76170,1,0,0:0:0:0:
402,192,76217,1,0,0:0:0:0:
475,192,76217,1,0,0:0:0:0:
329,192,76264,1,0,0:0:0:0:
256,192,76311,1,0,0:0:0:0:
36,192,76311,1,0,0:0:0:0:
182,192,76405,1,0,0:0:0:0:
109,192,76405,1,0,0:0:0:0:
402,192,76451,1,0,0:0:0:0:
329,192,76498,1,0,0:0:0:0:
256,192,76545,1,0,0:0:0:0:
182,192,76592,1,0,0:0:0:0:
475,192,76592,1,0,0:0:0:0:
36,192,76592,1,0,0:0:0:0:
402,192,76686,1,0,0:0:0:0:
329,192,76686,1,0,0:0:0:0:
256,192,76686,1,0,0:0:0:0:
109,192,76780,1,0,0:0:0:0:
182,192,76780,1,0,0:0:0:0:
36,192,76780,1,0,0:0:0:0:
329,192,76873,1,0,0:0:0:0:
475,192,76873,1,0,0:0:0:0:
256,192,76873,1,0,0:0:0:0:
402,192,76967,1,0,0:0:0:0:
36,192,76967,1,0,0:0:0:0:
182,192,76967,1,0,0:0:0:0:
256,192,77061,1,0,0:0:0:0:
475,192,77061,1,0,0:0:0:0:
109,192,77061,1,0,0:0:0:0:
329,192,77155,1,0,0:0:0:0:
402,192,77155,1,0,0:0:0:0:
182,192,77155,1,0,0:0:0:0:
256,192,77248,1,0,0:0:0:0:
475,192,77248,1,0,0:0:0:0:
36,192,77248,1,0,0:0:0:0:
109,192,77342,1,0,0:0:0:0:
182,192,77342,1,0,0:0:0:0:
402,192,77342,1,0,0:0:0:0:
329,192,77436,1,0,0:0:0:0:
256,192,77436,1,0,0:0:0:0:
36,192,77436,1,0,0:0:0:0:
402,192,77530,1,0,0:0:0:0:
475,192,77530,1,0,0:0:0:0:
109,192,77530,1,0,0:0:0:0:
182,192,77576,1,0,0:0:0:0:
256,192,77623,1,0,0:0:0:0:
329,192,77670,1,0,0:0:0:0:
402,192,77717,1,0,0:0:0:0:
36,192,77717,1,0,0:0:0:0:
475,192,77717,1,0,0:0:0:0:
109,192,77764,1,0,0:0:0:0:
182,192,77811,1,0,0:0:0:0:
256,192,77811,1,0,0:0:0:0:
402,192,77905,1,0,0:0:0:0:
475,192,77905,1,0,0:0:0:0:
36,192,77905,1,0,0:0:0:0:
109,192,77905,1,0,0:0:0:0:
329,192,77951,1,0,0:0:0:0:
256,192,77998,1,0,0:0:0:0:
182,192,78045,1,0,0:0:0:0:
109,192,78092,1,0,0:0:0:0:
36,192,78092,1,0,0:0:0:0:
475,192,78092,1,0,0:0:0:0:
256,192,78186,1,0,0:0:0:0:
329,192,78186,1,0,0:0:0:0:
402,192,78186,1,0,0:0:0:0:
475,192,78280,1,0,0:0:0:0:
182,192,78280,1,0,0:0:0:0:
109,192,78280,1,0,0:0:0:0:
36,192,78373,1,0,0:0:0:0:
256,192,78373,1,0,0:0:0:0:
402,192,78373,1,0,0:0:0:0:
182,192,78467,1,0,0:0:0:0:
109,192,78467,1,0,0:0:0:0:
329,192,78467,1,0,0:0:0:0:
256,192,78561,1,0,0:0:0:0:
475,192,78561,1,0,0:0:0:0:
36,192,78561,1,0,0:0:0:0:
109,192,78655,1,0,0:0:0:0:
329,192,78655,1,0,0:0:0:0:
402,192,78655,1,0,0:0:0:0:
182,192,78748,1,0,0:0:0:0:
256,192,78748,1,0,0:0:0:0:
475,192,78748,1,0,0:0:0:0:
36,192,78842,1,0,0:0:0:0:
109,192,78842,1,0,0:0:0:0:
402,192,78842,1,0,0:0:0:0:
329,192,78936,1,0,0:0:0:0:
256,192,78936,1,0,0:0:0:0:
182,192,78936,1,0,0:0:0:0:
475,192,79030,1,0,0:0:0:0:
109,192,79030,1,0,0:0:0:0:
36,192,79030,1,0,0:0:0:0:
402,192,79076,1,0,0:0:0:0:
329,192,79123,1,0,0:0:0:0:
256,192,79170,1,0,0:0:0:0:
182,192,79217,1,0,0:0:0:0:
109,192,79264,1,0,0:0:0:0:
402,192,79311,1,0,0:0:0:0:
475,192,79311,1,0,0:0:0:0:
36,192,79311,1,0,0:0:0:0:
329,192,79311,1,0,0:0:0:0:
182,192,79405,1,0,0:0:0:0:
109,192,79405,1,0,0:0:0:0:
475,192,79405,1,0,0:0:0:0:
256,192,79451,1,0,0:0:0:0:
329,192,79498,1,0,0:0:0:0:
402,192,79545,1,0,0:0:0:0:
475,192,79592,1,0,0:0:0:0:
36,192,79592,1,0,0:0:0:0:
256,192,79592,1,0,0:0:0:0:
109,192,79639,1,0,0:0:0:0:
182,192,79686,1,0,0:0:0:0:
256,192,79733,1,0,0:0:0:0:
329,192,79780,1,0,0:0:0:0:
402,192,79780,1,0,0:0:0:0:
475,192,79780,1,0,0:0:0:0:
329,192,79873,1,0,0:0:0:0:
402,192,79873,1,0,0:0:0:0:
475,192,79873,1,0,0:0:0:0:
329,192,79967,1,0,0:0:0:0:
402,192,79967,1,0,0:0:0:0:
475,192,79967,1,0,0:0:0:0:
329,192,80061,1,0,0:0:0:0:
402,192,80061,1,0,0:0:0:0:
475,192,80061,1,0,0:0:0:0:
256,192,80155,128,0,80248:0:0:0:0:
182,192,80155,128,0,80248:0:0:0:0:
36,192,80155,128,0,80248:0:0:0:0:
109,192,80155,128,0,80248:0:0:0:0:
329,192,80248,1,0,0:0:0:0:
402,192,80248,1,0,0:0:0:0:
475,192,80248,1,0,0:0:0:0:
329,192,80342,1,0,0:0:0:0:
402,192,80342,1,0,0:0:0:0:
475,192,80342,1,0,0:0:0:0:
329,192,80436,1,0,0:0:0:0:
402,192,80436,1,0,0:0:0:0:
475,192,80436,1,0,0:0:0:0:
329,192,80530,1,0,0:0:0:0:
402,192,80530,1,0,0:0:0:0:
475,192,80530,1,0,0:0:0:0:
256,192,80576,1,0,0:0:0:0:
182,192,80623,1,0,0:0:0:0:
109,192,80670,1,0,0:0:0:0:
36,192,80717,1,0,0:0:0:0:
402,192,80717,1,0,0:0:0:0:
475,192,80717,1,0,0:0:0:0:
329,192,80764,1,0,0:0:0:0:
256,192,80811,1,0,0:0:0:0:
182,192,80858,1,0,0:0:0:0:
109,192,80905,1,0,0:0:0:0:
402,192,80905,1,0,0:0:0:0:
475,192,80905,1,0,0:0:0:0:
36,192,80905,1,0,0:0:0:0:
329,192,80951,1,0,0:0:0:0:
256,192,80998,1,0,0:0:0:0:
182,192,81045,1,0,0:0:0:0:
475,192,81092,1,0,0:0:0:0:
402,192,81139,1,0,0:0:0:0:
329,192,81186,1,0,0:0:0:0:
256,192,81233,1,0,0:0:0:0:
182,192,81280,1,0,0:0:0:0:
36,192,81280,1,0,0:0:0:0:
402,192,81280,1,0,0:0:0:0:
475,192,81280,1,0,0:0:0:0:
109,192,81373,1,0,0:0:0:0:
256,192,81373,1,0,0:0:0:0:
182,192,81467,1,0,0:0:0:0:
329,192,81467,1,0,0:0:0:0:
256,192,81561,1,0,0:0:0:0:
402,192,81561,1,0,0:0:0:0:
329,192,81655,1,0,0:0:0:0:
475,192,81655,1,0,0:0:0:0:
109,192,81655,1,0,0:0:0:0:
36,192,81655,1,0,0:0:0:0:
182,192,81748,1,0,0:0:0:0:
256,192,81748,1,0,0:0:0:0:
402,192,81842,1,0,0:0:0:0:
109,192,81842,1,0,0:0:0:0:
475,192,81936,1,0,0:0:0:0:
329,192,81936,1,0,0:0:0:0:
182,192,82030,1,0,0:0:0:0:
109,192,82030,1,0,0:0:0:0:
36,192,82030,1,0,0:0:0:0:
256,192,82076,1,0,0:0:0:0:
329,192,82123,1,0,0:0:0:0:
402,192,82170,1,0,0:0:0:0:
475,192,82217,1,0,0:0:0:0:
109,192,82217,1,0,0:0:0:0:
36,192,82217,1,0,0:0:0:0:
182,192,82264,1,0,0:0:0:0:
256,192,82311,1,0,0:0:0:0:
329,192,82358,1,0,0:0:0:0:
402,192,82405,1,0,0:0:0:0:
109,192,82405,1,0,0:0:0:0:
475,192,82405,1,0,0:0:0:0:
36,192,82405,1,0,0:0:0:0:
182,192,82451,1,0,0:0:0:0:
256,192,82498,1,0,0:0:0:0:
329,192,82545,1,0,0:0:0:0:
36,192,82592,1,0,0:0:0:0:
109,192,82639,1,0,0:0:0:0:
182,192,82686,1,0,0:0:0:0:
256,192,82733,1,0,0:0:0:0:
329,192,82780,1,0,0:0:0:0:
402,192,82780,1,0,0:0:0:0:
475,192,82780,1,0,0:0:0:0:
36,192,82780,1,0,0:0:0:0:
109,192,82873,1,0,0:0:0:0:
182,192,82873,1,0,0:0:0:0:
256,192,82873,1,0,0:0:0:0:
329,192,82967,1,0,0:0:0:0:
402,192,82967,1,0,0:0:0:0:
36,192,82967,1,0,0:0:0:0:
109,192,83061,1,0,0:0:0:0:
256,192,83061,1,0,0:0:0:0:
475,192,83061,1,0,0:0:0:0:
182,192,83155,1,0,0:0:0:0:
329,192,83155,1,0,0:0:0:0:
36,192,83155,1,0,0:0:0:0:
402,192,83155,1,0,0:0:0:0:
256,192,83248,1,0,0:0:0:0:
475,192,83248,1,0,0:0:0:0:
109,192,83248,1,0,0:0:0:0:
182,192,83342,1,0,0:0:0:0:
329,192,83342,1,0,0:0:0:0:
36,192,83342,1,0,0:0:0:0:
402,192,83436,1,0,0:0:0:0:
475,192,83436,1,0,0:0:0:0:
329,192,83530,1,0,0:0:0:0:
256,192,83530,1,0,0:0:0:0:
36,192,83530,1,0,0:0:0:0:
256,192,83623,1,0,0:0:0:0:
329,192,83623,1,0,0:0:0:0:
36,192,83623,1,0,0:0:0:0:
402,192,83717,1,0,0:0:0:0:
475,192,83717,1,0,0:0:0:0:
182,192,83717,1,0,0:0:0:0:
182,192,83811,1,0,0:0:0:0:
402,192,83811,1,0,0:0:0:0:
475,192,83811,1,0,0:0:0:0:
109,192,83905,1,0,0:0:0:0:
36,192,83905,1,0,0:0:0:0:
329,192,83905,1,0,0:0:0:0:
329,192,83998,1,0,0:0:0:0:
109,192,83998,1,0,0:0:0:0:
36,192,83998,1,0,0:0:0:0:
182,192,84092,1,0,0:0:0:0:
256,192,84092,1,0,0:0:0:0:
329,192,84139,1,0,0:0:0:0:
402,192,84186,1,0,0:0:0:0:
475,192,84233,1,0,0:0:0:0:
109,192,84280,1,0,0:0:0:0:
182,192,84280,1,0,0:0:0:0:
36,192,84280,1,0,0:0:0:0:
256,192,84326,1,0,0:0:0:0:
329,192,84373,1,0,0:0:0:0:
402,192,84420,1,0,0:0:0:0:
182,192,84467,1,0,0:0:0:0:
109,192,84467,1,0,0:0:0:0:
475,192,84467,1,0,0:0:0:0:
256,192,84514,1,0,0:0:0:0:
329,192,84561,1,0,0:0:0:0:
402,192,84608,1,0,0:0:0:0:
36,192,84655,1,0,0:0:0:0:
109,192,84655,1,0,0:0:0:0:
475,192,84655,1,0,0:0:0:0:
182,192,84701,1,0,0:0:0:0:
256,192,84748,1,0,0:0:0:0:
329,192,84795,1,0,0:0:0:0:
402,192,84842,1,0,0:0:0:0:
36,192,84842,1,0,0:0:0:0:
475,192,84842,1,0,0:0:0:0:
109,192,84889,1,0,0:0:0:0:
182,192,84936,1,0,0:0:0:0:
256,192,84983,1,0,0:0:0:0:
402,192,85030,128,0,85170:0:0:0:0:
475,192,85030,128,0,85170:0:0:0:0:
320,192,85030,128,0,85170:0:0:0:0:
475,192,85217,128,0,85358:0:0:0:0:
402,192,85217,128,0,85358:0:0:0:0:
329,192,85217,128,0,85358:0:0:0:0:
64,192,85405,128,0,85545:0:0:0:0:
109,192,85405,128,0,85545:0:0:0:0:
182,192,85405,128,0,85545:0:0:0:0:
256,192,85405,1,0,0:0:0:0:
329,192,85467,1,0,0:0:0:0:
402,192,85530,1,0,0:0:0:0:
64,192,85592,128,0,85733:0:0:0:0:
109,192,85592,128,0,85733:0:0:0:0:
182,192,85592,128,0,85733:0:0:0:0:
475,192,85592,1,0,0:0:0:0:
256,192,85592,1,0,0:0:0:0:
329,192,85655,1,0,0:0:0:0:
402,192,85717,1,0,0:0:0:0:
64,192,85780,1,0,0:0:0:0:
475,192,85780,1,0,0:0:0:0:
109,192,85780,1,0,0:0:0:0:
182,192,85780,1,0,0:0:0:0:
256,192,85842,1,0,0:0:0:0:
320,192,85905,1,0,0:0:0:0:
64,192,85967,1,0,0:0:0:0:
402,192,85967,1,0,0:0:0:0:
182,192,85967,1,0,0:0:0:0:
475,192,86030,1,0,0:0:0:0:
109,192,86061,1,0,0:0:0:0:
320,192,86155,1,0,0:0:0:0:
448,192,86155,1,0,0:0:0:0:
64,192,86155,1,0,0:0:0:0:
256,192,86155,1,0,0:0:0:0:
182,192,86248,1,0,0:0:0:0:
448,192,86342,128,0,86530:0:0:0:0:
109,192,86342,1,0,0:0:0:0:
64,192,86530,128,0,86717:0:0:0:0:
320,192,86530,1,0,0:0:0:0:
192,192,86530,1,0,0:0:0:0:
256,192,86530,1,0,0:0:0:0:
256,192,86623,1,0,0:0:0:0:
448,192,86717,1,0,0:0:0:0:
402,192,86717,1,0,0:0:0:0:
192,192,86811,128,0,86998:0:0:0:0:
448,192,86811,1,0,0:0:0:0:
320,192,86905,1,0,0:0:0:0:
64,192,86905,1,0,0:0:0:0:
256,192,86905,1,0,0:0:0:0:
109,192,86905,1,0,0:0:0:0:
64,192,86998,1,0,0:0:0:0:
402,192,86998,1,0,0:0:0:0:
320,192,87092,128,0,87186:0:0:0:0:
256,192,87092,1,0,0:0:0:0:
182,192,87186,1,0,0:0:0:0:
448,192,87280,128,0,87467:0:0:0:0:
320,192,87280,1,0,0:0:0:0:
64,192,87280,1,0,0:0:0:0:
109,192,87280,1,0,0:0:0:0:
256,192,87373,1,0,0:0:0:0:
64,192,87467,1,0,0:0:0:0:
402,192,87467,1,0,0:0:0:0:
192,192,87561,128,0,87748:0:0:0:0:
109,192,87561,1,0,0:0:0:0:
320,192,87655,1,0,0:0:0:0:
448,192,87655,1,0,0:0:0:0:
64,192,87655,1,0,0:0:0:0:
256,192,87655,1,0,0:0:0:0:
448,192,87748,1,0,0:0:0:0:
320,192,87842,128,0,87936:0:0:0:0:
109,192,87842,1,0,0:0:0:0:
192,192,87936,1,0,0:0:0:0:
448,192,88030,128,0,88217:0:0:0:0:
320,192,88030,1,0,0:0:0:0:
64,192,88030,1,0,0:0:0:0:
256,192,88030,1,0,0:0:0:0:
109,192,88030,1,0,0:0:0:0:
64,192,88123,1,0,0:0:0:0:
320,192,88217,1,0,0:0:0:0:
192,192,88311,128,0,88498:0:0:0:0:
256,192,88311,1,0,0:0:0:0:
448,192,88405,1,0,0:0:0:0:
64,192,88405,1,0,0:0:0:0:
320,192,88405,1,0,0:0:0:0:
402,192,88405,1,0,0:0:0:0:
109,192,88405,1,0,0:0:0:0:
448,192,88498,1,0,0:0:0:0:
320,192,88592,128,0,88686:0:0:0:0:
256,192,88592,1,0,0:0:0:0:
192,192,88686,1,0,0:0:0:0:
448,192,88780,128,0,88967:0:0:0:0:
64,192,88780,1,0,0:0:0:0:
320,192,88780,1,0,0:0:0:0:
109,192,88780,1,0,0:0:0:0:
402,192,88780,1,0,0:0:0:0:
109,192,88873,1,0,0:0:0:0:
192,192,88967,1,0,0:0:0:0:
256,192,89061,1,0,0:0:0:0:
320,192,89155,128,0,89248:0:0:0:0:
448,192,89155,1,0,0:0:0:0:
64,192,89155,1,0,0:0:0:0:
109,192,89155,1,0,0:0:0:0:
182,192,89155,1,0,0:0:0:0:
448,192,89248,1,0,0:0:0:0:
192,192,89342,128,0,89436:0:0:0:0:
320,192,89342,1,0,0:0:0:0:
320,192,89436,1,0,0:0:0:0:
64,192,89530,128,0,89717:0:0:0:0:
448,192,89530,1,0,0:0:0:0:
192,192,89530,1,0,0:0:0:0:
256,192,89530,1,0,0:0:0:0:
402,192,89530,1,0,0:0:0:0:
448,192,89623,1,0,0:0:0:0:
320,192,89717,1,0,0:0:0:0:
192,192,89811,128,0,89998:0:0:0:0:
402,192,89811,1,0,0:0:0:0:
320,192,89905,1,0,0:0:0:0:
448,192,89905,1,0,0:0:0:0:
64,192,89905,1,0,0:0:0:0:
256,192,89905,1,0,0:0:0:0:
109,192,89905,1,0,0:0:0:0:
64,192,89998,1,0,0:0:0:0:
320,192,90092,128,0,90186:0:0:0:0:
192,192,90092,1,0,0:0:0:0:
192,192,90186,1,0,0:0:0:0:
448,192,90280,128,0,90467:0:0:0:0:
64,192,90280,1,0,0:0:0:0:
256,192,90280,1,0,0:0:0:0:
109,192,90280,1,0,0:0:0:0:
402,192,90280,1,0,0:0:0:0:
320,192,90373,1,0,0:0:0:0:
64,192,90467,1,0,0:0:0:0:
256,192,90467,1,0,0:0:0:0:
192,192,90561,128,0,90748:0:0:0:0:
64,192,90561,1,0,0:0:0:0:
320,192,90655,1,0,0:0:0:0:
448,192,90655,1,0,0:0:0:0:
109,192,90655,1,0,0:0:0:0:
256,192,90655,1,0,0:0:0:0:
402,192,90655,1,0,0:0:0:0:
256,192,90748,1,0,0:0:0:0:
320,192,90842,128,0,90936:0:0:0:0:
192,192,90842,1,0,0:0:0:0:
109,192,90936,1,0,0:0:0:0:
448,192,91030,128,0,91217:0:0:0:0:
64,192,91030,1,0,0:0:0:0:
182,192,91030,1,0,0:0:0:0:
329,192,91030,1,0,0:0:0:0:
256,192,91030,1,0,0:0:0:0:
402,192,91030,1,0,0:0:0:0:
402,192,91123,1,0,0:0:0:0:
109,192,91217,1,0,0:0:0:0:
192,192,91311,128,0,91498:0:0:0:0:
64,192,91311,1,0,0:0:0:0:
448,192,91311,1,0,0:0:0:0:
256,192,91311,1,0,0:0:0:0:
329,192,91311,1,0,0:0:0:0:
320,192,91405,1,0,0:0:0:0:
448,192,91405,1,0,0:0:0:0:
109,192,91405,1,0,0:0:0:0:
402,192,91405,1,0,0:0:0:0:
36,192,91405,1,0,0:0:0:0:
256,192,91498,1,0,0:0:0:0:
320,192,91592,128,0,91686:0:0:0:0:
64,192,91592,1,0,0:0:0:0:
109,192,91592,1,0,0:0:0:0:
256,192,91592,1,0,0:0:0:0:
64,192,91686,1,0,0:0:0:0:
448,192,91780,128,0,91873:0:0:0:0:
192,192,91780,1,0,0:0:0:0:
320,192,91780,1,0,0:0:0:0:
256,192,91780,1,0,0:0:0:0:
402,192,91780,1,0,0:0:0:0:
192,192,91873,1,0,0:0:0:0:
64,192,91967,128,0,92061:0:0:0:0:
448,192,91967,1,0,0:0:0:0:
256,192,91967,1,0,0:0:0:0:
448,192,92061,1,0,0:0:0:0:
402,192,92061,1,0,0:0:0:0:
320,192,92155,128,0,92248:0:0:0:0:
64,192,92155,1,0,0:0:0:0:
192,192,92155,1,0,0:0:0:0:
256,192,92155,1,0,0:0:0:0:
109,192,92248,1,0,0:0:0:0:
192,192,92342,128,0,92436:0:0:0:0:
320,192,92342,1,0,0:0:0:0:
402,192,92342,1,0,0:0:0:0:
256,192,92436,1,0,0:0:0:0:
64,192,92530,128,0,92717:0:0:0:0:
192,192,92530,1,0,0:0:0:0:
320,192,92530,1,0,0:0:0:0:
448,192,92530,1,0,0:0:0:0:
109,192,92530,1,0,0:0:0:0:
402,192,92530,1,0,0:0:0:0:
448,192,92623,1,0,0:0:0:0:
320,192,92717,1,0,0:0:0:0:
192,192,92811,128,0,92998:0:0:0:0:
109,192,92811,1,0,0:0:0:0:
448,192,92905,1,0,0:0:0:0:
64,192,92905,1,0,0:0:0:0:
320,192,92905,1,0,0:0:0:0:
402,192,92905,1,0,0:0:0:0:
256,192,92905,1,0,0:0:0:0:
256,192,92998,1,0,0:0:0:0:
320,192,93092,128,0,93186:0:0:0:0:
402,192,93092,1,0,0:0:0:0:
192,192,93186,1,0,0:0:0:0:
448,192,93280,128,0,93467:0:0:0:0:
320,192,93280,1,0,0:0:0:0:
64,192,93280,1,0,0:0:0:0:
402,192,93280,1,0,0:0:0:0:
109,192,93280,1,0,0:0:0:0:
256,192,93280,1,0,0:0:0:0:
182,192,93373,1,0,0:0:0:0:
64,192,93467,1,0,0:0:0:0:
192,192,93561,128,0,93748:0:0:0:0:
64,192,93561,1,0,0:0:0:0:
320,192,93655,1,0,0:0:0:0:
448,192,93655,1,0,0:0:0:0:
64,192,93655,1,0,0:0:0:0:
109,192,93655,1,0,0:0:0:0:
402,192,93655,1,0,0:0:0:0:
402,192,93748,1,0,0:0:0:0:
320,192,93842,128,0,93936:0:0:0:0:
192,192,93842,1,0,0:0:0:0:
256,192,93842,1,0,0:0:0:0:
402,192,93936,1,0,0:0:0:0:
448,192,94030,128,0,94217:0:0:0:0:
320,192,94030,1,0,0:0:0:0:
64,192,94030,1,0,0:0:0:0:
256,192,94030,1,0,0:0:0:0:
109,192,94030,1,0,0:0:0:0:
320,192,94123,1,0,0:0:0:0:
64,192,94217,1,0,0:0:0:0:
182,192,94217,1,0,0:0:0:0:
192,192,94311,128,0,94498:0:0:0:0:
320,192,94311,1,0,0:0:0:0:
448,192,94405,1,0,0:0:0:0:
64,192,94405,1,0,0:0:0:0:
109,192,94405,1,0,0:0:0:0:
402,192,94405,1,0,0:0:0:0:
320,192,94451,1,0,0:0:0:0:
256,192,94498,1,0,0:0:0:0:
448,192,94545,1,0,0:0:0:0:
329,192,94592,128,0,94686:0:0:0:0:
402,192,94592,1,0,0:0:0:0:
36,192,94592,1,0,0:0:0:0:
256,192,94639,1,0,0:0:0:0:
192,192,94686,1,0,0:0:0:0:
109,192,94733,1,0,0:0:0:0:
448,192,94780,128,0,94967:0:0:0:0:
64,192,94780,1,0,0:0:0:0:
256,192,94780,1,0,0:0:0:0:
329,192,94780,1,0,0:0:0:0:
402,192,94780,1,0,0:0:0:0:
64,192,94873,1,0,0:0:0:0:
192,192,94967,1,0,0:0:0:0:
109,192,94967,1,0,0:0:0:0:
402,192,94967,1,0,0:0:0:0:
192,192,95061,1,0,0:0:0:0:
320,192,95155,128,0,95248:0:0:0:0:
448,192,95155,1,0,0:0:0:0:
64,192,95155,1,0,0:0:0:0:
256,192,95155,1,0,0:0:0:0:
402,192,95155,1,0,0:0:0:0:
109,192,95155,1,0,0:0:0:0:
64,192,95248,1,0,0:0:0:0:
192,192,95342,128,0,95436:0:0:0:0:
64,192,95342,1,0,0:0:0:0:
448,192,95342,1,0,0:0:0:0:
256,192,95436,1,0,0:0:0:0:
320,192,95530,1,0,0:0:0:0:
109,192,95530,1,0,0:0:0:0:
64,192,95530,1,0,0:0:0:0:
402,192,95530,1,0,0:0:0:0:
182,192,95530,1,0,0:0:0:0:
475,192,95530,1,0,0:0:0:0:
256,192,95623,1,0,0:0:0:0:
256,192,95717,1,0,0:0:0:0:
320,192,95811,1,0,0:0:0:0:
192,192,95811,1,0,0:0:0:0:
64,192,95811,1,0,0:0:0:0:
109,192,95811,1,0,0:0:0:0:
402,192,95811,1,0,0:0:0:0:
475,192,95811,1,0,0:0:0:0:
256,192,95905,1,0,0:0:0:0:
320,192,95998,1,0,0:0:0:0:
192,192,95998,1,0,0:0:0:0:
64,192,95998,1,0,0:0:0:0:
402,192,95998,1,0,0:0:0:0:
475,192,95998,1,0,0:0:0:0:
109,192,95998,1,0,0:0:0:0:
64,192,96092,1,0,0:0:0:0:
192,192,96092,1,0,0:0:0:0:
320,192,96092,1,0,0:0:0:0:
109,192,96092,1,0,0:0:0:0:
402,192,96092,1,0,0:0:0:0:
475,192,96092,1,0,0:0:0:0:
256,192,96186,1,0,0:0:0:0:
192,192,96280,1,0,0:0:0:0:
320,192,96280,1,0,0:0:0:0:
64,192,96280,1,0,0:0:0:0:
109,192,96280,1,0,0:0:0:0:
402,192,96280,1,0,0:0:0:0:
475,192,96280,1,0,0:0:0:0:
192,192,96373,1,0,0:0:0:0:
320,192,96373,1,0,0:0:0:0:
448,192,96373,1,0,0:0:0:0:
402,192,96373,1,0,0:0:0:0:
109,192,96373,1,0,0:0:0:0:
36,192,96373,1,0,0:0:0:0:
448,192,96467,1,0,0:0:0:0:
320,192,96467,1,0,0:0:0:0:
64,192,96467,1,0,0:0:0:0:
109,192,96467,1,0,0:0:0:0:
182,192,96467,1,0,0:0:0:0:
402,192,96467,1,0,0:0:0:0:
448,192,96561,1,0,0:0:0:0:
192,192,96561,1,0,0:0:0:0:
64,192,96561,1,0,0:0:0:0:
402,192,96561,1,0,0:0:0:0:
109,192,96561,1,0,0:0:0:0:
329,192,96561,1,0,0:0:0:0:
256,192,96655,1,0,0:0:0:0:
192,192,96748,1,0,0:0:0:0:
448,192,96748,1,0,0:0:0:0:
64,192,96748,1,0,0:0:0:0:
329,192,96748,1,0,0:0:0:0:
402,192,96748,1,0,0:0:0:0:
109,192,96748,1,0,0:0:0:0:
320,192,96842,1,0,0:0:0:0:
192,192,96842,1,0,0:0:0:0:
64,192,96842,1,0,0:0:0:0:
109,192,96842,1,0,0:0:0:0:
475,192,96842,1,0,0:0:0:0:
402,192,96842,1,0,0:0:0:0:
256,192,96936,1,0,0:0:0:0:
36,192,97030,128,0,97123:0:0:0:0:
109,192,97076,128,0,97170:0:0:0:0:
475,192,97076,128,0,97170:0:0:0:0:
182,192,97123,128,0,97217:0:0:0:0:
402,192,97123,128,0,97217:0:0:0:0:
329,192,97170,128,0,97264:0:0:0:0:
256,192,97217,128,0,97311:0:0:0:0:
475,192,97311,128,0,97405:0:0:0:0:
402,192,97358,128,0,97451:0:0:0:0:
36,192,97358,128,0,97451:0:0:0:0:
329,192,97405,128,0,97498:0:0:0:0:
109,192,97405,128,0,97498:0:0:0:0:
182,192,97451,128,0,97545:0:0:0:0:
256,192,97498,128,0,97592:0:0:0:0:
475,192,97592,128,0,97686:0:0:0:0:
402,192,97639,128,0,97733:0:0:0:0:
329,192,97686,128,0,97780:0:0:0:0:
256,192,97733,1,0,0:0:0:0:
182,192,97780,128,0,97873:0:0:0:0:
109,192,97826,128,0,97920:0:0:0:0:
36,192,97873,128,0,97967:0:0:0:0:
256,192,97967,1,0,0:0:0:0:
329,192,98014,1,0,0:0:0:0:
402,192,98061,1,0,0:0:0:0:
475,192,98108,1,0,0:0:0:0:
36,192,98155,128,0,98248:0:0:0:0:
109,192,98186,128,0,98280:0:0:0:0:
402,192,98186,128,0,98280:0:0:0:0:
182,192,98217,128,0,98311:0:0:0:0:
329,192,98217,128,0,98311:0:0:0:0:
256,192,98248,128,0,98342:0:0:0:0:
475,192,98280,128,0,98373:0:0:0:0:
402,192,98311,128,0,98405:0:0:0:0:
109,192,98311,128,0,98405:0:0:0:0:
329,192,98342,128,0,98436:0:0:0:0:
182,192,98342,128,0,98436:0:0:0:0:
256,192,98373,128,0,98467:0:0:0:0:
36,192,98405,128,0,98498:0:0:0:0:
109,192,98436,128,0,98498:0:0:0:0:
402,192,98436,128,0,98498:0:0:0:0:
182,192,98467,128,0,98530:0:0:0:0:
329,192,98467,128,0,98530:0:0:0:0:
256,192,98498,128,0,98530:0:0:0:0:
109,192,98530,1,0,0:0:0:0:
36,192,98530,1,0,0:0:0:0:
402,192,98530,1,0,0:0:0:0:
475,192,98530,1,0,0:0:0:0:
192,192,98623,1,0,0:0:0:0:
256,192,98623,1,0,0:0:0:0:
64,192,98717,1,0,0:0:0:0:
109,192,98717,1,0,0:0:0:0:
320,192,98811,1,0,0:0:0:0:
402,192,98811,1,0,0:0:0:0:
448,192,98905,1,0,0:0:0:0:
192,192,98905,1,0,0:0:0:0:
64,192,98998,1,0,0:0:0:0:
256,192,98998,1,0,0:0:0:0:
320,192,99092,1,0,0:0:0:0:
402,192,99092,1,0,0:0:0:0:
448,192,99186,1,0,0:0:0:0:
109,192,99186,1,0,0:0:0:0:
192,192,99280,1,0,0:0:0:0:
64,192,99280,1,0,0:0:0:0:
320,192,99373,1,0,0:0:0:0:
402,192,99373,1,0,0:0:0:0:
448,192,99467,1,0,0:0:0:0:
256,192,99467,1,0,0:0:0:0:
192,192,99561,1,0,0:0:0:0:
402,192,99561,1,0,0:0:0:0:
320,192,99655,1,0,0:0:0:0:
64,192,99655,1,0,0:0:0:0:
109,192,99655,1,0,0:0:0:0:
448,192,99748,1,0,0:0:0:0:
402,192,99748,1,0,0:0:0:0:
192,192,99842,1,0,0:0:0:0:
256,192,99842,1,0,0:0:0:0:
320,192,99936,1,0,0:0:0:0:
109,192,99936,1,0,0:0:0:0:
448,192,100030,1,0,0:0:0:0:
256,192,100030,1,0,0:0:0:0:
182,192,100030,1,0,0:0:0:0:
36,192,100123,1,0,0:0:0:0:
36,192,100217,1,0,0:0:0:0:
36,192,100311,1,0,0:0:0:0:
448,192,100405,1,0,0:0:0:0:
329,192,100405,1,0,0:0:0:0:
182,192,100405,1,0,0:0:0:0:
109,192,100498,1,0,0:0:0:0:
109,192,100592,1,0,0:0:0:0:
109,192,100686,1,0,0:0:0:0:
64,192,100780,1,0,0:0:0:0:
329,192,100780,1,0,0:0:0:0:
402,192,100780,1,0,0:0:0:0:
182,192,100873,1,0,0:0:0:0:
182,192,100967,1,0,0:0:0:0:
182,192,101061,1,0,0:0:0:0:
320,192,101155,1,0,0:0:0:0:
109,192,101155,1,0,0:0:0:0:
36,192,101155,1,0,0:0:0:0:
256,192,101248,1,0,0:0:0:0:
256,192,101342,1,0,0:0:0:0:
256,192,101436,1,0,0:0:0:0:
192,192,101530,1,0,0:0:0:0:
448,192,101530,1,0,0:0:0:0:
109,192,101530,1,0,0:0:0:0:
320,192,101623,1,0,0:0:0:0:
320,192,101717,1,0,0:0:0:0:
320,192,101811,1,0,0:0:0:0:
192,192,101905,1,0,0:0:0:0:
64,192,101905,1,0,0:0:0:0:
109,192,101905,1,0,0:0:0:0:
402,192,101998,1,0,0:0:0:0:
402,192,102092,1,0,0:0:0:0:
402,192,102186,1,0,0:0:0:0:
320,192,102280,1,0,0:0:0:0:
64,192,102280,1,0,0:0:0:0:
182,192,102280,1,0,0:0:0:0:
475,192,102373,1,0,0:0:0:0:
475,192,102467,1,0,0:0:0:0:
475,192,102561,1,0,0:0:0:0:
320,192,102655,1,0,0:0:0:0:
402,192,102655,1,0,0:0:0:0:
182,192,102655,1,0,0:0:0:0:
64,192,102748,1,0,0:0:0:0:
64,192,102842,1,0,0:0:0:0:
64,192,102936,1,0,0:0:0:0:
192,192,103030,1,0,0:0:0:0:
320,192,103030,1,0,0:0:0:0:
256,192,103030,1,0,0:0:0:0:
448,192,103123,1,0,0:0:0:0:
448,192,103217,1,0,0:0:0:0:
448,192,103311,1,0,0:0:0:0:
64,192,103311,1,0,0:0:0:0:
109,192,103311,1,0,0:0:0:0:
182,192,103311,1,0,0:0:0:0:
256,192,103405,1,0,0:0:0:0:
402,192,103405,1,0,0:0:0:0:
36,192,103405,1,0,0:0:0:0:
320,192,103498,1,0,0:0:0:0:
320,192,103592,1,0,0:0:0:0:
64,192,103592,1,0,0:0:0:0:
182,192,103592,1,0,0:0:0:0:
109,192,103592,1,0,0:0:0:0:
320,192,103686,1,0,0:0:0:0:
256,192,103780,1,0,0:0:0:0:
182,192,103780,1,0,0:0:0:0:
109,192,103780,1,0,0:0:0:0:
64,192,103873,1,0,0:0:0:0:
64,192,103967,1,0,0:0:0:0:
64,192,104061,1,0,0:0:0:0:
320,192,104155,1,0,0:0:0:0:
448,192,104155,1,0,0:0:0:0:
402,192,104155,1,0,0:0:0:0:
192,192,104248,1,0,0:0:0:0:
192,192,104342,1,0,0:0:0:0:
192,192,104436,1,0,0:0:0:0:
448,192,104530,1,0,0:0:0:0:
64,192,104530,1,0,0:0:0:0:
256,192,104530,1,0,0:0:0:0:
109,192,104623,1,0,0:0:0:0:
192,192,104717,1,0,0:0:0:0:
320,192,104717,1,0,0:0:0:0:
402,192,104717,1,0,0:0:0:0:
192,192,104811,1,0,0:0:0:0:
320,192,104905,1,0,0:0:0:0:
448,192,104905,1,0,0:0:0:0:
402,192,104905,1,0,0:0:0:0:
109,192,104905,1,0,0:0:0:0:
448,192,104998,1,0,0:0:0:0:
320,192,105092,1,0,0:0:0:0:
192,192,105092,1,0,0:0:0:0:
256,192,105092,1,0,0:0:0:0:
320,192,105186,1,0,0:0:0:0:
192,192,105280,1,0,0:0:0:0:
64,192,105280,1,0,0:0:0:0:
109,192,105280,1,0,0:0:0:0:
192,192,105373,1,0,0:0:0:0:
448,192,105467,1,0,0:0:0:0:
64,192,105467,1,0,0:0:0:0:
256,192,105467,1,0,0:0:0:0:
64,192,105561,1,0,0:0:0:0:
192,192,105655,1,0,0:0:0:0:
320,192,105655,1,0,0:0:0:0:
256,192,105655,1,0,0:0:0:0:
192,192,105748,1,0,0:0:0:0:
320,192,105842,1,0,0:0:0:0:
448,192,105842,1,0,0:0:0:0:
402,192,105842,1,0,0:0:0:0:
320,192,105936,1,0,0:0:0:0:
64,192,106030,1,0,0:0:0:0:
448,192,106030,1,0,0:0:0:0:
109,192,106030,1,0,0:0:0:0:
256,192,106030,1,0,0:0:0:0:
192,192,106217,1,0,0:0:0:0:
320,192,106217,1,0,0:0:0:0:
109,192,106217,1,0,0:0:0:0:
192,192,106311,1,0,0:0:0:0:
320,192,106405,1,0,0:0:0:0:
448,192,106405,1,0,0:0:0:0:
402,192,106405,1,0,0:0:0:0:
475,192,106498,1,0,0:0:0:0:
192,192,106592,1,0,0:0:0:0:
64,192,106592,1,0,0:0:0:0:
109,192,106592,1,0,0:0:0:0:
64,192,106686,1,0,0:0:0:0:
320,192,106780,1,0,0:0:0:0:
475,192,106780,1,0,0:0:0:0:
402,192,106780,1,0,0:0:0:0:
329,192,106873,1,0,0:0:0:0:
192,192,106967,1,0,0:0:0:0:
64,192,106967,1,0,0:0:0:0:
109,192,106967,1,0,0:0:0:0:
192,192,107061,1,0,0:0:0:0:
320,192,107155,1,0,0:0:0:0:
448,192,107155,1,0,0:0:0:0:
402,192,107155,1,0,0:0:0:0:
448,192,107248,1,0,0:0:0:0:
64,192,107342,1,0,0:0:0:0:
109,192,107342,1,0,0:0:0:0:
182,192,107342,1,0,0:0:0:0:
36,192,107436,1,0,0:0:0:0:
320,192,107530,1,0,0:0:0:0:
448,192,107530,1,0,0:0:0:0:
402,192,107530,1,0,0:0:0:0:
256,192,107623,1,0,0:0:0:0:
475,192,107623,1,0,0:0:0:0:
64,192,107717,1,0,0:0:0:0:
182,192,107717,1,0,0:0:0:0:
109,192,107717,1,0,0:0:0:0:
256,192,107811,1,0,0:0:0:0:
36,192,107811,1,0,0:0:0:0:
448,192,107905,1,0,0:0:0:0:
402,192,107905,1,0,0:0:0:0:
320,192,107905,1,0,0:0:0:0:
475,192,107998,1,0,0:0:0:0:
256,192,107998,1,0,0:0:0:0:
182,192,108092,1,0,0:0:0:0:
36,192,108092,1,0,0:0:0:0:
109,192,108092,1,0,0:0:0:0:
256,192,108186,1,0,0:0:0:0:
36,192,108186,1,0,0:0:0:0:
320,192,108280,1,0,0:0:0:0:
402,192,108280,1,0,0:0:0:0:
448,192,108280,1,0,0:0:0:0:
256,192,108373,1,0,0:0:0:0:
475,192,108373,1,0,0:0:0:0:
64,192,108467,1,0,0:0:0:0:
109,192,108467,1,0,0:0:0:0:
182,192,108467,1,0,0:0:0:0:
36,192,108561,1,0,0:0:0:0:
256,192,108561,1,0,0:0:0:0:
448,192,108655,1,0,0:0:0:0:
402,192,108655,1,0,0:0:0:0:
320,192,108655,1,0,0:0:0:0:
475,192,108748,1,0,0:0:0:0:
256,192,108748,1,0,0:0:0:0:
192,192,108842,1,0,0:0:0:0:
64,192,108842,1,0,0:0:0:0:
109,192,108842,1,0,0:0:0:0:
256,192,108936,1,0,0:0:0:0:
36,192,108936,1,0,0:0:0:0:
475,192,109030,1,0,0:0:0:0:
402,192,109030,1,0,0:0:0:0:
329,192,109076,1,0,0:0:0:0:
256,192,109123,1,0,0:0:0:0:
182,192,109170,1,0,0:0:0:0:
475,192,109217,1,0,0:0:0:0:
109,192,109217,1,0,0:0:0:0:
402,192,109264,1,0,0:0:0:0:
329,192,109311,1,0,0:0:0:0:
182,192,109358,1,0,0:0:0:0:
109,192,109405,1,0,0:0:0:0:
36,192,109451,1,0,0:0:0:0:
256,192,109498,1,0,0:0:0:0:
329,192,109545,1,0,0:0:0:0:
402,192,109592,1,0,0:0:0:0:
109,192,109592,1,0,0:0:0:0:
182,192,109639,1,0,0:0:0:0:
256,192,109686,1,0,0:0:0:0:
329,192,109733,1,0,0:0:0:0:
402,192,109780,1,0,0:0:0:0:
475,192,109780,1,0,0:0:0:0:
109,192,109826,1,0,0:0:0:0:
182,192,109873,1,0,0:0:0:0:
256,192,109920,1,0,0:0:0:0:
402,192,109967,1,0,0:0:0:0:
475,192,109967,1,0,0:0:0:0:
329,192,110014,1,0,0:0:0:0:
256,192,110061,1,0,0:0:0:0:
182,192,110108,1,0,0:0:0:0:
402,192,110155,1,0,0:0:0:0:
36,192,110155,1,0,0:0:0:0:
109,192,110155,1,0,0:0:0:0:
329,192,110201,1,0,0:0:0:0:
256,192,110248,1,0,0:0:0:0:
182,192,110295,1,0,0:0:0:0:
402,192,110342,1,0,0:0:0:0:
475,192,110389,1,0,0:0:0:0:
256,192,110436,1,0,0:0:0:0:
329,192,110483,1,0,0:0:0:0:
192,192,110530,1,0,0:0:0:0:
64,192,110530,128,0,111280:0:0:0:0:
402,192,110530,1,0,0:0:0:0:
109,192,111092,128,0,111217:0:0:0:0:
182,192,111155,128,0,111280:0:0:0:0:
256,192,111217,128,0,111342:0:0:0:0:
329,192,111280,128,0,111405:0:0:0:0:
402,192,111342,128,0,111467:0:0:0:0:
109,192,111405,128,0,111530:0:0:0:0:
182,192,111467,128,0,111592:0:0:0:0:
256,192,111530,128,0,111655:0:0:0:0:
329,192,111592,128,0,111717:0:0:0:0:
402,192,111655,128,0,111780:0:0:0:0:
36,192,111717,128,0,111842:0:0:0:0:
109,192,111780,128,0,111905:0:0:0:0:
182,192,111842,128,0,111967:0:0:0:0:
256,192,111905,128,0,112030:0:0:0:0:
329,192,111967,128,0,112092:0:0:0:0:
109,192,112030,128,0,112592:0:0:0:0:
448,192,112405,128,0,112530:0:0:0:0:
402,192,112467,128,0,112592:0:0:0:0:
320,192,112530,128,0,112655:0:0:0:0:
256,192,112592,128,0,112717:0:0:0:0:
192,192,112655,128,0,112780:0:0:0:0:
109,192,112717,128,0,112842:0:0:0:0:
402,192,112780,128,0,112905:0:0:0:0:
329,192,112842,128,0,112967:0:0:0:0:
256,192,112905,128,0,113030:0:0:0:0:
182,192,112967,128,0,113092:0:0:0:0:
475,192,113030,128,0,113155:0:0:0:0:
402,192,113092,128,0,113217:0:0:0:0:
329,192,113155,128,0,113280:0:0:0:0:
256,192,113217,128,0,113342:0:0:0:0:
182,192,113280,128,0,113405:0:0:0:0:
475,192,113342,128,0,114092:0:0:0:0:
109,192,113905,128,0,114030:0:0:0:0:
182,192,113967,128,0,114092:0:0:0:0:
256,192,114030,128,0,114155:0:0:0:0:
329,192,114092,128,0,114217:0:0:0:0:
402,192,114155,128,0,114280:0:0:0:0:
36,192,114217,128,0,114342:0:0:0:0:
109,192,114280,128,0,114405:0:0:0:0:
182,192,114342,128,0,114467:0:0:0:0:
256,192,114405,128,0,114530:0:0:0:0:
475,192,114467,128,0,114592:0:0:0:0:
402,192,114530,128,0,114655:0:0:0:0:
329,192,114592,128,0,114717:0:0:0:0:
256,192,114655,128,0,114780:0:0:0:0:
192,192,114717,128,0,114842:0:0:0:0:
109,192,114780,128,0,114905:0:0:0:0:
402,192,114842,128,0,115592:0:0:0:0:
320,192,115405,128,0,115530:0:0:0:0:
256,192,115467,128,0,115592:0:0:0:0:
182,192,115530,128,0,115655:0:0:0:0:
109,192,115592,128,0,115717:0:0:0:0:
36,192,115655,128,0,115780:0:0:0:0:
448,192,115717,128,0,115842:0:0:0:0:
402,192,115780,128,0,115905:0:0:0:0:
329,192,115842,128,0,115967:0:0:0:0:
109,192,115905,128,0,116030:0:0:0:0:
182,192,115967,128,0,116092:0:0:0:0:
256,192,116030,128,0,116155:0:0:0:0:
329,192,116092,128,0,116217:0:0:0:0:
402,192,116155,128,0,116280:0:0:0:0:
64,192,116217,128,0,116342:0:0:0:0:
109,192,116280,128,0,116405:0:0:0:0:
182,192,116342,128,0,116467:0:0:0:0:
256,192,116405,128,0,116530:0:0:0:0:
329,192,116467,1,0,0:0:0:0:
402,192,116530,128,0,116905:0:0:0:0:
109,192,116530,128,0,116905:0:0:0:0:
64,192,116905,1,0,0:0:0:0:
448,192,116905,1,0,0:0:0:0:
329,192,116905,1,0,0:0:0:0:
192,192,116998,1,0,0:0:0:0:
256,192,117092,1,0,0:0:0:0:
402,192,117092,1,0,0:0:0:0:
475,192,117092,1,0,0:0:0:0:
109,192,117186,1,0,0:0:0:0:
192,192,117280,1,0,0:0:0:0:
64,192,117280,1,0,0:0:0:0:
329,192,117280,1,0,0:0:0:0:
402,192,117373,1,0,0:0:0:0:
256,192,117467,1,0,0:0:0:0:
448,192,117467,1,0,0:0:0:0:
109,192,117467,1,0,0:0:0:0:
329,192,117561,1,0,0:0:0:0:
448,192,117655,1,0,0:0:0:0:
64,192,117655,128,0,117701:0:0:0:0:
402,192,117655,1,0,0:0:0:0:
256,192,117655,1,0,0:0:0:0:
109,192,117701,128,0,117748:0:0:0:0:
182,192,117748,128,0,117795:0:0:0:0:
475,192,117748,128,0,117795:0:0:0:0:
256,192,117748,128,0,117795:0:0:0:0:
320,192,117842,1,0,0:0:0:0:
402,192,117842,1,0,0:0:0:0:
109,192,117842,1,0,0:0:0:0:
36,192,117842,1,0,0:0:0:0:
256,192,117936,1,0,0:0:0:0:
475,192,118030,128,0,118123:0:0:0:0:
182,192,118030,1,0,0:0:0:0:
109,192,118030,1,0,0:0:0:0:
36,192,118030,1,0,0:0:0:0:
402,192,118076,128,0,118170:0:0:0:0:
329,192,118123,128,0,118217:0:0:0:0:
109,192,118217,1,0,0:0:0:0:
192,192,118264,1,0,0:0:0:0:
256,192,118311,128,0,118405:0:0:0:0:
329,192,118358,1,0,0:0:0:0:
475,192,118405,1,0,0:0:0:0:
402,192,118405,1,0,0:0:0:0:
36,192,118405,1,0,0:0:0:0:
109,192,118405,1,0,0:0:0:0:
182,192,118498,1,0,0:0:0:0:
402,192,118592,1,0,0:0:0:0:
475,192,118592,128,0,118686:0:0:0:0:
109,192,118592,1,0,0:0:0:0:
329,192,118686,1,0,0:0:0:0:
64,192,118780,1,0,0:0:0:0:
256,192,118780,1,0,0:0:0:0:
182,192,118780,1,0,0:0:0:0:
320,192,118873,128,0,118967:0:0:0:0:
109,192,118873,1,0,0:0:0:0:
448,192,118967,1,0,0:0:0:0:
256,192,118967,1,0,0:0:0:0:
402,192,119061,1,0,0:0:0:0:
448,192,119155,1,0,0:0:0:0:
192,192,119155,128,0,119248:0:0:0:0:
329,192,119155,1,0,0:0:0:0:
64,192,119248,1,0,0:0:0:0:
448,192,119342,1,0,0:0:0:0:
320,192,119342,1,0,0:0:0:0:
109,192,119342,1,0,0:0:0:0:
192,192,119436,1,0,0:0:0:0:
64,192,119530,128,0,119998:0:0:0:0:
448,192,119530,1,0,0:0:0:0:
320,192,119530,1,0,0:0:0:0:
256,192,119530,1,0,0:0:0:0:
109,192,119576,128,0,119951:0:0:0:0:
182,192,119623,128,0,119905:0:0:0:0:
256,192,119670,128,0,119858:0:0:0:0:
329,192,119717,128,0,119811:0:0:0:0:
402,192,119764,1,0,0:0:0:0:
448,192,119905,128,0,119951:0:0:0:0:
256,192,119905,1,0,0:0:0:0:
402,192,119951,128,0,119998:0:0:0:0:
182,192,119951,1,0,0:0:0:0:
329,192,119998,128,0,120045:0:0:0:0:
109,192,120092,128,0,120139:0:0:0:0:
475,192,120092,1,0,0:0:0:0:
36,192,120092,1,0,0:0:0:0:
192,192,120139,128,0,120186:0:0:0:0:
256,192,120186,128,0,120233:0:0:0:0:
448,192,120280,1,0,0:0:0:0:
402,192,120280,128,0,120326:0:0:0:0:
329,192,120326,128,0,120373:0:0:0:0:
109,192,120373,1,0,0:0:0:0:
64,192,120467,1,0,0:0:0:0:
256,192,120467,128,0,120514:0:0:0:0:
329,192,120467,1,0,0:0:0:0:
192,192,120514,128,0,120561:0:0:0:0:
109,192,120561,128,0,120608:0:0:0:0:
320,192,120655,1,0,0:0:0:0:
448,192,120655,1,0,0:0:0:0:
402,192,120655,1,0,0:0:0:0:
256,192,120748,1,0,0:0:0:0:
192,192,120842,1,0,0:0:0:0:
64,192,120842,1,0,0:0:0:0:
475,192,120842,1,0,0:0:0:0:
329,192,120842,1,0,0:0:0:0:
109,192,120936,128,0,121170:0:0:0:0:
402,192,120936,1,0,0:0:0:0:
192,192,121030,128,0,121170:0:0:0:0:
256,192,121030,128,0,121170:0:0:0:0:
329,192,121030,128,0,121170:0:0:0:0:
448,192,121217,128,0,121311:0:0:0:0:
402,192,121264,128,0,121311:0:0:0:0:
182,192,121311,128,0,121358:0:0:0:0:
256,192,121358,128,0,121405:0:0:0:0:
109,192,121405,1,0,0:0:0:0:
320,192,121405,128,0,121451:0:0:0:0:
402,192,121405,1,0,0:0:0:0:
36,192,121498,1,0,0:0:0:0:
256,192,121545,1,0,0:0:0:0:
109,192,121592,1,0,0:0:0:0:
192,192,121592,1,0,0:0:0:0:
402,192,121639,1,0,0:0:0:0:
320,192,121686,1,0,0:0:0:0:
256,192,121733,1,0,0:0:0:0:
448,192,121780,1,0,0:0:0:0:
192,192,121780,1,0,0:0:0:0:
36,192,121780,1,0,0:0:0:0:
320,192,121873,1,0,0:0:0:0:
256,192,121967,1,0,0:0:0:0:
182,192,121967,1,0,0:0:0:0:
109,192,122061,1,0,0:0:0:0:
256,192,122155,128,0,122201:0:0:0:0:
329,192,122201,128,0,122248:0:0:0:0:
402,192,122248,128,0,122295:0:0:0:0:
109,192,122248,1,0,0:0:0:0:
475,192,122295,128,0,122342:0:0:0:0:
182,192,122295,1,0,0:0:0:0:
36,192,122342,128,0,122389:0:0:0:0:
256,192,122342,1,0,0:0:0:0:
109,192,122389,128,0,122436:0:0:0:0:
329,192,122389,1,0,0:0:0:0:
182,192,122436,128,0,122483:0:0:0:0:
402,192,122436,1,0,0:0:0:0:
256,192,122483,128,0,122530:0:0:0:0:
448,192,122530,128,0,122905:0:0:0:0:
402,192,122530,128,0,122811:0:0:0:0:
329,192,122530,128,0,122717:0:0:0:0:
64,192,122905,128,0,123092:0:0:0:0:
109,192,122905,128,0,122998:0:0:0:0:
182,192,122905,1,0,0:0:0:0:
256,192,122998,1,0,0:0:0:0:
402,192,123092,128,0,123186:0:0:0:0:
320,192,123092,128,0,123186:0:0:0:0:
475,192,123186,128,0,123373:0:0:0:0:
192,192,123280,128,0,123373:0:0:0:0:
256,192,123280,128,0,123373:0:0:0:0:
329,192,123373,1,0,0:0:0:0:
109,192,123467,1,0,0:0:0:0:
64,192,123467,128,0,123561:0:0:0:0:
192,192,123514,128,0,123608:0:0:0:0:
256,192,123561,128,0,123608:0:0:0:0:
402,192,123561,128,0,123608:0:0:0:0:
109,192,123655,1,0,0:0:0:0:
329,192,123655,128,0,123795:0:0:0:0:
36,192,123701,128,0,123748:0:0:0:0:
256,192,123748,128,0,123795:0:0:0:0:
402,192,123842,1,0,0:0:0:0:
448,192,123842,128,0,123983:0:0:0:0:
320,192,123889,128,0,123936:0:0:0:0:
256,192,123936,128,0,123983:0:0:0:0:
109,192,124030,1,0,0:0:0:0:
192,192,124030,128,0,124170:0:0:0:0:
256,192,124076,128,0,124123:0:0:0:0:
329,192,124123,128,0,124170:0:0:0:0:
64,192,124170,1,0,0:0:0:0:
475,192,124217,128,0,124311:0:0:0:0:
182,192,124217,1,0,0:0:0:0:
402,192,124264,128,0,124358:0:0:0:0:
329,192,124311,128,0,124405:0:0:0:0:
109,192,124311,1,0,0:0:0:0:
182,192,124405,128,0,124498:0:0:0:0:
256,192,124405,128,0,124592:0:0:0:0:
36,192,124405,128,0,124498:0:0:0:0:
475,192,124405,128,0,124686:0:0:0:0:
109,192,124498,128,0,124686:0:0:0:0:
329,192,124498,128,0,124780:0:0:0:0:
64,192,124592,128,0,124686:0:0:0:0:
402,192,124592,128,0,124873:0:0:0:0:
182,192,124592,128,0,124686:0:0:0:0:
256,192,124686,128,0,124873:0:0:0:0:
192,192,124780,128,0,124967:0:0:0:0:
64,192,124780,128,0,124967:0:0:0:0:
109,192,124780,128,0,124873:0:0:0:0:
475,192,124780,128,0,124873:0:0:0:0:
320,192,124873,128,0,125061:0:0:0:0:
448,192,124967,128,0,125061:0:0:0:0:
109,192,124967,128,0,125342:0:0:0:0:
256,192,124967,128,0,125248:0:0:0:0:
402,192,124967,128,0,125061:0:0:0:0:
192,192,125061,128,0,125342:0:0:0:0:
36,192,125061,128,0,125155:0:0:0:0:
320,192,125155,128,0,125248:0:0:0:0:
448,192,125155,128,0,125248:0:0:0:0:
402,192,125155,128,0,125248:0:0:0:0:
64,192,125248,128,0,125342:0:0:0:0:
448,192,125342,1,0,0:0:0:0:
402,192,125373,1,0,0:0:0:0:
329,192,125405,1,0,0:0:0:0:
256,192,125436,1,0,0:0:0:0:
182,192,125467,1,0,0:0:0:0:
109,192,125498,1,0,0:0:0:0:
36,192,125530,1,0,0:0:0:0:
475,192,125561,1,0,0:0:0:0:
402,192,125592,1,0,0:0:0:0:
329,192,125623,1,0,0:0:0:0:
256,192,125717,1,0,0:0:0:0:
182,192,125811,1,0,0:0:0:0:
402,192,125905,128,0,126186:0:0:0:0:
448,192,125905,128,0,126186:0:0:0:0:
64,192,125905,1,0,0:0:0:0:
109,192,125905,1,0,0:0:0:0:
329,192,125905,1,0,0:0:0:0:
192,192,125998,1,0,0:0:0:0:
192,192,126092,1,0,0:0:0:0:
109,192,126186,128,0,126467:0:0:0:0:
64,192,126186,128,0,126467:0:0:0:0:
256,192,126280,1,0,0:0:0:0:
320,192,126280,1,0,0:0:0:0:
182,192,126280,1,0,0:0:0:0:
475,192,126280,1,0,0:0:0:0:
256,192,126373,1,0,0:0:0:0:
329,192,126467,128,0,126748:0:0:0:0:
402,192,126467,128,0,126748:0:0:0:0:
64,192,126561,1,0,0:0:0:0:
256,192,126655,1,0,0:0:0:0:
36,192,126655,1,0,0:0:0:0:
475,192,126655,1,0,0:0:0:0:
192,192,126748,128,0,127030:0:0:0:0:
109,192,126748,128,0,127030:0:0:0:0:
475,192,126842,1,0,0:0:0:0:
475,192,126936,1,0,0:0:0:0:
320,192,127030,128,0,127311:0:0:0:0:
256,192,127030,128,0,127311:0:0:0:0:
36,192,127030,1,0,0:0:0:0:
402,192,127123,1,0,0:0:0:0:
402,192,127217,1,0,0:0:0:0:
109,192,127311,128,0,127592:0:0:0:0:
64,192,127311,128,0,127592:0:0:0:0:
320,192,127405,1,0,0:0:0:0:
256,192,127405,1,0,0:0:0:0:
182,192,127405,1,0,0:0:0:0:
402,192,127405,1,0,0:0:0:0:
256,192,127498,1,0,0:0:0:0:
402,192,127592,128,0,127873:0:0:0:0:
448,192,127592,128,0,127873:0:0:0:0:
64,192,127686,1,0,0:0:0:0:
256,192,127686,1,0,0:0:0:0:
329,192,127780,1,0,0:0:0:0:
109,192,127780,1,0,0:0:0:0:
192,192,127873,128,0,128155:0:0:0:0:
256,192,127873,128,0,128155:0:0:0:0:
36,192,127967,1,0,0:0:0:0:
36,192,128061,1,0,0:0:0:0:
448,192,128155,128,0,128248:0:0:0:0:
402,192,128155,128,0,128342:0:0:0:0:
109,192,128155,128,0,128342:0:0:0:0:
329,192,128248,128,0,128436:0:0:0:0:
36,192,128248,128,0,128436:0:0:0:0:
256,192,128342,128,0,128530:0:0:0:0:
182,192,128436,128,0,128530:0:0:0:0:
109,192,128530,128,0,128623:0:0:0:0:
36,192,128530,128,0,128623:0:0:0:0:
402,192,128530,128,0,128623:0:0:0:0:
475,192,128530,128,0,128623:0:0:0:0:
329,192,128530,128,0,128905:0:0:0:0:
475,192,128717,128,0,128811:0:0:0:0:
402,192,128717,128,0,128811:0:0:0:0:
109,192,128717,128,0,128811:0:0:0:0:
36,192,128717,128,0,128811:0:0:0:0:
64,192,128905,128,0,128998:0:0:0:0:
448,192,128905,128,0,128998:0:0:0:0:
109,192,128905,128,0,128998:0:0:0:0:
402,192,128905,128,0,128998:0:0:0:0:
256,192,128905,1,0,0:0:0:0:
320,192,128998,1,0,0:0:0:0:
182,192,128998,1,0,0:0:0:0:
320,192,129092,1,0,0:0:0:0:
182,192,129092,1,0,0:0:0:0:
256,192,129186,1,0,0:0:0:0:
109,192,129280,1,0,0:0:0:0:
402,192,129280,1,0,0:0:0:0:
36,192,129280,1,0,0:0:0:0:
320,192,129373,128,0,129561:0:0:0:0:
192,192,129373,128,0,129561:0:0:0:0:
256,192,129373,128,0,129467:0:0:0:0:
36,192,129467,1,0,0:0:0:0:
475,192,129467,1,0,0:0:0:0:
402,192,129561,1,0,0:0:0:0:
109,192,129655,1,0,0:0:0:0:
64,192,129655,128,0,129748:0:0:0:0:
182,192,129655,128,0,129748:0:0:0:0:
256,192,129655,1,0,0:0:0:0:
448,192,129748,1,0,0:0:0:0:
256,192,129842,128,0,129936:0:0:0:0:
109,192,129842,128,0,129936:0:0:0:0:
448,192,129842,1,0,0:0:0:0:
192,192,129842,1,0,0:0:0:0:
192,192,130030,128,0,130123:0:0:0:0:
329,192,130030,128,0,130123:0:0:0:0:
256,192,130030,1,0,0:0:0:0:
402,192,130217,128,0,130311:0:0:0:0:
256,192,130217,128,0,130311:0:0:0:0:
329,192,130217,1,0,0:0:0:0:
182,192,130264,1,0,0:0:0:0:
109,192,130311,1,0,0:0:0:0:
36,192,130358,1,0,0:0:0:0:
448,192,130405,128,0,130498:0:0:0:0:
320,192,130405,128,0,130498:0:0:0:0:
256,192,130405,128,0,130498:0:0:0:0:
402,192,130405,1,0,0:0:0:0:
182,192,130498,1,0,0:0:0:0:
109,192,130592,1,0,0:0:0:0:
36,192,130592,1,0,0:0:0:0:
320,192,130686,128,0,130780:0:0:0:0:
448,192,130686,128,0,130780:0:0:0:0:
402,192,130686,1,0,0:0:0:0:
64,192,130780,1,0,0:0:0:0:
109,192,130780,1,0,0:0:0:0:
402,192,130873,128,0,130967:0:0:0:0:
256,192,130873,128,0,130967:0:0:0:0:
329,192,130873,1,0,0:0:0:0:
182,192,130873,1,0,0:0:0:0:
64,192,130967,1,0,0:0:0:0:
109,192,130967,1,0,0:0:0:0:
320,192,131061,1,0,0:0:0:0:
182,192,131061,1,0,0:0:0:0:
182,192,131155,128,0,131248:0:0:0:0:
109,192,131155,128,0,131342:0:0:0:0:
64,192,131155,128,0,131436:0:0:0:0:
256,192,131155,1,0,0:0:0:0:
329,192,131248,1,0,0:0:0:0:
402,192,131342,1,0,0:0:0:0:
448,192,131342,1,0,0:0:0:0:
320,192,131436,1,0,0:0:0:0:
192,192,131530,1,0,0:0:0:0:
64,192,131530,1,0,0:0:0:0:
448,192,131530,128,0,131717:0:0:0:0:
256,192,131530,1,0,0:0:0:0:
402,192,131530,128,0,131717:0:0:0:0:
64,192,131717,1,0,0:0:0:0:
192,192,131764,1,0,0:0:0:0:
320,192,131811,1,0,0:0:0:0:
109,192,131811,1,0,0:0:0:0:
448,192,131858,1,0,0:0:0:0:
256,192,131858,1,0,0:0:0:0:
64,192,131905,1,0,0:0:0:0:
192,192,131905,1,0,0:0:0:0:
402,192,131905,1,0,0:0:0:0:
109,192,131998,1,0,0:0:0:0:
182,192,132092,1,0,0:0:0:0:
256,192,132092,1,0,0:0:0:0:
36,192,132186,1,0,0:0:0:0:
320,192,132280,1,0,0:0:0:0:
448,192,132280,1,0,0:0:0:0:
402,192,132280,1,0,0:0:0:0:
448,192,132373,1,0,0:0:0:0:
256,192,132373,1,0,0:0:0:0:
192,192,132467,1,0,0:0:0:0:
64,192,132467,1,0,0:0:0:0:
109,192,132467,1,0,0:0:0:0:
256,192,132561,1,0,0:0:0:0:
36,192,132561,1,0,0:0:0:0:
448,192,132655,1,0,0:0:0:0:
182,192,132655,1,0,0:0:0:0:
402,192,132655,1,0,0:0:0:0:
329,192,132655,1,0,0:0:0:0:
109,192,132748,1,0,0:0:0:0:
192,192,132842,1,0,0:0:0:0:
256,192,132842,1,0,0:0:0:0:
64,192,132936,1,0,0:0:0:0:
448,192,133030,128,0,133217:0:0:0:0:
109,192,133030,1,0,0:0:0:0:
182,192,133030,1,0,0:0:0:0:
329,192,133123,128,0,133311:0:0:0:0:
182,192,133217,128,0,133405:0:0:0:0:
402,192,133217,1,0,0:0:0:0:
64,192,133311,128,0,133498:0:0:0:0:
256,192,133311,1,0,0:0:0:0:
402,192,133405,128,0,133592:0:0:0:0:
109,192,133405,1,0,0:0:0:0:
475,192,133405,1,0,0:0:0:0:
329,192,133405,1,0,0:0:0:0:
256,192,133498,128,0,133686:0:0:0:0:
109,192,133592,128,0,133780:0:0:0:0:
475,192,133592,1,0,0:0:0:0:
329,192,133686,1,0,0:0:0:0:
182,192,133780,1,0,0:0:0:0:
475,192,133780,128,0,133967:0:0:0:0:
36,192,133780,1,0,0:0:0:0:
402,192,133780,1,0,0:0:0:0:
329,192,133873,128,0,134061:0:0:0:0:
182,192,133967,128,0,134155:0:0:0:0:
402,192,133967,1,0,0:0:0:0:
36,192,134061,128,0,134248:0:0:0:0:
256,192,134061,1,0,0:0:0:0:
109,192,134155,1,0,0:0:0:0:
402,192,134155,1,0,0:0:0:0:
475,192,134155,1,0,0:0:0:0:
329,192,134201,1,0,0:0:0:0:
256,192,134248,1,0,0:0:0:0:
182,192,134248,1,0,0:0:0:0:
109,192,134295,1,0,0:0:0:0:
402,192,134342,1,0,0:0:0:0:
448,192,134342,1,0,0:0:0:0:
182,192,134530,128,0,134623:0:0:0:0:
109,192,134530,128,0,134623:0:0:0:0:
36,192,134530,128,0,134623:0:0:0:0:
329,192,134530,1,0,0:0:0:0:
402,192,134530,1,0,0:0:0:0:
475,192,134623,1,0,0:0:0:0:
256,192,134623,1,0,0:0:0:0:
402,192,134717,1,0,0:0:0:0:
329,192,134717,1,0,0:0:0:0:
256,192,134811,128,0,134905:0:0:0:0:
182,192,134811,128,0,134905:0:0:0:0:
109,192,134811,128,0,134905:0:0:0:0:
475,192,134811,1,0,0:0:0:0:
36,192,134905,1,0,0:0:0:0:
329,192,134905,1,0,0:0:0:0:
402,192,134905,1,0,0:0:0:0:
256,192,134998,1,0,0:0:0:0:
109,192,134998,1,0,0:0:0:0:
329,192,135092,128,0,135186:0:0:0:0:
475,192,135092,128,0,135186:0:0:0:0:
402,192,135092,128,0,135186:0:0:0:0:
182,192,135092,1,0,0:0:0:0:
109,192,135186,1,0,0:0:0:0:
36,192,135186,1,0,0:0:0:0:
402,192,135280,128,0,135373:0:0:0:0:
329,192,135280,128,0,135373:0:0:0:0:
256,192,135280,128,0,135373:0:0:0:0:
182,192,135280,1,0,0:0:0:0:
475,192,135280,1,0,0:0:0:0:
109,192,135373,1,0,0:0:0:0:
36,192,135467,1,0,0:0:0:0:
475,192,135467,1,0,0:0:0:0:
256,192,135561,128,0,135655:0:0:0:0:
182,192,135561,128,0,135655:0:0:0:0:
329,192,135561,128,0,135655:0:0:0:0:
402,192,135561,1,0,0:0:0:0:
475,192,135655,1,0,0:0:0:0:
109,192,135655,1,0,0:0:0:0:
36,192,135655,1,0,0:0:0:0:
402,192,135748,1,0,0:0:0:0:
256,192,135842,128,0,135936:0:0:0:0:
182,192,135842,128,0,135936:0:0:0:0:
109,192,135842,128,0,135936:0:0:0:0:
329,192,135842,1,0,0:0:0:0:
475,192,135936,1,0,0:0:0:0:
109,192,136030,128,0,136123:0:0:0:0:
182,192,136030,128,0,136123:0:0:0:0:
36,192,136030,128,0,136123:0:0:0:0:
402,192,136030,1,0,0:0:0:0:
329,192,136030,1,0,0:0:0:0:
256,192,136123,1,0,0:0:0:0:
475,192,136217,1,0,0:0:0:0:
109,192,136217,1,0,0:0:0:0:
329,192,136311,128,0,136405:0:0:0:0:
256,192,136311,128,0,136405:0:0:0:0:
402,192,136311,128,0,136405:0:0:0:0:
182,192,136311,1,0,0:0:0:0:
109,192,136405,1,0,0:0:0:0:
36,192,136405,1,0,0:0:0:0:
475,192,136405,1,0,0:0:0:0:
329,192,136498,1,0,0:0:0:0:
182,192,136592,128,0,136686:0:0:0:0:
109,192,136592,128,0,136686:0:0:0:0:
36,192,136592,128,0,136686:0:0:0:0:
402,192,136592,1,0,0:0:0:0:
256,192,136686,1,0,0:0:0:0:
329,192,136780,128,0,136873:0:0:0:0:
402,192,136780,128,0,136873:0:0:0:0:
475,192,136780,128,0,136873:0:0:0:0:
182,192,136780,1,0,0:0:0:0:
109,192,136780,1,0,0:0:0:0:
256,192,136873,1,0,0:0:0:0:
36,192,136967,1,0,0:0:0:0:
475,192,136967,1,0,0:0:0:0:
256,192,137061,128,0,137155:0:0:0:0:
182,192,137061,128,0,137155:0:0:0:0:
109,192,137061,128,0,137155:0:0:0:0:
329,192,137155,1,0,0:0:0:0:
402,192,137155,1,0,0:0:0:0:
475,192,137155,1,0,0:0:0:0:
36,192,137155,1,0,0:0:0:0:
182,192,137248,1,0,0:0:0:0:
329,192,137342,128,0,137436:0:0:0:0:
402,192,137342,128,0,137436:0:0:0:0:
256,192,137342,128,0,137436:0:0:0:0:
109,192,137342,1,0,0:0:0:0:
36,192,137342,1,0,0:0:0:0:
182,192,137436,1,0,0:0:0:0:
109,192,137530,128,0,137623:0:0:0:0:
36,192,137530,128,0,137623:0:0:0:0:
256,192,137530,1,0,0:0:0:0:
329,192,137530,1,0,0:0:0:0:
402,192,137530,128,0,137623:0:0:0:0:
182,192,137623,1,0,0:0:0:0:
256,192,137623,1,0,0:0:0:0:
402,192,137717,128,0,137811:0:0:0:0:
475,192,137717,128,0,137811:0:0:0:0:
109,192,137717,1,0,0:0:0:0:
36,192,137717,1,0,0:0:0:0:
329,192,137717,128,0,137811:0:0:0:0:
256,192,137811,1,0,0:0:0:0:
109,192,137811,1,0,0:0:0:0:
256,192,137905,1,0,0:0:0:0:
182,192,137951,1,0,0:0:0:0:
109,192,137998,1,0,0:0:0:0:
475,192,137998,1,0,0:0:0:0:
36,192,138045,1,0,0:0:0:0:
329,192,138092,1,0,0:0:0:0:
256,192,138139,1,0,0:0:0:0:
182,192,138186,1,0,0:0:0:0:
109,192,138233,1,0,0:0:0:0:
402,192,138280,1,0,0:0:0:0:
329,192,138326,1,0,0:0:0:0:
256,192,138373,1,0,0:0:0:0:
182,192,138420,1,0,0:0:0:0:
475,192,138467,1,0,0:0:0:0:
36,192,138467,1,0,0:0:0:0:
402,192,138514,1,0,0:0:0:0:
329,192,138561,1,0,0:0:0:0:
256,192,138608,1,0,0:0:0:0:
36,192,138655,1,0,0:0:0:0:
475,192,138655,1,0,0:0:0:0:
109,192,138701,1,0,0:0:0:0:
402,192,138701,1,0,0:0:0:0:
182,192,138748,1,0,0:0:0:0:
256,192,138795,1,0,0:0:0:0:
329,192,138842,1,0,0:0:0:0:
36,192,138842,1,0,0:0:0:0:
402,192,138889,5,0,0:0:0:0:
109,192,138889,1,0,0:0:0:0:
182,192,138936,1,0,0:0:0:0:
475,192,138936,1,0,0:0:0:0:
256,192,138983,1,0,0:0:0:0:
329,192,139030,1,0,0:0:0:0:
402,192,139030,128,0,139123:0:0:0:0:
36,192,139030,128,0,139123:0:0:0:0:
182,192,139030,128,0,139123:0:0:0:0:
36,192,139217,128,0,139311:0:0:0:0:
402,192,139217,128,0,139311:0:0:0:0:
182,192,139217,128,0,139311:0:0:0:0:
475,192,139405,128,0,139498:0:0:0:0:
109,192,139405,128,0,139498:0:0:0:0:
329,192,139405,128,0,139498:0:0:0:0:
109,192,139592,128,0,139686:0:0:0:0:
475,192,139592,128,0,139686:0:0:0:0:
329,192,139592,128,0,139686:0:0:0:0:
402,192,139780,128,0,139967:0:0:0:0:
329,192,139780,128,0,139967:0:0:0:0:
256,192,139780,128,0,139967:0:0:0:0:
182,192,139780,128,0,139967:0:0:0:0:
109,192,139780,128,0,139967:0:0:0:0:
182,192,140061,5,0,0:0:0:0:
36,192,140061,1,0,0:0:0:0:
475,192,140061,1,0,0:0:0:0:
182,192,140155,1,0,0:0:0:0:
36,192,140155,1,0,0:0:0:0:
329,192,140155,1,0,0:0:0:0:
182,192,140248,1,0,0:0:0:0:
36,192,140248,1,0,0:0:0:0:
475,192,140248,1,0,0:0:0:0:
182,192,140342,1,0,0:0:0:0:
36,192,140342,1,0,0:0:0:0:
329,192,140342,1,0,0:0:0:0:
182,192,140436,1,0,0:0:0:0:
36,192,140436,1,0,0:0:0:0:
475,192,140436,1,0,0:0:0:0:
182,192,140530,128,0,140717:0:0:0:0:
329,192,140530,128,0,140623:0:0:0:0:
475,192,140530,128,0,140623:0:0:0:0:
109,192,140530,128,0,140623:0:0:0:0:
256,192,140530,128,0,140811:0:0:0:0:
402,192,140530,128,0,140811:0:0:0:0:
36,192,140623,128,0,140811:0:0:0:0:
475,192,140717,128,0,140811:0:0:0:0:
329,192,140717,128,0,140811:0:0:0:0:
109,192,140717,128,0,140811:0:0:0:0:
182,192,140811,128,0,140905:0:0:0:0:
109,192,140905,128,0,140998:0:0:0:0:
329,192,140905,128,0,140998:0:0:0:0:
475,192,140905,1,0,0:0:0:0:
402,192,140905,128,0,141186:0:0:0:0:
256,192,140905,128,0,141092:0:0:0:0:
36,192,140905,128,0,141186:0:0:0:0:
182,192,140998,128,0,141186:0:0:0:0:
475,192,140998,128,0,141186:0:0:0:0:
329,192,141092,128,0,141186:0:0:0:0:
109,192,141092,128,0,141186:0:0:0:0:
256,192,141186,128,0,141280:0:0:0:0:
475,192,141280,128,0,141561:0:0:0:0:
182,192,141280,128,0,141373:0:0:0:0:
402,192,141280,128,0,141373:0:0:0:0:
109,192,141280,128,0,141561:0:0:0:0:
36,192,141280,128,0,141373:0:0:0:0:
329,192,141280,128,0,141467:0:0:0:0:
256,192,141373,128,0,141561:0:0:0:0:
182,192,141467,128,0,141561:0:0:0:0:
402,192,141467,128,0,141561:0:0:0:0:
36,192,141467,128,0,141561:0:0:0:0:
329,192,141561,128,0,141655:0:0:0:0:
402,192,141655,128,0,141936:0:0:0:0:
36,192,141655,128,0,141748:0:0:0:0:
109,192,141655,128,0,141936:0:0:0:0:
256,192,141655,128,0,141936:0:0:0:0:
475,192,141655,128,0,141748:0:0:0:0:
182,192,141655,1,0,0:0:0:0:
182,192,141748,128,0,141936:0:0:0:0:
329,192,141748,128,0,141842:0:0:0:0:
36,192,141842,128,0,141936:0:0:0:0:
475,192,141842,128,0,141936:0:0:0:0:
329,192,141936,128,0,142030:0:0:0:0:
256,192,142030,128,0,142217:0:0:0:0:
475,192,142030,128,0,142311:0:0:0:0:
109,192,142030,128,0,142123:0:0:0:0:
36,192,142030,128,0,142311:0:0:0:0:
402,192,142030,128,0,142123:0:0:0:0:
182,192,142030,1,0,0:0:0:0:
182,192,142123,128,0,142311:0:0:0:0:
329,192,142123,128,0,142311:0:0:0:0:
109,192,142217,128,0,142311:0:0:0:0:
402,192,142217,128,0,142311:0:0:0:0:
256,192,142311,128,0,142405:0:0:0:0:
329,192,142405,128,0,142498:0:0:0:0:
36,192,142405,128,0,142686:0:0:0:0:
475,192,142405,128,0,142498:0:0:0:0:
182,192,142405,128,0,142592:0:0:0:0:
402,192,142405,128,0,142686:0:0:0:0:
109,192,142405,1,0,0:0:0:0:
256,192,142498,128,0,142686:0:0:0:0:
109,192,142498,128,0,142686:0:0:0:0:
329,192,142592,128,0,142686:0:0:0:0:
475,192,142592,128,0,142686:0:0:0:0:
182,192,142686,128,0,142780:0:0:0:0:
475,192,142780,128,0,142873:0:0:0:0:
109,192,142780,128,0,142873:0:0:0:0:
36,192,142780,128,0,143061:0:0:0:0:
329,192,142780,128,0,142873:0:0:0:0:
402,192,142780,128,0,143061:0:0:0:0:
256,192,142780,128,0,143061:0:0:0:0:
182,192,142873,128,0,142967:0:0:0:0:
109,192,142967,128,0,143061:0:0:0:0:
475,192,142967,128,0,143061:0:0:0:0:
329,192,142967,128,0,143061:0:0:0:0:
182,192,143061,128,0,143155:0:0:0:0:
36,192,143155,1,0,0:0:0:0:
329,192,143155,128,0,143248:0:0:0:0:
475,192,143155,128,0,143248:0:0:0:0:
109,192,143155,128,0,143248:0:0:0:0:
256,192,143155,128,0,143436:0:0:0:0:
402,192,143155,128,0,143436:0:0:0:0:
36,192,143248,128,0,143436:0:0:0:0:
182,192,143248,128,0,143436:0:0:0:0:
475,192,143342,128,0,143436:0:0:0:0:
109,192,143342,128,0,143436:0:0:0:0:
329,192,143342,128,0,143436:0:0:0:0:
475,192,143530,128,0,143623:0:0:0:0:
36,192,143530,128,0,143811:0:0:0:0:
402,192,143530,128,0,143623:0:0:0:0:
109,192,143530,128,0,143623:0:0:0:0:
256,192,143530,128,0,143811:0:0:0:0:
182,192,143530,128,0,143623:0:0:0:0:
329,192,143530,1,0,0:0:0:0:
329,192,143623,128,0,143811:0:0:0:0:
475,192,143717,128,0,143811:0:0:0:0:
182,192,143717,128,0,143811:0:0:0:0:
402,192,143717,128,0,143811:0:0:0:0:
109,192,143717,128,0,143811:0:0:0:0:
329,192,143905,128,0,143998:0:0:0:0:
36,192,143905,128,0,144186:0:0:0:0:
475,192,143905,128,0,144092:0:0:0:0:
182,192,143905,1,0,0:0:0:0:
109,192,143905,128,0,143998:0:0:0:0:
256,192,143905,128,0,144186:0:0:0:0:
402,192,143905,128,0,144186:0:0:0:0:
182,192,143998,128,0,144186:0:0:0:0:
329,192,144092,128,0,144186:0:0:0:0:
109,192,144092,128,0,144186:0:0:0:0:
475,192,144186,128,0,144280:0:0:0:0:
256,192,144280,128,0,144373:0:0:0:0:
36,192,144280,128,0,144373:0:0:0:0:
329,192,144280,128,0,144467:0:0:0:0:
402,192,144280,128,0,144373:0:0:0:0:
182,192,144280,128,0,144561:0:0:0:0:
109,192,144280,128,0,144561:0:0:0:0:
475,192,144373,128,0,144561:0:0:0:0:
256,192,144467,128,0,144561:0:0:0:0:
36,192,144467,128,0,144561:0:0:0:0:
402,192,144467,128,0,144561:0:0:0:0:
329,192,144561,128,0,144655:0:0:0:0:
475,192,144655,128,0,144842:0:0:0:0:
36,192,144655,128,0,144748:0:0:0:0:
182,192,144655,1,0,0:0:0:0:
109,192,144655,128,0,144748:0:0:0:0:
402,192,144655,128,0,144936:0:0:0:0:
256,192,144655,128,0,144936:0:0:0:0:
182,192,144748,128,0,144936:0:0:0:0:
329,192,144748,128,0,144936:0:0:0:0:
36,192,144842,128,0,144936:0:0:0:0:
109,192,144842,128,0,144936:0:0:0:0:
475,192,144936,128,0,145030:0:0:0:0:
36,192,145030,128,0,145123:0:0:0:0:
256,192,145030,128,0,145217:0:0:0:0:
109,192,145030,128,0,145123:0:0:0:0:
402,192,145030,128,0,145311:0:0:0:0:
182,192,145030,128,0,145311:0:0:0:0:
329,192,145030,128,0,145123:0:0:0:0:
475,192,145123,128,0,145311:0:0:0:0:
36,192,145217,128,0,145311:0:0:0:0:
109,192,145217,128,0,145311:0:0:0:0:
329,192,145217,128,0,145311:0:0:0:0:
256,192,145311,128,0,145405:0:0:0:0:
329,192,145405,128,0,145498:0:0:0:0:
475,192,145405,128,0,145686:0:0:0:0:
36,192,145405,128,0,145498:0:0:0:0:
182,192,145405,1,0,0:0:0:0:
109,192,145405,128,0,145686:0:0:0:0:
402,192,145405,128,0,145686:0:0:0:0:
182,192,145498,128,0,145592:0:0:0:0:
256,192,145498,128,0,145686:0:0:0:0:
36,192,145592,128,0,145686:0:0:0:0:
329,192,145592,128,0,145686:0:0:0:0:
182,192,145686,128,0,145780:0:0:0:0:
36,192,145780,128,0,146061:0:0:0:0:
475,192,145780,128,0,145873:0:0:0:0:
402,192,145780,128,0,145873:0:0:0:0:
329,192,145780,128,0,146061:0:0:0:0:
109,192,145780,128,0,146061:0:0:0:0:
256,192,145780,128,0,145873:0:0:0:0:
182,192,145873,128,0,146061:0:0:0:0:
475,192,145967,128,0,146061:0:0:0:0:
402,192,145967,128,0,146155:0:0:0:0:
256,192,145967,128,0,146061:0:0:0:0:
475,192,146155,128,0,146295:0:0:0:0:
182,192,146155,128,0,146389:0:0:0:0:
109,192,146155,128,0,146342:0:0:0:0:
256,192,146155,128,0,146248:0:0:0:0:
329,192,146155,128,0,146201:0:0:0:0:
36,192,146155,128,0,146295:0:0:0:0:
402,192,146201,128,0,146342:0:0:0:0:
329,192,146248,128,0,146389:0:0:0:0:
256,192,146295,128,0,146483:0:0:0:0:
475,192,146342,128,0,146483:0:0:0:0:
36,192,146342,128,0,146483:0:0:0:0:
402,192,146389,128,0,146483:0:0:0:0:
109,192,146389,128,0,146530:0:0:0:0:
182,192,146436,128,0,146483:0:0:0:0:
329,192,146436,128,0,146483:0:0:0:0:
36,192,146530,128,0,146670:0:0:0:0:
329,192,146530,128,0,146764:0:0:0:0:
402,192,146530,128,0,146717:0:0:0:0:
475,192,146530,128,0,146670:0:0:0:0:
256,192,146530,128,0,146623:0:0:0:0:
182,192,146530,128,0,146576:0:0:0:0:
109,192,146576,128,0,146717:0:0:0:0:
182,192,146623,128,0,146764:0:0:0:0:
256,192,146670,128,0,146858:0:0:0:0:
475,192,146717,128,0,146951:0:0:0:0:
36,192,146717,128,0,146858:0:0:0:0:
402,192,146764,128,0,146858:0:0:0:0:
109,192,146764,128,0,146858:0:0:0:0:
329,192,146811,128,0,146858:0:0:0:0:
182,192,146811,128,0,146858:0:0:0:0:
402,192,146905,128,0,146998:0:0:0:0:
256,192,146905,128,0,147186:0:0:0:0:
109,192,146905,128,0,147186:0:0:0:0:
329,192,146905,128,0,147092:0:0:0:0:
182,192,146905,128,0,146998:0:0:0:0:
36,192,146905,128,0,146998:0:0:0:0:
475,192,146998,128,0,147186:0:0:0:0:
402,192,147092,128,0,147186:0:0:0:0:
182,192,147092,128,0,147186:0:0:0:0:
36,192,147092,128,0,147186:0:0:0:0:
329,192,147186,128,0,147280:0:0:0:0:
109,192,147280,128,0,147561:0:0:0:0:
256,192,147280,128,0,147467:0:0:0:0:
475,192,147280,128,0,147561:0:0:0:0:
402,192,147280,128,0,147373:0:0:0:0:
182,192,147280,128,0,147373:0:0:0:0:
36,192,147280,1,0,0:0:0:0:
36,192,147373,128,0,147561:0:0:0:0:
329,192,147373,128,0,147561:0:0:0:0:
402,192,147467,128,0,147561:0:0:0:0:
182,192,147467,128,0,147561:0:0:0:0:
256,192,147561,128,0,147655:0:0:0:0:
402,192,147655,128,0,147936:0:0:0:0:
475,192,147655,128,0,147748:0:0:0:0:
182,192,147655,128,0,147842:0:0:0:0:
36,192,147655,128,0,147936:0:0:0:0:
329,192,147655,128,0,147748:0:0:0:0:
109,192,147655,128,0,147748:0:0:0:0:
256,192,147748,128,0,147936:0:0:0:0:
475,192,147842,128,0,147936:0:0:0:0:
109,192,147842,128,0,147936:0:0:0:0:
329,192,147842,128,0,147936:0:0:0:0:
182,192,147936,128,0,148030:0:0:0:0:
256,192,148030,128,0,148311:0:0:0:0:
36,192,148030,128,0,148123:0:0:0:0:
329,192,148030,1,0,0:0:0:0:
109,192,148030,128,0,148311:0:0:0:0:
475,192,148030,128,0,148123:0:0:0:0:
402,192,148030,128,0,148311:0:0:0:0:
182,192,148123,128,0,148217:0:0:0:0:
329,192,148123,128,0,148311:0:0:0:0:
36,192,148217,128,0,148311:0:0:0:0:
475,192,148217,128,0,148311:0:0:0:0:
182,192,148311,128,0,148405:0:0:0:0:
475,192,148405,128,0,148686:0:0:0:0:
109,192,148405,128,0,148498:0:0:0:0:
329,192,148405,1,0,0:0:0:0:
256,192,148405,128,0,148592:0:0:0:0:
36,192,148405,128,0,148686:0:0:0:0:
402,192,148405,128,0,148498:0:0:0:0:
182,192,148498,128,0,148686:0:0:0:0:
329,192,148498,128,0,148686:0:0:0:0:
109,192,148592,128,0,148686:0:0:0:0:
402,192,148592,128,0,148686:0:0:0:0:
256,192,148686,128,0,148780:0:0:0:0:
329,192,148780,128,0,148967:0:0:0:0:
109,192,148780,128,0,149061:0:0:0:0:
402,192,148780,1,0,0:0:0:0:
182,192,148780,128,0,148873:0:0:0:0:
475,192,148780,128,0,149061:0:0:0:0:
36,192,148780,128,0,148873:0:0:0:0:
402,192,148873,128,0,149061:0:0:0:0:
256,192,148873,128,0,149061:0:0:0:0:
36,192,148967,128,0,149061:0:0:0:0:
182,192,148967,128,0,149061:0:0:0:0:
329,192,149061,128,0,149155:0:0:0:0:
182,192,149155,128,0,149248:0:0:0:0:
109,192,149155,128,0,149436:0:0:0:0:
256,192,149155,128,0,149436:0:0:0:0:
36,192,149155,128,0,149248:0:0:0:0:
402,192,149155,128,0,149248:0:0:0:0:
475,192,149155,128,0,149436:0:0:0:0:
329,192,149248,128,0,149342:0:0:0:0:
182,192,149342,128,0,149436:0:0:0:0:
36,192,149342,128,0,149436:0:0:0:0:
402,192,149342,128,0,149436:0:0:0:0:
329,192,149436,128,0,149530:0:0:0:0:
402,192,149530,128,0,149623:0:0:0:0:
256,192,149530,128,0,149811:0:0:0:0:
109,192,149530,128,0,149811:0:0:0:0:
475,192,149530,1,0,0:0:0:0:
182,192,149530,128,0,149623:0:0:0:0:
36,192,149530,128,0,149623:0:0:0:0:
329,192,149623,128,0,149811:0:0:0:0:
475,192,149623,128,0,149811:0:0:0:0:
182,192,149717,128,0,149811:0:0:0:0:
402,192,149717,128,0,149811:0:0:0:0:
36,192,149717,128,0,149811:0:0:0:0:
402,192,149905,128,0,149998:0:0:0:0:
256,192,149905,128,0,150186:0:0:0:0:
329,192,149905,128,0,149998:0:0:0:0:
36,192,149905,128,0,149998:0:0:0:0:
475,192,149905,128,0,150186:0:0:0:0:
109,192,149905,128,0,149998:0:0:0:0:
182,192,149905,1,0,0:0:0:0:
182,192,149998,128,0,150186:0:0:0:0:
109,192,150092,128,0,150186:0:0:0:0:
36,192,150092,128,0,150186:0:0:0:0:
329,192,150092,128,0,150186:0:0:0:0:
402,192,150092,128,0,150186:0:0:0:0:
402,192,150280,128,0,150373:0:0:0:0:
256,192,150280,128,0,150561:0:0:0:0:
109,192,150280,128,0,150561:0:0:0:0:
329,192,150280,1,0,0:0:0:0:
182,192,150280,128,0,150373:0:0:0:0:
475,192,150280,128,0,150561:0:0:0:0:
36,192,150280,128,0,150467:0:0:0:0:
329,192,150373,128,0,150561:0:0:0:0:
402,192,150467,128,0,150561:0:0:0:0:
182,192,150467,128,0,150561:0:0:0:0:
36,192,150561,128,0,150655:0:0:0:0:
109,192,150655,128,0,150748:0:0:0:0:
329,192,150655,128,0,150936:0:0:0:0:
402,192,150655,128,0,150936:0:0:0:0:
256,192,150655,128,0,150748:0:0:0:0:
475,192,150655,128,0,150748:0:0:0:0:
182,192,150655,128,0,150842:0:0:0:0:
36,192,150748,128,0,150936:0:0:0:0:
109,192,150842,128,0,150936:0:0:0:0:
475,192,150842,128,0,150936:0:0:0:0:
256,192,150842,128,0,150936:0:0:0:0:
182,192,150936,128,0,151030:0:0:0:0:
36,192,151030,128,0,151217:0:0:0:0:
475,192,151030,128,0,151123:0:0:0:0:
329,192,151030,128,0,151123:0:0:0:0:
402,192,151030,128,0,151123:0:0:0:0:
109,192,151030,128,0,151217:0:0:0:0:
256,192,151030,1,0,0:0:0:0:
182,192,151123,128,0,151217:0:0:0:0:
256,192,151123,128,0,151217:0:0:0:0:
329,192,151217,1,0,0:0:0:0:
402,192,151217,1,0,0:0:0:0:
475,192,151217,1,0,0:0:0:0:
182,192,151280,1,0,0:0:0:0:
109,192,151280,1,0,0:0:0:0:
36,192,151280,1,0,0:0:0:0:
329,192,151342,1,0,0:0:0:0:
402,192,151342,1,0,0:0:0:0:
475,192,151342,1,0,0:0:0:0:
182,192,151405,1,0,0:0:0:0:
109,192,151405,1,0,0:0:0:0:
36,192,151405,1,0,0:0:0:0:
256,192,151405,1,0,0:0:0:0:
329,192,151451,1,0,0:0:0:0:
475,192,151451,1,0,0:0:0:0:
402,192,151451,1,0,0:0:0:0:
182,192,151498,1,0,0:0:0:0:
109,192,151498,1,0,0:0:0:0:
36,192,151498,1,0,0:0:0:0:
256,192,151498,1,0,0:0:0:0:
329,192,151545,1,0,0:0:0:0:
402,192,151545,1,0,0:0:0:0:
475,192,151545,1,0,0:0:0:0:
182,192,151592,1,0,0:0:0:0:
109,192,151592,1,0,0:0:0:0:
36,192,151592,1,0,0:0:0:0:
256,192,151592,1,0,0:0:0:0:
329,192,151686,1,0,0:0:0:0:
475,192,151686,1,0,0:0:0:0:
402,192,151686,1,0,0:0:0:0:
182,192,151780,1,0,0:0:0:0:
109,192,151780,1,0,0:0:0:0:
36,192,151780,1,0,0:0:0:0:
109,192,151905,1,0,0:0:0:0:
182,192,151905,1,0,0:0:0:0:
256,192,151905,1,0,0:0:0:0:
256,192,152030,1,0,0:0:0:0:
329,192,152030,1,0,0:0:0:0:
182,192,152030,1,0,0:0:0:0:
256,192,152155,1,0,0:0:0:0:
329,192,152155,1,0,0:0:0:0:
402,192,152155,1,0,0:0:0:0:
329,192,152280,1,0,0:0:0:0:
402,192,152280,1,0,0:0:0:0:
475,192,152280,1,0,0:0:0:0:
329,192,152405,1,0,0:0:0:0:
475,192,152405,1,0,0:0:0:0:
402,192,152405,1,0,0:0:0:0:
109,192,152530,128,0,152655:0:0:0:0:
256,192,152530,128,0,152655:0:0:0:0:
402,192,152530,128,0,152655:0:0:0:0:
475,192,152530,1,0,0:0:0:0:
329,192,152655,128,0,152780:0:0:0:0:
182,192,152655,128,0,152780:0:0:0:0:
36,192,152655,128,0,152780:0:0:0:0:
402,192,152780,1,0,0:0:0:0:
475,192,152780,1,0,0:0:0:0:
256,192,152780,1,0,0:0:0:0:
182,192,152905,128,0,153030:0:0:0:0:
329,192,152905,128,0,153030:0:0:0:0:
475,192,152905,128,0,153030:0:0:0:0:
36,192,152905,1,0,0:0:0:0:
402,192,153030,128,0,153155:0:0:0:0:
256,192,153030,128,0,153155:0:0:0:0:
109,192,153030,128,0,153155:0:0:0:0:
182,192,153155,1,0,0:0:0:0:
36,192,153155,1,0,0:0:0:0:
329,192,153155,1,0,0:0:0:0:
256,192,153280,128,0,153405:0:0:0:0:
182,192,153280,128,0,153405:0:0:0:0:
109,192,153280,128,0,153405:0:0:0:0:
36,192,153280,1,0,0:0:0:0:
329,192,153405,128,0,153530:0:0:0:0:
402,192,153405,128,0,153530:0:0:0:0:
475,192,153405,128,0,153530:0:0:0:0:
182,192,153530,1,0,0:0:0:0:
109,192,153530,1,0,0:0:0:0:
36,192,153530,1,0,0:0:0:0:
256,192,153655,128,0,153780:0:0:0:0:
329,192,153655,128,0,153780:0:0:0:0:
402,192,153655,128,0,153780:0:0:0:0:
475,192,153655,1,0,0:0:0:0:
182,192,153780,128,0,153905:0:0:0:0:
109,192,153780,128,0,153905:0:0:0:0:
36,192,153780,128,0,153905:0:0:0:0:
329,192,153905,1,0,0:0:0:0:
475,192,153905,1,0,0:0:0:0:
402,192,153905,1,0,0:0:0:0:
36,192,154030,128,0,154155:0:0:0:0:
256,192,154030,128,0,154155:0:0:0:0:
475,192,154030,128,0,154155:0:0:0:0:
329,192,154030,1,0,0:0:0:0:
402,192,154155,128,0,154280:0:0:0:0:
109,192,154155,128,0,154280:0:0:0:0:
182,192,154155,128,0,154280:0:0:0:0:
329,192,154280,1,0,0:0:0:0:
36,192,154280,1,0,0:0:0:0:
256,192,154280,1,0,0:0:0:0:
256,192,154405,128,0,154530:0:0:0:0:
475,192,154405,128,0,154530:0:0:0:0:
36,192,154405,128,0,154530:0:0:0:0:
182,192,154405,1,0,0:0:0:0:
402,192,154530,128,0,154655:0:0:0:0:
329,192,154530,128,0,154655:0:0:0:0:
109,192,154530,128,0,154655:0:0:0:0:
182,192,154780,128,0,154905:0:0:0:0:
329,192,154780,128,0,154905:0:0:0:0:
475,192,154780,128,0,154905:0:0:0:0:
36,192,154780,1,0,0:0:0:0:
256,192,154905,128,0,155030:0:0:0:0:
109,192,154905,128,0,155030:0:0:0:0:
402,192,154905,128,0,155030:0:0:0:0:
329,192,155030,1,0,0:0:0:0:
182,192,155030,1,0,0:0:0:0:
36,192,155030,1,0,0:0:0:0:
36,192,155155,128,0,155280:0:0:0:0:
182,192,155155,128,0,155280:0:0:0:0:
329,192,155155,128,0,155280:0:0:0:0:
475,192,155155,1,0,0:0:0:0:
109,192,155280,128,0,155405:0:0:0:0:
256,192,155280,128,0,155405:0:0:0:0:
402,192,155280,128,0,155405:0:0:0:0:
475,192,155405,1,0,0:0:0:0:
182,192,155405,1,0,0:0:0:0:
329,192,155405,1,0,0:0:0:0:
109,192,155530,1,0,0:0:0:0:
256,192,155530,1,0,0:0:0:0:
402,192,155530,1,0,0:0:0:0:
36,192,155530,1,0,0:0:0:0:
182,192,155655,1,0,0:0:0:0:
329,192,155655,1,0,0:0:0:0:
475,192,155655,1,0,0:0:0:0:
109,192,155655,1,0,0:0:0:0:
256,192,155905,128,0,156030:0:0:0:0:
329,192,155905,128,0,156030:0:0:0:0:
182,192,155905,128,0,156030:0:0:0:0:
475,192,155905,1,0,0:0:0:0:
109,192,156030,128,0,156155:0:0:0:0:
36,192,156030,128,0,156155:0:0:0:0:
402,192,156030,128,0,156155:0:0:0:0:
256,192,156155,1,0,0:0:0:0:
182,192,156155,1,0,0:0:0:0:
329,192,156155,1,0,0:0:0:0:
329,192,156280,128,0,156405:0:0:0:0:
475,192,156280,128,0,156405:0:0:0:0:
402,192,156280,128,0,156405:0:0:0:0:
109,192,156280,1,0,0:0:0:0:
182,192,156530,1,0,0:0:0:0:
109,192,156530,1,0,0:0:0:0:
256,192,156592,1,0,0:0:0:0:
329,192,156592,1,0,0:0:0:0:
402,192,156655,128,0,156780:0:0:0:0:
475,192,156655,128,0,156780:0:0:0:0:
36,192,156655,128,0,156780:0:0:0:0:
109,192,156780,128,0,156905:0:0:0:0:
182,192,156780,128,0,156905:0:0:0:0:
256,192,156780,128,0,156905:0:0:0:0:
402,192,156905,1,0,0:0:0:0:
475,192,156905,1,0,0:0:0:0:
329,192,156905,1,0,0:0:0:0:
109,192,157030,128,0,157155:0:0:0:0:
36,192,157030,128,0,157155:0:0:0:0:
182,192,157030,128,0,157155:0:0:0:0:
256,192,157030,1,0,0:0:0:0:
475,192,157155,1,0,0:0:0:0:
256,192,157280,128,0,157405:0:0:0:0:
329,192,157280,128,0,157405:0:0:0:0:
402,192,157280,128,0,157405:0:0:0:0:
182,192,157280,1,0,0:0:0:0:
36,192,157405,1,0,0:0:0:0:
182,192,157530,128,0,157655:0:0:0:0:
109,192,157530,128,0,157655:0:0:0:0:
256,192,157530,128,0,157655:0:0:0:0:
329,192,157530,1,0,0:0:0:0:
402,192,157655,1,0,0:0:0:0:
256,192,157780,128,0,157905:0:0:0:0:
182,192,157842,128,0,157967:0:0:0:0:
109,192,157905,128,0,158030:0:0:0:0:
475,192,157905,128,0,158030:0:0:0:0:
36,192,157967,128,0,158217:0:0:0:0:
402,192,157967,128,0,158092:0:0:0:0:
329,192,158030,128,0,158155:0:0:0:0:
256,192,158092,128,0,158217:0:0:0:0:
109,192,158155,128,0,158280:0:0:0:0:
182,192,158217,128,0,158342:0:0:0:0:
256,192,158280,128,0,158405:0:0:0:0:
329,192,158342,128,0,158467:0:0:0:0:
402,192,158405,128,0,158530:0:0:0:0:
475,192,158467,128,0,158592:0:0:0:0:
109,192,158530,1,0,0:0:0:0:
36,192,158530,1,0,0:0:0:0:
182,192,158623,1,0,0:0:0:0:
256,192,158623,1,0,0:0:0:0:
329,192,158717,1,0,0:0:0:0:
402,192,158811,1,0,0:0:0:0:
475,192,158905,1,0,0:0:0:0:
256,192,158905,1,0,0:0:0:0:
182,192,158905,1,0,0:0:0:0:
109,192,158998,1,0,0:0:0:0:
36,192,158998,1,0,0:0:0:0:
256,192,159092,1,0,0:0:0:0:
329,192,159092,1,0,0:0:0:0:
402,192,159186,1,0,0:0:0:0:
475,192,159186,1,0,0:0:0:0:
109,192,159280,1,0,0:0:0:0:
36,192,159280,1,0,0:0:0:0:
182,192,159373,1,0,0:0:0:0:
256,192,159467,1,0,0:0:0:0:
475,192,159467,1,0,0:0:0:0:
329,192,159561,1,0,0:0:0:0:
182,192,159561,1,0,0:0:0:0:
402,192,159655,1,0,0:0:0:0:
36,192,159655,1,0,0:0:0:0:
329,192,159748,1,0,0:0:0:0:
109,192,159748,1,0,0:0:0:0:
402,192,159842,1,0,0:0:0:0:
36,192,159842,1,0,0:0:0:0:
329,192,159936,1,0,0:0:0:0:
109,192,159936,1,0,0:0:0:0:
182,192,160030,1,0,0:0:0:0:
256,192,160030,1,0,0:0:0:0:
329,192,160076,1,0,0:0:0:0:
402,192,160076,1,0,0:0:0:0:
109,192,160123,1,0,0:0:0:0:
36,192,160123,1,0,0:0:0:0:
402,192,160217,1,0,0:0:0:0:
475,192,160217,1,0,0:0:0:0:
329,192,160311,1,0,0:0:0:0:
256,192,160311,1,0,0:0:0:0:
182,192,160405,1,0,0:0:0:0:
109,192,160498,1,0,0:0:0:0:
36,192,160498,1,0,0:0:0:0:
182,192,160592,1,0,0:0:0:0:
256,192,160592,1,0,0:0:0:0:
329,192,160686,1,0,0:0:0:0:
402,192,160686,1,0,0:0:0:0:
182,192,160780,1,0,0:0:0:0:
109,192,160780,1,0,0:0:0:0:
256,192,160873,1,0,0:0:0:0:
329,192,160967,1,0,0:0:0:0:
36,192,160967,1,0,0:0:0:0:
402,192,161061,1,0,0:0:0:0:
475,192,161061,1,0,0:0:0:0:
36,192,161155,1,0,0:0:0:0:
109,192,161186,1,0,0:0:0:0:
182,192,161217,1,0,0:0:0:0:
256,192,161248,1,0,0:0:0:0:
475,192,161342,1,0,0:0:0:0:
402,192,161373,1,0,0:0:0:0:
329,192,161405,1,0,0:0:0:0:
256,192,161436,1,0,0:0:0:0:
182,192,161467,1,0,0:0:0:0:
109,192,161498,1,0,0:0:0:0:
36,192,161530,1,0,0:0:0:0:
402,192,161530,1,0,0:0:0:0:
475,192,161530,1,0,0:0:0:0:
329,192,161623,1,0,0:0:0:0:
256,192,161623,1,0,0:0:0:0:
182,192,161717,1,0,0:0:0:0:
109,192,161811,1,0,0:0:0:0:
36,192,161811,1,0,0:0:0:0:
182,192,161905,1,0,0:0:0:0:
256,192,161998,1,0,0:0:0:0:
329,192,161998,1,0,0:0:0:0:
402,192,162092,1,0,0:0:0:0:
475,192,162092,1,0,0:0:0:0:
329,192,162186,1,0,0:0:0:0:
256,192,162280,1,0,0:0:0:0:
182,192,162280,1,0,0:0:0:0:
109,192,162373,1,0,0:0:0:0:
36,192,162373,1,0,0:0:0:0:
182,192,162467,1,0,0:0:0:0:
256,192,162561,1,0,0:0:0:0:
329,192,162561,1,0,0:0:0:0:
402,192,162608,1,0,0:0:0:0:
475,192,162608,1,0,0:0:0:0:
109,192,162655,1,0,0:0:0:0:
36,192,162655,1,0,0:0:0:0:
182,192,162701,1,0,0:0:0:0:
256,192,162701,1,0,0:0:0:0:
329,192,162748,1,0,0:0:0:0:
402,192,162748,1,0,0:0:0:0:
182,192,162842,1,0,0:0:0:0:
109,192,162842,1,0,0:0:0:0:
256,192,162936,1,0,0:0:0:0:
329,192,162936,1,0,0:0:0:0:
402,192,163030,1,0,0:0:0:0:
475,192,163030,1,0,0:0:0:0:
36,192,163030,128,0,163405:0:0:0:0:
109,192,163076,128,0,163358:0:0:0:0:
182,192,163123,128,0,163311:0:0:0:0:
256,192,163170,128,0,163264:0:0:0:0:
329,192,163217,128,0,163311:0:0:0:0:
475,192,163311,128,0,163405:0:0:0:0:
402,192,163358,128,0,163451:0:0:0:0:
329,192,163405,128,0,163498:0:0:0:0:
256,192,163451,128,0,163545:0:0:0:0:
475,192,163592,128,0,163873:0:0:0:0:
402,192,163639,128,0,163826:0:0:0:0:
329,192,163686,128,0,163780:0:0:0:0:
256,192,163733,128,0,163826:0:0:0:0:
36,192,163780,128,0,163873:0:0:0:0:
109,192,163826,128,0,163920:0:0:0:0:
182,192,163873,128,0,163967:0:0:0:0:
256,192,163920,128,0,164014:0:0:0:0:
475,192,163967,1,0,0:0:0:0:
402,192,164014,1,0,0:0:0:0:
329,192,164061,1,0,0:0:0:0:
256,192,164108,1,0,0:0:0:0:
36,192,164155,1,0,0:0:0:0:
109,192,164186,1,0,0:0:0:0:
182,192,164217,1,0,0:0:0:0:
256,192,164248,1,0,0:0:0:0:
329,192,164280,1,0,0:0:0:0:
402,192,164311,1,0,0:0:0:0:
475,192,164342,1,0,0:0:0:0:
36,192,164342,1,0,0:0:0:0:
109,192,164373,1,0,0:0:0:0:
182,192,164405,1,0,0:0:0:0:
256,192,164436,1,0,0:0:0:0:
329,192,164467,1,0,0:0:0:0:
402,192,164498,1,0,0:0:0:0:
475,192,164530,1,0,0:0:0:0:
182,192,164530,1,0,0:0:0:0:
109,192,164530,1,0,0:0:0:0:
36,192,164530,1,0,0:0:0:0:
256,192,164717,1,0,0:0:0:0:
329,192,164748,1,0,0:0:0:0:
402,192,164780,1,0,0:0:0:0:
475,192,164811,1,0,0:0:0:0:
256,192,165092,1,0,0:0:0:0:
182,192,165123,1,0,0:0:0:0:
109,192,165155,1,0,0:0:0:0:
36,192,165186,1,0,0:0:0:0:
402,192,165280,1,0,0:0:0:0:
475,192,165280,1,0,0:0:0:0:
256,192,165467,1,0,0:0:0:0:
36,192,165467,1,0,0:0:0:0:
329,192,165498,1,0,0:0:0:0:
402,192,165530,1,0,0:0:0:0:
475,192,165561,1,0,0:0:0:0:
109,192,165561,1,0,0:0:0:0:
182,192,165561,1,0,0:0:0:0:
256,192,165655,1,0,0:0:0:0:
329,192,165655,1,0,0:0:0:0:
256,192,165842,1,0,0:0:0:0:
182,192,165873,1,0,0:0:0:0:
109,192,165905,1,0,0:0:0:0:
36,192,165936,1,0,0:0:0:0:
475,192,165936,1,0,0:0:0:0:
402,192,166030,1,0,0:0:0:0:
329,192,166030,1,0,0:0:0:0:
256,192,166311,1,0,0:0:0:0:
182,192,166311,1,0,0:0:0:0:
402,192,166405,1,0,0:0:0:0:
475,192,166405,1,0,0:0:0:0:
329,192,166592,1,0,0:0:0:0:
36,192,166592,1,0,0:0:0:0:
182,192,166686,1,0,0:0:0:0:
475,192,166686,1,0,0:0:0:0:
329,192,166780,1,0,0:0:0:0:
109,192,166780,1,0,0:0:0:0:
256,192,166780,1,0,0:0:0:0:
402,192,166967,1,0,0:0:0:0:
475,192,166967,1,0,0:0:0:0:
475,192,167061,1,0,0:0:0:0:
36,192,167061,1,0,0:0:0:0:
36,192,167155,1,0,0:0:0:0:
109,192,167155,1,0,0:0:0:0:
109,192,167248,1,0,0:0:0:0:
402,192,167248,1,0,0:0:0:0:
329,192,167342,1,0,0:0:0:0:
402,192,167342,1,0,0:0:0:0:
36,192,167342,128,0,167436:0:0:0:0:
329,192,167436,1,0,0:0:0:0:
182,192,167436,1,0,0:0:0:0:
109,192,167436,128,0,167530:0:0:0:0:
182,192,167530,128,0,167623:0:0:0:0:
256,192,167530,1,0,0:0:0:0:
475,192,167530,1,0,0:0:0:0:
402,192,167530,1,0,0:0:0:0:
329,192,167717,1,0,0:0:0:0:
402,192,167905,128,0,167998:0:0:0:0:
256,192,168092,128,0,168186:0:0:0:0:
36,192,168092,1,0,0:0:0:0:
182,192,168186,1,0,0:0:0:0:
329,192,168186,1,0,0:0:0:0:
109,192,168280,128,0,168373:0:0:0:0:
402,192,168280,1,0,0:0:0:0:
36,192,168280,1,0,0:0:0:0:
329,192,168467,1,0,0:0:0:0:
182,192,168467,1,0,0:0:0:0:
475,192,168561,128,0,168655:0:0:0:0:
256,192,168561,1,0,0:0:0:0:
402,192,168561,1,0,0:0:0:0:
329,192,168655,1,0,0:0:0:0:
182,192,168655,1,0,0:0:0:0:
256,192,168748,1,0,0:0:0:0:
109,192,168748,1,0,0:0:0:0:
182,192,168842,1,0,0:0:0:0:
36,192,168842,1,0,0:0:0:0:
256,192,168936,1,0,0:0:0:0:
109,192,168936,1,0,0:0:0:0:
182,192,169030,1,0,0:0:0:0:
402,192,169030,1,0,0:0:0:0:
329,192,169030,128,0,169123:0:0:0:0:
182,192,169311,128,0,169405:0:0:0:0:
36,192,169405,128,0,169498:0:0:0:0:
256,192,169592,128,0,169686:0:0:0:0:
329,192,169686,1,0,0:0:0:0:
402,192,169686,1,0,0:0:0:0:
475,192,169780,1,0,0:0:0:0:
182,192,169780,1,0,0:0:0:0:
109,192,169780,1,0,0:0:0:0:
256,192,169967,1,0,0:0:0:0:
329,192,169967,1,0,0:0:0:0:
182,192,170061,1,0,0:0:0:0:
109,192,170061,1,0,0:0:0:0:
402,192,170155,1,0,0:0:0:0:
475,192,170155,1,0,0:0:0:0:
329,192,170248,1,0,0:0:0:0:
256,192,170248,1,0,0:0:0:0:
36,192,170342,1,0,0:0:0:0:
109,192,170342,1,0,0:0:0:0:
182,192,170436,1,0,0:0:0:0:
256,192,170436,1,0,0:0:0:0:
329,192,170530,1,0,0:0:0:0:
475,192,170530,1,0,0:0:0:0:
402,192,170530,1,0,0:0:0:0:
182,192,170717,1,0,0:0:0:0:
256,192,170811,1,0,0:0:0:0:
475,192,170811,1,0,0:0:0:0:
402,192,170905,1,0,0:0:0:0:
109,192,170905,1,0,0:0:0:0:
329,192,171092,1,0,0:0:0:0:
182,192,171092,1,0,0:0:0:0:
256,192,171186,1,0,0:0:0:0:
36,192,171186,1,0,0:0:0:0:
475,192,171186,1,0,0:0:0:0:
109,192,171280,1,0,0:0:0:0:
402,192,171280,1,0,0:0:0:0:
256,192,171373,1,0,0:0:0:0:
329,192,171467,1,0,0:0:0:0:
182,192,171467,1,0,0:0:0:0:
402,192,171561,1,0,0:0:0:0:
109,192,171561,1,0,0:0:0:0:
36,192,171655,1,0,0:0:0:0:
475,192,171655,1,0,0:0:0:0:
256,192,171655,1,0,0:0:0:0:
36,192,171936,1,0,0:0:0:0:
182,192,171936,1,0,0:0:0:0:
475,192,172030,1,0,0:0:0:0:
329,192,172030,1,0,0:0:0:0:
256,192,172311,1,0,0:0:0:0:
109,192,172311,1,0,0:0:0:0:
475,192,172405,1,0,0:0:0:0:
329,192,172405,1,0,0:0:0:0:
182,192,172592,1,0,0:0:0:0:
109,192,172592,1,0,0:0:0:0:
256,192,172686,1,0,0:0:0:0:
329,192,172686,1,0,0:0:0:0:
402,192,172780,1,0,0:0:0:0:
475,192,172780,1,0,0:0:0:0:
329,192,172967,128,0,173155:0:0:0:0:
402,192,172967,1,0,0:0:0:0:
256,192,173061,128,0,173248:0:0:0:0:
475,192,173061,1,0,0:0:0:0:
182,192,173155,128,0,173342:0:0:0:0:
402,192,173155,1,0,0:0:0:0:
109,192,173248,128,0,173436:0:0:0:0:
329,192,173248,1,0,0:0:0:0:
36,192,173342,128,0,173530:0:0:0:0:
256,192,173342,1,0,0:0:0:0:
182,192,173436,1,0,0:0:0:0:
109,192,173530,1,0,0:0:0:0:
402,192,173530,1,0,0:0:0:0:
329,192,173530,128,0,173717:0:0:0:0:
475,192,173623,128,0,173811:0:0:0:0:
402,192,173717,128,0,173811:0:0:0:0:
182,192,173717,1,0,0:0:0:0:
256,192,173905,128,0,174092:0:0:0:0:
36,192,173905,1,0,0:0:0:0:
182,192,173998,128,0,174092:0:0:0:0:
109,192,174092,128,0,174186:0:0:0:0:
402,192,174092,1,0,0:0:0:0:
329,192,174186,1,0,0:0:0:0:
182,192,174186,1,0,0:0:0:0:
256,192,174280,1,0,0:0:0:0:
402,192,174280,1,0,0:0:0:0:
182,192,174467,1,0,0:0:0:0:
109,192,174467,1,0,0:0:0:0:
329,192,174561,1,0,0:0:0:0:
402,192,174561,1,0,0:0:0:0:
109,192,174655,1,0,0:0:0:0:
36,192,174655,1,0,0:0:0:0:
256,192,174748,1,0,0:0:0:0:
329,192,174748,1,0,0:0:0:0:
402,192,174842,1,0,0:0:0:0:
475,192,174842,1,0,0:0:0:0:
182,192,174936,1,0,0:0:0:0:
109,192,174936,1,0,0:0:0:0:
256,192,175030,1,0,0:0:0:0:
329,192,175030,1,0,0:0:0:0:
402,192,175217,1,0,0:0:0:0:
329,192,175405,1,0,0:0:0:0:
256,192,175592,1,0,0:0:0:0:
329,192,175686,1,0,0:0:0:0:
402,192,175686,1,0,0:0:0:0:
182,192,175780,1,0,0:0:0:0:
109,192,175780,1,0,0:0:0:0:
475,192,175967,1,0,0:0:0:0:
36,192,175967,1,0,0:0:0:0:
256,192,175967,1,0,0:0:0:0:
109,192,176061,1,0,0:0:0:0:
402,192,176061,1,0,0:0:0:0:
329,192,176155,1,0,0:0:0:0:
182,192,176155,1,0,0:0:0:0:
256,192,176248,1,0,0:0:0:0:
475,192,176248,1,0,0:0:0:0:
36,192,176248,1,0,0:0:0:0:
329,192,176342,1,0,0:0:0:0:
182,192,176342,1,0,0:0:0:0:
402,192,176436,1,0,0:0:0:0:
109,192,176436,1,0,0:0:0:0:
475,192,176530,1,0,0:0:0:0:
36,192,176530,1,0,0:0:0:0:
256,192,176530,1,0,0:0:0:0:
182,192,176623,1,0,0:0:0:0:
109,192,176717,1,0,0:0:0:0:
329,192,176811,1,0,0:0:0:0:
402,192,176905,1,0,0:0:0:0:
475,192,176998,1,0,0:0:0:0:
182,192,177092,1,0,0:0:0:0:
256,192,177186,1,0,0:0:0:0:
329,192,177186,1,0,0:0:0:0:
109,192,177280,1,0,0:0:0:0:
36,192,177280,1,0,0:0:0:0:
256,192,177467,1,0,0:0:0:0:
329,192,177467,1,0,0:0:0:0:
402,192,177561,1,0,0:0:0:0:
182,192,177561,1,0,0:0:0:0:
256,192,177655,1,0,0:0:0:0:
329,192,177655,1,0,0:0:0:0:
402,192,177842,1,0,0:0:0:0:
475,192,177936,1,0,0:0:0:0:
256,192,177936,1,0,0:0:0:0:
329,192,178030,1,0,0:0:0:0:
109,192,178030,1,0,0:0:0:0:
256,192,178311,1,0,0:0:0:0:
182,192,178311,1,0,0:0:0:0:
109,192,178405,1,0,0:0:0:0:
36,192,178405,1,0,0:0:0:0:
329,192,178592,1,0,0:0:0:0:
402,192,178592,1,0,0:0:0:0:
182,192,178686,1,0,0:0:0:0:
256,192,178686,1,0,0:0:0:0:
402,192,178780,1,0,0:0:0:0:
475,192,178780,1,0,0:0:0:0:
182,192,178967,1,0,0:0:0:0:
109,192,178967,1,0,0:0:0:0:
256,192,179061,1,0,0:0:0:0:
329,192,179061,1,0,0:0:0:0:
402,192,179155,1,0,0:0:0:0:
475,192,179155,1,0,0:0:0:0:
329,192,179248,1,0,0:0:0:0:
256,192,179248,1,0,0:0:0:0:
182,192,179342,1,0,0:0:0:0:
109,192,179342,1,0,0:0:0:0:
256,192,179436,1,0,0:0:0:0:
36,192,179436,1,0,0:0:0:0:
109,192,179530,1,0,0:0:0:0:
182,192,179530,1,0,0:0:0:0:
475,192,180092,1,0,0:0:0:0:
402,192,180092,1,0,0:0:0:0:
109,192,180186,1,0,0:0:0:0:
36,192,180186,1,0,0:0:0:0:
329,192,180280,1,0,0:0:0:0:
182,192,180280,1,0,0:0:0:0:
182,192,180467,1,0,0:0:0:0:
36,192,180467,1,0,0:0:0:0:
109,192,180561,1,0,0:0:0:0:
256,192,180561,1,0,0:0:0:0:
182,192,180655,1,0,0:0:0:0:
329,192,180655,1,0,0:0:0:0:
402,192,180748,1,0,0:0:0:0:
256,192,180748,1,0,0:0:0:0:
329,192,180842,1,0,0:0:0:0:
475,192,180842,1,0,0:0:0:0:
402,192,180936,1,0,0:0:0:0:
256,192,180936,1,0,0:0:0:0:
329,192,181030,1,0,0:0:0:0:
182,192,181030,1,0,0:0:0:0:
36,192,181311,1,0,0:0:0:0:
329,192,181311,1,0,0:0:0:0:
256,192,181405,1,0,0:0:0:0:
402,192,181592,1,0,0:0:0:0:
475,192,181592,1,0,0:0:0:0:
329,192,181686,1,0,0:0:0:0:
256,192,181686,1,0,0:0:0:0:
402,192,181780,1,0,0:0:0:0:
475,192,181780,1,0,0:0:0:0:
182,192,181967,1,0,0:0:0:0:
36,192,181967,1,0,0:0:0:0:
109,192,182061,1,0,0:0:0:0:
256,192,182061,1,0,0:0:0:0:
182,192,182155,1,0,0:0:0:0:
475,192,182155,1,0,0:0:0:0:
329,192,182155,1,0,0:0:0:0:
402,192,182248,1,0,0:0:0:0:
256,192,182248,1,0,0:0:0:0:
329,192,182342,1,0,0:0:0:0:
182,192,182342,1,0,0:0:0:0:
256,192,182436,1,0,0:0:0:0:
109,192,182436,1,0,0:0:0:0:
182,192,182530,1,0,0:0:0:0:
36,192,182530,1,0,0:0:0:0:
256,192,182811,1,0,0:0:0:0:
329,192,182811,1,0,0:0:0:0:
182,192,183092,1,0,0:0:0:0:
36,192,183092,1,0,0:0:0:0:
109,192,183186,1,0,0:0:0:0:
256,192,183186,1,0,0:0:0:0:
182,192,183280,1,0,0:0:0:0:
329,192,183280,1,0,0:0:0:0:
475,192,183467,1,0,0:0:0:0:
329,192,183467,1,0,0:0:0:0:
402,192,183561,1,0,0:0:0:0:
256,192,183561,1,0,0:0:0:0:
329,192,183655,1,0,0:0:0:0:
182,192,183655,1,0,0:0:0:0:
256,192,183936,1,0,0:0:0:0:
329,192,183936,1,0,0:0:0:0:
475,192,184030,1,0,0:0:0:0:
109,192,184030,1,0,0:0:0:0:
402,192,184311,1,0,0:0:0:0:
182,192,184311,1,0,0:0:0:0:
329,192,184405,1,0,0:0:0:0:
36,192,184405,1,0,0:0:0:0:
109,192,184592,1,0,0:0:0:0:
256,192,184592,1,0,0:0:0:0:
182,192,184686,1,0,0:0:0:0:
329,192,184686,1,0,0:0:0:0:
256,192,184780,1,0,0:0:0:0:
109,192,184780,1,0,0:0:0:0:
402,192,184967,1,0,0:0:0:0:
475,192,184967,1,0,0:0:0:0:
256,192,185061,1,0,0:0:0:0:
329,192,185061,1,0,0:0:0:0:
182,192,185155,1,0,0:0:0:0:
109,192,185155,1,0,0:0:0:0:
402,192,185248,1,0,0:0:0:0:
329,192,185248,1,0,0:0:0:0:
256,192,185342,1,0,0:0:0:0:
182,192,185342,1,0,0:0:0:0:
109,192,185436,1,0,0:0:0:0:
36,192,185436,1,0,0:0:0:0:
329,192,185530,1,0,0:0:0:0:
402,192,185530,1,0,0:0:0:0:
475,192,185530,1,0,0:0:0:0:
109,192,186092,1,0,0:0:0:0:
36,192,186092,1,0,0:0:0:0:
182,192,186186,1,0,0:0:0:0:
256,192,186186,1,0,0:0:0:0:
329,192,186280,1,0,0:0:0:0:
402,192,186280,1,0,0:0:0:0:
36,192,186467,1,0,0:0:0:0:
109,192,186467,1,0,0:0:0:0:
182,192,186561,1,0,0:0:0:0:
256,192,186561,1,0,0:0:0:0:
329,192,186655,1,0,0:0:0:0:
402,192,186655,1,0,0:0:0:0:
182,192,186748,1,0,0:0:0:0:
109,192,186748,1,0,0:0:0:0:
256,192,186842,1,0,0:0:0:0:
329,192,186842,1,0,0:0:0:0:
402,192,186936,1,0,0:0:0:0:
475,192,186936,1,0,0:0:0:0:
182,192,187030,1,0,0:0:0:0:
109,192,187030,1,0,0:0:0:0:
36,192,187030,1,0,0:0:0:0:
402,192,187311,1,0,0:0:0:0:
109,192,187405,1,0,0:0:0:0:
256,192,187592,1,0,0:0:0:0:
329,192,187592,1,0,0:0:0:0:
182,192,187686,1,0,0:0:0:0:
109,192,187686,1,0,0:0:0:0:
256,192,187780,1,0,0:0:0:0:
329,192,187780,1,0,0:0:0:0:
182,192,187967,1,0,0:0:0:0:
109,192,187967,1,0,0:0:0:0:
329,192,188061,1,0,0:0:0:0:
402,192,188061,1,0,0:0:0:0:
182,192,188155,1,0,0:0:0:0:
109,192,188155,1,0,0:0:0:0:
329,192,188248,1,0,0:0:0:0:
402,192,188248,1,0,0:0:0:0:
182,192,188342,1,0,0:0:0:0:
109,192,188342,1,0,0:0:0:0:
329,192,188436,1,0,0:0:0:0:
402,192,188436,1,0,0:0:0:0:
448,192,188530,1,0,0:0:0:0:
64,192,188530,128,0,188717:0:0:0:0:
182,192,188530,1,0,0:0:0:0:
109,192,188530,1,0,0:0:0:0:
192,192,188811,128,0,188998:0:0:0:0:
64,192,188905,1,0,0:0:0:0:
402,192,188905,1,0,0:0:0:0:
320,192,189092,128,0,189186:0:0:0:0:
182,192,189186,1,0,0:0:0:0:
448,192,189280,128,0,189467:0:0:0:0:
64,192,189280,1,0,0:0:0:0:
402,192,189280,1,0,0:0:0:0:
192,192,189561,128,0,189748:0:0:0:0:
64,192,189655,1,0,0:0:0:0:
402,192,189655,1,0,0:0:0:0:
320,192,189842,128,0,189936:0:0:0:0:
182,192,189936,1,0,0:0:0:0:
448,192,190030,128,0,190217:0:0:0:0:
64,192,190030,1,0,0:0:0:0:
402,192,190030,1,0,0:0:0:0:
192,192,190311,128,0,190498:0:0:0:0:
64,192,190405,1,0,0:0:0:0:
402,192,190405,1,0,0:0:0:0:
320,192,190592,128,0,190686:0:0:0:0:
182,192,190686,1,0,0:0:0:0:
448,192,190780,128,0,190967:0:0:0:0:
64,192,190780,1,0,0:0:0:0:
402,192,190780,1,0,0:0:0:0:
320,192,191155,128,0,191248:0:0:0:0:
64,192,191155,1,0,0:0:0:0:
402,192,191155,1,0,0:0:0:0:
256,192,191248,1,0,0:0:0:0:
192,192,191342,128,0,191436:0:0:0:0:
256,192,191436,1,0,0:0:0:0:
64,192,191530,128,0,191717:0:0:0:0:
402,192,191530,1,0,0:0:0:0:
192,192,191811,128,0,191998:0:0:0:0:
64,192,191905,1,0,0:0:0:0:
402,192,191905,1,0,0:0:0:0:
320,192,192092,128,0,192186:0:0:0:0:
182,192,192186,1,0,0:0:0:0:
448,192,192280,128,0,192467:0:0:0:0:
64,192,192280,1,0,0:0:0:0:
402,192,192280,1,0,0:0:0:0:
192,192,192561,128,0,192748:0:0:0:0:
64,192,192655,1,0,0:0:0:0:
402,192,192655,1,0,0:0:0:0:
320,192,192842,128,0,192936:0:0:0:0:
182,192,192936,1,0,0:0:0:0:
448,192,193030,128,0,193217:0:0:0:0:
64,192,193030,1,0,0:0:0:0:
402,192,193030,1,0,0:0:0:0:
192,192,193311,128,0,193498:0:0:0:0:
64,192,193405,1,0,0:0:0:0:
402,192,193405,1,0,0:0:0:0:
320,192,193592,128,0,193686:0:0:0:0:
475,192,193686,1,0,0:0:0:0:
109,192,193780,128,0,193920:0:0:0:0:
64,192,193780,1,0,0:0:0:0:
256,192,193780,128,0,193873:0:0:0:0:
402,192,193873,1,0,0:0:0:0:
109,192,193967,128,0,194108:0:0:0:0:
256,192,193967,128,0,194061:0:0:0:0:
329,192,194061,1,0,0:0:0:0:
402,192,194155,128,0,194295:0:0:0:0:
448,192,194155,1,0,0:0:0:0:
256,192,194155,128,0,194248:0:0:0:0:
36,192,194248,1,0,0:0:0:0:
402,192,194342,128,0,194483:0:0:0:0:
256,192,194342,128,0,194436:0:0:0:0:
109,192,194436,1,0,0:0:0:0:
64,192,194530,128,0,194717:0:0:0:0:
448,192,194530,1,0,0:0:0:0:
192,192,194811,128,0,194998:0:0:0:0:
64,192,194905,1,0,0:0:0:0:
402,192,194905,1,0,0:0:0:0:
320,192,195092,128,0,195186:0:0:0:0:
182,192,195186,1,0,0:0:0:0:
448,192,195280,128,0,195467:0:0:0:0:
64,192,195280,1,0,0:0:0:0:
402,192,195280,1,0,0:0:0:0:
192,192,195561,128,0,195748:0:0:0:0:
64,192,195655,1,0,0:0:0:0:
402,192,195655,1,0,0:0:0:0:
320,192,195842,128,0,195936:0:0:0:0:
182,192,195936,1,0,0:0:0:0:
448,192,196030,128,0,196217:0:0:0:0:
64,192,196030,1,0,0:0:0:0:
402,192,196030,1,0,0:0:0:0:
192,192,196311,128,0,196498:0:0:0:0:
64,192,196405,1,0,0:0:0:0:
402,192,196405,1,0,0:0:0:0:
320,192,196592,128,0,196686:0:0:0:0:
182,192,196686,1,0,0:0:0:0:
448,192,196780,128,0,196967:0:0:0:0:
64,192,196780,1,0,0:0:0:0:
402,192,196780,1,0,0:0:0:0:
320,192,197155,128,0,197248:0:0:0:0:
64,192,197155,1,0,0:0:0:0:
402,192,197155,1,0,0:0:0:0:
256,192,197248,1,0,0:0:0:0:
192,192,197342,128,0,197436:0:0:0:0:
256,192,197436,1,0,0:0:0:0:
64,192,197530,128,0,197717:0:0:0:0:
448,192,197530,1,0,0:0:0:0:
402,192,197530,1,0,0:0:0:0:
192,192,197811,128,0,197998:0:0:0:0:
64,192,197905,1,0,0:0:0:0:
402,192,197905,1,0,0:0:0:0:
320,192,198092,128,0,198186:0:0:0:0:
182,192,198186,1,0,0:0:0:0:
448,192,198280,128,0,198467:0:0:0:0:
64,192,198280,1,0,0:0:0:0:
402,192,198280,1,0,0:0:0:0:
192,192,198561,128,0,198748:0:0:0:0:
64,192,198655,1,0,0:0:0:0:
402,192,198655,1,0,0:0:0:0:
320,192,198842,128,0,198936:0:0:0:0:
182,192,198936,1,0,0:0:0:0:
448,192,199030,128,0,199217:0:0:0:0:
64,192,199030,1,0,0:0:0:0:
402,192,199030,1,0,0:0:0:0:
192,192,199311,128,0,199498:0:0:0:0:
64,192,199405,1,0,0:0:0:0:
402,192,199405,1,0,0:0:0:0:
320,192,199592,128,0,199686:0:0:0:0:
109,192,199780,128,0,199920:0:0:0:0:
64,192,199780,1,0,0:0:0:0:
402,192,199780,1,0,0:0:0:0:
256,192,199780,128,0,199873:0:0:0:0:
182,192,199873,1,0,0:0:0:0:
109,192,199967,128,0,200108:0:0:0:0:
256,192,199967,128,0,200061:0:0:0:0:
329,192,200061,1,0,0:0:0:0:
402,192,200155,128,0,200295:0:0:0:0:
448,192,200155,1,0,0:0:0:0:
256,192,200155,128,0,200248:0:0:0:0:
182,192,200248,1,0,0:0:0:0:
402,192,200342,128,0,200483:0:0:0:0:
256,192,200342,128,0,200436:0:0:0:0:
329,192,200436,1,0,0:0:0:0:
109,192,200530,128,0,200717:0:0:0:0:
448,192,200530,1,0,0:0:0:0:
192,192,200530,1,0,0:0:0:0:
256,192,200530,1,0,0:0:0:0:
256,192,200811,128,0,200998:0:0:0:0:
192,192,200811,1,0,0:0:0:0:
448,192,200811,1,0,0:0:0:0:
109,192,200811,1,0,0:0:0:0:
109,192,201092,128,0,201280:0:0:0:0:
192,192,201092,1,0,0:0:0:0:
448,192,201092,1,0,0:0:0:0:
256,192,201092,1,0,0:0:0:0:
402,192,201280,1,0,0:0:0:0:
320,192,201326,1,0,0:0:0:0:
256,192,201373,1,0,0:0:0:0:
182,192,201467,1,0,0:0:0:0:
109,192,201514,1,0,0:0:0:0:
64,192,201561,1,0,0:0:0:0:
256,192,201608,1,0,0:0:0:0:
182,192,201655,1,0,0:0:0:0:
329,192,201748,1,0,0:0:0:0:
402,192,201795,1,0,0:0:0:0:
448,192,201842,1,0,0:0:0:0:
256,192,201889,1,0,0:0:0:0:
192,192,201936,1,0,0:0:0:0:
402,192,202030,128,0,202217:0:0:0:0:
64,192,202030,1,0,0:0:0:0:
320,192,202030,1,0,0:0:0:0:
256,192,202030,1,0,0:0:0:0:
320,192,202311,1,0,0:0:0:0:
256,192,202311,128,0,202498:0:0:0:0:
64,192,202311,1,0,0:0:0:0:
402,192,202311,1,0,0:0:0:0:
320,192,202592,1,0,0:0:0:0:
64,192,202592,1,0,0:0:0:0:
402,192,202592,128,0,202780:0:0:0:0:
256,192,202592,1,0,0:0:0:0:
64,192,202780,1,0,0:0:0:0:
109,192,202826,1,0,0:0:0:0:
182,192,202873,1,0,0:0:0:0:
402,192,202967,1,0,0:0:0:0:
329,192,203014,1,0,0:0:0:0:
256,192,203061,1,0,0:0:0:0:
475,192,203108,1,0,0:0:0:0:
402,192,203155,1,0,0:0:0:0:
109,192,203248,1,0,0:0:0:0:
182,192,203295,1,0,0:0:0:0:
256,192,203342,1,0,0:0:0:0:
329,192,203389,1,0,0:0:0:0:
402,192,203436,1,0,0:0:0:0:
109,192,203436,1,0,0:0:0:0:
192,192,203483,1,0,0:0:0:0:
256,192,203530,1,0,0:0:0:0:
64,192,203530,1,0,0:0:0:0:
448,192,203530,128,0,203717:0:0:0:0:
329,192,203530,1,0,0:0:0:0:
402,192,203811,128,0,203998:0:0:0:0:
64,192,203811,1,0,0:0:0:0:
256,192,203811,1,0,0:0:0:0:
329,192,203811,1,0,0:0:0:0:
448,192,204092,128,0,204280:0:0:0:0:
64,192,204092,1,0,0:0:0:0:
256,192,204092,1,0,0:0:0:0:
329,192,204092,1,0,0:0:0:0:
192,192,204280,1,0,0:0:0:0:
109,192,204326,1,0,0:0:0:0:
256,192,204373,1,0,0:0:0:0:
192,192,204420,1,0,0:0:0:0:
109,192,204467,1,0,0:0:0:0:
320,192,204561,1,0,0:0:0:0:
402,192,204608,1,0,0:0:0:0:
256,192,204655,1,0,0:0:0:0:
320,192,204701,1,0,0:0:0:0:
402,192,204748,1,0,0:0:0:0:
192,192,204842,1,0,0:0:0:0:
109,192,204889,1,0,0:0:0:0:
256,192,204936,1,0,0:0:0:0:
192,192,204983,1,0,0:0:0:0:
64,192,205030,128,0,205217:0:0:0:0:
402,192,205030,1,0,0:0:0:0:
320,192,205030,1,0,0:0:0:0:
64,192,205311,128,0,205498:0:0:0:0:
320,192,205311,1,0,0:0:0:0:
448,192,205311,1,0,0:0:0:0:
64,192,205592,128,0,205780:0:0:0:0:
320,192,205592,1,0,0:0:0:0:
448,192,205592,1,0,0:0:0:0:
192,192,205780,1,0,0:0:0:0:
256,192,205842,1,0,0:0:0:0:
402,192,205905,1,0,0:0:0:0:
109,192,205920,1,0,0:0:0:0:
64,192,205967,1,0,0:0:0:0:
256,192,206014,1,0,0:0:0:0:
192,192,206061,1,0,0:0:0:0:
109,192,206092,1,0,0:0:0:0:
320,192,206155,1,0,0:0:0:0:
402,192,206217,1,0,0:0:0:0:
256,192,206248,1,0,0:0:0:0:
320,192,206295,1,0,0:0:0:0:
402,192,206342,1,0,0:0:0:0:
109,192,206389,1,0,0:0:0:0:
192,192,206405,1,0,0:0:0:0:
256,192,206467,1,0,0:0:0:0:
329,192,206530,1,0,0:0:0:0:
64,192,206530,1,0,0:0:0:0:
448,192,206530,128,0,206717:0:0:0:0:
402,192,206530,1,0,0:0:0:0:
256,192,206811,128,0,206998:0:0:0:0:
64,192,206811,1,0,0:0:0:0:
329,192,206811,1,0,0:0:0:0:
182,192,206811,1,0,0:0:0:0:
109,192,207092,128,0,207280:0:0:0:0:
64,192,207092,1,0,0:0:0:0:
192,192,207092,1,0,0:0:0:0:
329,192,207092,1,0,0:0:0:0:
475,192,207280,128,0,207373:0:0:0:0:
402,192,207326,128,0,207420:0:0:0:0:
329,192,207373,128,0,207467:0:0:0:0:
256,192,207420,128,0,207514:0:0:0:0:
182,192,207467,1,0,0:0:0:0:
109,192,207514,1,0,0:0:0:0:
475,192,207561,128,0,207655:0:0:0:0:
402,192,207608,128,0,207701:0:0:0:0:
329,192,207655,128,0,207748:0:0:0:0:
256,192,207701,128,0,207795:0:0:0:0:
182,192,207748,1,0,0:0:0:0:
109,192,207795,1,0,0:0:0:0:
475,192,207842,128,0,207936:0:0:0:0:
402,192,207889,128,0,207983:0:0:0:0:
329,192,207936,128,0,208030:0:0:0:0:
256,192,207983,128,0,208076:0:0:0:0:
64,192,208030,128,0,208217:0:0:0:0:
192,192,208030,1,0,0:0:0:0:
109,192,208030,1,0,0:0:0:0:
256,192,208311,128,0,208498:0:0:0:0:
192,192,208311,1,0,0:0:0:0:
448,192,208311,1,0,0:0:0:0:
109,192,208311,1,0,0:0:0:0:
109,192,208592,1,0,0:0:0:0:
402,192,208592,128,0,208780:0:0:0:0:
192,192,208592,1,0,0:0:0:0:
448,192,208592,1,0,0:0:0:0:
448,192,208780,1,0,0:0:0:0:
256,192,208842,1,0,0:0:0:0:
192,192,208905,1,0,0:0:0:0:
329,192,208967,1,0,0:0:0:0:
109,192,208967,1,0,0:0:0:0:
109,192,209061,1,0,0:0:0:0:
329,192,209061,1,0,0:0:0:0:
402,192,209123,1,0,0:0:0:0:
475,192,209186,1,0,0:0:0:0:
256,192,209248,1,0,0:0:0:0:
109,192,209248,1,0,0:0:0:0:
329,192,209342,1,0,0:0:0:0:
402,192,209405,1,0,0:0:0:0:
256,192,209436,1,0,0:0:0:0:
109,192,209436,1,0,0:0:0:0:
448,192,209483,1,0,0:0:0:0:
192,192,209530,1,0,0:0:0:0:
64,192,209530,128,0,209717:0:0:0:0:
329,192,209530,1,0,0:0:0:0:
402,192,209530,1,0,0:0:0:0:
109,192,209811,128,0,209998:0:0:0:0:
192,192,209811,1,0,0:0:0:0:
329,192,209811,1,0,0:0:0:0:
402,192,209811,1,0,0:0:0:0:
192,192,210092,1,0,0:0:0:0:
256,192,210092,128,0,210280:0:0:0:0:
36,192,210092,1,0,0:0:0:0:
402,192,210092,1,0,0:0:0:0:
36,192,210280,128,0,210373:0:0:0:0:
109,192,210326,128,0,210420:0:0:0:0:
182,192,210373,128,0,210467:0:0:0:0:
256,192,210420,128,0,210514:0:0:0:0:
329,192,210467,1,0,0:0:0:0:
402,192,210514,1,0,0:0:0:0:
36,192,210561,128,0,210655:0:0:0:0:
109,192,210608,128,0,210701:0:0:0:0:
182,192,210655,128,0,210748:0:0:0:0:
256,192,210701,128,0,210795:0:0:0:0:
329,192,210748,1,0,0:0:0:0:
402,192,210795,1,0,0:0:0:0:
36,192,210842,128,0,210936:0:0:0:0:
109,192,210889,128,0,210983:0:0:0:0:
182,192,210936,128,0,211030:0:0:0:0:
256,192,210983,128,0,211076:0:0:0:0:
402,192,211030,128,0,211217:0:0:0:0:
475,192,211030,1,0,0:0:0:0:
329,192,211030,1,0,0:0:0:0:
36,192,211030,1,0,0:0:0:0:
256,192,211311,128,0,211498:0:0:0:0:
320,192,211311,1,0,0:0:0:0:
64,192,211311,1,0,0:0:0:0:
109,192,211311,1,0,0:0:0:0:
109,192,211592,128,0,211780:0:0:0:0:
64,192,211592,1,0,0:0:0:0:
475,192,211592,1,0,0:0:0:0:
402,192,211592,1,0,0:0:0:0:
256,192,211780,1,0,0:0:0:0:
256,192,211873,1,0,0:0:0:0:
256,192,211967,1,0,0:0:0:0:
256,192,212155,1,0,0:0:0:0:
256,192,212342,1,0,0:0:0:0:
329,192,212530,1,0,0:0:0:0:
475,192,212530,1,0,0:0:0:0:
402,192,212530,1,0,0:0:0:0:
36,192,212811,1,0,0:0:0:0:
256,192,212905,1,0,0:0:0:0:
329,192,212905,1,0,0:0:0:0:
402,192,212905,1,0,0:0:0:0:
109,192,213092,1,0,0:0:0:0:
109,192,213186,1,0,0:0:0:0:
402,192,213280,1,0,0:0:0:0:
329,192,213280,1,0,0:0:0:0:
475,192,213280,1,0,0:0:0:0:
36,192,213561,1,0,0:0:0:0:
329,192,213655,1,0,0:0:0:0:
402,192,213655,1,0,0:0:0:0:
256,192,213655,1,0,0:0:0:0:
109,192,213842,1,0,0:0:0:0:
109,192,213936,1,0,0:0:0:0:
329,192,214030,1,0,0:0:0:0:
402,192,214030,1,0,0:0:0:0:
475,192,214030,1,0,0:0:0:0:
36,192,214311,1,0,0:0:0:0:
402,192,214405,1,0,0:0:0:0:
329,192,214405,1,0,0:0:0:0:
256,192,214405,1,0,0:0:0:0:
109,192,214592,1,0,0:0:0:0:
109,192,214686,1,0,0:0:0:0:
320,192,214780,1,0,0:0:0:0:
448,192,214780,1,0,0:0:0:0:
402,192,214780,1,0,0:0:0:0:
256,192,214842,1,0,0:0:0:0:
182,192,214905,1,0,0:0:0:0:
402,192,214967,1,0,0:0:0:0:
448,192,214967,128,0,215092:0:0:0:0:
320,192,215155,128,0,215280:0:0:0:0:
256,192,215155,1,0,0:0:0:0:
192,192,215342,128,0,215467:0:0:0:0:
109,192,215342,1,0,0:0:0:0:
182,192,215530,1,0,0:0:0:0:
36,192,215530,1,0,0:0:0:0:
109,192,215530,1,0,0:0:0:0:
475,192,215811,1,0,0:0:0:0:
256,192,215905,1,0,0:0:0:0:
182,192,215905,1,0,0:0:0:0:
109,192,215905,1,0,0:0:0:0:
402,192,216092,1,0,0:0:0:0:
402,192,216186,1,0,0:0:0:0:
109,192,216280,1,0,0:0:0:0:
182,192,216280,1,0,0:0:0:0:
36,192,216280,1,0,0:0:0:0:
475,192,216561,1,0,0:0:0:0:
182,192,216655,1,0,0:0:0:0:
109,192,216655,1,0,0:0:0:0:
256,192,216655,1,0,0:0:0:0:
402,192,216842,1,0,0:0:0:0:
402,192,216936,1,0,0:0:0:0:
182,192,217030,1,0,0:0:0:0:
109,192,217030,1,0,0:0:0:0:
36,192,217030,1,0,0:0:0:0:
475,192,217311,1,0,0:0:0:0:
109,192,217405,1,0,0:0:0:0:
182,192,217405,1,0,0:0:0:0:
256,192,217405,1,0,0:0:0:0:
402,192,217592,1,0,0:0:0:0:
402,192,217686,1,0,0:0:0:0:
329,192,217780,128,0,217873:0:0:0:0:
192,192,217842,128,0,217967:0:0:0:0:
36,192,217905,128,0,217967:0:0:0:0:
192,192,218061,128,0,218155:0:0:0:0:
320,192,218123,128,0,218248:0:0:0:0:
448,192,218186,128,0,218248:0:0:0:0:
320,192,218342,128,0,218436:0:0:0:0:
192,192,218405,128,0,218530:0:0:0:0:
36,192,218467,128,0,218530:0:0:0:0:
402,192,218530,1,0,0:0:0:0:
448,192,218530,1,0,0:0:0:0:
256,192,218530,1,0,0:0:0:0:
109,192,218530,1,0,0:0:0:0:
448,192,218623,1,0,0:0:0:0:
329,192,218623,1,0,0:0:0:0:
109,192,218717,1,0,0:0:0:0:
256,192,218717,1,0,0:0:0:0:
182,192,218811,1,0,0:0:0:0:
402,192,218811,1,0,0:0:0:0:
256,192,218905,1,0,0:0:0:0:
64,192,218905,1,0,0:0:0:0:
402,192,218998,1,0,0:0:0:0:
329,192,218998,1,0,0:0:0:0:
36,192,219092,1,0,0:0:0:0:
109,192,219139,1,0,0:0:0:0:
192,192,219186,1,0,0:0:0:0:
256,192,219233,1,0,0:0:0:0:
320,192,219280,1,0,0:0:0:0:
402,192,219280,1,0,0:0:0:0:
475,192,219280,1,0,0:0:0:0:
64,192,219373,1,0,0:0:0:0:
109,192,219420,1,0,0:0:0:0:
182,192,219467,1,0,0:0:0:0:
256,192,219514,1,0,0:0:0:0:
402,192,219561,1,0,0:0:0:0:
475,192,219561,1,0,0:0:0:0:
329,192,219561,1,0,0:0:0:0:
109,192,219655,1,0,0:0:0:0:
182,192,219655,1,0,0:0:0:0:
256,192,219748,1,0,0:0:0:0:
320,192,219748,1,0,0:0:0:0:
475,192,219842,1,0,0:0:0:0:
402,192,219889,1,0,0:0:0:0:
320,192,219936,1,0,0:0:0:0:
256,192,219983,1,0,0:0:0:0:
109,192,220030,1,0,0:0:0:0:
64,192,220030,1,0,0:0:0:0:
475,192,220030,1,0,0:0:0:0:
182,192,220123,1,0,0:0:0:0:
329,192,220123,1,0,0:0:0:0:
402,192,220217,1,0,0:0:0:0:
109,192,220217,1,0,0:0:0:0:
475,192,220311,1,0,0:0:0:0:
36,192,220311,1,0,0:0:0:0:
402,192,220405,1,0,0:0:0:0:
329,192,220405,1,0,0:0:0:0:
109,192,220405,1,0,0:0:0:0:
182,192,220498,1,0,0:0:0:0:
256,192,220498,1,0,0:0:0:0:
329,192,220592,1,0,0:0:0:0:
256,192,220639,1,0,0:0:0:0:
192,192,220686,1,0,0:0:0:0:
109,192,220733,1,0,0:0:0:0:
320,192,220780,1,0,0:0:0:0:
402,192,220780,1,0,0:0:0:0:
182,192,220873,1,0,0:0:0:0:
256,192,220920,1,0,0:0:0:0:
320,192,220967,1,0,0:0:0:0:
402,192,221014,1,0,0:0:0:0:
109,192,221061,1,0,0:0:0:0:
192,192,221061,1,0,0:0:0:0:
402,192,221155,1,0,0:0:0:0:
448,192,221155,1,0,0:0:0:0:
109,192,221248,1,0,0:0:0:0:
64,192,221248,1,0,0:0:0:0:
402,192,221342,1,0,0:0:0:0:
320,192,221389,1,0,0:0:0:0:
192,192,221436,1,0,0:0:0:0:
109,192,221483,1,0,0:0:0:0:
256,192,221530,1,0,0:0:0:0:
448,192,221530,1,0,0:0:0:0:
402,192,221623,1,0,0:0:0:0:
329,192,221623,1,0,0:0:0:0:
109,192,221717,1,0,0:0:0:0:
192,192,221764,1,0,0:0:0:0:
320,192,221811,1,0,0:0:0:0:
402,192,221858,1,0,0:0:0:0:
256,192,221905,1,0,0:0:0:0:
64,192,221905,1,0,0:0:0:0:
182,192,221998,1,0,0:0:0:0:
109,192,221998,1,0,0:0:0:0:
475,192,222092,1,0,0:0:0:0:
320,192,222139,1,0,0:0:0:0:
192,192,222186,1,0,0:0:0:0:
64,192,222233,1,0,0:0:0:0:
402,192,222280,1,0,0:0:0:0:
109,192,222280,1,0,0:0:0:0:
182,192,222373,1,0,0:0:0:0:
329,192,222373,1,0,0:0:0:0:
64,192,222467,1,0,0:0:0:0:
192,192,222514,1,0,0:0:0:0:
320,192,222561,1,0,0:0:0:0:
448,192,222608,1,0,0:0:0:0:
402,192,222655,1,0,0:0:0:0:
109,192,222655,1,0,0:0:0:0:
36,192,222748,1,0,0:0:0:0:
182,192,222748,1,0,0:0:0:0:
329,192,222842,1,0,0:0:0:0:
256,192,222889,1,0,0:0:0:0:
192,192,222936,1,0,0:0:0:0:
109,192,222983,1,0,0:0:0:0:
402,192,223030,1,0,0:0:0:0:
475,192,223030,1,0,0:0:0:0:
256,192,223092,1,0,0:0:0:0:
182,192,223092,1,0,0:0:0:0:
329,192,223155,1,0,0:0:0:0:
402,192,223155,1,0,0:0:0:0:
109,192,223217,1,0,0:0:0:0:
182,192,223217,1,0,0:0:0:0:
256,192,223280,1,0,0:0:0:0:
329,192,223280,1,0,0:0:0:0:
36,192,223342,1,0,0:0:0:0:
109,192,223342,1,0,0:0:0:0:
182,192,223405,1,0,0:0:0:0:
256,192,223405,1,0,0:0:0:0:
402,192,223467,1,0,0:0:0:0:
475,192,223467,1,0,0:0:0:0:
109,192,223530,1,0,0:0:0:0:
182,192,223530,1,0,0:0:0:0:
329,192,223592,1,0,0:0:0:0:
402,192,223592,1,0,0:0:0:0:
109,192,223655,1,0,0:0:0:0:
36,192,223655,1,0,0:0:0:0:
256,192,223717,1,0,0:0:0:0:
329,192,223717,1,0,0:0:0:0:
182,192,223780,1,0,0:0:0:0:
475,192,223780,1,0,0:0:0:0:
402,192,223780,1,0,0:0:0:0:
109,192,223780,1,0,0:0:0:0:
36,192,223780,1,0,0:0:0:0:
192,192,223967,1,0,0:0:0:0:
64,192,223967,1,0,0:0:0:0:
256,192,224061,1,0,0:0:0:0:
402,192,224061,1,0,0:0:0:0:
329,192,224155,1,0,0:0:0:0:
64,192,224155,1,0,0:0:0:0:
192,192,224342,1,0,0:0:0:0:
256,192,224342,1,0,0:0:0:0:
109,192,224530,1,0,0:0:0:0:
36,192,224530,1,0,0:0:0:0:
402,192,224530,1,0,0:0:0:0:
475,192,224530,1,0,0:0:0:0:
329,192,224623,1,0,0:0:0:0:
256,192,224717,1,0,0:0:0:0:
182,192,224812,1,0,0:0:0:0:
109,192,224908,1,0,0:0:0:0:
36,192,225006,1,0,0:0:0:0:
329,192,225105,1,0,0:0:0:0:
256,192,225201,1,0,0:0:0:0:
182,192,225302,1,0,0:0:0:0:
109,192,225404,1,0,0:0:0:0:
36,192,225507,1,0,0:0:0:0:
256,192,225611,1,0,0:0:0:0:
182,192,225715,1,0,0:0:0:0:
109,192,225820,1,0,0:0:0:0:
36,192,225926,1,0,0:0:0:0:
182,192,226033,1,0,0:0:0:0:
109,192,226140,1,0,0:0:0:0:
36,192,226248,1,0,0:0:0:0:
109,192,226357,1,0,0:0:0:0:
36,192,226467,1,0,0:0:0:0:
109,192,226577,1,0,0:0:0:0:
182,192,226689,1,0,0:0:0:0:
256,192,226802,1,0,0:0:0:0:
329,192,226917,1,0,0:0:0:0:
402,192,227032,1,0,0:0:0:0:
475,192,227150,1,0,0:0:0:0:
182,192,227268,1,0,0:0:0:0:
256,192,227388,1,0,0:0:0:0:
329,192,227509,1,0,0:0:0:0:
402,192,227633,1,0,0:0:0:0:
475,192,227757,1,0,0:0:0:0:
256,192,227885,1,0,0:0:0:0:
329,192,228013,1,0,0:0:0:0:
402,192,228145,1,0,0:0:0:0:
475,192,228277,1,0,0:0:0:0:
329,192,228413,1,0,0:0:0:0:
402,192,228549,1,0,0:0:0:0:
475,192,228690,1,0,0:0:0:0:
402,192,228832,1,0,0:0:0:0:
475,192,228979,1,0,0:0:0:0:
109,192,229126,1,0,0:0:0:0:
36,192,229279,1,0,0:0:0:0:
182,192,229432,1,0,0:0:0:0:
109,192,229591,1,0,0:0:0:0:
256,192,229751,1,0,0:0:0:0:
182,192,229917,1,0,0:0:0:0:
329,192,230084,1,0,0:0:0:0:
256,192,230258,1,0,0:0:0:0:
402,192,230432,1,0,0:0:0:0:
329,192,230614,1,0,0:0:0:0:
475,192,230797,1,0,0:0:0:0:
402,192,230989,1,0,0:0:0:0:
329,192,231181,1,0,0:0:0:0:
256,192,231385,1,0,0:0:0:0:
182,192,231589,1,0,0:0:0:0:
109,192,231807,1,0,0:0:0:0:
36,192,232026,1,0,0:0:0:0:
109,192,232264,1,0,0:0:0:0:
182,192,232518,1,0,0:0:0:0:
256,192,232785,1,0,0:0:0:0:
329,192,233073,1,0,0:0:0:0:
256,192,233385,1,0,0:0:0:0:
329,192,233718,1,0,0:0:0:0:
402,192,234093,1,0,0:0:0:0:
475,192,234527,128,0,234878:0:0:0:0:
475,192,234995,128,0,235347:0:0:0:0:
475,192,235464,128,0,235816:0:0:0:0:
475,192,235933,128,0,236284:0:0:0:0:
475,192,236402,128,0,236753:0:0:0:0:
475,192,236870,128,0,237222:0:0:0:0:
475,192,237339,128,0,237691:0:0:0:0:
475,192,237808,128,0,238159:0:0:0:0:
475,192,238277,128,0,238628:0:0:0:0:
256,192,238277,1,0,0:0:0:0:
256,192,238628,1,0,0:0:0:0:
475,192,238745,128,0,239136:0:0:0:0:
256,192,238980,1,0,0:0:0:0:
475,192,239214,128,0,239605:0:0:0:0:
256,192,239214,1,0,0:0:0:0:
256,192,239566,1,0,0:0:0:0:
475,192,239683,128,0,240073:0:0:0:0:
256,192,239917,1,0,0:0:0:0:
475,192,240152,128,0,240542:0:0:0:0:
256,192,240152,1,0,0:0:0:0:
256,192,240386,1,0,0:0:0:0:
256,192,240503,1,0,0:0:0:0:
475,192,240620,128,0,241011:0:0:0:0:
256,192,240737,1,0,0:0:0:0:
256,192,240855,1,0,0:0:0:0:
475,192,241089,128,0,241480:0:0:0:0:
256,192,241089,1,0,0:0:0:0:
475,192,241558,128,0,241948:0:0:0:0:
256,192,241558,1,0,0:0:0:0:
256,192,241792,1,0,0:0:0:0:
475,192,242027,128,0,242417:0:0:0:0:
256,192,242027,1,0,0:0:0:0:
256,192,242261,1,0,0:0:0:0:
256,192,242378,1,0,0:0:0:0:
475,192,242495,128,0,242886:0:0:0:0:
256,192,242612,1,0,0:0:0:0:
256,192,242730,1,0,0:0:0:0:
475,192,242964,128,0,243355:0:0:0:0:
256,192,242964,1,0,0:0:0:0:
256,192,243198,1,0,0:0:0:0:
256,192,243316,1,0,0:0:0:0:
475,192,243433,128,0,243823:0:0:0:0:
256,192,243550,1,0,0:0:0:0:
256,192,243667,1,0,0:0:0:0:
475,192,243902,128,0,244292:0:0:0:0:
256,192,243902,1,0,0:0:0:0:
256,192,244136,1,0,0:0:0:0:
256,192,244253,1,0,0:0:0:0:
475,192,244370,128,0,244761:0:0:0:0:
256,192,244487,1,0,0:0:0:0:
256,192,244605,1,0,0:0:0:0:
475,192,244839,128,0,245230:0:0:0:0:
256,192,244839,1,0,0:0:0:0:
256,192,245073,1,0,0:0:0:0:
475,192,245308,128,0,245698:0:0:0:0:
256,192,245308,1,0,0:0:0:0:
256,192,245542,1,0,0:0:0:0:
182,192,245777,128,0,246050:0:0:0:0:
109,192,245777,128,0,246050:0:0:0:0:
36,192,245777,128,0,246050:0:0:0:0:
402,192,245777,1,0,0:0:0:0:
402,192,246011,1,0,0:0:0:0:
182,192,246128,128,0,246402:0:0:0:0:
109,192,246128,128,0,246402:0:0:0:0:
36,192,246128,128,0,246402:0:0:0:0:
402,192,246128,1,0,0:0:0:0:
402,192,246362,1,0,0:0:0:0:
182,192,246480,128,0,246636:0:0:0:0:
109,192,246480,128,0,246636:0:0:0:0:
36,192,246480,128,0,246636:0:0:0:0:
402,192,246480,1,0,0:0:0:0:
182,192,246714,128,0,246987:0:0:0:0:
36,192,246714,128,0,246987:0:0:0:0:
109,192,246714,128,0,246987:0:0:0:0:
402,192,246714,1,0,0:0:0:0:
402,192,246948,1,0,0:0:0:0:
109,192,247066,128,0,247339:0:0:0:0:
182,192,247066,128,0,247339:0:0:0:0:
36,192,247066,128,0,247339:0:0:0:0:
402,192,247066,1,0,0:0:0:0:
402,192,247300,1,0,0:0:0:0:
36,192,247417,128,0,247573:0:0:0:0:
109,192,247417,128,0,247573:0:0:0:0:
182,192,247417,128,0,247573:0:0:0:0:
402,192,247417,1,0,0:0:0:0:
109,192,247652,128,0,247925:0:0:0:0:
36,192,247652,128,0,247925:0:0:0:0:
182,192,247652,128,0,247925:0:0:0:0:
402,192,247652,1,0,0:0:0:0:
402,192,247886,1,0,0:0:0:0:
36,192,248003,128,0,248277:0:0:0:0:
182,192,248003,128,0,248277:0:0:0:0:
109,192,248003,128,0,248277:0:0:0:0:
402,192,248003,1,0,0:0:0:0:
402,192,248237,1,0,0:0:0:0:
182,192,248355,128,0,248511:0:0:0:0:
109,192,248355,128,0,248511:0:0:0:0:
36,192,248355,128,0,248511:0:0:0:0:
402,192,248355,1,0,0:0:0:0:
182,192,248589,128,0,248862:0:0:0:0:
36,192,248589,128,0,248862:0:0:0:0:
109,192,248589,128,0,248862:0:0:0:0:
402,192,248589,1,0,0:0:0:0:
402,192,248823,1,0,0:0:0:0:
109,192,248941,128,0,249214:0:0:0:0:
182,192,248941,128,0,249214:0:0:0:0:
36,192,248941,128,0,249214:0:0:0:0:
402,192,248941,1,0,0:0:0:0:
402,192,249175,1,0,0:0:0:0:
36,192,249292,128,0,249448:0:0:0:0:
109,192,249292,128,0,249448:0:0:0:0:
182,192,249292,128,0,249448:0:0:0:0:
402,192,249292,1,0,0:0:0:0:
402,192,249527,1,0,0:0:0:0:
329,192,249527,1,0,0:0:0:0:
256,192,249527,1,0,0:0:0:0:
256,192,249644,1,0,0:0:0:0:
329,192,249644,1,0,0:0:0:0:
402,192,249644,1,0,0:0:0:0:
256,192,249761,1,0,0:0:0:0:
329,192,249761,1,0,0:0:0:0:
402,192,249761,1,0,0:0:0:0:
256,192,249878,1,0,0:0:0:0:
329,192,249878,1,0,0:0:0:0:
402,192,249878,1,0,0:0:0:0:
182,192,249995,1,0,0:0:0:0:
109,192,249995,1,0,0:0:0:0:
36,192,249995,1,0,0:0:0:0:
36,192,250112,1,0,0:0:0:0:
109,192,250112,1,0,0:0:0:0:
182,192,250112,1,0,0:0:0:0:
36,192,250230,1,0,0:0:0:0:
109,192,250230,1,0,0:0:0:0:
182,192,250230,1,0,0:0:0:0:
36,192,250347,1,0,0:0:0:0:
109,192,250347,1,0,0:0:0:0:
182,192,250347,1,0,0:0:0:0:
329,192,250464,1,0,0:0:0:0:
402,192,250464,1,0,0:0:0:0:
475,192,250464,1,0,0:0:0:0:
329,192,250581,1,0,0:0:0:0:
402,192,250581,1,0,0:0:0:0:
475,192,250581,1,0,0:0:0:0:
329,192,250698,1,0,0:0:0:0:
402,192,250698,1,0,0:0:0:0:
475,192,250698,1,0,0:0:0:0:
329,192,250816,1,0,0:0:0:0:
402,192,250816,1,0,0:0:0:0:
475,192,250816,1,0,0:0:0:0:
256,192,250933,1,0,0:0:0:0:
182,192,250933,1,0,0:0:0:0:
109,192,250933,1,0,0:0:0:0:
109,192,251050,1,0,0:0:0:0:
182,192,251050,1,0,0:0:0:0:
256,192,251050,1,0,0:0:0:0:
109,192,251167,1,0,0:0:0:0:
182,192,251167,1,0,0:0:0:0:
256,192,251167,1,0,0:0:0:0:
109,192,251284,1,0,0:0:0:0:
182,192,251284,1,0,0:0:0:0:
256,192,251284,1,0,0:0:0:0:
182,192,251402,1,0,0:0:0:0:
109,192,251402,1,0,0:0:0:0:
36,192,251402,1,0,0:0:0:0:
329,192,251460,1,0,0:0:0:0:
402,192,251460,1,0,0:0:0:0:
475,192,251460,1,0,0:0:0:0:
182,192,251519,1,0,0:0:0:0:
109,192,251519,1,0,0:0:0:0:
36,192,251519,1,0,0:0:0:0:
329,192,251577,1,0,0:0:0:0:
402,192,251577,1,0,0:0:0:0:
475,192,251577,1,0,0:0:0:0:
182,192,251636,1,0,0:0:0:0:
109,192,251636,1,0,0:0:0:0:
36,192,251636,1,0,0:0:0:0:
402,192,251694,1,0,0:0:0:0:
475,192,251694,1,0,0:0:0:0:
329,192,251694,1,0,0:0:0:0:
182,192,251753,1,0,0:0:0:0:
109,192,251753,1,0,0:0:0:0:
36,192,251753,1,0,0:0:0:0:
329,192,251812,1,0,0:0:0:0:
402,192,251812,1,0,0:0:0:0:
475,192,251812,1,0,0:0:0:0:
182,192,251870,1,0,0:0:0:0:
109,192,251870,1,0,0:0:0:0:
36,192,251870,1,0,0:0:0:0:
329,192,251929,1,0,0:0:0:0:
402,192,251929,1,0,0:0:0:0:
475,192,251929,1,0,0:0:0:0:
182,192,251987,1,0,0:0:0:0:
109,192,251987,1,0,0:0:0:0:
36,192,251987,1,0,0:0:0:0:
329,192,252046,1,0,0:0:0:0:
402,192,252046,1,0,0:0:0:0:
475,192,252046,1,0,0:0:0:0:
182,192,252105,1,0,0:0:0:0:
109,192,252105,1,0,0:0:0:0:
36,192,252105,1,0,0:0:0:0:
329,192,252163,1,0,0:0:0:0:
402,192,252163,1,0,0:0:0:0:
475,192,252163,1,0,0:0:0:0:
182,192,252222,1,0,0:0:0:0:
109,192,252222,1,0,0:0:0:0:
36,192,252222,1,0,0:0:0:0:
329,192,252280,1,0,0:0:0:0:
402,192,252280,1,0,0:0:0:0:
475,192,252280,1,0,0:0:0:0:
182,192,252339,1,0,0:0:0:0:
109,192,252339,1,0,0:0:0:0:
36,192,252339,128,0,252691:0:0:0:0:
402,192,252573,1,0,0:0:0:0:
329,192,252632,1,0,0:0:0:0:
256,192,252691,1,0,0:0:0:0:
182,192,252749,1,0,0:0:0:0:
36,192,252808,128,0,253159:0:0:0:0:
109,192,252808,1,0,0:0:0:0:
402,192,252866,1,0,0:0:0:0:
329,192,252925,1,0,0:0:0:0:
256,192,252984,1,0,0:0:0:0:
475,192,253042,128,0,253159:0:0:0:0:
182,192,253042,1,0,0:0:0:0:
402,192,253277,1,0,0:0:0:0:
475,192,253277,1,0,0:0:0:0:
109,192,253277,1,0,0:0:0:0:
36,192,253277,1,0,0:0:0:0:
182,192,253335,1,0,0:0:0:0:
256,192,253394,1,0,0:0:0:0:
329,192,253394,1,0,0:0:0:0:
109,192,253394,1,0,0:0:0:0:
475,192,253394,1,0,0:0:0:0:
402,192,253452,1,0,0:0:0:0:
475,192,253511,1,0,0:0:0:0:
36,192,253511,1,0,0:0:0:0:
256,192,253511,1,0,0:0:0:0:
182,192,253511,1,0,0:0:0:0:
329,192,253569,1,0,0:0:0:0:
402,192,253628,1,0,0:0:0:0:
182,192,253628,1,0,0:0:0:0:
475,192,253628,1,0,0:0:0:0:
109,192,253628,1,0,0:0:0:0:
256,192,253687,1,0,0:0:0:0:
402,192,253745,1,0,0:0:0:0:
36,192,253745,1,0,0:0:0:0:
329,192,253745,1,0,0:0:0:0:
475,192,253745,1,0,0:0:0:0:
329,192,253862,1,0,0:0:0:0:
109,192,253862,1,0,0:0:0:0:
475,192,253862,1,0,0:0:0:0:
36,192,253862,1,0,0:0:0:0:
256,192,253921,1,0,0:0:0:0:
182,192,253980,1,0,0:0:0:0:
109,192,253980,1,0,0:0:0:0:
402,192,253980,1,0,0:0:0:0:
36,192,253980,1,0,0:0:0:0:
475,192,254038,1,0,0:0:0:0:
329,192,254038,1,0,0:0:0:0:
256,192,254097,1,0,0:0:0:0:
182,192,254097,1,0,0:0:0:0:
36,192,254097,1,0,0:0:0:0:
109,192,254097,1,0,0:0:0:0:
402,192,254155,1,0,0:0:0:0:
182,192,254214,1,0,0:0:0:0:
109,192,254214,1,0,0:0:0:0:
36,192,254214,1,0,0:0:0:0:
475,192,254214,1,0,0:0:0:0:
329,192,254331,1,0,0:0:0:0:
475,192,254331,1,0,0:0:0:0:
109,192,254331,1,0,0:0:0:0:
36,192,254331,1,0,0:0:0:0:
256,192,254448,1,0,0:0:0:0:
182,192,254448,1,0,0:0:0:0:
36,192,254448,1,0,0:0:0:0:
402,192,254448,1,0,0:0:0:0:
109,192,254566,1,0,0:0:0:0:
329,192,254566,1,0,0:0:0:0:
402,192,254566,1,0,0:0:0:0:
182,192,254566,1,0,0:0:0:0:
256,192,254683,1,0,0:0:0:0:
329,192,254683,1,0,0:0:0:0:
475,192,254683,1,0,0:0:0:0:
402,192,254683,1,0,0:0:0:0:
109,192,254800,1,0,0:0:0:0:
36,192,254800,1,0,0:0:0:0:
329,192,254800,1,0,0:0:0:0:
475,192,254800,1,0,0:0:0:0:
256,192,254917,1,0,0:0:0:0:
182,192,254917,1,0,0:0:0:0:
402,192,254917,1,0,0:0:0:0:
109,192,254917,1,0,0:0:0:0:
36,192,255034,1,0,0:0:0:0:
109,192,255034,1,0,0:0:0:0:
182,192,255034,1,0,0:0:0:0:
329,192,255034,1,0,0:0:0:0:
475,192,255034,1,0,0:0:0:0:
256,192,255152,1,0,0:0:0:0:
329,192,255152,1,0,0:0:0:0:
402,192,255152,1,0,0:0:0:0:
36,192,255152,1,0,0:0:0:0:
182,192,255210,1,0,0:0:0:0:
109,192,255269,1,0,0:0:0:0:
36,192,255269,1,0,0:0:0:0:
475,192,255269,1,0,0:0:0:0:
256,192,255269,1,0,0:0:0:0:
402,192,255269,1,0,0:0:0:0:
182,192,255327,1,0,0:0:0:0:
329,192,255386,1,0,0:0:0:0:
475,192,255386,1,0,0:0:0:0:
36,192,255386,1,0,0:0:0:0:
109,192,255444,1,0,0:0:0:0:
36,192,255503,1,0,0:0:0:0:
475,192,255503,1,0,0:0:0:0:
182,192,255503,1,0,0:0:0:0:
402,192,255503,1,0,0:0:0:0:
256,192,255562,1,0,0:0:0:0:
109,192,255620,1,0,0:0:0:0:
402,192,255620,1,0,0:0:0:0:
475,192,255620,1,0,0:0:0:0:
36,192,255620,1,0,0:0:0:0:
402,192,255737,1,0,0:0:0:0:
256,192,255737,1,0,0:0:0:0:
182,192,255737,1,0,0:0:0:0:
109,192,255737,1,0,0:0:0:0:
329,192,255796,1,0,0:0:0:0:
36,192,255855,1,0,0:0:0:0:
475,192,255855,1,0,0:0:0:0:
182,192,255855,1,0,0:0:0:0:
256,192,255855,1,0,0:0:0:0:
329,192,255913,1,0,0:0:0:0:
256,192,255972,1,0,0:0:0:0:
182,192,255972,1,0,0:0:0:0:
109,192,255972,1,0,0:0:0:0:
475,192,255972,1,0,0:0:0:0:
402,192,256089,1,0,0:0:0:0:
329,192,256089,1,0,0:0:0:0:
182,192,256089,1,0,0:0:0:0:
36,192,256089,1,0,0:0:0:0:
256,192,256206,1,0,0:0:0:0:
329,192,256206,1,0,0:0:0:0:
402,192,256206,1,0,0:0:0:0:
475,192,256206,1,0,0:0:0:0:
109,192,256206,1,0,0:0:0:0:
36,192,256323,1,0,0:0:0:0:
109,192,256323,1,0,0:0:0:0:
182,192,256323,1,0,0:0:0:0:
256,192,256323,1,0,0:0:0:0:
402,192,256323,1,0,0:0:0:0:
329,192,256441,1,0,0:0:0:0:
475,192,256441,1,0,0:0:0:0:
182,192,256441,1,0,0:0:0:0:
36,192,256441,1,0,0:0:0:0:
256,192,256441,1,0,0:0:0:0:
109,192,256558,128,0,256734:0:0:0:0:
402,192,256558,128,0,256734:0:0:0:0:
256,192,256558,128,0,256734:0:0:0:0:
329,192,256792,128,0,256968:0:0:0:0:
182,192,256792,128,0,256968:0:0:0:0:
36,192,256792,128,0,256968:0:0:0:0:
475,192,256792,128,0,256968:0:0:0:0:
329,192,257027,1,0,0:0:0:0:
402,192,257027,1,0,0:0:0:0:
109,192,257027,1,0,0:0:0:0:
36,192,257027,1,0,0:0:0:0:
182,192,257085,1,0,0:0:0:0:
36,192,257144,1,0,0:0:0:0:
256,192,257144,1,0,0:0:0:0:
402,192,257144,1,0,0:0:0:0:
475,192,257144,1,0,0:0:0:0:
329,192,257202,1,0,0:0:0:0:
402,192,257261,1,0,0:0:0:0:
475,192,257261,1,0,0:0:0:0:
109,192,257261,1,0,0:0:0:0:
36,192,257261,1,0,0:0:0:0:
182,192,257319,1,0,0:0:0:0:
329,192,257378,1,0,0:0:0:0:
475,192,257378,1,0,0:0:0:0:
402,192,257378,1,0,0:0:0:0:
256,192,257378,1,0,0:0:0:0:
182,192,257437,1,0,0:0:0:0:
109,192,257495,1,0,0:0:0:0:
402,192,257495,1,0,0:0:0:0:
36,192,257495,1,0,0:0:0:0:
329,192,257495,1,0,0:0:0:0:
256,192,257612,1,0,0:0:0:0:
182,192,257612,1,0,0:0:0:0:
109,192,257612,1,0,0:0:0:0:
36,192,257612,1,0,0:0:0:0:
329,192,257671,1,0,0:0:0:0:
402,192,257730,1,0,0:0:0:0:
475,192,257730,1,0,0:0:0:0:
36,192,257730,1,0,0:0:0:0:
182,192,257730,1,0,0:0:0:0:
256,192,257788,1,0,0:0:0:0:
182,192,257847,1,0,0:0:0:0:
109,192,257847,1,0,0:0:0:0:
329,192,257847,1,0,0:0:0:0:
475,192,257847,1,0,0:0:0:0:
329,192,257964,1,0,0:0:0:0:
402,192,257964,1,0,0:0:0:0:
475,192,257964,1,0,0:0:0:0:
36,192,257964,1,0,0:0:0:0:
329,192,258081,1,0,0:0:0:0:
182,192,258081,1,0,0:0:0:0:
109,192,258081,1,0,0:0:0:0:
256,192,258081,1,0,0:0:0:0:
36,192,258198,1,0,0:0:0:0:
329,192,258198,1,0,0:0:0:0:
109,192,258198,1,0,0:0:0:0:
475,192,258198,1,0,0:0:0:0:
36,192,258316,1,0,0:0:0:0:
402,192,258316,1,0,0:0:0:0:
329,192,258316,1,0,0:0:0:0:
182,192,258316,1,0,0:0:0:0:
475,192,258433,1,0,0:0:0:0:
402,192,258433,1,0,0:0:0:0:
109,192,258433,1,0,0:0:0:0:
256,192,258433,1,0,0:0:0:0:
182,192,258550,1,0,0:0:0:0:
329,192,258550,1,0,0:0:0:0:
36,192,258550,1,0,0:0:0:0:
475,192,258550,1,0,0:0:0:0:
109,192,258667,1,0,0:0:0:0:
182,192,258667,1,0,0:0:0:0:
256,192,258667,1,0,0:0:0:0:
402,192,258667,1,0,0:0:0:0:
402,192,258784,1,0,0:0:0:0:
329,192,258784,1,0,0:0:0:0:
109,192,258784,1,0,0:0:0:0:
36,192,258784,1,0,0:0:0:0:
182,192,258902,1,0,0:0:0:0:
475,192,258902,1,0,0:0:0:0:
36,192,258902,1,0,0:0:0:0:
256,192,258902,1,0,0:0:0:0:
329,192,258960,1,0,0:0:0:0:
402,192,259019,1,0,0:0:0:0:
109,192,259019,1,0,0:0:0:0:
475,192,259019,1,0,0:0:0:0:
36,192,259019,1,0,0:0:0:0:
182,192,259077,1,0,0:0:0:0:
402,192,259136,1,0,0:0:0:0:
475,192,259136,1,0,0:0:0:0:
256,192,259136,1,0,0:0:0:0:
36,192,259136,1,0,0:0:0:0:
329,192,259194,1,0,0:0:0:0:
182,192,259253,1,0,0:0:0:0:
402,192,259253,1,0,0:0:0:0:
475,192,259253,1,0,0:0:0:0:
109,192,259253,1,0,0:0:0:0:
256,192,259312,1,0,0:0:0:0:
109,192,259370,1,0,0:0:0:0:
36,192,259370,1,0,0:0:0:0:
329,192,259370,1,0,0:0:0:0:
475,192,259370,1,0,0:0:0:0:
256,192,259487,1,0,0:0:0:0:
182,192,259487,1,0,0:0:0:0:
36,192,259487,1,0,0:0:0:0:
109,192,259487,1,0,0:0:0:0:
475,192,259487,1,0,0:0:0:0:
329,192,259546,1,0,0:0:0:0:
402,192,259605,1,0,0:0:0:0:
475,192,259605,1,0,0:0:0:0:
109,192,259605,1,0,0:0:0:0:
36,192,259605,1,0,0:0:0:0:
256,192,259605,1,0,0:0:0:0:
182,192,259663,1,0,0:0:0:0:
256,192,259722,1,0,0:0:0:0:
329,192,259722,1,0,0:0:0:0:
402,192,259722,1,0,0:0:0:0:
475,192,259722,1,0,0:0:0:0:
36,192,259780,1,0,0:0:0:0:
109,192,259839,1,0,0:0:0:0:
182,192,259839,1,0,0:0:0:0:
256,192,259839,1,0,0:0:0:0:
329,192,259839,1,0,0:0:0:0:
402,192,259839,1,0,0:0:0:0:
329,192,259956,1,0,0:0:0:0:
402,192,259956,1,0,0:0:0:0:
475,192,259956,1,0,0:0:0:0:
256,192,259956,1,0,0:0:0:0:
182,192,259956,1,0,0:0:0:0:
402,192,260073,1,0,0:0:0:0:
329,192,260073,1,0,0:0:0:0:
256,192,260073,1,0,0:0:0:0:
182,192,260073,1,0,0:0:0:0:
109,192,260073,1,0,0:0:0:0:
329,192,260191,1,0,0:0:0:0:
256,192,260191,1,0,0:0:0:0:
182,192,260191,1,0,0:0:0:0:
109,192,260191,1,0,0:0:0:0:
36,192,260191,1,0,0:0:0:0:
36,192,260308,128,0,260484:0:0:0:0:
182,192,260308,128,0,260484:0:0:0:0:
329,192,260308,128,0,260484:0:0:0:0:
475,192,260308,128,0,260484:0:0:0:0:
36,192,260542,128,0,260718:0:0:0:0:
182,192,260542,128,0,260718:0:0:0:0:
329,192,260542,128,0,260718:0:0:0:0:
475,192,260542,128,0,260718:0:0:0:0:
329,192,260777,1,0,0:0:0:0:
475,192,260777,1,0,0:0:0:0:
109,192,260777,1,0,0:0:0:0:
36,192,260777,1,0,0:0:0:0:
182,192,260835,1,0,0:0:0:0:
256,192,260894,1,0,0:0:0:0:
329,192,260894,1,0,0:0:0:0:
36,192,260894,1,0,0:0:0:0:
475,192,260894,1,0,0:0:0:0:
182,192,260952,1,0,0:0:0:0:
402,192,261011,1,0,0:0:0:0:
109,192,261011,1,0,0:0:0:0:
329,192,261011,1,0,0:0:0:0:
36,192,261011,1,0,0:0:0:0:
256,192,261069,1,0,0:0:0:0:
329,192,261128,1,0,0:0:0:0:
109,192,261128,1,0,0:0:0:0:
475,192,261128,1,0,0:0:0:0:
182,192,261128,1,0,0:0:0:0:
402,192,261187,1,0,0:0:0:0:
36,192,261245,1,0,0:0:0:0:
256,192,261245,1,0,0:0:0:0:
329,192,261245,1,0,0:0:0:0:
182,192,261245,1,0,0:0:0:0:
182,192,261362,1,0,0:0:0:0:
36,192,261362,1,0,0:0:0:0:
402,192,261362,1,0,0:0:0:0:
475,192,261362,1,0,0:0:0:0:
256,192,261421,1,0,0:0:0:0:
329,192,261480,1,0,0:0:0:0:
402,192,261480,1,0,0:0:0:0:
475,192,261480,1,0,0:0:0:0:
109,192,261480,1,0,0:0:0:0:
256,192,261538,1,0,0:0:0:0:
182,192,261597,1,0,0:0:0:0:
329,192,261597,1,0,0:0:0:0:
36,192,261597,1,0,0:0:0:0:
402,192,261597,1,0,0:0:0:0:
109,192,261714,1,0,0:0:0:0:
402,192,261714,1,0,0:0:0:0:
475,192,261714,1,0,0:0:0:0:
182,192,261714,1,0,0:0:0:0:
329,192,261831,1,0,0:0:0:0:
402,192,261831,1,0,0:0:0:0:
256,192,261831,1,0,0:0:0:0:
36,192,261831,1,0,0:0:0:0:
329,192,261948,1,0,0:0:0:0:
182,192,261948,1,0,0:0:0:0:
109,192,261948,1,0,0:0:0:0:
36,192,261948,1,0,0:0:0:0:
182,192,262066,1,0,0:0:0:0:
256,192,262066,1,0,0:0:0:0:
329,192,262066,1,0,0:0:0:0:
475,192,262066,1,0,0:0:0:0:
402,192,262183,1,0,0:0:0:0:
256,192,262183,1,0,0:0:0:0:
475,192,262183,1,0,0:0:0:0:
182,192,262183,1,0,0:0:0:0:
36,192,262300,1,0,0:0:0:0:
109,192,262300,1,0,0:0:0:0:
402,192,262300,1,0,0:0:0:0:
475,192,262300,1,0,0:0:0:0:
256,192,262417,1,0,0:0:0:0:
109,192,262417,1,0,0:0:0:0:
329,192,262417,1,0,0:0:0:0:
402,192,262417,1,0,0:0:0:0:
182,192,262534,1,0,0:0:0:0:
36,192,262534,1,0,0:0:0:0:
329,192,262534,1,0,0:0:0:0:
475,192,262534,1,0,0:0:0:0:
402,192,262652,1,0,0:0:0:0:
109,192,262652,1,0,0:0:0:0:
36,192,262652,1,0,0:0:0:0:
475,192,262652,1,0,0:0:0:0:
256,192,262710,1,0,0:0:0:0:
329,192,262769,1,0,0:0:0:0:
475,192,262769,1,0,0:0:0:0:
182,192,262769,1,0,0:0:0:0:
36,192,262769,1,0,0:0:0:0:
109,192,262827,1,0,0:0:0:0:
256,192,262886,1,0,0:0:0:0:
329,192,262886,1,0,0:0:0:0:
402,192,262886,1,0,0:0:0:0:
475,192,262886,1,0,0:0:0:0:
182,192,262944,1,0,0:0:0:0:
109,192,263003,1,0,0:0:0:0:
36,192,263003,1,0,0:0:0:0:
402,192,263003,1,0,0:0:0:0:
475,192,263003,1,0,0:0:0:0:
329,192,263062,1,0,0:0:0:0:
256,192,263120,1,0,0:0:0:0:
182,192,263120,1,0,0:0:0:0:
109,192,263120,1,0,0:0:0:0:
36,192,263120,1,0,0:0:0:0:
329,192,263237,1,0,0:0:0:0:
475,192,263237,1,0,0:0:0:0:
109,192,263237,1,0,0:0:0:0:
36,192,263237,1,0,0:0:0:0:
256,192,263296,1,0,0:0:0:0:
182,192,263355,1,0,0:0:0:0:
36,192,263355,1,0,0:0:0:0:
402,192,263355,1,0,0:0:0:0:
475,192,263355,1,0,0:0:0:0:
109,192,263413,1,0,0:0:0:0:
329,192,263472,1,0,0:0:0:0:
256,192,263472,1,0,0:0:0:0:
475,192,263472,1,0,0:0:0:0:
402,192,263472,1,0,0:0:0:0:
182,192,263589,1,0,0:0:0:0:
36,192,263589,1,0,0:0:0:0:
402,192,263589,1,0,0:0:0:0:
256,192,263589,1,0,0:0:0:0:
475,192,263706,1,0,0:0:0:0:
329,192,263706,1,0,0:0:0:0:
109,192,263706,1,0,0:0:0:0:
36,192,263706,1,0,0:0:0:0:
402,192,263823,1,0,0:0:0:0:
182,192,263823,1,0,0:0:0:0:
109,192,263823,1,0,0:0:0:0:
475,192,263823,1,0,0:0:0:0:
182,192,263941,1,0,0:0:0:0:
402,192,263941,1,0,0:0:0:0:
475,192,263941,1,0,0:0:0:0:
36,192,263941,1,0,0:0:0:0:
475,192,264058,128,0,264234:0:0:0:0:
329,192,264058,128,0,264234:0:0:0:0:
182,192,264058,128,0,264234:0:0:0:0:
109,192,264058,128,0,264234:0:0:0:0:
402,192,264292,128,0,264468:0:0:0:0:
475,192,264292,128,0,264468:0:0:0:0:
182,192,264292,128,0,264468:0:0:0:0:
36,192,264292,128,0,264468:0:0:0:0:
182,192,264527,1,0,0:0:0:0:
256,192,264527,1,0,0:0:0:0:
329,192,264527,1,0,0:0:0:0:
402,192,264527,1,0,0:0:0:0:
475,192,264527,1,0,0:0:0:0:
109,192,264527,1,0,0:0:0:0:
475,192,264644,1,0,0:0:0:0:
402,192,264644,1,0,0:0:0:0:
329,192,264644,1,0,0:0:0:0:
256,192,264644,1,0,0:0:0:0:
182,192,264644,1,0,0:0:0:0:
109,192,264644,1,0,0:0:0:0:
36,192,264761,1,0,0:0:0:0:
182,192,264878,1,0,0:0:0:0:
256,192,264878,1,0,0:0:0:0:
329,192,264878,1,0,0:0:0:0:
402,192,264878,1,0,0:0:0:0:
475,192,264878,1,0,0:0:0:0:
109,192,264878,1,0,0:0:0:0:
36,192,264995,1,0,0:0:0:0:
182,192,265112,1,0,0:0:0:0:
256,192,265112,1,0,0:0:0:0:
329,192,265112,1,0,0:0:0:0:
402,192,265112,1,0,0:0:0:0:
475,192,265112,1,0,0:0:0:0:
109,192,265112,1,0,0:0:0:0:
36,192,265230,1,0,0:0:0:0:
182,192,265347,1,0,0:0:0:0:
256,192,265347,1,0,0:0:0:0:
329,192,265347,1,0,0:0:0:0:
402,192,265347,1,0,0:0:0:0:
475,192,265347,1,0,0:0:0:0:
109,192,265347,1,0,0:0:0:0:
36,192,265464,1,0,0:0:0:0:
182,192,265581,1,0,0:0:0:0:
256,192,265581,1,0,0:0:0:0:
329,192,265581,1,0,0:0:0:0:
402,192,265581,1,0,0:0:0:0:
475,192,265581,1,0,0:0:0:0:
109,192,265581,1,0,0:0:0:0:
36,192,265698,1,0,0:0:0:0:
182,192,265816,1,0,0:0:0:0:
256,192,265816,1,0,0:0:0:0:
329,192,265816,1,0,0:0:0:0:
402,192,265816,1,0,0:0:0:0:
475,192,265816,1,0,0:0:0:0:
109,192,265816,1,0,0:0:0:0:
475,192,265933,1,0,0:0:0:0:
402,192,265933,1,0,0:0:0:0:
329,192,265933,1,0,0:0:0:0:
256,192,265933,1,0,0:0:0:0:
182,192,265933,1,0,0:0:0:0:
109,192,265933,1,0,0:0:0:0:
36,192,266050,1,0,0:0:0:0:
182,192,266167,1,0,0:0:0:0:
256,192,266167,1,0,0:0:0:0:
329,192,266167,1,0,0:0:0:0:
402,192,266167,1,0,0:0:0:0:
475,192,266167,1,0,0:0:0:0:
109,192,266167,1,0,0:0:0:0:
36,192,266284,1,0,0:0:0:0:
329,192,266402,1,0,0:0:0:0:
475,192,266402,1,0,0:0:0:0:
182,192,266402,1,0,0:0:0:0:
182,192,266519,1,0,0:0:0:0:
329,192,266519,1,0,0:0:0:0:
475,192,266519,1,0,0:0:0:0:
182,192,266636,1,0,0:0:0:0:
329,192,266636,1,0,0:0:0:0:
475,192,266636,1,0,0:0:0:0:
402,192,266694,1,0,0:0:0:0:
256,192,266694,1,0,0:0:0:0:
109,192,266694,1,0,0:0:0:0:
182,192,266753,1,0,0:0:0:0:
329,192,266753,1,0,0:0:0:0:
475,192,266753,1,0,0:0:0:0:
109,192,266812,1,0,0:0:0:0:
256,192,266812,1,0,0:0:0:0:
402,192,266812,1,0,0:0:0:0:
182,192,266870,1,0,0:0:0:0:
329,192,266870,1,0,0:0:0:0:
475,192,266870,1,0,0:0:0:0:
182,192,266987,1,0,0:0:0:0:
329,192,266987,1,0,0:0:0:0:
475,192,266987,1,0,0:0:0:0:
475,192,267105,1,0,0:0:0:0:
329,192,267105,1,0,0:0:0:0:
182,192,267105,1,0,0:0:0:0:
182,192,267222,1,0,0:0:0:0:
329,192,267222,1,0,0:0:0:0:
475,192,267222,1,0,0:0:0:0:
36,192,267339,128,0,267456:0:0:0:0:
256,192,267339,128,0,267398:0:0:0:0:
475,192,267339,128,0,267398:0:0:0:0:
109,192,267398,128,0,267515:0:0:0:0:
329,192,267398,128,0,267456:0:0:0:0:
182,192,267456,128,0,267573:0:0:0:0:
402,192,267456,128,0,267515:0:0:0:0:
256,192,267515,128,0,267632:0:0:0:0:
475,192,267515,128,0,267573:0:0:0:0:
329,192,267573,128,0,267691:0:0:0:0:
36,192,267573,128,0,267632:0:0:0:0:
402,192,267632,128,0,267749:0:0:0:0:
109,192,267632,128,0,267691:0:0:0:0:
475,192,267691,128,0,267808:0:0:0:0:
182,192,267691,128,0,267749:0:0:0:0:
256,192,267749,128,0,267808:0:0:0:0:
182,192,267808,1,0,0:0:0:0:
109,192,267808,1,0,0:0:0:0:
36,192,267808,1,0,0:0:0:0:
329,192,267886,1,0,0:0:0:0:
402,192,267886,1,0,0:0:0:0:
475,192,267886,1,0,0:0:0:0:
182,192,267964,1,0,0:0:0:0:
109,192,267964,1,0,0:0:0:0:
36,192,267964,1,0,0:0:0:0:
329,192,268042,1,0,0:0:0:0:
402,192,268042,1,0,0:0:0:0:
475,192,268042,1,0,0:0:0:0:
36,192,268120,1,0,0:0:0:0:
109,192,268120,1,0,0:0:0:0:
182,192,268120,1,0,0:0:0:0:
329,192,268198,1,0,0:0:0:0:
402,192,268198,1,0,0:0:0:0:
475,192,268198,1,0,0:0:0:0:
182,192,268277,1,0,0:0:0:0:
109,192,268277,1,0,0:0:0:0:
36,192,268277,1,0,0:0:0:0:
256,192,268277,1,0,0:0:0:0:
329,192,268335,1,0,0:0:0:0:
402,192,268335,1,0,0:0:0:0:
475,192,268335,1,0,0:0:0:0:
182,192,268394,1,0,0:0:0:0:
109,192,268394,1,0,0:0:0:0:
36,192,268394,1,0,0:0:0:0:
256,192,268394,1,0,0:0:0:0:
402,192,268452,1,0,0:0:0:0:
329,192,268452,1,0,0:0:0:0:
475,192,268452,1,0,0:0:0:0:
182,192,268511,1,0,0:0:0:0:
109,192,268511,1,0,0:0:0:0:
36,192,268511,1,0,0:0:0:0:
256,192,268511,1,0,0:0:0:0:
329,192,268569,1,0,0:0:0:0:
402,192,268569,1,0,0:0:0:0:
475,192,268569,1,0,0:0:0:0:
182,192,268628,1,0,0:0:0:0:
109,192,268628,1,0,0:0:0:0:
36,192,268628,1,0,0:0:0:0:
256,192,268628,1,0,0:0:0:0:
329,192,268687,1,0,0:0:0:0:
402,192,268687,1,0,0:0:0:0:
475,192,268687,1,0,0:0:0:0:
182,192,268745,1,0,0:0:0:0:
109,192,268745,1,0,0:0:0:0:
36,192,268745,1,0,0:0:0:0:
256,192,268745,1,0,0:0:0:0:
329,192,268804,1,0,0:0:0:0:
402,192,268804,1,0,0:0:0:0:
475,192,268804,1,0,0:0:0:0:
182,192,268862,1,0,0:0:0:0:
109,192,268862,1,0,0:0:0:0:
36,192,268862,1,0,0:0:0:0:
256,192,268862,1,0,0:0:0:0:
329,192,268921,1,0,0:0:0:0:
402,192,268921,1,0,0:0:0:0:
475,192,268921,1,0,0:0:0:0:
36,192,268980,1,0,0:0:0:0:
182,192,268980,1,0,0:0:0:0:
109,192,268980,1,0,0:0:0:0:
256,192,268980,1,0,0:0:0:0:
256,192,269097,1,0,0:0:0:0:
329,192,269097,1,0,0:0:0:0:
402,192,269097,1,0,0:0:0:0:
475,192,269097,1,0,0:0:0:0:
109,192,269097,1,0,0:0:0:0:
182,192,269214,1,0,0:0:0:0:
329,192,269214,1,0,0:0:0:0:
475,192,269214,1,0,0:0:0:0:
109,192,269214,1,0,0:0:0:0:
36,192,269214,1,0,0:0:0:0:
402,192,269331,1,0,0:0:0:0:
256,192,269331,1,0,0:0:0:0:
182,192,269331,1,0,0:0:0:0:
36,192,269331,1,0,0:0:0:0:
475,192,269331,1,0,0:0:0:0:
329,192,269448,1,0,0:0:0:0:
36,192,269448,1,0,0:0:0:0:
256,192,269448,1,0,0:0:0:0:
109,192,269448,1,0,0:0:0:0:
475,192,269448,1,0,0:0:0:0:
329,192,269566,1,0,0:0:0:0:
402,192,269566,1,0,0:0:0:0:
182,192,269566,1,0,0:0:0:0:
256,192,269566,1,0,0:0:0:0:
36,192,269566,1,0,0:0:0:0:
329,192,269683,1,0,0:0:0:0:
402,192,269683,1,0,0:0:0:0:
475,192,269683,1,0,0:0:0:0:
109,192,269683,1,0,0:0:0:0:
182,192,269683,1,0,0:0:0:0:
329,192,269800,1,0,0:0:0:0:
475,192,269800,1,0,0:0:0:0:
182,192,269800,1,0,0:0:0:0:
109,192,269800,1,0,0:0:0:0:
36,192,269800,1,0,0:0:0:0:
109,192,269917,1,0,0:0:0:0:
182,192,269917,1,0,0:0:0:0:
256,192,269917,1,0,0:0:0:0:
402,192,269917,1,0,0:0:0:0:
475,192,269917,1,0,0:0:0:0:
36,192,270034,1,0,0:0:0:0:
109,192,270034,1,0,0:0:0:0:
182,192,270034,1,0,0:0:0:0:
256,192,270034,1,0,0:0:0:0:
329,192,270034,1,0,0:0:0:0:
329,192,270152,1,0,0:0:0:0:
402,192,270152,1,0,0:0:0:0:
475,192,270152,1,0,0:0:0:0:
256,192,270152,1,0,0:0:0:0:
182,192,270210,1,0,0:0:0:0:
109,192,270210,1,0,0:0:0:0:
36,192,270210,1,0,0:0:0:0:
329,192,270269,1,0,0:0:0:0:
402,192,270269,1,0,0:0:0:0:
475,192,270269,1,0,0:0:0:0:
256,192,270269,1,0,0:0:0:0:
182,192,270327,1,0,0:0:0:0:
109,192,270327,1,0,0:0:0:0:
36,192,270327,1,0,0:0:0:0:
329,192,270386,1,0,0:0:0:0:
402,192,270386,1,0,0:0:0:0:
475,192,270386,1,0,0:0:0:0:
256,192,270386,1,0,0:0:0:0:
182,192,270444,1,0,0:0:0:0:
109,192,270444,1,0,0:0:0:0:
36,192,270444,1,0,0:0:0:0:
329,192,270503,1,0,0:0:0:0:
402,192,270503,1,0,0:0:0:0:
475,192,270503,1,0,0:0:0:0:
256,192,270503,1,0,0:0:0:0:
182,192,270562,1,0,0:0:0:0:
109,192,270562,1,0,0:0:0:0:
36,192,270562,1,0,0:0:0:0:
329,192,270620,1,0,0:0:0:0:
402,192,270620,1,0,0:0:0:0:
475,192,270620,1,0,0:0:0:0:
256,192,270620,1,0,0:0:0:0:
182,192,270679,1,0,0:0:0:0:
109,192,270679,1,0,0:0:0:0:
36,192,270679,1,0,0:0:0:0:
329,192,270737,1,0,0:0:0:0:
402,192,270737,1,0,0:0:0:0:
475,192,270737,1,0,0:0:0:0:
256,192,270737,1,0,0:0:0:0:
182,192,270796,1,0,0:0:0:0:
109,192,270796,1,0,0:0:0:0:
36,192,270796,1,0,0:0:0:0:
329,192,270855,1,0,0:0:0:0:
402,192,270855,1,0,0:0:0:0:
475,192,270855,1,0,0:0:0:0:
256,192,270855,1,0,0:0:0:0:
475,192,270972,1,0,0:0:0:0:
256,192,270972,1,0,0:0:0:0:
182,192,270972,1,0,0:0:0:0:
36,192,270972,1,0,0:0:0:0:
402,192,270972,1,0,0:0:0:0:
109,192,271089,1,0,0:0:0:0:
182,192,271089,1,0,0:0:0:0:
256,192,271089,1,0,0:0:0:0:
329,192,271089,1,0,0:0:0:0:
402,192,271089,1,0,0:0:0:0:
182,192,271206,1,0,0:0:0:0:
256,192,271206,1,0,0:0:0:0:
329,192,271206,1,0,0:0:0:0:
475,192,271206,1,0,0:0:0:0:
402,192,271206,1,0,0:0:0:0:
36,192,271323,1,0,0:0:0:0:
109,192,271323,1,0,0:0:0:0:
182,192,271323,1,0,0:0:0:0:
256,192,271323,1,0,0:0:0:0:
329,192,271323,1,0,0:0:0:0:
329,192,271441,1,0,0:0:0:0:
475,192,271441,1,0,0:0:0:0:
182,192,271441,1,0,0:0:0:0:
109,192,271441,1,0,0:0:0:0:
36,192,271441,1,0,0:0:0:0:
256,192,271558,128,0,271734:0:0:0:0:
182,192,271558,128,0,271734:0:0:0:0:
109,192,271558,128,0,271734:0:0:0:0:
36,192,271558,128,0,271734:0:0:0:0:
256,192,271792,128,0,271968:0:0:0:0:
329,192,271792,128,0,271968:0:0:0:0:
402,192,271792,128,0,271968:0:0:0:0:
475,192,271792,128,0,271968:0:0:0:0:
182,192,272027,1,0,0:0:0:0:
109,192,272027,1,0,0:0:0:0:
36,192,272027,1,0,0:0:0:0:
256,192,272027,1,0,0:0:0:0:
329,192,272085,1,0,0:0:0:0:
402,192,272085,1,0,0:0:0:0:
475,192,272085,1,0,0:0:0:0:
182,192,272144,1,0,0:0:0:0:
109,192,272144,1,0,0:0:0:0:
36,192,272144,1,0,0:0:0:0:
256,192,272144,1,0,0:0:0:0:
329,192,272202,1,0,0:0:0:0:
402,192,272202,1,0,0:0:0:0:
475,192,272202,1,0,0:0:0:0:
182,192,272261,1,0,0:0:0:0:
109,192,272261,1,0,0:0:0:0:
36,192,272261,1,0,0:0:0:0:
256,192,272261,1,0,0:0:0:0:
329,192,272319,1,0,0:0:0:0:
402,192,272319,1,0,0:0:0:0:
475,192,272319,1,0,0:0:0:0:
182,192,272378,1,0,0:0:0:0:
109,192,272378,1,0,0:0:0:0:
36,192,272378,1,0,0:0:0:0:
256,192,272378,1,0,0:0:0:0:
329,192,272437,1,0,0:0:0:0:
402,192,272437,1,0,0:0:0:0:
475,192,272437,1,0,0:0:0:0:
182,192,272495,1,0,0:0:0:0:
109,192,272495,1,0,0:0:0:0:
36,192,272495,1,0,0:0:0:0:
256,192,272495,1,0,0:0:0:0:
329,192,272554,1,0,0:0:0:0:
402,192,272554,1,0,0:0:0:0:
475,192,272554,1,0,0:0:0:0:
109,192,272612,1,0,0:0:0:0:
182,192,272612,1,0,0:0:0:0:
36,192,272612,1,0,0:0:0:0:
256,192,272612,1,0,0:0:0:0:
329,192,272671,1,0,0:0:0:0:
402,192,272671,1,0,0:0:0:0:
475,192,272671,1,0,0:0:0:0:
109,192,272730,1,0,0:0:0:0:
182,192,272730,1,0,0:0:0:0:
36,192,272730,1,0,0:0:0:0:
256,192,272730,1,0,0:0:0:0:
182,192,272847,1,0,0:0:0:0:
256,192,272847,1,0,0:0:0:0:
329,192,272847,1,0,0:0:0:0:
402,192,272847,1,0,0:0:0:0:
475,192,272847,1,0,0:0:0:0:
109,192,272964,1,0,0:0:0:0:
256,192,272964,1,0,0:0:0:0:
329,192,272964,1,0,0:0:0:0:
402,192,272964,1,0,0:0:0:0:
475,192,272964,1,0,0:0:0:0:
402,192,273081,1,0,0:0:0:0:
329,192,273081,1,0,0:0:0:0:
256,192,273081,1,0,0:0:0:0:
182,192,273081,1,0,0:0:0:0:
109,192,273081,1,0,0:0:0:0:
402,192,273198,1,0,0:0:0:0:
475,192,273198,1,0,0:0:0:0:
256,192,273198,1,0,0:0:0:0:
182,192,273198,1,0,0:0:0:0:
36,192,273198,1,0,0:0:0:0:
36,192,273316,1,0,0:0:0:0:
109,192,273316,1,0,0:0:0:0:
256,192,273316,1,0,0:0:0:0:
329,192,273316,1,0,0:0:0:0:
475,192,273316,1,0,0:0:0:0:
182,192,273433,1,0,0:0:0:0:
109,192,273433,1,0,0:0:0:0:
36,192,273433,1,0,0:0:0:0:
329,192,273433,1,0,0:0:0:0:
402,192,273433,1,0,0:0:0:0:
475,192,273550,1,0,0:0:0:0:
402,192,273550,1,0,0:0:0:0:
329,192,273550,1,0,0:0:0:0:
182,192,273550,1,0,0:0:0:0:
109,192,273550,1,0,0:0:0:0:
36,192,273667,1,0,0:0:0:0:
109,192,273667,1,0,0:0:0:0:
182,192,273667,1,0,0:0:0:0:
256,192,273667,1,0,0:0:0:0:
329,192,273667,1,0,0:0:0:0:
182,192,273784,1,0,0:0:0:0:
256,192,273784,1,0,0:0:0:0:
329,192,273784,1,0,0:0:0:0:
402,192,273784,1,0,0:0:0:0:
475,192,273784,1,0,0:0:0:0:
329,192,273902,1,0,0:0:0:0:
402,192,273902,1,0,0:0:0:0:
475,192,273902,1,0,0:0:0:0:
256,192,273902,1,0,0:0:0:0:
182,192,273960,1,0,0:0:0:0:
109,192,273960,1,0,0:0:0:0:
36,192,273960,1,0,0:0:0:0:
329,192,274019,1,0,0:0:0:0:
402,192,274019,1,0,0:0:0:0:
475,192,274019,1,0,0:0:0:0:
256,192,274019,1,0,0:0:0:0:
182,192,274077,1,0,0:0:0:0:
36,192,274077,1,0,0:0:0:0:
109,192,274077,1,0,0:0:0:0:
329,192,274136,1,0,0:0:0:0:
402,192,274136,1,0,0:0:0:0:
475,192,274136,1,0,0:0:0:0:
256,192,274136,1,0,0:0:0:0:
182,192,274194,1,0,0:0:0:0:
109,192,274194,1,0,0:0:0:0:
36,192,274194,1,0,0:0:0:0:
329,192,274253,1,0,0:0:0:0:
402,192,274253,1,0,0:0:0:0:
475,192,274253,1,0,0:0:0:0:
256,192,274253,1,0,0:0:0:0:
182,192,274312,1,0,0:0:0:0:
109,192,274312,1,0,0:0:0:0:
36,192,274312,1,0,0:0:0:0:
329,192,274370,1,0,0:0:0:0:
475,192,274370,1,0,0:0:0:0:
402,192,274370,1,0,0:0:0:0:
256,192,274370,1,0,0:0:0:0:
182,192,274429,1,0,0:0:0:0:
109,192,274429,1,0,0:0:0:0:
36,192,274429,1,0,0:0:0:0:
329,192,274487,1,0,0:0:0:0:
402,192,274487,1,0,0:0:0:0:
475,192,274487,1,0,0:0:0:0:
256,192,274487,1,0,0:0:0:0:
109,192,274546,1,0,0:0:0:0:
182,192,274546,1,0,0:0:0:0:
36,192,274546,1,0,0:0:0:0:
329,192,274605,1,0,0:0:0:0:
402,192,274605,1,0,0:0:0:0:
475,192,274605,1,0,0:0:0:0:
256,192,274605,1,0,0:0:0:0:
256,192,274722,1,0,0:0:0:0:
182,192,274722,1,0,0:0:0:0:
109,192,274722,1,0,0:0:0:0:
36,192,274722,1,0,0:0:0:0:
329,192,274722,1,0,0:0:0:0:
109,192,274839,1,0,0:0:0:0:
402,192,274839,1,0,0:0:0:0:
475,192,274839,1,0,0:0:0:0:
36,192,274839,1,0,0:0:0:0:
329,192,274839,1,0,0:0:0:0:
402,192,274956,1,0,0:0:0:0:
256,192,274956,1,0,0:0:0:0:
36,192,274956,1,0,0:0:0:0:
182,192,274956,1,0,0:0:0:0:
475,192,274956,1,0,0:0:0:0:
475,192,275073,1,0,0:0:0:0:
182,192,275073,1,0,0:0:0:0:
36,192,275073,1,0,0:0:0:0:
329,192,275073,1,0,0:0:0:0:
109,192,275073,1,0,0:0:0:0:
109,192,275191,1,0,0:0:0:0:
182,192,275191,1,0,0:0:0:0:
256,192,275191,1,0,0:0:0:0:
329,192,275191,1,0,0:0:0:0:
402,192,275308,128,0,275484:0:0:0:0:
475,192,275308,128,0,275484:0:0:0:0:
109,192,275308,128,0,275484:0:0:0:0:
36,192,275308,128,0,275484:0:0:0:0:
256,192,275308,128,0,275484:0:0:0:0:
256,192,275542,128,0,275718:0:0:0:0:
402,192,275542,128,0,275718:0:0:0:0:
475,192,275542,128,0,275718:0:0:0:0:
109,192,275542,128,0,275718:0:0:0:0:
36,192,275542,128,0,275718:0:0:0:0:
256,192,275777,1,0,0:0:0:0:
182,192,275777,1,0,0:0:0:0:
109,192,275777,1,0,0:0:0:0:
36,192,275777,1,0,0:0:0:0:
329,192,275835,1,0,0:0:0:0:
402,192,275894,1,0,0:0:0:0:
36,192,275894,1,0,0:0:0:0:
182,192,275952,1,0,0:0:0:0:
256,192,276011,1,0,0:0:0:0:
329,192,276069,1,0,0:0:0:0:
109,192,276069,1,0,0:0:0:0:
402,192,276128,1,0,0:0:0:0:
475,192,276128,1,0,0:0:0:0:
182,192,276128,1,0,0:0:0:0:
36,192,276187,1,0,0:0:0:0:
256,192,276187,1,0,0:0:0:0:
109,192,276245,1,0,0:0:0:0:
256,192,276302,1,0,0:0:0:0:
182,192,276359,1,0,0:0:0:0:
329,192,276416,1,0,0:0:0:0:
402,192,276416,1,0,0:0:0:0:
256,192,276474,1,0,0:0:0:0:
475,192,276531,1,0,0:0:0:0:
329,192,276588,1,0,0:0:0:0:
402,192,276645,1,0,0:0:0:0:
475,192,276703,1,0,0:0:0:0:
109,192,276703,1,0,0:0:0:0:
182,192,276814,1,0,0:0:0:0:
329,192,276926,1,0,0:0:0:0:
256,192,277038,1,0,0:0:0:0:
182,192,277038,1,0,0:0:0:0:
36,192,277038,1,0,0:0:0:0:
402,192,277150,1,0,0:0:0:0:
109,192,277259,1,0,0:0:0:0:
182,192,277368,1,0,0:0:0:0:
256,192,277368,1,0,0:0:0:0:
475,192,277368,1,0,0:0:0:0:
402,192,277478,1,0,0:0:0:0:
329,192,277587,1,0,0:0:0:0:
256,192,277587,1,0,0:0:0:0:
182,192,277640,1,0,0:0:0:0:
109,192,277694,1,0,0:0:0:0:
36,192,277694,1,0,0:0:0:0:
256,192,277747,1,0,0:0:0:0:
329,192,277801,1,0,0:0:0:0:
109,192,277801,1,0,0:0:0:0:
402,192,277854,1,0,0:0:0:0:
36,192,277854,1,0,0:0:0:0:
475,192,277908,1,0,0:0:0:0:
182,192,277908,1,0,0:0:0:0:
109,192,277962,1,0,0:0:0:0:
36,192,278015,1,0,0:0:0:0:
402,192,278015,1,0,0:0:0:0:
329,192,278067,1,0,0:0:0:0:
256,192,278119,1,0,0:0:0:0:
182,192,278172,1,0,0:0:0:0:
475,192,278172,1,0,0:0:0:0:
329,192,278224,1,0,0:0:0:0:
402,192,278224,1,0,0:0:0:0:
475,192,278329,1,0,0:0:0:0:
329,192,278434,1,0,0:0:0:0:
256,192,278434,1,0,0:0:0:0:
402,192,278536,1,0,0:0:0:0:
329,192,278639,1,0,0:0:0:0:
256,192,278742,1,0,0:0:0:0:
36,192,278742,1,0,0:0:0:0:
109,192,278844,1,0,0:0:0:0:
329,192,278944,1,0,0:0:0:0:
256,192,279045,1,0,0:0:0:0:
36,192,279045,1,0,0:0:0:0:
182,192,279095,1,0,0:0:0:0:
109,192,279146,1,0,0:0:0:0:
475,192,279146,1,0,0:0:0:0:
256,192,279196,1,0,0:0:0:0:
329,192,279246,1,0,0:0:0:0:
36,192,279246,1,0,0:0:0:0:
402,192,279295,1,0,0:0:0:0:
182,192,279295,1,0,0:0:0:0:
109,192,279345,1,0,0:0:0:0:
256,192,279394,1,0,0:0:0:0:
36,192,279394,1,0,0:0:0:0:
329,192,279444,1,0,0:0:0:0:
402,192,279493,1,0,0:0:0:0:
109,192,279493,1,0,0:0:0:0:
475,192,279543,1,0,0:0:0:0:
36,192,279543,1,0,0:0:0:0:
256,192,279592,1,0,0:0:0:0:
182,192,279642,1,0,0:0:0:0:
109,192,279690,1,0,0:0:0:0:
329,192,279690,1,0,0:0:0:0:
402,192,279739,1,0,0:0:0:0:
256,192,279788,1,0,0:0:0:0:
109,192,279836,1,0,0:0:0:0:
182,192,279836,1,0,0:0:0:0:
475,192,279885,1,0,0:0:0:0:
329,192,279934,1,0,0:0:0:0:
182,192,279982,1,0,0:0:0:0:
36,192,280031,1,0,0:0:0:0:
256,192,280078,1,0,0:0:0:0:
329,192,280126,1,0,0:0:0:0:
402,192,280174,1,0,0:0:0:0:
109,192,280174,1,0,0:0:0:0:
475,192,280222,1,0,0:0:0:0:
36,192,280222,1,0,0:0:0:0:
256,192,280269,1,0,0:0:0:0:
182,192,280317,1,0,0:0:0:0:
109,192,280365,1,0,0:0:0:0:
402,192,280365,1,0,0:0:0:0:
36,192,280413,1,0,0:0:0:0:
329,192,280413,1,0,0:0:0:0:
256,192,280460,1,0,0:0:0:0:
182,192,280507,1,0,0:0:0:0:
475,192,280507,1,0,0:0:0:0:
402,192,280554,1,0,0:0:0:0:
329,192,280601,1,0,0:0:0:0:
256,192,280648,1,0,0:0:0:0:
475,192,280696,1,0,0:0:0:0:
402,192,280743,1,0,0:0:0:0:
329,192,280779,128,0,281091:0:0:0:0:
256,192,280841,128,0,281029:0:0:0:0:
182,192,280904,128,0,280966:0:0:0:0:
109,192,280966,128,0,281529:0:0:0:0:
182,192,281029,128,0,281466:0:0:0:0:
256,192,281091,128,0,281404:0:0:0:0:
329,192,281154,128,0,281341:0:0:0:0:
402,192,281216,128,0,281279:0:0:0:0:
475,192,281279,128,0,281841:0:0:0:0:
402,192,281341,128,0,281841:0:0:0:0:
329,192,281404,128,0,281841:0:0:0:0:
256,192,281466,128,0,281779:0:0:0:0:
182,192,281529,128,0,281716:0:0:0:0:
109,192,281591,128,0,281654:0:0:0:0:
36,192,281654,128,0,281841:0:0:0:0:
109,192,281716,128,0,281841:0:0:0:0:
182,192,281779,128,0,281841:0:0:0:0:
256,192,281841,128,0,282185:0:0:0:0:
329,192,281904,128,0,282185:0:0:0:0:
402,192,281904,128,0,282185:0:0:0:0:
475,192,281904,128,0,282185:0:0:0:0:
109,192,281904,128,0,282185:0:0:0:0:
36,192,281904,128,0,282185:0:0:0:0:
182,192,281904,128,0,282185:0:0:0:0:
402,192,282279,1,0,0:0:0:0:
475,192,282279,1,0,0:0:0:0:
36,192,282279,1,0,0:0:0:0:
329,192,282279,128,0,282372:0:0:0:0:
256,192,282325,128,0,282419:0:0:0:0:
182,192,282372,128,0,282466:0:0:0:0:
109,192,282419,128,0,282513:0:0:0:0:
475,192,282466,1,0,0:0:0:0:
36,192,282466,128,0,282560:0:0:0:0:
402,192,282466,128,0,282560:0:0:0:0:
329,192,282513,128,0,282607:0:0:0:0:
256,192,282560,128,0,282654:0:0:0:0:
182,192,282607,128,0,282700:0:0:0:0:
36,192,282654,1,0,0:0:0:0:
109,192,282654,128,0,282747:0:0:0:0:
475,192,282654,128,0,282747:0:0:0:0:
402,192,282700,128,0,282794:0:0:0:0:
329,192,282747,128,0,282841:0:0:0:0:
256,192,282794,128,0,282888:0:0:0:0:
182,192,282841,1,0,0:0:0:0:
109,192,282841,1,0,0:0:0:0:
36,192,282841,1,0,0:0:0:0:
256,192,282935,1,0,0:0:0:0:
402,192,282935,1,0,0:0:0:0:
475,192,282935,1,0,0:0:0:0:
329,192,283029,1,0,0:0:0:0:
182,192,283029,1,0,0:0:0:0:
36,192,283029,1,0,0:0:0:0:
109,192,283122,1,0,0:0:0:0:
256,192,283122,1,0,0:0:0:0:
402,192,283122,1,0,0:0:0:0:
182,192,283216,1,0,0:0:0:0:
329,192,283216,1,0,0:0:0:0:
475,192,283216,1,0,0:0:0:0:
402,192,283310,1,0,0:0:0:0:
36,192,283310,1,0,0:0:0:0:
109,192,283310,1,0,0:0:0:0:
182,192,283404,1,0,0:0:0:0:
256,192,283404,1,0,0:0:0:0:
329,192,283404,1,0,0:0:0:0:
109,192,283497,1,0,0:0:0:0:
36,192,283497,1,0,0:0:0:0:
402,192,283497,1,0,0:0:0:0:
475,192,283591,1,0,0:0:0:0:
256,192,283591,1,0,0:0:0:0:
329,192,283591,1,0,0:0:0:0:
182,192,283685,1,0,0:0:0:0:
109,192,283685,1,0,0:0:0:0:
36,192,283685,1,0,0:0:0:0:
402,192,283779,1,0,0:0:0:0:
475,192,283779,1,0,0:0:0:0:
329,192,283779,128,0,283872:0:0:0:0:
256,192,283825,128,0,283919:0:0:0:0:
182,192,283872,128,0,283966:0:0:0:0:
109,192,283919,128,0,284013:0:0:0:0:
36,192,283966,128,0,284060:0:0:0:0:
475,192,283966,128,0,284060:0:0:0:0:
402,192,284013,128,0,284107:0:0:0:0:
182,192,284060,1,0,0:0:0:0:
329,192,284060,128,0,284154:0:0:0:0:
256,192,284107,128,0,284200:0:0:0:0:
36,192,284154,1,0,0:0:0:0:
109,192,284154,128,0,284247:0:0:0:0:
475,192,284154,128,0,284247:0:0:0:0:
182,192,284200,128,0,284294:0:0:0:0:
256,192,284247,128,0,284341:0:0:0:0:
329,192,284294,128,0,284388:0:0:0:0:
402,192,284341,1,0,0:0:0:0:
475,192,284341,1,0,0:0:0:0:
109,192,284341,1,0,0:0:0:0:
182,192,284435,1,0,0:0:0:0:
329,192,284435,1,0,0:0:0:0:
36,192,284435,1,0,0:0:0:0:
402,192,284529,1,0,0:0:0:0:
475,192,284529,1,0,0:0:0:0:
256,192,284529,1,0,0:0:0:0:
329,192,284622,1,0,0:0:0:0:
182,192,284622,1,0,0:0:0:0:
36,192,284622,1,0,0:0:0:0:
109,192,284716,1,0,0:0:0:0:
402,192,284716,1,0,0:0:0:0:
475,192,284716,1,0,0:0:0:0:
329,192,284810,1,0,0:0:0:0:
256,192,284810,1,0,0:0:0:0:
182,192,284810,1,0,0:0:0:0:
36,192,284904,1,0,0:0:0:0:
109,192,284904,1,0,0:0:0:0:
475,192,284904,1,0,0:0:0:0:
402,192,284997,1,0,0:0:0:0:
256,192,284997,1,0,0:0:0:0:
329,192,284997,1,0,0:0:0:0:
182,192,285091,1,0,0:0:0:0:
36,192,285091,1,0,0:0:0:0:
475,192,285091,1,0,0:0:0:0:
402,192,285185,1,0,0:0:0:0:
256,192,285185,1,0,0:0:0:0:
109,192,285185,1,0,0:0:0:0:
475,192,285279,1,0,0:0:0:0:
36,192,285279,1,0,0:0:0:0:
329,192,285279,128,0,285372:0:0:0:0:
256,192,285325,128,0,285419:0:0:0:0:
182,192,285372,128,0,285466:0:0:0:0:
109,192,285419,128,0,285513:0:0:0:0:
475,192,285466,1,0,0:0:0:0:
36,192,285466,128,0,285560:0:0:0:0:
256,192,285466,128,0,285560:0:0:0:0:
329,192,285513,128,0,285607:0:0:0:0:
109,192,285560,1,0,0:0:0:0:
402,192,285560,128,0,285654:0:0:0:0:
475,192,285607,128,0,285700:0:0:0:0:
256,192,285654,1,0,0:0:0:0:
182,192,285654,128,0,285747:0:0:0:0:
109,192,285700,128,0,285794:0:0:0:0:
36,192,285747,128,0,285841:0:0:0:0:
329,192,285747,128,0,285841:0:0:0:0:
402,192,285794,128,0,285888:0:0:0:0:
256,192,285841,1,0,0:0:0:0:
109,192,285841,1,0,0:0:0:0:
475,192,285841,128,0,285935:0:0:0:0:
182,192,285935,1,0,0:0:0:0:
329,192,285935,1,0,0:0:0:0:
402,192,285935,1,0,0:0:0:0:
109,192,286029,1,0,0:0:0:0:
36,192,286029,1,0,0:0:0:0:
475,192,286029,1,0,0:0:0:0:
256,192,286122,1,0,0:0:0:0:
402,192,286122,1,0,0:0:0:0:
182,192,286122,1,0,0:0:0:0:
329,192,286216,1,0,0:0:0:0:
475,192,286216,1,0,0:0:0:0:
36,192,286216,1,0,0:0:0:0:
109,192,286310,1,0,0:0:0:0:
182,192,286310,1,0,0:0:0:0:
256,192,286310,1,0,0:0:0:0:
36,192,286404,1,0,0:0:0:0:
329,192,286404,1,0,0:0:0:0:
475,192,286404,1,0,0:0:0:0:
182,192,286497,1,0,0:0:0:0:
402,192,286497,1,0,0:0:0:0:
109,192,286497,1,0,0:0:0:0:
256,192,286591,1,0,0:0:0:0:
329,192,286591,1,0,0:0:0:0:
36,192,286591,1,0,0:0:0:0:
109,192,286685,1,0,0:0:0:0:
402,192,286685,1,0,0:0:0:0:
475,192,286685,1,0,0:0:0:0:
256,192,286779,1,0,0:0:0:0:
329,192,286779,1,0,0:0:0:0:
182,192,286779,128,0,286872:0:0:0:0:
109,192,286825,128,0,286919:0:0:0:0:
36,192,286872,128,0,286966:0:0:0:0:
475,192,286872,128,0,286966:0:0:0:0:
402,192,286919,128,0,287013:0:0:0:0:
329,192,286966,128,0,287060:0:0:0:0:
109,192,286966,128,0,287060:0:0:0:0:
182,192,287013,128,0,287107:0:0:0:0:
256,192,287060,128,0,287154:0:0:0:0:
329,192,287107,128,0,287200:0:0:0:0:
475,192,287154,1,0,0:0:0:0:
402,192,287154,128,0,287247:0:0:0:0:
36,192,287154,128,0,287247:0:0:0:0:
109,192,287200,128,0,287294:0:0:0:0:
182,192,287247,128,0,287341:0:0:0:0:
256,192,287294,128,0,287388:0:0:0:0:
475,192,287341,1,0,0:0:0:0:
36,192,287341,1,0,0:0:0:0:
402,192,287341,128,0,287435:0:0:0:0:
329,192,287388,128,0,287482:0:0:0:0:
256,192,287435,128,0,287529:0:0:0:0:
182,192,287482,128,0,287575:0:0:0:0:
36,192,287529,1,0,0:0:0:0:
402,192,287529,1,0,0:0:0:0:
475,192,287529,1,0,0:0:0:0:
109,192,287529,128,0,287622:0:0:0:0:
329,192,287622,1,0,0:0:0:0:
182,192,287622,1,0,0:0:0:0:
256,192,287622,1,0,0:0:0:0:
402,192,287716,1,0,0:0:0:0:
109,192,287716,1,0,0:0:0:0:
36,192,287716,1,0,0:0:0:0:
329,192,287810,1,0,0:0:0:0:
475,192,287810,1,0,0:0:0:0:
256,192,287810,1,0,0:0:0:0:
182,192,287904,1,0,0:0:0:0:
36,192,287904,1,0,0:0:0:0:
402,192,287904,1,0,0:0:0:0:
109,192,287997,1,0,0:0:0:0:
256,192,287997,1,0,0:0:0:0:
475,192,287997,1,0,0:0:0:0:
402,192,288091,1,0,0:0:0:0:
329,192,288091,1,0,0:0:0:0:
182,192,288091,1,0,0:0:0:0:
36,192,288185,1,0,0:0:0:0:
109,192,288185,1,0,0:0:0:0:
256,192,288185,1,0,0:0:0:0:
475,192,288279,1,0,0:0:0:0:
402,192,288279,128,0,288372:0:0:0:0:
329,192,288325,128,0,288419:0:0:0:0:
256,192,288372,128,0,288466:0:0:0:0:
182,192,288419,128,0,288513:0:0:0:0:
36,192,288466,1,0,0:0:0:0:
329,192,288466,1,0,0:0:0:0:
109,192,288466,128,0,288560:0:0:0:0:
402,192,288560,1,0,0:0:0:0:
475,192,288560,1,0,0:0:0:0:
182,192,288560,1,0,0:0:0:0:
329,192,288654,128,0,288747:0:0:0:0:
256,192,288700,128,0,288794:0:0:0:0:
182,192,288747,128,0,288841:0:0:0:0:
109,192,288794,128,0,288888:0:0:0:0:
329,192,288841,1,0,0:0:0:0:
402,192,288841,1,0,0:0:0:0:
475,192,288841,1,0,0:0:0:0:
182,192,288935,1,0,0:0:0:0:
109,192,288935,1,0,0:0:0:0:
36,192,288935,1,0,0:0:0:0:
256,192,289029,1,0,0:0:0:0:
402,192,289029,1,0,0:0:0:0:
475,192,289029,1,0,0:0:0:0:
329,192,289122,1,0,0:0:0:0:
182,192,289122,1,0,0:0:0:0:
36,192,289122,1,0,0:0:0:0:
475,192,289216,1,0,0:0:0:0:
256,192,289216,1,0,0:0:0:0:
109,192,289216,1,0,0:0:0:0:
329,192,289310,1,0,0:0:0:0:
402,192,289310,1,0,0:0:0:0:
36,192,289310,1,0,0:0:0:0:
109,192,289404,1,0,0:0:0:0:
256,192,289404,1,0,0:0:0:0:
182,192,289404,1,0,0:0:0:0:
402,192,289497,1,0,0:0:0:0:
475,192,289497,1,0,0:0:0:0:
329,192,289497,1,0,0:0:0:0:
36,192,289591,1,0,0:0:0:0:
109,192,289591,1,0,0:0:0:0:
256,192,289591,1,0,0:0:0:0:
182,192,289685,1,0,0:0:0:0:
329,192,289685,1,0,0:0:0:0:
475,192,289685,1,0,0:0:0:0:
402,192,289779,1,0,0:0:0:0:
256,192,289779,128,0,289872:0:0:0:0:
182,192,289825,128,0,289919:0:0:0:0:
109,192,289872,128,0,289966:0:0:0:0:
36,192,289919,128,0,290013:0:0:0:0:
182,192,289966,128,0,290060:0:0:0:0:
329,192,289966,128,0,290060:0:0:0:0:
402,192,290013,128,0,290107:0:0:0:0:
109,192,290060,1,0,0:0:0:0:
475,192,290060,128,0,290154:0:0:0:0:
182,192,290154,1,0,0:0:0:0:
256,192,290154,128,0,290247:0:0:0:0:
329,192,290200,128,0,290294:0:0:0:0:
402,192,290247,128,0,290341:0:0:0:0:
475,192,290294,128,0,290388:0:0:0:0:
182,192,290341,1,0,0:0:0:0:
109,192,290341,1,0,0:0:0:0:
36,192,290341,1,0,0:0:0:0:
256,192,290435,1,0,0:0:0:0:
402,192,290435,1,0,0:0:0:0:
475,192,290435,1,0,0:0:0:0:
329,192,290529,1,0,0:0:0:0:
182,192,290529,1,0,0:0:0:0:
36,192,290529,1,0,0:0:0:0:
109,192,290622,1,0,0:0:0:0:
256,192,290622,1,0,0:0:0:0:
402,192,290622,1,0,0:0:0:0:
329,192,290716,1,0,0:0:0:0:
475,192,290716,1,0,0:0:0:0:
182,192,290716,1,0,0:0:0:0:
109,192,290810,1,0,0:0:0:0:
36,192,290810,1,0,0:0:0:0:
256,192,290810,1,0,0:0:0:0:
329,192,290904,1,0,0:0:0:0:
402,192,290904,1,0,0:0:0:0:
475,192,290904,1,0,0:0:0:0:
256,192,290997,1,0,0:0:0:0:
109,192,290997,1,0,0:0:0:0:
36,192,290997,1,0,0:0:0:0:
182,192,291091,1,0,0:0:0:0:
329,192,291091,1,0,0:0:0:0:
475,192,291091,1,0,0:0:0:0:
402,192,291185,1,0,0:0:0:0:
256,192,291185,1,0,0:0:0:0:
109,192,291185,1,0,0:0:0:0:
182,192,291279,1,0,0:0:0:0:
36,192,291279,1,0,0:0:0:0:
329,192,291279,128,0,291372:0:0:0:0:
402,192,291325,128,0,291419:0:0:0:0:
475,192,291372,128,0,291466:0:0:0:0:
256,192,291372,128,0,291466:0:0:0:0:
182,192,291419,128,0,291513:0:0:0:0:
402,192,291466,1,0,0:0:0:0:
109,192,291466,128,0,291560:0:0:0:0:
36,192,291513,128,0,291607:0:0:0:0:
182,192,291560,1,0,0:0:0:0:
475,192,291560,1,0,0:0:0:0:
256,192,291560,128,0,291654:0:0:0:0:
329,192,291607,128,0,291700:0:0:0:0:
402,192,291654,128,0,291747:0:0:0:0:
475,192,291700,128,0,291794:0:0:0:0:
36,192,291747,1,0,0:0:0:0:
329,192,291747,128,0,291841:0:0:0:0:
256,192,291794,128,0,291888:0:0:0:0:
109,192,291841,1,0,0:0:0:0:
182,192,291841,128,0,291935:0:0:0:0:
402,192,291888,128,0,291982:0:0:0:0:
329,192,291935,128,0,292029:0:0:0:0:
256,192,291982,128,0,292075:0:0:0:0:
475,192,292029,1,0,0:0:0:0:
402,192,292029,1,0,0:0:0:0:
329,192,292122,1,0,0:0:0:0:
256,192,292216,1,0,0:0:0:0:
182,192,292216,1,0,0:0:0:0:
109,192,292216,1,0,0:0:0:0:
475,192,292310,1,0,0:0:0:0:
402,192,292404,1,0,0:0:0:0:
329,192,292404,1,0,0:0:0:0:
256,192,292404,1,0,0:0:0:0:
182,192,292497,1,0,0:0:0:0:
109,192,292591,1,0,0:0:0:0:
36,192,292591,1,0,0:0:0:0:
475,192,292591,1,0,0:0:0:0:
256,192,292779,1,0,0:0:0:0:
329,192,292825,1,0,0:0:0:0:
402,192,292872,1,0,0:0:0:0:
475,192,292872,1,0,0:0:0:0:
182,192,292872,1,0,0:0:0:0:
36,192,292919,1,0,0:0:0:0:
109,192,292966,1,0,0:0:0:0:
182,192,293013,1,0,0:0:0:0:
402,192,293060,1,0,0:0:0:0:
329,192,293107,1,0,0:0:0:0:
256,192,293154,1,0,0:0:0:0:
182,192,293154,1,0,0:0:0:0:
475,192,293154,1,0,0:0:0:0:
109,192,293200,1,0,0:0:0:0:
36,192,293247,1,0,0:0:0:0:
329,192,293294,1,0,0:0:0:0:
402,192,293341,1,0,0:0:0:0:
475,192,293388,1,0,0:0:0:0:
256,192,293435,1,0,0:0:0:0:
182,192,293435,1,0,0:0:0:0:
109,192,293435,1,0,0:0:0:0:
329,192,293529,1,0,0:0:0:0:
475,192,293622,1,0,0:0:0:0:
182,192,293622,1,0,0:0:0:0:
36,192,293622,1,0,0:0:0:0:
402,192,293716,1,0,0:0:0:0:
109,192,293716,1,0,0:0:0:0:
256,192,293716,1,0,0:0:0:0:
329,192,293810,1,0,0:0:0:0:
36,192,293810,1,0,0:0:0:0:
475,192,293810,1,0,0:0:0:0:
109,192,293904,1,0,0:0:0:0:
402,192,293904,1,0,0:0:0:0:
256,192,293904,1,0,0:0:0:0:
182,192,294091,1,0,0:0:0:0:
475,192,294091,1,0,0:0:0:0:
329,192,294091,1,0,0:0:0:0:
36,192,294279,128,0,294404:0:0:0:0:
475,192,294279,128,0,294404:0:0:0:0:
109,192,294310,128,0,294466:0:0:0:0:
402,192,294310,128,0,294466:0:0:0:0:
182,192,294341,128,0,294497:0:0:0:0:
329,192,294341,128,0,294497:0:0:0:0:
256,192,294372,128,0,294560:0:0:0:0:
475,192,294466,128,0,294591:0:0:0:0:
36,192,294466,128,0,294591:0:0:0:0:
109,192,294513,128,0,294654:0:0:0:0:
402,192,294513,128,0,294607:0:0:0:0:
329,192,294560,128,0,294654:0:0:0:0:
182,192,294560,128,0,294654:0:0:0:0:
256,192,294607,128,0,294654:0:0:0:0:
475,192,294654,1,0,0:0:0:0:
402,192,294654,1,0,0:0:0:0:
36,192,294654,1,0,0:0:0:0:
329,192,294700,1,0,0:0:0:0:
182,192,294747,1,0,0:0:0:0:
109,192,294794,1,0,0:0:0:0:
36,192,294841,1,0,0:0:0:0:
402,192,294841,1,0,0:0:0:0:
475,192,294841,1,0,0:0:0:0:
329,192,294935,1,0,0:0:0:0:
256,192,294935,1,0,0:0:0:0:
109,192,294935,1,0,0:0:0:0:
182,192,295029,1,0,0:0:0:0:
402,192,295029,1,0,0:0:0:0:
475,192,295029,1,0,0:0:0:0:
256,192,295122,1,0,0:0:0:0:
329,192,295122,1,0,0:0:0:0:
36,192,295122,1,0,0:0:0:0:
109,192,295216,1,0,0:0:0:0:
182,192,295216,1,0,0:0:0:0:
475,192,295216,1,0,0:0:0:0:
402,192,295310,1,0,0:0:0:0:
329,192,295310,1,0,0:0:0:0:
256,192,295310,1,0,0:0:0:0:
182,192,295404,1,0,0:0:0:0:
109,192,295404,1,0,0:0:0:0:
36,192,295404,1,0,0:0:0:0:
329,192,295497,1,0,0:0:0:0:
475,192,295497,1,0,0:0:0:0:
256,192,295497,1,0,0:0:0:0:
402,192,295591,1,0,0:0:0:0:
109,192,295591,1,0,0:0:0:0:
36,192,295591,1,0,0:0:0:0:
182,192,295685,1,0,0:0:0:0:
329,192,295685,1,0,0:0:0:0:
475,192,295685,1,0,0:0:0:0:
109,192,295779,1,0,0:0:0:0:
402,192,295779,128,0,295872:0:0:0:0:
329,192,295825,128,0,295919:0:0:0:0:
256,192,295872,128,0,295966:0:0:0:0:
36,192,295872,128,0,295966:0:0:0:0:
109,192,295919,128,0,296013:0:0:0:0:
475,192,295966,1,0,0:0:0:0:
182,192,295966,128,0,296060:0:0:0:0:
402,192,295966,128,0,296060:0:0:0:0:
329,192,296013,128,0,296107:0:0:0:0:
256,192,296060,128,0,296154:0:0:0:0:
182,192,296107,128,0,296200:0:0:0:0:
329,192,296154,1,0,0:0:0:0:
402,192,296154,1,0,0:0:0:0:
475,192,296154,1,0,0:0:0:0:
109,192,296154,128,0,296247:0:0:0:0:
36,192,296200,128,0,296294:0:0:0:0:
182,192,296247,1,0,0:0:0:0:
256,192,296294,1,0,0:0:0:0:
329,192,296341,1,0,0:0:0:0:
475,192,296341,1,0,0:0:0:0:
182,192,296341,1,0,0:0:0:0:
402,192,296435,1,0,0:0:0:0:
109,192,296435,1,0,0:0:0:0:
256,192,296435,1,0,0:0:0:0:
329,192,296529,1,0,0:0:0:0:
182,192,296529,1,0,0:0:0:0:
36,192,296529,1,0,0:0:0:0:
109,192,296622,1,0,0:0:0:0:
256,192,296622,1,0,0:0:0:0:
402,192,296622,1,0,0:0:0:0:
182,192,296716,1,0,0:0:0:0:
329,192,296716,1,0,0:0:0:0:
475,192,296716,1,0,0:0:0:0:
256,192,296810,1,0,0:0:0:0:
402,192,296810,1,0,0:0:0:0:
36,192,296810,1,0,0:0:0:0:
109,192,296904,1,0,0:0:0:0:
182,192,296904,1,0,0:0:0:0:
475,192,296904,1,0,0:0:0:0:
402,192,296997,1,0,0:0:0:0:
329,192,296997,1,0,0:0:0:0:
256,192,296997,1,0,0:0:0:0:
182,192,297091,1,0,0:0:0:0:
36,192,297091,1,0,0:0:0:0:
475,192,297091,1,0,0:0:0:0:
109,192,297185,1,0,0:0:0:0:
256,192,297185,1,0,0:0:0:0:
402,192,297185,1,0,0:0:0:0:
256,192,297279,128,0,297419:0:0:0:0:
329,192,297310,128,0,297466:0:0:0:0:
182,192,297310,128,0,297466:0:0:0:0:
109,192,297310,128,0,297497:0:0:0:0:
402,192,297325,128,0,297513:0:0:0:0:
36,192,297349,128,0,297536:0:0:0:0:
475,192,297372,128,0,297560:0:0:0:0:
256,192,297466,128,0,297591:0:0:0:0:
329,192,297513,128,0,297607:0:0:0:0:
182,192,297513,128,0,297607:0:0:0:0:
402,192,297560,128,0,297622:0:0:0:0:
109,192,297560,128,0,297622:0:0:0:0:
475,192,297607,128,0,297654:0:0:0:0:
36,192,297607,128,0,297654:0:0:0:0:
256,192,297654,1,0,0:0:0:0:
182,192,297654,1,0,0:0:0:0:
109,192,297654,1,0,0:0:0:0:
329,192,297654,128,0,297747:0:0:0:0:
402,192,297700,128,0,297794:0:0:0:0:
475,192,297747,128,0,297841:0:0:0:0:
36,192,297794,128,0,297888:0:0:0:0:
109,192,297841,128,0,297888:0:0:0:0:
182,192,297841,128,0,297888:0:0:0:0:
256,192,297841,128,0,297888:0:0:0:0:
329,192,297935,1,0,0:0:0:0:
402,192,297935,1,0,0:0:0:0:
475,192,297935,1,0,0:0:0:0:
256,192,298029,1,0,0:0:0:0:
182,192,298029,1,0,0:0:0:0:
36,192,298029,1,0,0:0:0:0:
109,192,298122,1,0,0:0:0:0:
329,192,298122,1,0,0:0:0:0:
402,192,298122,1,0,0:0:0:0:
256,192,298216,1,0,0:0:0:0:
475,192,298216,1,0,0:0:0:0:
182,192,298216,1,0,0:0:0:0:
402,192,298310,1,0,0:0:0:0:
109,192,298310,1,0,0:0:0:0:
36,192,298310,1,0,0:0:0:0:
182,192,298404,1,0,0:0:0:0:
329,192,298404,1,0,0:0:0:0:
475,192,298404,1,0,0:0:0:0:
36,192,298497,1,0,0:0:0:0:
256,192,298497,1,0,0:0:0:0:
402,192,298497,1,0,0:0:0:0:
109,192,298591,1,0,0:0:0:0:
182,192,298591,1,0,0:0:0:0:
475,192,298591,1,0,0:0:0:0:
256,192,298685,1,0,0:0:0:0:
329,192,298685,1,0,0:0:0:0:
402,192,298685,1,0,0:0:0:0:
182,192,298779,128,0,298872:0:0:0:0:
475,192,298779,128,0,298872:0:0:0:0:
109,192,298825,128,0,298919:0:0:0:0:
402,192,298825,128,0,298919:0:0:0:0:
36,192,298872,128,0,298966:0:0:0:0:
329,192,298872,128,0,298966:0:0:0:0:
256,192,298919,128,0,299013:0:0:0:0:
109,192,298966,1,0,0:0:0:0:
182,192,298966,128,0,299060:0:0:0:0:
475,192,298966,128,0,299060:0:0:0:0:
402,192,299013,128,0,299107:0:0:0:0:
329,192,299060,128,0,299154:0:0:0:0:
36,192,299060,128,0,299154:0:0:0:0:
109,192,299107,128,0,299200:0:0:0:0:
256,192,299154,1,0,0:0:0:0:
182,192,299154,128,0,299247:0:0:0:0:
329,192,299200,128,0,299294:0:0:0:0:
402,192,299247,128,0,299341:0:0:0:0:
36,192,299247,128,0,299341:0:0:0:0:
475,192,299294,128,0,299388:0:0:0:0:
109,192,299294,128,0,299388:0:0:0:0:
182,192,299341,128,0,299435:0:0:0:0:
256,192,299388,128,0,299482:0:0:0:0:
475,192,299435,1,0,0:0:0:0:
402,192,299435,128,0,299529:0:0:0:0:
329,192,299482,128,0,299575:0:0:0:0:
182,192,299529,128,0,299716:0:0:0:0:
109,192,299529,128,0,299716:0:0:0:0:
36,192,299529,128,0,299716:0:0:0:0:
329,192,299716,128,0,299763:0:0:0:0:
402,192,299716,128,0,299763:0:0:0:0:
475,192,299716,128,0,299763:0:0:0:0:
329,192,299810,128,0,299857:0:0:0:0:
402,192,299810,128,0,299857:0:0:0:0:
475,192,299810,128,0,299857:0:0:0:0:
329,192,299904,128,0,299950:0:0:0:0:
402,192,299904,128,0,299950:0:0:0:0:
475,192,299904,128,0,299950:0:0:0:0:
182,192,299950,128,0,299997:0:0:0:0:
109,192,299950,128,0,299997:0:0:0:0:
36,192,299950,128,0,299997:0:0:0:0:
329,192,299997,128,0,300044:0:0:0:0:
402,192,299997,128,0,300044:0:0:0:0:
475,192,299997,128,0,300044:0:0:0:0:
182,192,300044,128,0,300091:0:0:0:0:
109,192,300044,128,0,300091:0:0:0:0:
36,192,300044,128,0,300091:0:0:0:0:
329,192,300091,128,0,300138:0:0:0:0:
402,192,300091,128,0,300138:0:0:0:0:
475,192,300091,128,0,300138:0:0:0:0:
329,192,300185,128,0,300232:0:0:0:0:
402,192,300185,128,0,300232:0:0:0:0:
475,192,300185,128,0,300232:0:0:0:0:
182,192,300279,1,0,0:0:0:0:
36,192,300279,1,0,0:0:0:0:
109,192,300279,1,0,0:0:0:0:
256,192,300279,128,0,300372:0:0:0:0:
329,192,300325,128,0,300419:0:0:0:0:
402,192,300372,128,0,300466:0:0:0:0:
475,192,300419,128,0,300513:0:0:0:0:
182,192,300419,128,0,300513:0:0:0:0:
256,192,300466,128,0,300560:0:0:0:0:
329,192,300513,128,0,300607:0:0:0:0:
36,192,300513,128,0,300607:0:0:0:0:
402,192,300560,128,0,300654:0:0:0:0:
109,192,300560,128,0,300654:0:0:0:0:
475,192,300607,128,0,300700:0:0:0:0:
329,192,300654,1,0,0:0:0:0:
256,192,300654,128,0,300747:0:0:0:0:
182,192,300700,128,0,300794:0:0:0:0:
109,192,300747,128,0,300841:0:0:0:0:
402,192,300747,128,0,300841:0:0:0:0:
36,192,300794,128,0,300888:0:0:0:0:
329,192,300794,128,0,300888:0:0:0:0:
256,192,300841,128,0,300935:0:0:0:0:
182,192,300888,128,0,300982:0:0:0:0:
475,192,300888,128,0,300982:0:0:0:0:
402,192,300935,128,0,301029:0:0:0:0:
329,192,300982,128,0,301075:0:0:0:0:
109,192,301029,1,0,0:0:0:0:
36,192,301029,1,0,0:0:0:0:
256,192,301029,128,0,301122:0:0:0:0:
182,192,301122,1,0,0:0:0:0:
329,192,301122,1,0,0:0:0:0:
402,192,301122,1,0,0:0:0:0:
475,192,301216,1,0,0:0:0:0:
256,192,301216,1,0,0:0:0:0:
36,192,301216,1,0,0:0:0:0:
109,192,301310,1,0,0:0:0:0:
182,192,301310,1,0,0:0:0:0:
402,192,301310,1,0,0:0:0:0:
256,192,301404,1,0,0:0:0:0:
329,192,301404,1,0,0:0:0:0:
475,192,301404,1,0,0:0:0:0:
402,192,301497,1,0,0:0:0:0:
182,192,301497,1,0,0:0:0:0:
36,192,301497,1,0,0:0:0:0:
256,192,301591,1,0,0:0:0:0:
329,192,301591,1,0,0:0:0:0:
475,192,301591,1,0,0:0:0:0:
402,192,301685,1,0,0:0:0:0:
109,192,301685,1,0,0:0:0:0:
36,192,301685,1,0,0:0:0:0:
182,192,301779,1,0,0:0:0:0:
256,192,301779,1,0,0:0:0:0:
329,192,301779,128,0,301872:0:0:0:0:
402,192,301825,128,0,301919:0:0:0:0:
475,192,301872,128,0,301966:0:0:0:0:
109,192,301872,128,0,301966:0:0:0:0:
182,192,301919,128,0,302013:0:0:0:0:
256,192,301966,128,0,302060:0:0:0:0:
36,192,301966,128,0,302060:0:0:0:0:
109,192,302013,128,0,302107:0:0:0:0:
475,192,302060,1,0,0:0:0:0:
182,192,302060,128,0,302154:0:0:0:0:
402,192,302060,128,0,302154:0:0:0:0:
329,192,302107,128,0,302200:0:0:0:0:
256,192,302154,128,0,302247:0:0:0:0:
36,192,302154,128,0,302247:0:0:0:0:
109,192,302200,128,0,302294:0:0:0:0:
402,192,302247,1,0,0:0:0:0:
475,192,302247,1,0,0:0:0:0:
182,192,302247,128,0,302341:0:0:0:0:
329,192,302341,1,0,0:0:0:0:
256,192,302341,1,0,0:0:0:0:
36,192,302341,1,0,0:0:0:0:
109,192,302435,1,0,0:0:0:0:
182,192,302435,1,0,0:0:0:0:
475,192,302529,128,0,302622:0:0:0:0:
36,192,302529,1,0,0:0:0:0:
402,192,302575,128,0,302669:0:0:0:0:
329,192,302622,128,0,302716:0:0:0:0:
109,192,302622,1,0,0:0:0:0:
256,192,302669,128,0,302763:0:0:0:0:
475,192,302669,128,0,302763:0:0:0:0:
402,192,302716,128,0,302810:0:0:0:0:
182,192,302716,1,0,0:0:0:0:
329,192,302763,128,0,302857:0:0:0:0:
36,192,302810,128,0,302904:0:0:0:0:
109,192,302857,128,0,302950:0:0:0:0:
182,192,302904,128,0,302997:0:0:0:0:
256,192,302950,128,0,303044:0:0:0:0:
36,192,302950,128,0,303044:0:0:0:0:
109,192,302997,128,0,303091:0:0:0:0:
475,192,302997,1,0,0:0:0:0:
182,192,303044,128,0,303138:0:0:0:0:
402,192,303091,128,0,303185:0:0:0:0:
329,192,303138,128,0,303232:0:0:0:0:
256,192,303185,128,0,303279:0:0:0:0:
182,192,303279,1,0,0:0:0:0:
109,192,303279,1,0,0:0:0:0:
36,192,303279,1,0,0:0:0:0:
329,192,303372,1,0,0:0:0:0:
402,192,303372,1,0,0:0:0:0:
475,192,303372,1,0,0:0:0:0:
256,192,303466,1,0,0:0:0:0:
109,192,303466,1,0,0:0:0:0:
36,192,303466,1,0,0:0:0:0:
182,192,303560,1,0,0:0:0:0:
402,192,303560,1,0,0:0:0:0:
475,192,303560,1,0,0:0:0:0:
329,192,303654,1,0,0:0:0:0:
256,192,303654,1,0,0:0:0:0:
109,192,303654,1,0,0:0:0:0:
182,192,303747,1,0,0:0:0:0:
36,192,303747,1,0,0:0:0:0:
402,192,303747,1,0,0:0:0:0:
256,192,303841,128,0,303935:0:0:0:0:
329,192,303872,128,0,303966:0:0:0:0:
402,192,303904,128,0,303997:0:0:0:0:
36,192,303904,128,0,303997:0:0:0:0:
475,192,303935,128,0,304029:0:0:0:0:
109,192,303935,128,0,303997:0:0:0:0:
182,192,303966,128,0,304029:0:0:0:0:
256,192,303997,128,0,304029:0:0:0:0:
329,192,304029,1,0,0:0:0:0:
402,192,304029,1,0,0:0:0:0:
109,192,304029,1,0,0:0:0:0:
36,192,304029,1,0,0:0:0:0:
256,192,304122,128,0,304216:0:0:0:0:
182,192,304154,128,0,304247:0:0:0:0:
109,192,304185,128,0,304279:0:0:0:0:
402,192,304216,1,0,0:0:0:0:
329,192,304216,1,0,0:0:0:0:
36,192,304216,128,0,304310:0:0:0:0:
256,192,304310,128,0,304404:0:0:0:0:
329,192,304341,128,0,304435:0:0:0:0:
402,192,304372,128,0,304466:0:0:0:0:
109,192,304404,1,0,0:0:0:0:
182,192,304404,1,0,0:0:0:0:
475,192,304404,128,0,304497:0:0:0:0:
256,192,304497,1,0,0:0:0:0:
329,192,304497,1,0,0:0:0:0:
402,192,304497,1,0,0:0:0:0:
182,192,304591,128,0,304685:0:0:0:0:
109,192,304622,128,0,304716:0:0:0:0:
36,192,304654,128,0,304747:0:0:0:0:
402,192,304654,128,0,304747:0:0:0:0:
329,192,304685,128,0,304779:0:0:0:0:
256,192,304716,128,0,304779:0:0:0:0:
182,192,304747,128,0,304779:0:0:0:0:
109,192,304779,1,0,0:0:0:0:
36,192,304779,1,0,0:0:0:0:
402,192,304779,1,0,0:0:0:0:
475,192,304779,1,0,0:0:0:0:
329,192,304872,1,0,0:0:0:0:
36,192,304872,1,0,0:0:0:0:
329,192,304966,1,0,0:0:0:0:
109,192,304966,1,0,0:0:0:0:
329,192,305060,1,0,0:0:0:0:
475,192,305060,1,0,0:0:0:0:
182,192,305154,1,0,0:0:0:0:
402,192,305154,1,0,0:0:0:0:
182,192,305247,1,0,0:0:0:0:
329,192,305247,1,0,0:0:0:0:
182,192,305341,1,0,0:0:0:0:
256,192,305341,1,0,0:0:0:0:
475,192,305435,1,0,0:0:0:0:
329,192,305435,1,0,0:0:0:0:
475,192,305529,1,0,0:0:0:0:
256,192,305529,1,0,0:0:0:0:
475,192,305622,1,0,0:0:0:0:
182,192,305622,1,0,0:0:0:0:
36,192,305716,1,0,0:0:0:0:
109,192,305716,1,0,0:0:0:0:
36,192,305810,1,0,0:0:0:0:
182,192,305810,1,0,0:0:0:0:
36,192,305904,1,0,0:0:0:0:
109,192,305904,128,0,305997:0:0:0:0:
402,192,305904,128,0,305997:0:0:0:0:
182,192,305935,128,0,306029:0:0:0:0:
329,192,305935,128,0,306029:0:0:0:0:
256,192,305966,128,0,306060:0:0:0:0:
475,192,305997,128,0,306091:0:0:0:0:
402,192,306029,128,0,306122:0:0:0:0:
109,192,306029,128,0,306122:0:0:0:0:
329,192,306060,128,0,306154:0:0:0:0:
182,192,306060,128,0,306154:0:0:0:0:
256,192,306091,128,0,306185:0:0:0:0:
36,192,306122,128,0,306247:0:0:0:0:
109,192,306154,128,0,306247:0:0:0:0:
402,192,306154,128,0,306247:0:0:0:0:
182,192,306185,128,0,306279:0:0:0:0:
329,192,306185,128,0,306279:0:0:0:0:
256,192,306216,128,0,306279:0:0:0:0:
475,192,306279,1,0,0:0:0:0:
402,192,306279,1,0,0:0:0:0:
36,192,306279,1,0,0:0:0:0:
109,192,306279,1,0,0:0:0:0:
475,192,306560,1,0,0:0:0:0:
256,192,306654,1,0,0:0:0:0:
109,192,306841,1,0,0:0:0:0:
36,192,306841,1,0,0:0:0:0:
182,192,306935,1,0,0:0:0:0:
256,192,306935,1,0,0:0:0:0:
329,192,307029,1,0,0:0:0:0:
402,192,307029,1,0,0:0:0:0:
329,192,307216,1,0,0:0:0:0:
182,192,307216,1,0,0:0:0:0:
256,192,307310,1,0,0:0:0:0:
109,192,307310,1,0,0:0:0:0:
402,192,307310,1,0,0:0:0:0:
182,192,307404,1,0,0:0:0:0:
36,192,307404,1,0,0:0:0:0:
329,192,307404,1,0,0:0:0:0:
475,192,307404,1,0,0:0:0:0:
329,192,307685,1,0,0:0:0:0:
402,192,307685,1,0,0:0:0:0:
475,192,307685,1,0,0:0:0:0:
256,192,307779,1,0,0:0:0:0:
109,192,307779,1,0,0:0:0:0:
36,192,307779,1,0,0:0:0:0:
182,192,308060,1,0,0:0:0:0:
109,192,308060,1,0,0:0:0:0:
36,192,308060,1,0,0:0:0:0:
329,192,308154,1,0,0:0:0:0:
402,192,308154,1,0,0:0:0:0:
475,192,308154,1,0,0:0:0:0:
256,192,308341,1,0,0:0:0:0:
402,192,308341,1,0,0:0:0:0:
329,192,308435,1,0,0:0:0:0:
182,192,308435,1,0,0:0:0:0:
256,192,308529,1,0,0:0:0:0:
109,192,308529,1,0,0:0:0:0:
475,192,308529,1,0,0:0:0:0:
402,192,308529,1,0,0:0:0:0:
36,192,308716,1,0,0:0:0:0:
182,192,308716,1,0,0:0:0:0:
109,192,308810,1,0,0:0:0:0:
256,192,308810,1,0,0:0:0:0:
182,192,308904,1,0,0:0:0:0:
329,192,308904,1,0,0:0:0:0:
256,192,308997,1,0,0:0:0:0:
402,192,308997,1,0,0:0:0:0:
475,192,309091,1,0,0:0:0:0:
329,192,309091,1,0,0:0:0:0:
402,192,309185,1,0,0:0:0:0:
256,192,309185,1,0,0:0:0:0:
329,192,309279,1,0,0:0:0:0:
182,192,309279,1,0,0:0:0:0:
109,192,309279,1,0,0:0:0:0:
36,192,309279,1,0,0:0:0:0:
475,192,309279,1,0,0:0:0:0:
256,192,309466,1,0,0:0:0:0:
329,192,309654,1,0,0:0:0:0:
402,192,309841,1,0,0:0:0:0:
475,192,309841,1,0,0:0:0:0:
256,192,309935,1,0,0:0:0:0:
109,192,309935,1,0,0:0:0:0:
182,192,310029,1,0,0:0:0:0:
329,192,310029,1,0,0:0:0:0:
475,192,310216,1,0,0:0:0:0:
36,192,310216,1,0,0:0:0:0:
109,192,310310,1,0,0:0:0:0:
402,192,310310,1,0,0:0:0:0:
329,192,310404,1,0,0:0:0:0:
182,192,310404,1,0,0:0:0:0:
256,192,310497,1,0,0:0:0:0:
36,192,310497,1,0,0:0:0:0:
475,192,310497,1,0,0:0:0:0:
329,192,310591,1,0,0:0:0:0:
182,192,310591,1,0,0:0:0:0:
402,192,310685,1,0,0:0:0:0:
109,192,310685,1,0,0:0:0:0:
475,192,310779,1,0,0:0:0:0:
36,192,310779,1,0,0:0:0:0:
256,192,310779,1,0,0:0:0:0:
402,192,310966,1,0,0:0:0:0:
329,192,311060,1,0,0:0:0:0:
256,192,311060,1,0,0:0:0:0:
182,192,311154,1,0,0:0:0:0:
109,192,311154,1,0,0:0:0:0:
329,192,311341,1,0,0:0:0:0:
402,192,311341,1,0,0:0:0:0:
256,192,311435,1,0,0:0:0:0:
36,192,311435,1,0,0:0:0:0:
109,192,311529,1,0,0:0:0:0:
475,192,311529,1,0,0:0:0:0:
329,192,311716,1,0,0:0:0:0:
402,192,311716,1,0,0:0:0:0:
182,192,311810,1,0,0:0:0:0:
109,192,311810,1,0,0:0:0:0:
402,192,311904,1,0,0:0:0:0:
475,192,311904,1,0,0:0:0:0:
109,192,311997,1,0,0:0:0:0:
36,192,311997,1,0,0:0:0:0:
329,192,312091,1,0,0:0:0:0:
256,192,312091,1,0,0:0:0:0:
182,192,312185,1,0,0:0:0:0:
109,192,312185,1,0,0:0:0:0:
329,192,312279,1,0,0:0:0:0:
402,192,312279,1,0,0:0:0:0:
256,192,312325,1,0,0:0:0:0:
182,192,312372,1,0,0:0:0:0:
36,192,312372,1,0,0:0:0:0:
109,192,312419,1,0,0:0:0:0:
256,192,312466,1,0,0:0:0:0:
329,192,312466,1,0,0:0:0:0:
402,192,312513,1,0,0:0:0:0:
475,192,312560,1,0,0:0:0:0:
36,192,312560,1,0,0:0:0:0:
109,192,312607,1,0,0:0:0:0:
329,192,312654,128,0,312935:0:0:0:0:
256,192,312700,128,0,312841:0:0:0:0:
182,192,312747,128,0,312888:0:0:0:0:
109,192,312935,128,0,313075:0:0:0:0:
329,192,313029,128,0,313310:0:0:0:0:
182,192,313310,128,0,313450:0:0:0:0:
256,192,313357,128,0,313497:0:0:0:0:
329,192,313404,128,0,313591:0:0:0:0:
109,192,313497,128,0,313732:0:0:0:0:
475,192,313591,128,0,313779:0:0:0:0:
256,192,313591,128,0,314060:0:0:0:0:
182,192,313779,128,0,313966:0:0:0:0:
402,192,313779,128,0,313872:0:0:0:0:
109,192,313966,128,0,314247:0:0:0:0:
475,192,313966,128,0,314294:0:0:0:0:
329,192,313966,128,0,314060:0:0:0:0:
329,192,314154,128,0,314435:0:0:0:0:
256,192,314341,128,0,314482:0:0:0:0:
182,192,314341,128,0,314529:0:0:0:0:
109,192,314529,128,0,314716:0:0:0:0:
402,192,314529,128,0,314716:0:0:0:0:
475,192,314529,128,0,314622:0:0:0:0:
256,192,314716,128,0,314904:0:0:0:0:
36,192,314716,128,0,314904:0:0:0:0:
329,192,314716,128,0,314904:0:0:0:0:
182,192,314904,128,0,315091:0:0:0:0:
402,192,314904,128,0,315091:0:0:0:0:
329,192,315091,128,0,315185:0:0:0:0:
36,192,315091,128,0,315185:0:0:0:0:
109,192,315091,128,0,315372:0:0:0:0:
256,192,315185,128,0,315560:0:0:0:0:
182,192,315279,128,0,315560:0:0:0:0:
475,192,315279,128,0,315560:0:0:0:0:
402,192,315466,128,0,315560:0:0:0:0:
329,192,315466,128,0,315654:0:0:0:0:
36,192,315654,128,0,322779:0:0:0:0:
256,192,315654,128,0,322779:0:0:0:0:
109,192,315654,128,0,322779:0:0:0:0:
475,192,315654,128,0,322779:0:0:0:0:
402,192,315654,128,0,322779:0:0:0:0:
