osu file format v14

[General]
AudioFilename: audio.mp3
AudioLeadIn: 0
PreviewTime: 5791
Countdown: 0
SampleSet: Soft
StackLeniency: 0
Mode: 0
LetterboxInBreaks: 0
WidescreenStoryboard: 0

[Editor]
DistanceSpacing: 0.2
BeatDivisor: 8
GridSize: 32
TimelineZoom: 3.5

[Metadata]
Title:WHAT THE CAT!?
TitleUnicode:WHAT THE CAT!?
Artist:Camellia
ArtistUnicode:かめりあ
Creator:Akali
Version:Procatstination (Meowzerrin Style)
Source:
Tags:twerk trap edm cametek kamel TF40K E.P Thanks Twitter Followers 40K E.P.
BeatmapID:1245003
BeatmapSetID:588018

[Difficulty]
HPDrainRate:5
CircleSize:4
OverallDifficulty:8.8
ApproachRate:9.6
SliderMultiplier:2.4
SliderTickRate:1

[Events]
//Background and Video events
0,0,"1488958979533.jpg",0,0
//Break Periods
//Storyboard Layer 0 (Background)
//Storyboard Layer 1 (Fail)
//Storyboard Layer 2 (Pass)
//Storyboard Layer 3 (Foreground)
//Storyboard Sound Samples

[TimingPoints]
984,300,4,2,1,100,1,0
984,-100,4,2,1,85,0,0
2334,-125,4,2,1,85,0,0
3384,-166.666666666667,4,2,1,85,0,0
4734,-250,4,2,1,85,0,0
5784,-100,4,2,1,85,0,0
10584,-66.6666666666667,4,2,1,85,0,0
10884,-100,4,2,1,85,0,0
11334,-125,4,2,1,85,0,0
11559,-200,4,2,1,5,0,0
11634,-200,4,2,1,85,0,0
12009,-200,4,2,1,5,0,0
12084,-125,4,2,1,85,0,0
12984,-100,4,2,1,85,0,0
13284,-125,4,2,1,85,0,0
13959,-125,4,2,1,5,0,0
14034,-200,4,2,1,85,0,0
14409,-200,4,2,1,5,0,0
14484,-200,4,2,1,85,0,0
15384,-66.6666666666667,4,2,1,85,0,0
16134,-125,4,2,1,85,0,0
16359,-125,4,2,1,5,0,0
16434,-172.413793103448,4,2,1,85,0,0
16809,-172.413793103448,4,2,1,5,0,0
16884,-172.413793103448,4,2,1,85,0,0
17109,-172.413793103448,4,2,1,5,0,0
17184,-172.413793103448,4,2,1,85,0,0
17559,-172.413793103448,4,2,1,5,0,0
17634,-100,4,2,1,85,0,0
19584,-50,4,2,1,85,0,0
19621,-50,4,2,1,5,0,0
19659,-50,4,2,1,85,0,0
19696,-50,4,2,1,5,0,0
19734,-50,4,2,1,85,0,0
19771,-50,4,2,1,5,0,0
19809,-50,4,2,1,85,0,0
19846,-50,4,2,1,5,0,0
19884,-50,4,2,1,85,0,0
19921,-50,4,2,1,5,0,0
19959,-50,4,2,1,85,0,0
19996,-50,4,2,1,5,0,0
20034,-50,4,2,1,85,0,0
20071,-50,4,2,1,5,0,0
20109,-50,4,2,1,85,0,0
20146,-50,4,2,1,5,0,0
20184,-66.6666666666667,4,2,1,85,0,0
20484,-83.3333333333333,4,2,1,85,0,0
24384,-100,4,2,1,85,0,0
24534,-83.3333333333333,4,2,1,85,0,0
24684,-71.4285714285714,4,2,1,85,0,0
24834,-62.5,4,2,1,85,0,0
25209,-62.5,4,2,1,5,0,0
25284,-83.3333333333333,4,2,1,85,0,0
29784,-100,4,2,1,85,0,0
30609,-100,4,2,1,5,0,0
30684,-100,4,2,1,85,0,0
31809,-100,4,2,1,5,0,0
31884,-100,4,2,1,85,0,0
33009,-100,4,2,1,5,0,0
33084,-100,4,2,1,85,0,0
33309,-100,4,2,1,5,0,0
33384,-100,4,2,1,85,0,0
34284,-83.3333333333333,4,2,1,85,0,0
34434,-71.4285714285714,4,2,1,85,0,0
35184,-100,4,2,1,85,0,0
35409,-100,4,2,1,5,0,0
35484,-100,4,2,1,85,0,0
36609,-100,4,2,1,5,0,0
36684,-100,4,2,1,85,0,0
37809,-100,4,2,1,5,0,0
37884,-100,4,2,1,85,0,0
38109,-100,4,2,1,5,0,0
38184,-100,4,2,1,85,0,0
38784,-100,4,2,1,85,0,0
38934,-83.3333333333333,4,2,1,85,0,0
39084,-71.4285714285714,4,2,1,85,0,0
39234,-62.5,4,2,1,85,0,0
39384,-71.4285714285714,4,2,1,85,0,0
40584,-62.5,4,2,1,85,0,0
42984,-55.5555555555556,4,2,1,85,0,0
44184,-83.3333333333333,4,2,1,85,0,0
44484,-71.4285714285714,4,2,1,85,0,0
44784,-62.5,4,2,1,85,0,0
45084,-55.5555555555556,4,2,1,85,0,0
45384,-50,4,2,1,85,0,0
45684,-45.4545454545455,4,2,1,85,0,0
45984,-38.4615384615385,4,2,1,85,0,0
46284,-35.7142857142857,4,2,1,85,0,0
46584,-100,4,2,1,85,0,0
47784,-50,4,2,1,85,0,0
48459,-50,4,2,1,5,0,0
48534,-100,4,2,1,85,0,0
48984,-62.5,4,2,1,85,0,0
49584,-100,4,2,1,85,0,0
50784,-62.5,4,2,1,85,0,0
50934,-100,4,2,1,85,0,0
51234,-100,4,2,1,85,0,0
51984,-62.5,4,2,1,85,0,0
52134,-100,4,2,1,85,0,0
53484,-25,4,2,1,85,0,0
53784,-62.5,4,2,1,85,0,0
54534,-100,4,2,1,85,0,0
57684,-200,4,2,1,85,0,0
57984,-50,4,2,1,85,0,0
58021,-50,4,2,1,5,0,0
58059,-50,4,2,1,85,0,0
58096,-50,4,2,1,5,0,0
58134,-50,4,2,1,85,0,0
58171,-50,4,2,1,5,0,0
58209,-50,4,2,1,85,0,0
58246,-50,4,2,1,5,0,0
58284,-50,4,2,1,85,0,0
58321,-50,4,2,1,5,0,0
58359,-50,4,2,1,85,0,0
58396,-50,4,2,1,5,0,0
58434,-50,4,2,1,85,0,0
58471,-50,4,2,1,5,0,0
58509,-50,4,2,1,85,0,0
58546,-50,4,2,1,5,0,0
58584,-200,4,2,1,85,0,0
59034,-100,4,2,1,85,0,0
60384,-62.5,4,2,1,85,0,0
60534,-100,4,2,1,85,0,0
62784,-50,4,2,1,85,0,0
63309,-50,4,2,1,5,0,0
63384,-62.5,4,2,1,85,0,0
63984,-100,4,2,1,85,0,0
64284,-83.3333333333333,4,2,1,85,0,0
64584,-71.4285714285714,4,2,1,85,0,0
64884,-62.5,4,2,1,85,0,0
65709,-62.5,4,2,1,5,0,0
65784,-62.5,4,2,1,85,0,0
66984,-50,4,2,1,85,0,0
67584,-62.5,4,2,1,85,0,0
67884,-83.3333333333333,4,2,1,85,0,0
68184,-50,4,2,1,85,0,0
68634,-62.5,4,2,1,85,0,0
72684,-31.25,4,2,1,85,0,0
72984,-62.5,4,2,1,85,0,0
74109,-62.5,4,2,1,5,0,0
74184,-62.5,4,2,1,85,0,0
74484,-50,4,2,1,85,0,0
74709,-50,4,2,1,5,0,0
74784,-62.5,4,2,1,85,0,0
75384,-50,4,2,1,85,0,0
75609,-50,4,2,1,5,0,0
75684,-50,4,2,1,85,0,0
76509,-50,4,2,1,5,0,0
76584,-41.6666666666667,4,2,1,85,0,0
76959,-83.3333333333333,4,2,1,85,0,0
77184,-50,4,2,1,85,0,0
77221,-50,4,2,1,5,0,0
77259,-50,4,2,1,85,0,0
77296,-50,4,2,1,5,0,0
77334,-50,4,2,1,85,0,0
77371,-50,4,2,1,5,0,0
77409,-50,4,2,1,85,0,0
77446,-50,4,2,1,5,0,0
77484,-50,4,2,1,85,0,0
77521,-50,4,2,1,5,0,0
77559,-50,4,2,1,85,0,0
77596,-50,4,2,1,5,0,0
77634,-50,4,2,1,85,0,0
77671,-50,4,2,1,5,0,0
77709,-50,4,2,1,85,0,0
77746,-50,4,2,1,5,0,0
77784,-50,4,2,1,85,0,0
78234,-62.5,4,2,1,85,0,0
81834,-50,4,2,1,85,0,0
82284,-25,4,2,1,85,0,0
82584,-50,4,2,1,85,0,0
83184,-100,4,2,1,85,0,0
83484,-50,4,2,1,85,0,0
83784,-71.4285714285714,4,2,1,85,0,0
84684,-100,4,2,1,85,0,0
84984,-125,4,2,1,85,0,0
85434,-100,4,2,1,85,0,0
87384,-62.5,4,2,1,85,0,0
87684,-100,4,2,1,85,0,0
88359,-100,4,2,1,5,0,0
88434,-166.666666666667,4,2,1,85,0,0
88809,-166.666666666667,4,2,1,5,0,0
88884,-100,4,2,1,85,0,0
89109,-100,4,2,1,5,0,0
89184,-100,4,2,1,85,0,0
89334,-125,4,2,1,85,0,0
90084,-100,4,2,1,85,0,0
90534,-149.253731343284,4,2,1,85,0,0
90834,-100,4,2,1,85,0,0
92184,-62.5,4,2,1,85,0,0
92934,-100,4,2,1,85,0,0
93684,-166.666666666667,4,2,1,85,0,0
94434,-100,4,2,1,85,0,0
95334,-166.666666666667,4,2,1,85,0,0
95784,-100,4,2,1,85,0,0
96384,-50,4,2,1,85,0,0
96421,-50,4,2,1,5,0,0
96459,-50,4,2,1,85,0,0
96496,-50,4,2,1,5,0,0
96534,-50,4,2,1,85,0,0
96571,-50,4,2,1,5,0,0
96609,-50,4,2,1,85,0,0
96646,-50,4,2,1,5,0,0
96684,-50,4,2,1,85,0,0
96721,-50,4,2,1,5,0,0
96759,-50,4,2,1,85,0,0
96796,-50,4,2,1,5,0,0
96834,-50,4,2,1,85,0,0
96871,-50,4,2,1,5,0,0
96909,-50,4,2,1,85,0,0
96946,-50,4,2,1,5,0,0
96984,-66.6666666666667,4,2,1,85,0,0
97284,-100,4,2,1,85,0,0
97734,-125,4,2,1,85,0,0
97959,-125,4,2,1,5,0,0
98034,-166.666666666667,4,2,1,85,0,0
98409,-166.666666666667,4,2,1,5,0,0
98484,-125,4,2,1,85,0,0
98709,-125,4,2,1,5,0,0
98784,-125,4,2,1,85,0,0
99684,-100,4,2,1,85,0,0
101784,-71.4285714285714,4,2,1,85,0,0
102384,-100,4,2,1,85,0,0
105384,-83.3333333333333,4,2,1,85,0,0
106584,-200,4,2,1,85,0,0
115584,-125,4,2,1,85,0,0
120534,-100,4,2,1,85,0,0
120684,-83.3333333333333,4,2,1,85,0,0
120834,-71.4285714285714,4,2,1,85,0,0
120984,-100,4,2,1,85,0,0
124884,-250,4,2,1,85,0,0
125184,-25,4,2,1,85,0,0
125221,-25,4,2,1,5,0,0
125259,-25,4,2,1,85,0,0
125296,-25,4,2,1,5,0,0
125334,-25,4,2,1,85,0,0
125371,-25,4,2,1,5,0,0
125409,-25,4,2,1,85,0,0
125446,-25,4,2,1,5,0,0
125484,-25,4,2,1,85,0,0
125521,-25,4,2,1,5,0,0
125559,-25,4,2,1,85,0,0
125596,-25,4,2,1,5,0,0
125634,-25,4,2,1,85,0,0
125671,-25,4,2,1,5,0,0
125709,-25,4,2,1,85,0,0
125746,-25,4,2,1,5,0,0
125784,-71.4285714285714,4,2,1,85,0,0
128034,-62.5,4,2,1,85,0,0
128184,-62.5,4,2,1,85,0,0
129234,-55.5555555555556,4,2,1,85,0,0
131184,-50,4,2,1,85,0,0
132384,-45.4545454545455,4,2,1,85,0,0
132684,-41.6666666666667,4,2,1,85,0,0
132984,-100,4,2,1,85,0,0
133584,-71.4285714285714,4,2,1,85,0,0
134184,-55.5555555555556,4,2,1,85,0,0
134859,-55.5555555555556,4,2,1,5,0,0
134934,-100,4,2,1,85,0,0
135384,-62.5,4,2,1,85,0,0
136284,-55.5555555555556,4,2,1,85,0,0
136509,-55.5555555555556,4,2,1,5,0,0
136584,-100,4,2,1,85,0,0
136809,-100,4,2,1,5,0,0
136884,-71.4285714285714,4,2,1,85,0,0
137409,-71.4285714285714,4,2,1,5,0,0
137484,-71.4285714285714,4,2,1,85,0,0
138234,-62.5,4,2,1,85,0,0
138384,-93.4579439252336,4,2,1,85,0,0
138609,-93.4579439252336,4,2,1,5,0,0
138684,-62.5,4,2,1,85,0,0
138984,-50,4,2,1,85,0,0
139209,-50,4,2,1,5,0,0
139284,-71.4285714285714,4,2,1,85,0,0
139809,-71.4285714285714,4,2,1,5,0,0
139884,-55.5555555555556,4,2,1,85,0,0
140109,-55.5555555555556,4,2,1,5,0,0
140184,-55.5555555555556,4,2,1,85,0,0
140634,-71.4285714285714,4,2,1,85,0,0
141309,-71.4285714285714,4,2,1,5,0,0
141384,-71.4285714285714,4,2,1,85,0,0
141609,-100,4,2,1,5,0,0
141684,-71.4285714285714,4,2,1,85,0,0
141984,-100,4,2,1,85,0,0
142209,-100,4,2,1,5,0,0
142284,-55.5555555555556,4,2,1,85,0,0
142509,-55.5555555555556,4,2,1,5,0,0
142584,-83.3333333333333,4,2,1,85,0,0
142809,-83.3333333333333,4,2,1,5,0,0
142884,-50,4,2,1,85,0,0
143109,-50,4,2,1,5,0,0
143184,-62.5,4,2,1,85,0,0
144384,-25,4,2,1,85,0,0
144421,-25,4,2,1,5,0,0
144459,-25,4,2,1,85,0,0
144496,-25,4,2,1,5,0,0
144534,-25,4,2,1,85,0,0
144571,-25,4,2,1,5,0,0
144609,-25,4,2,1,85,0,0
144646,-25,4,2,1,5,0,0
144684,-25,4,2,1,85,0,0
144721,-25,4,2,1,5,0,0
144759,-25,4,2,1,85,0,0
144796,-25,4,2,1,5,0,0
144834,-25,4,2,1,85,0,0
144871,-25,4,2,1,5,0,0
144909,-25,4,2,1,85,0,0
144946,-25,4,2,1,5,0,0
144984,-45.4545454545455,4,2,1,85,0,0
145209,-50,4,2,1,5,0,0
145284,-31.25,4,2,1,85,0,0
145884,-45.4545454545455,4,2,1,85,0,0
146109,-50,4,2,1,5,0,0
146184,-31.25,4,2,1,85,0,0
146784,-95.2380952380952,4,2,1,85,0,0
147084,-95.2380952380952,4,2,1,85,0,0
147309,-95.2380952380952,4,2,1,5,0,0
147384,-62.5,4,2,1,85,0,0
147609,-62.5,4,2,1,5,0,0
147684,-50,4,2,1,85,0,0
147909,-50,4,2,1,5,0,0
147984,-62.5,4,2,1,85,0,0
148209,-62.5,4,2,1,5,0,0
148284,-100,4,2,1,85,0,0
148584,-55.5555555555556,4,2,1,85,0,0
148809,-55.5555555555556,4,2,1,5,0,0
148884,-55.5555555555556,4,2,1,85,0,0
149184,-100,4,2,1,85,0,0
149409,-100,4,2,1,5,0,0
149484,-55.5555555555556,4,2,1,85,0,0
149709,-55.5555555555556,4,2,1,5,0,0
149784,-55.5555555555556,4,2,1,85,0,0
150009,-55.5555555555556,4,2,1,5,0,0
150084,-71.4285714285714,4,2,1,85,0,0
150984,-55.5555555555556,4,2,1,85,0,0
151209,-55.5555555555556,4,2,1,5,0,0
151284,-71.4285714285714,4,2,1,85,0,0
151884,-111.111111111111,4,2,1,85,0,0
152109,-111.111111111111,4,2,1,5,0,0
152184,-50,4,2,1,85,0,0
152409,-50,4,2,1,5,0,0
152484,-55.5555555555556,4,2,1,85,0,0
152746,-62.5,4,2,1,85,0,0
152934,-62.5,4,2,1,5,0,0
153009,-62.5,4,2,1,85,0,0
153159,-62.5,4,2,1,5,0,0
153234,-62.5,4,2,1,85,0,0
153609,-62.5,4,2,1,5,0,0
153684,-62.5,4,2,1,85,0,0
153984,-55.5555555555556,4,2,1,85,0,0
154284,-50,4,2,1,85,0,0
154584,-71.4285714285714,4,2,1,85,0,0
158184,-62.5,4,2,1,85,0,0
159309,-62.5,4,2,1,5,0,0
159384,-41.6666666666667,4,2,1,85,0,0
159984,-71.4285714285714,4,2,1,85,0,0
161784,-62.5,4,2,1,85,0,0
162084,-71.4285714285714,4,2,1,85,0,0
162384,-62.5,4,2,1,85,0,0
162684,-71.4285714285714,4,2,1,85,0,0
163584,-25,4,2,1,85,0,0
163621,-25,4,2,1,5,0,0
163659,-25,4,2,1,85,0,0
163696,-25,4,2,1,5,0,0
163734,-25,4,2,1,85,0,0
163771,-25,4,2,1,5,0,0
163809,-25,4,2,1,85,0,0
163846,-25,4,2,1,5,0,0
163884,-31.25,4,2,1,85,0,0
163921,-31.25,4,2,1,5,0,0
163959,-31.25,4,2,1,85,0,0
163996,-31.25,4,2,1,5,0,0
164034,-31.25,4,2,1,85,0,0
164071,-31.25,4,2,1,5,0,0
164109,-31.25,4,2,1,85,0,0
164146,-31.25,4,2,1,5,0,0
164184,-35.7142857142857,4,2,1,85,0,0
164559,-71.4285714285714,4,2,1,85,0,0
165384,-62.5,4,2,1,85,0,0
165684,-71.4285714285714,4,2,1,85,0,0
166884,-55.5555555555556,4,2,1,85,0,0
167184,-71.4285714285714,4,2,1,85,0,0
167934,-31.25,4,2,1,85,0,0
168084,-71.4285714285714,4,2,1,85,0,0
168234,-31.25,4,2,1,85,0,0
168984,-41.6666666666667,4,2,1,85,0,0
169584,-50,4,2,1,85,0,0
170784,-62.5,4,2,1,85,0,0
170784,-55.5555555555556,4,2,1,85,0,0
171084,-50,4,2,1,85,0,0
173184,-100,4,2,1,85,0,0
173784,-25,4,2,1,85,0,0
174046,-25,4,2,1,5,0,0
219684,-250,4,2,1,85,0,0
219759,-25,4,2,1,85,0,0

[HitObjects]
467,103,984,6,0,L|403:113,5,60,8|0|0|0|0|0,0:1|0:1|0:1|0:1|0:1|0:1,0:1:0:0:
364,52,1434,2,0,L|300:42,1,60,8|0,0:1|0:1,0:1:0:0:
257,97,1584,2,0,L|193:107,3,60,8|0|0|0,0:1|0:1|0:1|0:1,0:1:0:0:
155,47,1884,2,0,L|91:37,5,60,8|0|0|0|0|0,0:1|0:1|0:1|0:1|0:1|0:1,0:1:0:0:
48,92,2334,6,0,L|58:156,1,48,8|0,0:1|0:1,0:1:0:0:
118,179,2484,2,0,L|108:243,3,48,8|0|0|0,0:1|0:1|0:1|0:1,0:1:0:0:
45,262,2784,2,0,L|55:326,5,48,8|0|0|0|0|0,0:1|0:1|0:1|0:1|0:1|0:1,0:1:0:0:
121,345,3234,2,0,L|185:335,1,48,8|0,0:1|0:1,0:1:0:0:
217,281,3384,6,0,L|281:291,5,35.9999989013672,8|0|0|0|0|0,0:1|0:1|0:1|0:1|0:1|0:1,0:1:0:0:
313,330,3834,2,0,L|377:320,1,35.9999989013672,8|0,0:1|0:1,0:1:0:0:
390,262,3984,2,0,L|380:198,3,35.9999989013672,8|0|0|0,0:1|0:1|0:1|0:1,0:1:0:0:
322,185,4284,2,0,L|258:195,5,35.9999989013672,8|0|0|0|0|0,0:1|0:1|0:1|0:1|0:1|0:1,0:1:0:0:
216,156,4734,6,0,L|208:113,1,24,8|0,0:1|0:1,0:1:0:0:
247,61,4884,2,0,L|290:53,3,24,8|0|0|0,0:1|0:1|0:1|0:1,0:1:0:0:
342,92,5184,2,0,L|350:135,3,24,8|0|0|0,0:1|0:1|0:1|0:1,0:1:0:0:
322,185,5484,2,0,L|318:208,1,24,8|0,0:1|0:1,0:1:0:0:
415,271,5634,2,0,L|410:248,1,24,8|0,0:1|0:1,0:1:0:0:
459,152,5784,6,0,B|494:53|417:-34|417:-34|359:17|343:93|343:93|265:69|209:130|209:130|157:71|80:55|80:55|57:170|137:237,2,840,8|0|0,0:1|0:1|0:1,0:1:0:0:
415,271,8034,6,0,P|386:257|323:264,1,60
257,373,8184,6,0,P|302:269|415:270,1,240,4|0,0:0|0:0,0:0:0:0:
257,373,8634,6,0,P|284:354|310:296,1,60,8|0,0:0|0:0,0:0:0:0:
247,185,8784,6,0,P|250:217|287:268,3,60,4|0|0|0,0:0|0:0|0:0|0:0,0:0:0:0:
415,270,9084,6,0,P|386:256|324:262,5,60,4|0|0|0|0|0,0:0|0:0|0:0|0:0|0:0|0:0,0:0:0:0:
261,242,9534,5,4,0:0:0:0:
227,261,9609,1,0,0:0:0:0:
187,265,9684,1,4,0:0:0:0:
149,254,9759,1,0,0:0:0:0:
118,230,9834,1,0,0:0:0:0:
98,195,9909,1,0,0:0:0:0:
93,155,9984,6,0,P|112:99|169:62,1,120,8|8,0:3|0:3,0:3:0:0:
215,153,10209,1,8,0:3:0:0:
217,137,10284,2,0,P|223:196|261:242,1,120,8|8,0:3|0:3,0:3:0:0:
435,184,10509,5,8,0:0:0:0:
436,166,10584,2,0,P|384:108|305:148,1,180.000006866455,6|0,0:0|0:0,0:0:0:0:
305,148,10884,2,0,P|270:109|218:137,1,120
310,30,11184,5,8,0:0:0:0:
436,166,11334,2,0,L|415:321,1,144,2|0,0:0|0:0,0:0:0:0:
392,327,11634,2,0,P|372:275|417:307,1,150,2|0,0:0|0:0,0:0:0:0:
488,340,12084,6,0,L|361:322,1,96,2|0,0:0|0:0,0:0:0:0:
256,304,12384,1,8,0:0:0:0:
120,326,12534,2,0,L|26:339,1,96,2|0,0:0|0:0,0:0:0:0:
126,318,12759,1,0,0:0:0:0:
131,309,12834,1,0,0:0:0:0:
135,300,12909,1,0,0:0:0:0:
138,291,12984,6,0,B|146:231|146:231|126:159,1,120,2|0,0:0|0:0,0:0:0:0:
25,129,13284,2,0,P|17:196|51:251,1,96,2|0,0:0|0:0,0:0:0:0:
236,124,13584,1,8,0:0:0:0:
329,192,13734,2,0,P|272:235|201:235,1,144,2|0,0:0|0:0,0:0:0:0:
244,95,14034,6,0,P|245:150|214:104,1,150,2|0,0:0|0:0,0:0:0:0:
201,13,14484,5,2,0:0:0:0:
236,124,14634,1,0,0:0:0:0:
271,235,14784,1,8,0:0:0:0:
100,94,14934,5,2,0:0:0:0:
236,124,15084,1,0,0:0:0:0:
374,154,15234,1,0,0:0:0:0:
271,235,15384,6,0,B|170:257|128:166|128:166|96:262|49:260|22:216|46:166|88:187,1,360.000013732911,2|0,0:0|0:0,0:0:0:0:
236,124,15834,1,0,0:0:0:0:
166,346,15984,1,8,0:0:0:0:
64,236,16134,6,0,P|46:213|91:231,1,144,2|0,0:0|0:0,0:0:0:0:
128,166,16434,2,0,P|198:232|279:232,1,174.000005310059,2|0,0:0|0:0,0:0:0:0:
304,221,16884,2,0,P|304:262|279:223,1,104.400003186035,2|0,0:0|0:0,0:0:0:0:
236,124,17184,1,8,0:0:0:0:
330,196,17334,2,0,P|345:234|307:207,1,104.400003186035,2|0,0:0|0:0,0:0:0:0:
236,124,17634,5,2,0:0:0:0:
240,112,17709,1,0,0:0:0:0:
244,100,17784,2,0,P|305:75|381:85,1,120
476,231,18084,2,0,P|429:196|400:144,1,120,2|0,0:0|0:0,0:0:0:0:
497,31,18384,5,8,0:0:0:0:
478,232,18534,2,0,B|413:203|400:144|400:144|397:207|341:254,1,240,2|2,0:0|0:0,0:0:0:0:
279,271,18909,1,0,0:0:0:0:
273,281,18984,2,0,P|208:289|137:260,1,120
52,110,19284,2,0,P|89:157|103:215,1,120,2|0,0:0|0:0,0:0:0:0:
28,344,19584,6,0,P|49:313|73:348,1,60,8|0,0:0|0:0,0:0:0:0:
23,333,19659,2,0,P|52:308|66:348,1,60
19,322,19734,2,0,P|53:305|56:347,1,60,2|0,0:0|0:0,0:0:0:0:
21,309,19809,2,0,P|58:301|50:343,1,60
23,297,19884,2,0,P|61:299|43:337,1,60
31,287,19959,2,0,P|67:299|39:331,1,60
38,278,20034,2,0,P|69:299|34:323,1,60
50,273,20109,2,0,P|75:301|35:315,1,60
67,316,20184,6,0,B|105:246|46:209|85:121,1,180.000006866455,6|0,0:0|0:0,0:0:0:0:
268,155,20484,2,0,P|244:214|187:185,1,143.999995605469
166,22,20784,1,8,0:0:0:0:
356,37,20934,1,2,0:0:0:0:
166,22,21084,2,0,L|19:34,1,143.999995605469
257,146,21309,5,0,0:0:0:0:
268,155,21384,2,0,L|415:167,1,143.999995605469,2|0,0:0|0:0,0:0:0:0:
339,245,21684,1,2,0:0:0:0:
356,37,21834,1,0,0:0:0:0:
268,155,21984,2,0,L|415:167,1,143.999995605469,8|2,0:0|0:0,0:0:0:0:
194,261,22284,2,0,L|47:273,1,143.999995605469,0|2,0:0|0:0,0:0:0:0:
339,245,22584,5,0,0:0:0:0:
338,259,22659,1,0,0:0:0:0:
337,273,22734,1,0,0:0:0:0:
194,261,22884,2,0,P|152:214|141:131,1,143.999995605469,2|0,0:0|0:0,0:0:0:0:
268,155,23184,1,8,0:0:0:0:
251,363,23334,1,2,0:0:0:0:
51,272,23484,2,0,L|39:125,1,143.999995605469,0|2,0:0|0:0,0:0:0:0:
473,128,23784,6,0,L|461:272,1,143.999995605469
251,363,24084,2,0,P|272:304|344:255,1,143.999995605469,2|0,0:0|0:0,0:0:0:0:
473,128,24384,6,0,P|449:144|403:148,1,60,8|0,0:0|0:0,0:0:0:0:
347,118,24534,6,0,P|315:102|279:102,1,71.9999978027344,2|0,0:0|0:0,0:0:0:0:
194,113,24684,6,0,P|164:139|153:181,1,83.9999974365235
221,284,24834,6,0,P|263:263|287:222,1,96
280,101,24984,6,0,B|264:37|205:19|205:19|165:112|255:209,1,288,6|0,0:0|0:0,0:0:0:0:
356,241,25284,6,0,P|282:220|224:168,1,143.999995605469
205,19,25584,1,8,0:0:0:0:
357,76,25734,1,2,0:0:0:0:
231,179,25884,2,0,P|164:217|87:221,1,143.999995605469,0|2,0:0|0:0,0:0:0:0:
40,128,26109,5,0,0:0:0:0:
42,142,26184,1,0,0:0:0:0:
63,305,26334,1,0,0:0:0:0:
202,315,26484,2,0,P|232:249|231:178,1,143.999995605469,2|0,0:0|0:0,0:0:0:0:
470,142,26784,5,8,0:0:0:0:
449,305,26934,1,2,0:0:0:0:
356,241,27084,2,0,P|327:175|328:104,1,143.999995605469,0|2,0:0|0:0,0:0:0:0:
403,83,27309,5,0,0:0:0:0:
400,97,27384,2,0,L|328:104,1,71.9999978027344,2|0,0:0|0:0,0:0:0:0:
160,171,27534,2,0,L|232:177,1,71.9999978027344
356,241,27684,2,0,L|202:255,1,143.999995605469,2|0,0:0|0:0,0:0:0:0:
136,346,27984,2,0,L|290:360,1,143.999995605469,8|2,0:0|0:0,0:0:0:0:
432,196,28284,5,8,0:0:0:0:
429,202,28359,1,8,0:0:0:0:
425,207,28434,1,8,0:0:0:0:
403,225,28509,1,8,0:0:0:0:
356,241,28584,6,0,P|298:197|283:117,1,143.999995605469,12|8,0:0|0:3,0:0:0:0:
193,224,28809,1,8,0:3:0:0:
213,254,28884,2,0,P|185:186|212:110,1,143.999995605469,8|0,0:3|0:0,0:0:0:0:
353,84,29109,5,8,0:3:0:0:
350,119,29184,2,0,P|319:132|265:123,1,71.9999978027344,8|0,0:3|0:3,0:3:0:0:
139,96,29334,2,0,P|167:115|222:117,1,71.9999978027344,8|0,0:3|0:3,0:3:0:0:
255,6,29484,5,0,0:0:0:0:
253,24,29559,1,0,0:0:0:0:
251,42,29634,1,0,0:0:0:0:
249,60,29709,1,0,0:0:0:0:
282,129,29784,6,0,B|287:191|231:233|231:233|181:170|208:111,1,240,6|0,0:0|0:0,0:0:0:0:
254,2,30234,1,8,0:1:0:0:
282,129,30384,2,0,B|287:191|231:233|231:233|221:335,1,180,8|0,0:1|0:1,0:1:0:0:
220,320,30684,1,8,0:1:0:0:
354,236,30834,1,0,0:1:0:0:
340,334,30984,6,0,L|220:320,1,120,0|8,0:1|0:1,0:1:0:0:
100,306,31284,2,0,L|220:320,1,120,8|0,0:1|0:1,0:1:0:0:
434,297,31584,6,0,P|454:242|386:140,1,180,8|0,0:1|0:1,0:1:0:0:
350,176,31884,2,0,L|354:236,1,60,0|0,0:1|0:1,0:1:0:0:
217,260,32034,2,0,L|222:319,1,60,8|0,0:1|0:1,0:1:0:0:
341,335,32184,6,0,L|85:303,1,240,8|0,0:1|0:1,0:1:0:0:
217,260,32634,1,8,0:1:0:0:
103,305,32784,2,0,L|80:112,1,180,8|0,0:1|0:1,0:1:0:0:
69,37,33084,2,0,L|92:215,1,180,0|0,0:1|0:1,0:1:0:0:
103,305,33384,6,0,P|156:276|180:214,1,120,0|8,0:1|0:1,0:1:0:0:
350,176,33684,2,0,P|292:160|254:106,1,120,8|0,0:1|0:1,0:1:0:0:
241,9,33984,1,8,0:1:0:0:
403,78,34134,6,0,P|374:85|344:80,1,60
172,14,34284,6,0,P|206:3|241:9,1,71.9999978027344
314,171,34434,6,0,P|279:149|257:114,1,83.9999974365235
403,78,34584,6,0,P|452:80|352:173,1,335.999989746094,6|0,0:0|0:0,0:0:0:0:
425,150,35034,1,8,0:1:0:0:
418,251,35184,2,0,B|355:246|314:171|314:171|313:227,1,180,8|0,0:1|0:1,0:1:0:0:
313,243,35484,1,8,0:1:0:0:
202,371,35634,1,0,0:0:0:0:
313,243,35784,6,0,L|315:113,1,120,0|8,0:1|0:1,0:1:0:0:
199,243,36084,2,0,L|197:113,1,120,8|0,0:1|0:1,0:1:0:0:
60,145,36384,2,0,P|79:222|152:191,1,180,8|0,0:1|0:1,0:1:0:0:
198,123,36684,6,0,L|198:184,1,60,0|0,0:1|0:1,0:1:0:0:
313,243,36834,2,0,L|313:304,1,60,0|0,0:1|0:1,0:1:0:0:
159,336,36984,6,0,B|158:261|158:261|199:243|199:243|198:123,1,240,0|0,0:1|0:1,0:1:0:0:
60,145,37434,1,8,0:1:0:0:
198,123,37584,2,0,L|400:147,1,180,8|0,0:1|0:1,0:1:0:0:
465,155,37884,2,0,L|287:133,1,180,8|0,0:1|0:1,0:1:0:0:
198,123,38184,6,0,P|220:73|275:44,1,120,0|8,0:1|0:1,0:1:0:0:
465,155,38484,2,0,P|443:205|388:234,1,120,8|0,0:1|0:1,0:1:0:0:
290,193,38784,6,0,L|287:133,1,60,8|0,0:1|0:1,0:1:0:0:
198,123,38934,6,0,L|202:194,1,71.9999978027344,8|0,0:1|0:1,0:1:0:0:
114,196,39084,6,0,L|109:113,1,83.9999974365235,8|0,0:1|0:1,0:1:0:0:
20,103,39234,6,0,L|25:198,1,96,8|0,0:1|0:1,0:1:0:0:
89,300,39384,6,0,B|117:353|197:351|239:313|246:254|246:254|190:214|190:214|242:202,1,335.999989746094,4|0,0:0|0:0,0:0:0:0:
350,83,39834,6,0,P|336:109|359:90,1,83.9999974365235,8|0,0:0|0:0,0:0:0:0:
409,271,39984,6,0,B|389:329|310:341|262:311|245:253|245:253|292:205|292:205|241:202,1,335.999989746094,2|0,0:0|0:0,0:0:0:0:
117,103,40434,6,0,P|136:126|109:111,1,83.9999974365235,8|0,0:0|0:0,0:0:0:0:
50,297,40584,6,0,B|85:363|185:361|237:314|246:239|246:239|176:190|176:190|240:175,1,384,2|0,0:0|0:0,0:0:0:0:
375,27,41034,6,0,P|357:59|387:35,1,96,8|0,0:0|0:0,0:0:0:0:
449,261,41184,6,0,B|424:333|325:347|266:310|244:238|244:238|303:178|303:178|239:174,1,384,2|0,0:0|0:0,0:0:0:0:
85,51,41634,6,0,P|108:80|75:61,1,96,8|0,0:0|0:0,0:0:0:0:
50,297,41784,6,0,B|-6:211|-7:117|20:50|20:50|101:74|143:143,1,384,2|0,0:0|0:0,0:0:0:0:
196,285,42234,6,0,P|235:303|255:265,1,96,8|0,0:0|0:0,0:0:0:0:
448,190,42384,6,0,B|454:87|408:6|350:-38|350:-38|292:22|290:103,1,384,2|0,0:0|0:0,0:0:0:0:
317,253,42834,6,0,P|292:289|255:265,1,96,8|0,0:0|0:0,0:0:0:0:
24,301,42984,6,0,B|-40:205|-40:99|-9:23|-9:23|81:50|129:128,1,431.999986816407,2|0,0:0|0:0,0:0:0:0:
189,287,43434,6,0,P|233:308|255:265,1,107.999996704102,8|0,0:0|0:0,0:0:0:0:
472,180,43584,6,0,B|479:65|427:-26|362:-76|362:-76|297:-8|294:83,1,431.999986816407,2|0,0:0|0:0,0:0:0:0:
325,251,44034,6,0,P|297:291|256:265,1,107.999996704102,10|0,0:0|0:0,0:0:0:0:
179,206,44184,6,0,B|163:177|164:162|164:162|178:168|188:176,1,71.9999978027344,10|0,0:0|0:0,0:0:0:0:
286,177,44334,6,0,B|285:144|276:132|276:132|267:144|263:155,1,71.9999978027344,10|0,0:0|0:0,0:0:0:0:
163,209,44484,6,0,B|141:171|144:152|144:152|162:160|175:169,1,83.9999974365235,10|0,0:0|0:0,0:0:0:0:
302,172,44634,6,0,B|301:128|289:113|289:113|277:129|271:144,1,83.9999974365235,10|0,0:0|0:0,0:0:0:0:
147,211,44784,6,0,B|121:164|124:141|124:141|146:151|162:163,1,96,10|0,0:0|0:0,0:0:0:0:
316,165,44934,6,0,B|315:112|300:93|300:93|286:113|279:131,1,96,10|0,0:0|0:0,0:0:0:0:
132,212,45084,6,0,B|102:158|105:131|105:131|131:142|149:156,1,107.999996704102,10|0,0:0|0:0,0:0:0:0:
330,159,45234,6,0,B|328:97|312:75|312:75|295:98|286:119,1,107.999996704102,10|0,0:0|0:0,0:0:0:0:
113,213,45384,6,0,B|84:151|104:131|104:131|159:150,1,120,10|0,0:0|0:0,0:0:0:0:
347,150,45534,6,0,B|341:82|313:75|313:75|275:119,1,120,10|0,0:0|0:0,0:0:0:0:
81,209,45684,6,0,B|82:154|104:132|104:132|137:131|177:156,1,132.00000402832,10|0,0:0|0:0,0:0:0:0:
373,131,45834,6,0,B|345:84|313:76|313:76|285:92|262:133,1,132.00000402832,10|0,0:0|0:0,0:0:0:0:
53,200,45984,6,0,B|57:169|88:139|105:132|105:132|136:132|178:154,1,155.999992858887,10|0,0:0|0:0,0:0:0:0:
393,109,46134,6,0,B|374:85|332:74|313:76|313:76|286:91|261:132,1,155.999992858887,10|0,0:0|0:0,0:0:0:0:
34,177,46284,6,0,B|68:136|106:132|106:132|158:135|202:176,1,167.999994873047,10|0,0:0|0:0,0:0:0:0:
397,80,46434,6,0,B|346:62|311:78|311:78|268:106|250:163,1,167.999994873047,10|0,0:0|0:0,0:0:0:0:
167,279,46584,5,10,0:0:0:0:
210,254,46659,1,2,0:0:0:0:
241,215,46734,1,2,0:0:0:0:
287,234,46809,1,2,0:0:0:0:
337,233,46884,1,10,0:0:0:0:
340,228,46959,1,2,0:0:0:0:
343,223,47034,1,2,0:0:0:0:
346,218,47109,1,2,0:0:0:0:
350,213,47184,5,10,0:0:0:0:
290,204,47259,1,2,0:0:0:0:
233,185,47334,1,2,0:0:0:0:
194,231,47409,1,2,0:0:0:0:
146,267,47484,5,10,0:0:0:0:
151,270,47559,1,2,0:0:0:0:
156,273,47634,1,2,0:0:0:0:
161,276,47709,1,2,0:0:0:0:
166,279,47784,6,0,B|148:326|70:376|7:287|20:190|82:181|125:118|125:118|140:181|140:181|192:169|233:203|233:203|284:149|284:149|297:227|331:277|277:322|277:322|245:358|371:390|483:377|503:235|433:208|375:266|407:299,1,1080,2|0,0:0|0:0,0:0:0:0:
458,283,48534,5,8,0:0:0:0:
444,255,48609,1,8,0:0:0:0:
415,249,48684,1,8,0:0:0:0:
392,268,48759,1,8,0:0:0:0:
392,298,48834,1,8,0:0:0:0:
415,316,48909,1,8,0:0:0:0:
444,310,48984,6,0,B|279:206|244:373|56:281,1,384,2|0,0:0|0:0,0:0:0:0:
170,126,49434,5,0,0:0:0:0:
115,213,49584,2,0,P|168:229|262:175,1,120,8|2,0:0|0:0,0:0:0:0:
282,152,49809,5,0,0:0:0:0:
300,136,49884,1,0,0:0:0:0:
322,127,49959,1,0,0:0:0:0:
402,134,50034,6,0,P|475:117|366:75,1,300,2|0,0:0|0:0,0:0:0:0:
322,127,50484,2,0,P|307:200|377:281,1,180,2|0,0:0|0:0,0:0:0:0:
397,264,50784,6,0,P|397:302|368:277,1,96,8|0,0:0|0:0,0:0:0:0:
228,211,50934,5,2,0:0:0:0:
206,222,51009,1,0,0:0:0:0:
183,226,51084,1,0,0:0:0:0:
50,118,51234,6,0,P|115:13|168:125,1,300,2|0,0:0|0:0,0:0:0:0:
108,168,51684,2,0,B|68:234|118:297|118:297|135:269|146:223,1,180,2|0,0:0|0:0,0:0:0:0:
183,226,51984,6,0,B|172:254|144:285|144:285|135:266|136:245,1,96,8|0,0:0|0:0,0:0:0:0:
180,48,52134,5,2,0:0:0:0:
202,55,52209,1,0,0:0:0:0:
221,70,52284,1,0,0:0:0:0:
269,252,52434,6,0,P|197:148|321:127,1,300,2|0,0:0|0:0,0:0:0:0:
339,201,52884,6,0,B|316:254|269:252|269:252|338:257|314:345,1,180,2|0,0:0|0:0,0:0:0:0:
227,332,53184,6,0,P|281:350|320:308,1,120,8|2,0:0|0:0,0:0:0:0:
267,178,53484,6,0,P|234:185|208:206,12,60
269,252,53784,6,0,B|319:251|339:201|339:201|477:248|524:62|411:25,1,384,6|0,0:0|0:0,0:0:0:0:
267,178,54234,1,0,0:0:0:0:
437,283,54384,6,0,P|444:233|432:180,1,96,8|0,0:0|0:0,0:0:0:0:
379,114,54534,6,0,P|296:67|208:76,1,180,2|0,0:0|0:0,0:0:0:0:
261,65,54834,6,0,P|172:69|95:24,1,180
134,55,55134,5,0,0:0:0:0:
93,220,55284,6,0,P|138:143|134:55,1,180,2|0,0:0|0:0,0:0:0:0:
142,101,55584,6,0,P|158:134|183:155,1,60,8|0,0:0|0:0,0:0:0:0:
267,178,55734,6,0,P|351:205|407:273,1,180,2|0,0:0|0:0,0:0:0:0:
352,206,56034,6,0,P|408:274|492:301,1,180,2|0,0:0|0:0,0:0:0:0:
407,273,56334,5,0,0:0:0:0:
256,343,56484,6,0,P|169:361|86:330,1,180,2|0,0:0|0:0,0:0:0:0:
27,341,56784,6,0,P|56:339|85:329,1,60,8|0,0:0|0:0,0:0:0:0:
182,189,56934,6,0,P|196:276|255:342,1,180,2|0,0:0|0:0,0:0:0:0:
86,328,57234,6,0,P|155:273|182:189,1,180,2|0,0:0|0:0,0:0:0:0:
175,285,57534,5,0,0:0:0:0:
257,170,57684,6,0,P|234:133|193:113,1,90,2|0,0:0|0:0,0:0:0:0:
193,113,57984,6,0,P|246:121|280:109,1,60,2|0,0:0|0:0,0:0:0:0:
250,87,58059,6,0,P|290:103|336:92,1,60,2|0,0:0|0:0,0:0:0:0:
306,113,58134,6,0,P|358:106|392:118,1,60,2|0,0:0|0:0,0:0:0:0:
365,108,58209,6,0,P|405:92|451:103,1,60,2|0,0:0|0:0,0:0:0:0:
421,92,58284,6,0,P|461:105|490:143,1,60,8|0,0:3|0:3,0:3:0:0:
474,116,58359,6,0,P|496:152|493:199,1,60,8|0,0:3|0:3,0:3:0:0:
499,168,58434,6,0,P|492:210|460:244,1,60,8|0,0:3|0:3,0:3:0:0:
484,224,58509,6,0,P|451:252|404:258,1,60,8|0,0:3|0:3,0:3:0:0:
436,257,58584,6,0,P|392:258|353:232,2,60,14|0|0,0:0|0:0|0:0,0:0:0:0:
257,170,59034,5,2,0:0:0:0:
255,193,59109,1,0,0:0:0:0:
253,216,59184,1,8,0:0:0:0:
249,263,59259,1,0,0:0:0:0:
245,310,59334,2,0,L|240:369,1,60,2|0,0:0|0:0,0:0:0:0:
175,285,59484,5,0,0:0:0:0:
173,262,59559,1,0,0:0:0:0:
165,187,59634,6,0,P|98:251|241:294,1,300,6|0,0:0|0:0,0:0:0:0:
165,187,60084,6,0,P|192:128|191:193,1,180,2|0,0:0|0:0,0:0:0:0:
173,262,60384,6,0,P|113:241|84:192,1,96,8|0,0:0|0:0,0:0:0:0:
76,143,60534,1,2,0:0:0:0:
83,120,60609,1,0,0:0:0:0:
95,99,60684,1,0,0:0:0:0:
221,61,60834,6,0,P|285:182|173:262,1,300,2|0,0:0|0:0,0:0:0:0:
273,211,61284,6,0,P|351:201|452:286,1,180,8|0,0:0|0:0,0:0:0:0:
441,150,61584,5,8,0:0:0:0:
417,148,61659,2,0,P|388:155|364:173,1,60,2|0,0:0|0:0,0:0:0:0:
186,243,61809,5,8,0:0:0:0:
172,261,61884,2,0,P|163:289|165:319,1,60,2|0,0:0|0:0,0:0:0:0:
355,372,62034,6,0,P|363:294|291:368,1,240,2|0,0:0|0:0,0:0:0:0:
287,345,62409,1,0,0:0:0:0:
296,337,62484,2,0,B|332:289|332:289|372:147,1,180,2|0,0:0|0:0,0:0:0:0:
303,129,62784,6,0,B|273:172|280:229|315:288|469:312|487:163|434:98|366:97|366:97|303:129|303:129|277:112|277:112|236:125|236:125|221:107|221:107|180:120|180:120|116:114|116:114|172:119|172:119|124:115|124:115|164:118|164:118|156:118|156:118|140:116|140:116|148:117|148:117|132:116|132:116|164:118,1,840,14|0,0:0|0:0,0:0:0:0:
117,115,63384,6,0,P|113:254|310:449,1,384,2|0,0:0|0:0,0:0:0:0:
130,304,63834,5,0,0:0:0:0:
237,256,63984,2,0,P|266:250|296:257,1,60,8|0,0:0|0:0,0:0:0:0:
367,290,64134,5,2,0:0:0:0:
389,298,64209,1,0,0:0:0:0:
412,300,64284,2,0,P|461:289|488:257,1,71.9999978027344
344,97,64434,5,2,0:0:0:0:
331,117,64509,1,0,0:0:0:0:
329,140,64584,2,0,P|342:188|385:220,1,83.9999974365235
495,142,64734,6,0,P|455:129|415:139,1,83.9999974365235
295,257,64884,6,0,P|249:268|203:255,1,96,10|0,0:0|0:0,0:0:0:0:
204,101,65034,6,0,P|237:134|249:181,1,96
116,262,65184,6,0,P|156:181|248:180,1,192,8|2,0:0|0:0,0:0:0:0:
327,236,65409,1,0,0:0:0:0:
418,265,65484,2,0,B|431:216|416:173|375:139|329:140|329:140|316:77|263:39,1,288,2|0,0:0|0:0,0:0:0:0:
204,101,65784,5,8,0:0:0:0:
222,115,65859,1,0,0:0:0:0:
237,134,65934,1,2,0:0:0:0:
246,156,66009,1,0,0:0:0:0:
248,180,66084,1,2,0:0:0:0:
116,119,66234,5,0,0:0:0:0:
157,97,66309,1,0,0:0:0:0:
204,101,66384,1,8,0:0:0:0:
237,134,66459,1,0,0:0:0:0:
248,180,66534,1,2,0:0:0:0:
106,209,66684,5,8,0:2:0:0:
116,119,66759,1,8,0:2:0:0:
204,101,66834,1,8,0:2:0:0:
248,180,66909,1,8,0:2:0:0:
186,246,66984,6,0,B|139:238|106:209|106:209|125:282|183:297|263:271,1,240,6|0,0:0|0:0,0:0:0:0:
406,39,67284,6,0,L|397:189,1,120
394,233,67434,2,0,L|385:383,1,120
374,51,67584,6,0,L|365:188,1,96
362,234,67734,2,0,L|353:371,1,96
342,63,67884,6,0,L|333:200,1,71.9999978027344
330,235,68034,2,0,L|321:372,1,71.9999978027344
270,64,68184,6,0,B|334:96|287:158|140:95|221:-9|309:-6|308:72|308:72|293:308,1,480,6|0,0:0|0:0,0:0:0:0:
185,270,68634,6,0,L|193:154,1,96
153,0,68784,2,0,P|141:94|191:174,1,192,8|2,0:0|0:0,0:0:0:0:
294,290,69084,6,0,B|255:254|185:270|185:270|169:245|169:245|138:226|102:256|102:256|67:247|67:247|4:282|19:371|77:341|65:278,1,384,2|2,0:0|0:0,0:0:0:0:
204,267,69534,6,0,P|251:268|293:289,1,96
319,377,69684,2,0,P|359:351|383:310,1,96,8|0,0:0|0:0,0:0:0:0:
331,135,69834,6,0,P|354:176|356:224,1,96
293,289,69984,2,0,P|335:310|382:311,1,96,10|0,0:0|0:0,0:0:0:0:
446,246,70134,2,0,P|403:224|356:223,1,96,2|0,0:0|0:0,0:0:0:0:
293,289,70284,6,0,P|335:310|382:311,1,96
446,246,70434,2,0,P|403:224|356:223,1,96,2|0,0:0|0:0,0:0:0:0:
203,266,70584,6,0,P|156:265|114:244,1,96
177,178,70734,2,0,P|224:179|267:201,1,96
293,289,70884,1,2,0:0:0:0:
87,157,71034,5,0,0:0:0:0:
111,116,71109,1,0,0:0:0:0:
151,90,71184,1,8,0:0:0:0:
446,246,71334,6,0,P|403:224|356:223,1,96,2|0,0:0|0:0,0:0:0:0:
203,265,71484,2,0,P|155:264|113:243,1,96
87,157,71634,1,0,0:0:0:0:
111,116,71709,1,0,0:0:0:0:
151,90,71784,6,0,P|173:131|176:179,1,96,2|0,0:0|0:0,0:0:0:0:
113,243,71934,2,0,P|141:319|202:264,1,192,0|2,0:0|0:0,0:0:0:0:
331,133,72234,6,0,P|353:174|356:222,1,96
293,289,72384,2,0,P|323:365|385:311,1,192,8|2,0:0|0:0,0:0:0:0:
113,243,72684,6,0,B|83:303|136:343|203:330|203:265|203:265|201:200|280:181|325:243|293:289|293:289|262:354|325:393|391:372|385:306,1,576
355,222,72984,6,0,B|331:146|301:223|290:312|456:259|357:174|357:174|409:149|315:80|383:-2,1,384,6|0,0:0|0:0,0:0:0:0:
453,44,73434,6,0,P|434:85|390:113,1,96
278,2,73584,6,0,P|303:91|392:112,1,192,8|2,0:0|0:0,0:0:0:0:
75,66,73884,6,0,B|119:82|136:124|136:124|98:127|98:127|134:163|125:221|126:221|98:198|98:198|112:227|115:283,1,288
82,319,74184,5,2,0:0:0:0:
60,309,74259,1,0,0:0:0:0:
43,292,74334,1,0,0:0:0:0:
31,272,74409,1,0,0:0:0:0:
26,249,74484,2,0,B|50:206|98:198|98:198|109:223|112:241|112:241|211:187|239:314|363:215,1,360,2|0,0:0|0:0,0:0:0:0:
364,241,74784,6,0,B|394:196|351:154|351:154|306:186|326:239,2,192,8|2|0,0:0|0:0|0:0,0:0:0:0:
37,270,75234,5,2,0:0:0:0:
26,249,75309,1,0,0:0:0:0:
23,225,75384,2,0,B|50:184|99:180|99:180|107:206|109:224|109:224|212:179|229:308|361:220,1,360,2|0,0:0|0:0,0:0:0:0:
364,241,75684,6,0,B|392:184|392:184|352:143|352:143|309:179|309:179|326:239,2,240,8|2|0,0:0|0:0|0:0,0:0:0:0:
38,242,76134,5,2,0:0:0:0:
29,220,76209,1,0,0:0:0:0:
28,196,76284,2,0,B|59:157|107:158|107:158|114:184|114:203|114:203|220:167|226:296|365:221,1,360,2|0,0:0|0:0,0:0:0:0:
364,241,76584,6,0,B|369:204|392:184|392:184|368:163|353:113|353:113|332:160|309:179|309:179|331:209|327:241,2,287.999991210938,8|2|0,0:0|0:0|0:0,0:0:0:0:
364,241,76959,6,0,P|382:286|439:242,1,143.999995605469
447,167,77184,6,0,P|418:169|392:184,1,60,2|0,0:0|0:0,0:0:0:0:
427,136,77259,6,0,P|397:138|371:152,1,60,2|0,0:0|0:0,0:0:0:0:
409,96,77334,6,0,P|380:98|354:113,1,60,2|0,0:0|0:0,0:0:0:0:
391,56,77409,6,0,P|361:58|335:72,1,60,2|0,0:0|0:0,0:0:0:0:
335,72,77484,6,0,P|308:86|279:88,1,60,8|0,0:3|0:3,0:3:0:0:
328,58,77559,6,0,P|306:78|278:88,1,60,8|0,0:3|0:3,0:3:0:0:
318,46,77634,6,0,P|302:71|277:88,1,60,8|0,0:3|0:3,0:3:0:0:
304,37,77709,6,0,P|295:65|276:88,1,60,8|0,0:3|0:3,0:3:0:0:
288,31,77784,6,0,B|287:60|204:134|108:125|108:125|226:158|204:326|74:297|64:202|137:226,1,480,2|0,0:0|0:0,0:0:0:0:
102,97,78234,6,0,P|177:91|217:64,1,96,2|0,0:0|0:0,0:0:0:0:
209,210,78384,6,0,P|169:286|74:250,1,192,8|2,0:0|0:0,0:0:0:0:
447,167,78684,6,0,B|446:233|417:256|417:256|446:267|446:267|399:320|363:323|363:323|377:350|377:350|305:386|217:334,1,384,2|0,0:0|0:0,0:0:0:0:
118,189,79134,6,0,P|160:210|208:210,1,96
368,154,79284,6,0,P|332:185|286:197,1,96,2|0,0:0|0:0,0:0:0:0:
154,29,79434,6,0,P|157:76|181:118,1,96
291,8,79584,6,0,P|300:55|288:101,1,96,8|0,0:0|0:0,0:0:0:0:
118,189,79734,6,0,P|160:210|208:210,1,96,2|0,0:0|0:0,0:0:0:0:
368,154,79884,6,0,P|332:185|286:197,1,96
227,49,80034,1,2,0:0:0:0:
118,189,80184,6,0,P|121:236|144:277,1,96
368,154,80334,6,0,P|377:200|364:246,1,96
209,210,80484,5,2,0:0:0:0:
222,163,80559,1,0,0:0:0:0:
235,117,80634,1,0,0:0:0:0:
261,157,80709,1,0,0:0:0:0:
286,197,80784,6,0,P|332:185|368:154,1,96,8|0,0:0|0:0,0:0:0:0:
209,210,80934,6,0,P|161:210|118:189,1,96,2|0,0:0|0:0,0:0:0:0:
268,358,81084,1,0,0:0:0:0:
144,277,81234,5,2,0:0:0:0:
121,236,81309,1,0,0:0:0:0:
117,188,81384,2,0,P|140:146|179:119,1,96
290,101,81534,6,0,P|335:118|359:284,1,192,0|2,0:0|0:0,0:0:0:0:
79,187,81834,2,0,P|108:134|157:98,1,120,2|0,0:0|0:0,0:0:0:0:
300,76,81984,6,0,P|357:98|387:309,1,240,8|2,0:0|0:0,0:0:0:0:
268,358,82284,6,0,L|275:297,12,60,2|0|0|0|0|0|0|0|0|0|0|0|0,0:0|0:0|0:0|0:0|0:0|0:0|0:0|0:0|0:0|0:0|0:0|0:0|0:0,0:0:0:0:
184,319,82584,6,0,B|166:250|248:168|327:223|327:223|315:329|315:329|399:378|467:299,1,480,6|0,0:0|0:0,0:0:0:0:
374,239,83034,1,8,0:0:0:0:
184,319,83184,6,0,P|180:344|178:308,1,180,2|0,0:0|0:0,0:0:0:0:
45,349,83484,6,0,P|47:291|86:239,1,120,8|0,0:0|0:0,0:0:0:0:
219,186,83634,1,0,0:0:0:0:
210,177,83709,1,0,0:0:0:0:
201,168,83784,2,0,L|287:165,1,83.9999974365235,2|0,0:0|0:0,0:0:0:0:
388,160,83934,2,0,L|474:157,1,83.9999974365235
396,49,84084,6,0,L|313:52,1,83.9999974365235
209,57,84234,2,0,L|126:60,1,83.9999974365235,8|0,0:0|0:0,0:0:0:0:
249,237,84384,6,0,P|277:205|284:165,1,83.9999974365235,2|0,0:0|0:0,0:0:0:0:
126,60,84534,6,0,P|98:91|91:132,1,83.9999974365235
268,220,84684,6,0,P|282:194|284:165,1,60,8|0,0:0|0:0,0:0:0:0:
107,76,84834,6,0,P|92:102|91:131,1,60
249,237,84984,6,0,B|327:246|348:215|348:215|335:176|284:164,1,192,4|0,0:0|0:0,0:0:0:0:
119,316,85434,6,0,P|157:338|193:342,1,60
393,316,85584,6,0,P|355:338|318:342,3,60
119,316,85884,6,0,P|157:338|193:342,5,60
393,316,86334,6,0,P|355:338|318:342,1,60
172,341,86484,5,8,0:3:0:0:
157,338,86559,1,8,0:3:0:0:
143,332,86634,1,8,0:3:0:0:
130,325,86709,1,8,0:3:0:0:
118,315,86784,6,0,P|97:248|134:179,1,120,6|2,0:0|0:0,0:0:0:0:
203,228,87009,1,2,0:0:0:0:
188,254,87084,2,0,P|235:202|313:199,1,120,2|2,0:0|0:0,0:0:0:0:
358,209,87309,5,2,0:0:0:0:
429,247,87384,2,0,B|441:224|442:192|429:164|410:149|410:149|434:119|434:119|426:18,1,192,6|0,0:0|0:0,0:0:0:0:
281,192,87684,6,0,P|299:263|359:288,1,120
352,91,87984,5,8,0:0:0:0:
203,134,88134,2,0,P|179:166|237:137,1,180,2|0,0:0|0:0,0:0:0:0:
159,117,88434,6,0,P|150:204|82:260,1,179.999994506836,2|0,0:0|0:0,0:0:0:0:
35,180,88884,2,0,P|80:147|28:175,1,180,2|0,0:0|0:0,0:0:0:0:
49,153,89184,5,8,0:0:0:0:
82,260,89334,2,0,L|176:274,1,96,2|0,0:0|0:0,0:0:0:0:
76,268,89559,1,0,0:0:0:0:
69,275,89634,1,0,0:0:0:0:
62,282,89709,1,0,0:0:0:0:
55,289,89784,2,0,L|58:357,2,48
125,174,90084,6,0,P|167:215|176:273,1,120,2|0,0:0|0:0,0:0:0:0:
256,128,90384,1,8,0:0:0:0:
335,273,90534,2,0,P|344:215|393:169,1,120.599994295349,2|0,0:0|0:0,0:0:0:0:
430,260,90834,5,2,0:0:0:0:
428,271,90909,1,0,0:0:0:0:
426,282,90984,2,0,B|375:309|375:309|294:305,1,120
125,174,91284,2,0,B|172:206|172:206|253:210,1,120,2|0,0:0|0:0,0:0:0:0:
351,148,91584,5,8,0:0:0:0:
289,32,91734,1,2,0:0:0:0:
174,93,91884,1,0,0:0:0:0:
235,209,92034,1,0,0:0:0:0:
289,68,92184,6,0,B|174:93|174:93|128:63|61:75|32:120|-1:177|64:251,1,384,6|0,0:0|0:0,0:0:0:0:
200,336,92634,5,0,0:0:0:0:
125,174,92784,1,8,0:0:0:0:
80,329,92934,2,0,L|218:336,1,120,2|0,0:0|0:0,0:0:0:0:
216,317,93159,5,0,0:0:0:0:
236,304,93234,1,2,0:0:0:0:
259,298,93309,1,0,0:0:0:0:
282,301,93384,2,0,P|352:326|413:307,1,120
345,203,93684,6,0,P|337:239|359:204,1,107.999996704102,2|0,0:0|0:0,0:0:0:0:
377,123,93984,1,8,0:0:0:0:
261,168,94134,2,0,P|249:238|282:301,1,143.999995605469,2|0,0:0|0:0,0:0:0:0:
398,328,94509,5,0,0:0:0:0:
394,316,94584,2,0,L|325:317,1,60,2|0,0:0|0:0,0:0:0:0:
189,240,94734,2,0,L|248:239,1,60
377,123,94884,2,0,L|257:123,1,120,2|0,0:0|0:0,0:0:0:0:
151,37,95184,5,8,0:0:0:0:
189,168,95334,2,0,P|194:204|189:240,1,71.9999978027344,2|0,0:0|0:0,0:0:0:0:
185,246,95559,5,0,0:0:0:0:
179,251,95634,1,2,0:0:0:0:
173,255,95709,1,0,0:0:0:0:
129,245,95784,2,0,L|290:236,1,120,2|0,0:0|0:0,0:0:0:0:
377,123,96084,2,0,L|386:284,1,120,2|0,0:0|0:0,0:0:0:0:
252,298,96384,6,0,L|247:214,1,60,8|0,0:0|0:0,0:0:0:0:
259,278,96459,2,0,L|254:194,1,60
266,258,96534,2,0,L|261:174,1,60,2|0,0:0|0:0,0:0:0:0:
273,238,96609,2,0,L|268:154,1,60
264,218,96684,2,0,L|261:133,1,60,2|0,0:0|0:0,0:0:0:0:
255,199,96759,2,0,L|252:114,1,60
246,179,96834,2,0,L|243:94,1,60,2|0,0:0|0:0,0:0:0:0:
237,159,96909,2,0,L|234:74,1,60
199,148,96984,6,0,P|246:96|334:172,1,180.000006866455,6|0,0:0|0:0,0:0:0:0:
331,140,97284,2,0,P|366:105|426:158,1,120
422,132,97584,1,8,0:0:0:0:
399,248,97734,2,0,P|362:309|287:337,1,144,2|0,0:0|0:0,0:0:0:0:
244,314,98034,6,0,P|253:273|275:339,1,179.999994506836,2|0,0:0|0:0,0:0:0:0:
243,313,98484,2,0,P|201:256|200:186,1,144,2|0,0:0|0:0,0:0:0:0:
237,159,98784,5,8,0:0:0:0:
50,218,98934,2,0,L|57:286,1,48,2|0,0:0|0:0,0:0:0:0:
123,300,99084,1,0,0:0:0:0:
124,311,99159,1,0,0:0:0:0:
125,323,99234,1,2,0:0:0:0:
126,335,99309,1,0,0:0:0:0:
127,347,99384,2,0,L|196:351,2,48,2|0|0,0:0|0:0|0:0,0:0:0:0:
50,218,99684,6,0,P|132:214|190:171,1,120,2|0,0:0|0:0,0:0:0:0:
250,77,99984,1,8,0:0:0:0:
290,219,100134,2,0,P|336:256|394:269,1,120,2|0,0:0|0:0,0:0:0:0:
404,262,100359,5,0,0:0:0:0:
411,253,100434,1,2,0:0:0:0:
415,242,100509,1,0,0:0:0:0:
417,230,100584,2,0,L|424:95,1,120,2|0,0:0|0:0,0:0:0:0:
88,110,100884,2,0,L|95:230,1,120,2|0,0:0|0:0,0:0:0:0:
331,331,101184,5,8,0:0:0:0:
176,235,101334,1,2,0:0:0:0:
341,139,101484,2,0,L|337:205,1,60,8|0,0:0|0:0,0:0:0:0:
166,55,101634,2,0,L|169:121,1,60,2|0,0:0|0:0,0:0:0:0:
337,198,101784,6,0,B|189:285|169:94|-21:226,1,335.999989746094,6|0,0:0|0:0,0:0:0:0:
101,323,102234,1,0,0:0:0:0:
176,235,102384,1,8,0:0:0:0:
17,202,102534,6,0,P|54:209|95:203,1,60,2|0,0:0|0:0,0:0:0:0:
155,134,102684,1,0,0:0:0:0:
162,124,102759,1,0,0:0:0:0:
168,114,102834,2,0,P|197:113|227:119,1,60
337,198,102984,5,2,0:0:0:0:
176,235,103134,1,0,0:0:0:0:
337,198,103284,2,0,L|348:58,1,120,2|0,0:0|0:0,0:0:0:0:
327,317,103584,1,8,0:0:0:0:
428,232,103734,6,0,L|434:155,1,60,2|0,0:0|0:0,0:0:0:0:
249,187,103884,1,0,0:0:0:0:
247,176,103959,1,0,0:0:0:0:
246,164,104035,2,0,L|250:104,1,60
346,78,104184,5,0,0:0:0:0:
344,108,104259,1,0,0:0:0:0:
341,138,104334,1,0,0:0:0:0:
339,168,104409,1,0,0:0:0:0:
337,198,104484,6,0,L|277:193,1,60,2|0,0:0|0:0,0:0:0:0:
166,93,104634,2,0,L|225:88,1,60,2|0,0:0|0:0,0:0:0:0:
346,78,104784,2,0,L|226:88,1,120,8|0,0:0|0:0,0:0:0:0:
64,53,105084,5,8,0:3:0:0:
52,130,105159,1,8,0:3:0:0:
89,191,105234,1,8,0:3:0:0:
130,199,105309,1,8,0:3:0:0:
158,188,105384,6,0,B|166:92|166:92|129:146,1,143.999995605469,8|2,0:0|0:0,0:0:0:0:
67,220,105609,1,2,0:0:0:0:
89,191,105684,2,0,B|34:270|34:270|93:241,1,143.999995605469,2|2,0:0|0:0,0:0:0:0:
236,170,105909,5,2,0:0:0:0:
264,185,105984,2,0,L|258:272,1,71.9999978027344,8|0,0:0|0:0,0:0:0:0:
147,357,106134,6,0,L|211:325,1,71.9999978027344,8|0,0:0|0:0,0:0:0:0:
295,332,106284,5,10,0:0:0:0:
315,346,106359,1,2,0:0:0:0:
335,359,106434,1,2,0:0:0:0:
355,373,106509,1,2,0:0:0:0:
414,330,106584,6,0,L|295:332,1,120,6|0,0:0|0:0,0:0:0:0:
355,282,107034,1,0,0:0:0:0:
295,332,107184,2,0,B|235:324|235:324|165:328,1,120
69,332,107634,5,0,0:0:0:0:
175,327,107784,2,0,L|179:263,1,60
72,272,108084,2,0,L|68:331,1,60
178,267,108384,6,0,L|182:203,1,60
75,212,108684,2,0,L|71:271,1,60
283,290,108984,5,0,0:0:0:0:
177,266,109134,1,0,0:0:0:0:
283,290,109284,2,0,L|287:226,1,60
184,146,109584,2,0,L|177:266,1,120
389,285,110034,5,0,0:0:0:0:
283,290,110184,2,0,L|280:350,1,60
389,285,110484,2,0,L|392:225,1,60
289,170,110784,5,0,0:0:0:0:
286,209,110934,1,0,0:0:0:0:
284,249,111084,1,0,0:0:0:0:
282,289,111234,1,0,0:0:0:0:
391,225,111384,6,0,L|398:105,1,120
289,170,111834,1,0,0:0:0:0:
222,286,111984,2,0,L|282:289,1,60
289,170,112284,1,0,0:0:0:0:
169,176,112434,1,0,0:0:0:0:
175,59,112584,6,0,L|235:56,1,60
397,105,112884,2,0,L|337:102,1,60
169,176,113184,2,0,L|229:173,1,60
397,105,113484,1,0,0:0:0:0:
234,56,113634,1,0,0:0:0:0:
169,176,113784,6,0,L|172:236,1,60
66,231,114084,2,0,L|62:167,1,60
274,180,114384,2,0,L|277:240,2,60
166,116,114834,1,0,0:0:0:0:
172,236,114984,5,0,0:0:0:0:
303,162,115134,1,0,0:0:0:0:
165,81,115284,1,0,0:0:0:0:
171,201,115434,1,0,0:0:0:0:
177,321,115584,6,0,L|187:260,1,48
172,236,115734,2,0,L|182:175,1,48
171,201,115884,2,0,L|181:140,1,48
165,81,116034,2,0,L|175:20,1,48
274,180,116184,6,0,B|181:202|181:202|50:185,1,192,2|0,0:0|0:0,0:0:0:0:
86,199,116559,1,0,0:0:0:0:
86,208,116634,1,8,0:1:0:0:
177,321,116784,2,0,L|328:338,1,144,8|0,0:1|0:1,0:1:0:0:
224,317,117084,2,0,L|319:327,1,96,8|0,0:1|0:1,0:1:0:0:
319,318,117309,5,0,0:1:0:0:
270,302,117384,2,0,L|317:307,1,48,0|0,0:1|0:1,0:1:0:0:
407,318,117534,2,0,L|454:323,1,48,8|0,0:1|0:1,0:1:0:0:
462,237,117684,6,0,L|366:247,1,96,8|0,0:1|0:1,0:1:0:0:
367,238,117909,1,0,0:1:0:0:
416,222,117984,2,0,L|368:227,1,48,8|0,0:1|0:1,0:1:0:0:
290,190,118134,2,0,L|242:195,3,48,0|0|0|0,0:1|0:1|0:1|0:1,0:1:0:0:
105,211,118434,2,0,L|153:206,1,48,8|0,0:1|0:1,0:1:0:0:
242,195,118584,6,0,B|337:184|337:184|442:124,1,192,8|0,0:1|0:1,0:1:0:0:
420,127,118959,1,0,0:1:0:0:
420,118,119034,2,0,L|372:112,1,48,8|0,0:1|0:1,0:1:0:0:
282,116,119184,2,0,L|235:111,3,48,8|0|0|0,0:1|0:1|0:1|0:1,0:1:0:0:
144,114,119484,2,0,L|96:108,5,48,8|0|0|0|0|0,0:1|0:1|0:1|0:1|0:1|0:1,0:1:0:0:
99,117,119934,6,0,L|146:122,1,48,8|0,0:1|0:1,0:1:0:0:
236,118,120084,2,0,L|284:124,3,48,8|0|0|0,0:1|0:1|0:1|0:1,0:1:0:0:
350,70,120384,6,0,P|367:97|370:131,1,48,8|0,0:1|0:1,0:1:0:0:
242,195,120534,6,0,P|258:226|307:260,1,60,0|0,0:1|0:1,0:1:0:0:
352,226,120684,6,0,P|353:257|328:304,1,71.9999978027344,0|0,0:1|0:1,0:1:0:0:
195,280,120834,6,0,P|193:315|218:368,1,83.9999974365235,0|0,0:1|0:1,0:1:0:0:
291,362,120984,6,0,L|283:123,1,240,12|0,0:1|0:1,0:1:0:0:
261,129,121359,1,0,0:1:0:0:
239,135,121434,2,0,L|241:194,1,60,8|0,0:1|0:1,0:1:0:0:
195,280,121584,2,0,L|197:339,3,60,8|0|0|0,0:1|0:1|0:1|0:1,0:1:0:0:
291,362,121884,2,0,L|289:303,3,60,8|0|0|0,0:1|0:1|0:1|0:1,0:1:0:0:
384,384,122184,2,0,L|382:325,1,60,8|0,0:1|0:1,0:1:0:0:
330,230,122334,5,8,0:1:0:0:
308,236,122409,1,0,0:1:0:0:
286,242,122484,2,0,L|288:301,1,60,0|0,0:1|0:1,0:1:0:0:
195,280,122634,2,0,L|197:339,1,60,0|0,0:1|0:1,0:1:0:0:
103,317,122784,2,0,L|105:376,5,60,8|0|0|0|0|0,0:1|0:1|0:1|0:1|0:1|0:1,0:1:0:0:
197,339,123234,6,0,L|195:280,1,60,0|0,0:1|0:1,0:1:0:0:
100,255,123384,2,0,L|98:196,5,60,0|0|0|0|0|0,0:1|0:1|0:1|0:1|0:1|0:1,0:1:0:0:
192,219,123834,6,0,L|194:278,1,60,8|0,0:1|0:1,0:1:0:0:
286,242,123984,2,0,L|288:301,3,60,8|0|0|0,0:1|0:1|0:1|0:1,0:1:0:0:
374,266,124284,5,8,0:1:0:0:
352,260,124359,1,0,0:1:0:0:
330,254,124434,1,0,0:1:0:0:
308,248,124509,1,0,0:1:0:0:
286,242,124584,2,0,L|288:301,1,60,0|0,0:1|0:1,0:1:0:0:
399,192,124734,2,0,L|397:133,1,60,8|0,0:1|0:1,0:1:0:0:
277,128,124884,6,0,P|290:148|284:121,1,72,8|0,0:1|0:1,0:1:0:0:
237,60,125184,6,2,P|210:89|212:177,1,120
188,79,125259,2,2,B|199:126|199:126|195:161|226:192,1,120
153,117,125334,2,2,B|200:144|200:144|210:184|249:210,1,120
156,160,125409,2,2,B|224:176|219:187|219:187|201:168|200:132,1,120
168,191,125484,2,2,B|212:171|212:171|230:198|230:198|304:224,1,120
179,215,125559,2,2,B|216:198|241:211|267:211|267:211|225:234,1,120
192,230,125634,2,2,B|253:219|253:219|275:208|275:208|241:212|241:212|275:225,1,120
197,236,125709,2,2,B|241:229|241:229|275:209|275:209|235:257,1,120
203,240,125784,6,0,B|251:305|355:281|355:281|391:240|384:162|349:124,1,335.999989746094,6|0,0:0|0:0,0:0:0:0:
155,368,126234,6,0,P|192:375|246:353,1,83.9999974365235,8|0,0:0|0:0,0:0:0:0:
355,281,126384,6,0,B|390:240|384:162|350:125|350:125|313:166|313:236|365:293,1,335.999989746094,2|0,0:0|0:0,0:0:0:0:
129,204,126834,6,0,P|157:228|215:236,1,83.9999974365235,8|0,0:0|0:0,0:0:0:0:
478,207,126984,6,0,B|451:186|402:200|368:233|354:283|354:283|297:191|349:126,1,335.999989746094,2|0,0:0|0:0,0:0:0:0:
188,48,127434,6,0,P|200:83|246:119,1,83.9999974365235,8|0,0:0|0:0,0:0:0:0:
478,207,127584,6,0,P|483:91|301:59,1,335.999989746094,2|0,0:0|0:0,0:0:0:0:
155,332,128034,6,0,P|200:302|213:244,1,96,8|0,0:0|0:0,0:0:0:0:
172,105,128184,6,0,B|137:29|49:-2|49:-2|-12:91|48:247,1,384,2|0,0:0|0:0,0:0:0:0:
357,332,128634,6,0,P|312:302|299:244,1,96,8|0,0:0|0:0,0:0:0:0:
340,105,128784,6,0,B|375:29|463:-2|463:-2|524:91|464:247,1,384,2|0,0:0|0:0,0:0:0:0:
147,342,129234,6,0,P|195:310|209:247,1,107.999996704102,8|0,0:0|0:0,0:0:0:0:
165,98,129384,6,0,B|128:16|33:-16|33:-16|-32:83|32:251,1,431.999986816407,2|0,0:0|0:0,0:0:0:0:
364,342,129834,6,0,P|316:310|302:247,1,107.999996704102,8|0,0:0|0:0,0:0:0:0:
346,98,129984,6,0,B|383:16|478:-16|478:-16|544:83|479:251,1,431.999986816407,2|0,0:0|0:0,0:0:0:0:
147,342,130434,6,0,P|195:310|209:247,1,107.999996704102,2|0,0:0|0:0,0:0:0:0:
402,247,130584,6,0,P|349:243|300:264,1,107.999996704102,10|0,0:0|0:0,0:0:0:0:
109,247,130734,6,0,P|162:243|212:264,1,107.999996704102,10|0,0:0|0:0,0:0:0:0:
394,221,130884,6,0,P|341:230|299:263,1,107.999996704102,10|0,0:0|0:0,0:0:0:0:
118,221,131034,6,0,P|170:230|212:263,1,107.999996704102,10|0,0:0|0:0,0:0:0:0:
389,198,131184,6,0,B|328:214|328:214|299:262,1,120,10|0,0:0|0:0,0:0:0:0:
122,198,131334,6,0,B|184:214|184:214|212:262,1,120,10|0,0:0|0:0,0:0:0:0:
372,176,131484,6,0,B|343:197|318:210|318:210|314:230|296:266,1,120,10|0,0:0|0:0,0:0:0:0:
140,176,131634,6,0,B|168:197|193:210|193:210|197:230|215:266,1,120,10|0,0:0|0:0,0:0:0:0:
402,247,131784,6,0,P|356:160|292:146,1,120,10|0,0:0|0:0,0:0:0:0:
110,247,131934,6,0,P|156:160|220:146,1,120,10|0,0:0|0:0,0:0:0:0:
411,207,132084,6,0,P|344:135|278:138,1,120,10|0,0:0|0:0,0:0:0:0:
100,207,132234,6,0,P|167:135|233:138,1,120,10|0,0:0|0:0,0:0:0:0:
433,176,132384,6,0,B|400:175|400:175|375:136|296:128,1,132.00000402832,10|0,0:0|0:0,0:0:0:0:
79,176,132534,6,0,B|112:175|112:175|137:136|216:128,1,132.00000402832,10|0,0:0|0:0,0:0:0:0:
439,143,132684,6,0,P|368:141|274:118,1,143.999995605469,10|0,0:0|0:0,0:0:0:0:
73,143,132834,6,0,P|144:141|238:118,1,143.999995605469,10|0,0:0|0:0,0:0:0:0:
266,35,132984,5,10,0:0:0:0:
264,53,133059,1,8,0:0:0:0:
262,72,133134,1,10,0:0:0:0:
261,91,133209,1,8,0:0:0:0:
259,109,133284,1,10,0:0:0:0:
257,128,133359,1,8,0:0:0:0:
256,147,133434,1,10,0:0:0:0:
254,165,133509,1,8,0:0:0:0:
215,125,133584,5,10,0:0:0:0:
209,164,133659,1,8,0:0:0:0:
205,206,133734,1,10,0:0:0:0:
204,248,133809,1,8,0:0:0:0:
208,289,133884,6,10,L|255:296,1,41.9999987182618
216,278,133959,2,10,L|263:285,1,41.9999987182618
204,248,134034,6,10,L|157:255,1,41.9999987182618
196,237,134109,2,10,L|149:244,1,41.9999987182618
205,206,134184,6,0,B|179:300|337:342|364:240|364:240|337:342|494:384|519:290|519:290|494:384|337:342|364:240|364:240|327:188|327:188|379:185|379:185|422:213|422:213|364:240,1,971.999970336915,6|0,0:0|0:0,0:0:0:0:
328,158,134934,5,8,0:3:0:0:
347,156,135009,1,8,0:3:0:0:
367,155,135084,1,8,0:3:0:0:
387,154,135159,1,8,0:3:0:0:
404,165,135234,1,8,0:3:0:0:
420,177,135309,1,8,0:3:0:0:
437,188,135384,6,0,B|319:202|319:202|195:122|175:276|47:150,1,384,6|0,0:0|0:0,0:0:0:0:
70,170,135834,6,0,P|100:167|157:208,1,96
289,187,135984,2,0,P|276:214|212:243,1,96,8|0,0:0|0:0,0:0:0:0:
164,368,136134,2,0,P|147:343|154:273,1,96
122,173,136284,6,0,B|172:159|226:177|257:232|257:232|238:302|208:334|130:325,1,323.999990112305
257,232,136584,6,0,B|327:228|327:228|349:219|349:219|371:226|371:226|436:223,1,180,2|0,0:0|0:0,0:0:0:0:
502,351,136884,6,0,P|507:309|493:271,1,83.9999974365235
490,91,137034,6,0,P|499:131|488:172,1,83.9999974365235
257,232,137184,6,0,B|327:229|327:229|353:283|353:283|371:227|371:227|438:223,1,251.999992309571,8|0,0:0|0:0,0:0:0:0:
469,349,137484,6,0,B|489:319|489:319|492:270,1,83.9999974365235
456,96,137634,6,0,B|478:124|478:124|487:172,1,83.9999974365235
352,284,137784,6,0,B|327:229|327:229|193:233|193:233|162:312,1,251.999992309571,2|0,0:0|0:0,0:0:0:0:
173,365,138084,6,0,P|184:318|168:281,1,83.9999974365235
83,154,138234,6,0,B|69:110|78:81|78:81|102:106,1,96
282,117,138384,6,0,B|278:72|260:47|260:47|226:118|151:104,1,192.599994122315,8|0,0:0|0:0,0:0:0:0:
83,154,138684,6,0,B|69:110|78:81|78:81|102:106,1,96
282,117,138834,6,0,B|276:71|260:47|260:47|247:78,1,96
83,154,138984,6,0,B|69:114|78:81|78:81|119:112|167:104|167:104|146:134|157:164|157:164|118:179|118:179|134:207|114:228|114:228|99:271,1,360,2|0,0:0|0:0,0:0:0:0:
41,304,139284,6,0,P|28:247|46:208,1,83.9999974365235
11,118,139434,2,0,P|66:135|91:170,1,83.9999974365235
168,283,139584,6,0,B|201:317|235:336|254:288|216:288|216:288|219:268|219:268|258:319|357:307,1,251.999992309571,8|0,0:0|0:0,0:0:0:0:
401,348,139884,6,0,B|413:322|397:289|397:289|360:318|296:318|237:298|219:268|219:268|196:297|196:297|176:295|152:267,1,323.999990112305
283,221,140184,6,0,B|331:143|333:64|203:38|156:128|197:208|270:192|270:192|324:165|401:202|348:232|348:232|314:243|283:223,1,539.999983520508
168,282,140634,6,0,P|178:322|206:354,1,83.9999974365235
397,289,140784,6,0,P|436:240|436:187,1,83.9999974365235,8|0,0:0|0:0,0:0:0:0:
168,282,140934,6,0,P|178:322|206:354,1,83.9999974365235
283,221,141084,6,0,B|310:197|320:119|276:97|276:97|308:73|308:73|275:49|226:55,1,251.999992309571
208,165,141384,6,0,B|270:151|270:151|335:165|335:165|361:137|417:126|472:159,1,251.999992309571,2|0,0:0|0:0,0:0:0:0:
439,220,141684,6,0,P|426:259|397:289,1,83.9999974365235
205,353,141834,6,0,P|178:322|168:282,1,83.9999974365235
208,165,141984,6,0,P|175:245|91:265,1,180,8|0,0:0|0:0,0:0:0:0:
113,173,142284,6,0,B|113:201|91:265|91:265|99:200|81:143|35:124|35:124|51:86|120:73,1,323.999990112305
167,95,142584,6,0,B|202:118|208:165|208:165|270:151|270:151|353:170,1,215.999993408203,2|0,0:0|0:0,0:0:0:0:
406,110,142884,6,0,B|429:133|434:193|407:219|407:219|435:222|435:222|391:280|323:274|323:274|286:307|238:281,1,360
205,353,143184,6,0,P|174:320|176:246,1,96,8|0,0:0|0:0,0:0:0:0:
308,179,143334,5,2,0:0:0:0:
336,166,143409,2,0,B|270:151|270:151|221:162,1,96,2|0,0:0|0:0,0:0:0:0:
88,157,143559,5,2,0:0:0:0:
115,168,143635,2,0,P|152:140|167:95,1,96,2|0,0:0|0:0,0:0:0:0:
9,29,143784,6,0,L|16:144,1,96,8|0,0:0|0:0,0:0:0:0:
66,250,143934,5,2,0:0:0:0:
39,239,144009,2,0,L|33:334,1,96,2|0,0:0|0:0,0:0:0:0:
184,334,144159,5,2,0:0:0:0:
205,353,144234,2,0,B|256:358|256:358|303:335,1,96,2|0,0:0|0:0,0:0:0:0:
336,166,144384,6,2,B|327:223|351:263|351:263|352:219,1,120
308,179,144459,2,2,B|312:238|352:265|352:265|363:228,1,120
283,200,144534,2,2,B|336:261|355:266|355:266|369:237,1,120
271,220,144609,2,2,B|294:264|350:267|350:267|392:234,1,120
269,233,144684,2,2,P|344:268|395:242,1,120
270,240,144759,2,2,B|323:272|323:272|364:261|364:261|369:222,1,120
272,244,144834,2,2,B|349:271|349:271|441:215,1,120
272,246,144909,2,2,B|303:269|344:273|344:273|285:244,1,120
274,249,144984,6,0,B|293:277|353:319|353:319|257:299|166:335|166:335|218:284|224:237,1,396.000012084961,6|0,0:0|0:0,0:0:0:0:
82,178,145284,6,0,B|83:235|132:250|132:250|136:199|82:178,1,192
170,80,145434,6,0,B|156:136|200:163|200:163|216:114|170:80,1,192
309,69,145584,6,0,B|332:122|293:156|293:156|268:110|309:69,1,192,8|0,0:0|0:0,0:0:0:0:
413,149,145734,6,0,B|421:206|375:229|375:229|363:179|413:149,1,192
221,254,145884,6,0,B|218:284|166:335|166:335|257:299|353:319|353:319|293:277|274:249,1,396.000012084961
413,149,146184,6,0,B|363:179|375:229|375:229|421:206|413:149,1,192,2|0,0:0|0:0,0:0:0:0:
309,69,146334,6,0,B|268:110|293:156|293:156|332:122|309:69,1,192
170,80,146483,6,0,B|216:114|200:163|200:163|156:136|170:80,1,192
82,178,146634,6,0,B|136:199|132:250|132:250|83:235|82:178,1,192
170,80,146784,6,0,B|216:114|200:163|200:163|156:136|170:80,1,188.999994232178,8|0,0:0|0:0,0:0:0:0:
309,69,147084,6,0,B|268:110|293:155|293:155|332:122|309:69,1,188.999994232178
417,127,147384,6,0,B|420:108|419:65|373:26|373:26|310:41|267:102|291:155,1,288,2|0,0:0|0:0,0:0:0:0:
388,274,147684,6,0,B|388:345|260:356|255:292|255:292|260:356|133:367|124:266,1,360
74,155,147984,6,0,B|67:136|62:93|102:49|102:49|166:55|218:110|201:166,1,288,8|0,0:0|0:0,0:0:0:0:
289,247,148284,6,0,P|265:265|255:292,1,60
214,253,148434,6,0,P|241:267|256:293,1,60
101,273,148584,6,0,B|168:251|256:293|256:293|333:236|439:271,1,323.999990112305
384,291,148884,6,0,P|425:304|411:263,1,107.999996704102
130,298,149034,6,0,P|90:315|101:273,1,107.999996704102
214,227,149184,6,0,B|235:219|260:200|273:176|273:176|265:210|243:245|190:264,1,180,8|0,0:0|0:0,0:0:0:0:
99,176,149484,6,0,B|128:119|162:105|162:105|174:124|174:124|217:76|242:75|242:75|235:97|235:97|288:76|348:120,1,323.999990112305
417,110,149784,6,0,B|404:200|318:211|273:176|273:176|259:232|215:254|215:254|199:251|176:224,1,323.999990112305,8|0,0:0|0:0,0:0:0:0:
202,338,150084,6,0,P|163:323|130:298,1,83.9999974365235
158,163,150234,6,0,P|165:204|190:238,1,83.9999974365235
419,263,150384,2,0,P|451:236|467:198,1,83.9999974365235,8|0,0:0|0:0,0:0:0:0:
333,22,150534,2,0,L|327:106,1,83.9999974365235
202,338,150684,6,0,B|158:328|130:298|130:298|102:326|11:355|-11:264|76:254|56:304,1,251.999992309571,10|0,0:0|0:0,0:0:0:0:
35,124,150984,6,0,P|177:184|202:338,1,323.999990112305
130,298,151284,6,0,P|125:251|96:219,1,83.9999974365235,8|0,0:0|0:0,0:0:0:0:
327,106,151434,6,0,P|288:122|266:157,1,83.9999974365235
295,317,151584,6,0,B|303:273|294:239|294:239|332:224|344:191|344:191|379:235|371:286,1,251.999992309571,8|0,0:0|0:0,0:0:0:0:
202,338,151884,6,0,P|209:258|177:184,1,161.999995056153
101,223,152184,6,0,B|139:251|129:298|129:298|206:251|206:251|201:213|178:184|178:184|217:141|217:141|302:168,1,360,8|0,0:0|0:0,0:0:0:0:
264,123,152484,6,0,B|210:106|210:106|174:142,1,107.999996704102
393,163,152634,6,0,B|446:181|446:181|454:232,1,107.999996704102
371,285,152784,6,0,L|357:93,1,192,2|0,0:0|0:0,0:0:0:0:
277,315,153009,6,0,L|263:123,1,192,2|0,0:0|0:0,0:0:0:0:
183,345,153234,6,0,L|176:244,1,96,2|0,0:0|0:0,0:0:0:0:
72,95,153384,6,0,P|74:143|102:65,1,288,2|0,0:0|0:0,0:0:0:0:
72,95,153684,6,0,P|130:123|182:123,1,96
359,118,153834,2,0,L|478:115,1,96
67,117,153984,6,0,P|140:152|206:152,1,107.999996704102
364,148,154134,2,0,L|483:145,1,107.999996704102
62,139,154284,6,0,P|135:174|210:173,1,120
371,170,154434,2,0,L|490:167,1,120
495,277,154584,6,0,B|375:282|375:282|316:339|316:339|178:345,1,335.999989746094,6|0,0:0|0:0,0:0:0:0:
160,125,155034,1,0,0:0:0:0:
94,263,155184,2,0,L|177:259,1,83.9999974365235,8|0,0:0|0:0,0:0:0:0:
371,170,155334,2,0,L|287:173,1,83.9999974365235
160,125,155484,5,0,0:0:0:0:
160,134,155559,1,0,0:0:0:0:
161,142,155634,1,0,0:0:0:0:
161,150,155709,1,0,0:0:0:0:
77,153,155784,6,0,L|161:150,1,83.9999974365235,2|0,0:0|0:0,0:0:0:0:
283,89,155934,2,0,L|286:172,1,83.9999974365235
182,344,156084,6,0,L|178:260,1,83.9999974365235
371,170,156234,2,0,L|374:253,1,83.9999974365235
267,306,156384,5,8,0:0:0:0:
459,215,156534,2,0,L|455:131,1,83.9999974365235
283,89,156684,5,0,0:0:0:0:
292,89,156759,1,0,0:0:0:0:
300,88,156834,1,0,0:0:0:0:
308,88,156909,1,0,0:0:0:0:
371,170,156984,6,0,L|287:173,1,83.9999974365235,2|0,0:0|0:0,0:0:0:0:
178,260,157134,2,0,L|182:344,1,83.9999974365235
339,128,157284,6,0,L|255:131,1,83.9999974365235
146,218,157434,2,0,L|149:301,1,83.9999974365235
308,88,157584,6,0,L|224:91,1,83.9999974365235,8|0,0:0|0:0,0:0:0:0:
115,178,157734,2,0,L|118:261,1,83.9999974365235
267,306,157884,5,0,0:0:0:0:
267,297,157959,1,0,0:0:0:0:
266,289,158034,1,0,0:0:0:0:
266,281,158109,1,0,0:0:0:0:
178,260,158184,6,0,L|273:255,1,96,2|0,0:0|0:0,0:0:0:0:
446,248,158334,2,0,B|493:245|493:245|445:267,1,96
194,150,158484,6,0,L|285:178,1,96
449,230,158634,2,0,B|494:243|494:243|441:247,1,96
246,52,158784,6,0,L|327:113,1,96,8|0,0:0|0:0,0:0:0:0:
458,214,158934,2,0,B|495:241|495:241|445:227,1,96
322,110,159084,6,0,B|286:179|286:179|274:255|274:255|254:321|325:332|345:287|333:245|289:270,1,288
249,176,159384,6,0,B|202:129|104:122|-5:211|51:387|212:371|212:371|185:344|169:303|178:260,1,575.999982421876,6|0,0:0|0:0,0:0:0:0:
427,335,159834,1,0,0:0:0:0:
177,260,159984,6,0,L|285:292,1,83.9999974365235,8|0,0:0|0:0,0:0:0:0:
427,335,160134,2,0,L|407:253,1,83.9999974365235
359,76,160284,1,0,0:0:0:0:
346,87,160359,1,0,0:0:0:0:
334,99,160434,1,0,0:0:0:0:
322,110,160509,1,0,0:0:0:0:
378,157,160584,6,0,L|358:75,1,83.9999974365235,2|0,0:0|0:0,0:0:0:0:
129,82,160734,2,0,L|209:105,1,83.9999974365235
377,156,160884,2,0,L|317:214,1,83.9999974365235
188,333,161034,2,0,L|168:251,1,83.9999974365235
232,188,161184,5,8,0:0:0:0:
268,356,161334,2,0,L|187:332,1,83.9999974365235
19,281,161484,1,0,0:0:0:0:
31,269,161559,1,0,0:0:0:0:
43,257,161634,1,0,0:0:0:0:
55,246,161709,1,0,0:0:0:0:
18,280,161784,6,0,P|10:235|43:202,1,96,2|0,0:0|0:0,0:0:0:0:
232,188,161934,2,0,L|343:180,1,96
507,173,162084,2,0,L|423:178,1,83.9999974365235
500,163,162234,6,0,L|416:168,1,83.9999974365235
320,171,162384,2,0,L|225:178,1,96,8|0,0:0|0:0,0:0:0:0:
35,192,162534,2,0,P|3:225|12:271,1,96
187,332,162684,1,0,0:0:0:0:
183,315,162759,1,0,0:0:0:0:
179,299,162834,1,0,0:0:0:0:
175,282,162909,1,0,0:0:0:0:
147,259,162984,5,2,0:0:0:0:
222,265,163059,1,0,0:0:0:0:
297,271,163134,1,0,0:0:0:0:
35,192,163284,6,0,P|41:214|40:187,1,83.9999974365235
140,248,163434,5,0,0:0:0:0:
146,173,163509,1,0,0:0:0:0:
152,98,163584,6,0,P|162:143|248:184,1,120,8|0,0:0|0:0,0:0:0:0:
156,128,163659,2,2,P|181:166|276:173,1,120
170,155,163734,2,2,P|207:181|298:154,1,120
193,174,163809,2,2,P|237:185|313:127,1,120
224,184,163884,6,2,P|271:145|312:158,1,96
246,154,163959,2,2,P|306:162|324:201,1,96
283,150,164034,2,2,P|316:200|299:240,1,96
310,174,164109,2,2,P|294:233|254:246,1,96
266,246,164184,6,0,P|375:259|227:202,1,671.999979492188,6|0,0:0|0:0,0:0:0:0:
332,147,164634,5,0,0:0:0:0:
129,27,164784,2,0,L|42:36,1,83.9999974365235,8|0,0:0|0:0,0:0:0:0:
97,186,164934,2,0,L|10:195,1,83.9999974365235
65,345,165084,1,0,0:0:0:0:
92,342,165159,1,0,0:0:0:0:
120,339,165234,1,0,0:0:0:0:
148,336,165309,1,0,0:0:0:0:
126,260,165384,6,0,P|175:260|212:287,1,96,2|0,0:0|0:0,0:0:0:0:
386,260,165534,6,0,P|337:260|300:287,1,96
185,84,165684,6,0,L|194:168,1,83.9999974365235
326,84,165834,6,0,L|318:168,1,83.9999974365235
363,336,165984,6,0,L|450:345,1,83.9999974365235,8|0,0:0|0:0,0:0:0:0:
498,194,166134,2,0,L|415:186,1,83.9999974365235
382,26,166284,1,0,0:0:0:0:
410,29,166359,1,0,0:0:0:0:
438,32,166434,1,0,0:0:0:0:
466,35,166509,1,0,0:0:0:0:
493,18,166584,6,0,L|484:101,1,83.9999974365235
371,252,166734,2,0,L|363:336,1,83.9999974365235
224,191,166884,6,0,P|257:227|287:191,1,107.999996704102
287,191,167034,2,0,P|256:155|222:190,1,107.999996704102
149,336,167184,6,0,L|140:252,1,83.9999974365235,8|0,0:0|0:0,0:0:0:0:
27,101,167334,2,0,L|19:18,1,83.9999974365235
256,76,167484,5,0,0:0:0:0:
256,104,167559,1,0,0:0:0:0:
256,132,167634,1,0,0:0:0:0:
256,160,167709,1,0,0:0:0:0:
224,192,167784,6,0,B|256:240|256:240|281:201,1,83.9999974365235,2|0,0:0|0:0,0:0:0:0:
411,133,167934,6,0,B|434:51|399:18|399:18|351:30|329:105,1,192
287,192,168084,6,0,B|256:240|256:240|231:201,1,83.9999974365235
101,133,168234,6,0,B|77:51|112:18|112:18|161:30|182:105,1,192
105,289,168384,5,8,0:0:0:0:
147,310,168459,1,0,0:0:0:0:
194,307,168534,1,2,0:0:0:0:
234,281,168609,1,0,0:0:0:0:
255,239,168684,1,8,0:3:0:0:
276,281,168759,1,8,0:3:0:0:
316,307,168834,1,8,0:3:0:0:
363,310,168909,1,8,0:3:0:0:
405,289,168984,6,0,B|368:324|183:382|258:182|241:116|75:90|-71:219|8:368|121:400|179:310|157:250,1,575.999982421876
256,96,169434,1,8,0:0:0:0:
77,172,169584,2,0,P|33:219|22:298,1,120,2|0,0:0|0:0,0:0:0:0:
236,352,169734,2,0,P|260:298|255:239,1,120
178,26,169884,5,8,0:0:0:0:
158,60,169959,1,0,0:0:0:0:
152,100,170034,1,0,0:0:0:0:
159,139,170109,1,0,0:0:0:0:
237,209,170184,6,0,P|261:155|256:96,1,120,6|0,0:0|0:0,0:0:0:0:
38,158,170334,2,0,P|14:212|19:271,1,120
344,168,170484,6,0,P|309:120|255:95,1,120
78,72,170634,1,8,0:0:0:0:
164,282,170784,2,0,L|258:296,1,96,2|0,0:0|0:0,0:0:0:0:
438,153,170934,2,0,L|333:169,1,96
424,356,171084,5,8,0:0:0:0:
458,334,171159,1,0,0:0:0:0:
477,298,171234,1,2,0:0:0:0:
483,258,171309,1,0,0:0:0:0:
454,185,171384,6,0,B|403:211|404:268|404:268|327:246|259:296|259:296|270:198|164:155|104:205,1,480,14|0,0:0|0:0,0:0:0:0:
483,258,171834,6,0,B|496:198|491:177|491:177|470:177|454:185,1,120,14|0,0:0|0:0,0:0:0:0:
204,86,171984,6,0,P|264:110|317:161,3,120,14|0|0|0,0:0|0:0|0:0|0:0,0:0:0:0:
164,282,172284,6,0,P|120:297|34:262,5,120,14|0|0|0|0|0,0:0|0:0|0:0|0:0|0:0|0:0,0:0:0:0:
204,86,172734,6,0,P|264:110|317:161,1,120,14|0,0:0|0:0,0:0:0:0:
321,274,172884,5,14,0:0:0:0:
320,285,172959,1,2,0:0:0:0:
317,296,173034,1,2,0:0:0:0:
312,307,173109,1,2,0:0:0:0:
295,339,173184,6,0,P|268:289|301:242,1,120,8|2,0:0|0:0,0:0:0:0:
305,144,173409,5,2,0:0:0:0:
301,242,173484,2,0,P|274:191|306:144,1,120,8|2,0:0|0:0,0:0:0:0:
316,43,173709,5,2,0:0:0:0:
398,173,173784,2,0,P|215:180|219:86,2,240,14|0|0,0:0|0:0|0:0,0:0:0:0:
