osu file format v14

[General]
AudioFilename: audio.mp3
AudioLeadIn: 0
PreviewTime: 79605
Countdown: 1
SampleSet: Soft
StackLeniency: 0.7
Mode: 3
LetterboxInBreaks: 0
SpecialStyle: 0
WidescreenStoryboard: 1

[Editor]
DistanceSpacing: 0.8
BeatDivisor: 4
GridSize: 8
TimelineZoom: 1.5

[Metadata]
Title:Venomous Firefly
TitleUnicode:Venomous Firefly
Artist:Camellia
ArtistUnicode:かめりあ
Creator:Wonki
Version:NOVICE
Source:SOUND VOLTEX IV HEAVENLY HAVEN
Tags:konami benami sdvx 4 東方永夜抄リミックス楽曲コンテスト touhou imperishable night remix song contest zun team shanghai alice 蠢々秋月 ~ mooned insect miny530
BeatmapID:1812413
BeatmapSetID:866944

[Difficulty]
HPDrainRate:7.5
CircleSize:4
OverallDifficulty:7.5
ApproachRate:5
SliderMultiplier:1.4
SliderTickRate:1

[Events]
//Background and Video events
0,0,"692885.jpg",0,0
//Break Periods
//Storyboard Layer 0 (Background)
//Storyboard Layer 1 (Fail)
//Storyboard Layer 2 (Pass)
//Storyboard Layer 3 (Foreground)
//Storyboard Sound Samples

[TimingPoints]
60,227.272727272727,4,2,1,45,1,0

[HitObjects]
64,192,60,5,0,0:0:0:0:
448,192,287,1,0,0:0:0:0:
192,192,514,1,0,0:0:0:0:
192,192,741,1,0,0:0:0:0:
320,192,855,128,0,1196:0:0:0:0:
64,192,1196,1,0,0:0:0:0:
192,192,1423,128,0,1878:0:0:0:0:
64,192,1878,1,0,0:0:0:0:
448,192,2105,1,0,0:0:0:0:
192,192,2332,1,0,0:0:0:0:
192,192,2559,1,0,0:0:0:0:
320,192,2673,128,0,3014:0:0:0:0:
448,192,3014,1,0,0:0:0:0:
192,192,3128,128,0,3696:0:0:0:0:
64,192,3696,1,0,0:0:0:0:
448,192,3696,1,0,0:0:0:0:
320,192,3923,1,0,0:0:0:0:
192,192,4150,1,0,0:0:0:0:
64,192,4378,1,0,0:0:0:0:
320,192,4491,1,0,0:0:0:0:
320,192,4832,1,0,0:0:0:0:
64,192,5059,128,0,5514:0:0:0:0:
448,192,5514,1,0,0:0:0:0:
192,192,5741,1,0,0:0:0:0:
320,192,5969,1,0,0:0:0:0:
192,192,6196,1,0,0:0:0:0:
320,192,6309,1,0,0:0:0:0:
320,192,6650,1,0,0:0:0:0:
64,192,6878,128,0,7332:0:0:0:0:
192,192,7332,1,0,0:0:0:0:
448,192,7332,1,0,0:0:0:0:
192,192,7900,1,0,0:0:0:0:
448,192,7900,1,0,0:0:0:0:
192,192,8241,1,0,0:0:0:0:
448,192,8241,1,0,0:0:0:0:
320,192,8809,1,0,0:0:0:0:
64,192,8809,1,0,0:0:0:0:
64,192,9150,1,0,0:0:0:0:
320,192,9150,1,0,0:0:0:0:
192,192,9605,1,0,0:0:0:0:
320,192,9605,1,0,0:0:0:0:
192,192,10059,128,0,10741:0:0:0:0:
320,192,10059,128,0,10741:0:0:0:0:
64,192,10741,1,0,0:0:0:0:
448,192,10741,1,0,0:0:0:0:
192,192,10969,1,0,0:0:0:0:
448,192,11196,1,0,0:0:0:0:
192,192,11423,1,0,0:0:0:0:
448,192,11650,1,0,0:0:0:0:
64,192,11878,1,0,0:0:0:0:
320,192,12105,1,0,0:0:0:0:
64,192,12332,1,0,0:0:0:0:
320,192,12559,1,0,0:0:0:0:
192,192,12787,1,0,0:0:0:0:
64,192,12787,128,0,13696:0:0:0:0:
320,192,13696,1,0,0:0:0:0:
448,192,13696,128,0,14605:0:0:0:0:
64,192,14605,1,0,0:0:0:0:
192,192,14832,1,0,0:0:0:0:
320,192,15059,1,0,0:0:0:0:
448,192,15287,1,0,0:0:0:0:
192,192,15514,1,0,0:0:0:0:
64,192,15741,1,0,0:0:0:0:
448,192,15969,1,0,0:0:0:0:
320,192,16196,1,0,0:0:0:0:
192,192,16423,1,0,0:0:0:0:
64,192,16423,1,0,0:0:0:0:
320,192,17332,1,0,0:0:0:0:
448,192,17332,1,0,0:0:0:0:
320,192,18241,1,0,0:0:0:0:
192,192,18469,1,0,0:0:0:0:
320,192,18696,1,0,0:0:0:0:
448,192,18923,1,0,0:0:0:0:
64,192,19150,1,0,0:0:0:0:
192,192,19378,1,0,0:0:0:0:
320,192,19605,1,0,0:0:0:0:
192,192,19832,1,0,0:0:0:0:
64,192,20059,1,0,0:0:0:0:
448,192,20059,1,0,0:0:0:0:
192,192,20855,1,0,0:0:0:0:
448,192,20855,1,0,0:0:0:0:
192,192,21196,1,0,0:0:0:0:
448,192,21196,1,0,0:0:0:0:
64,192,21878,128,0,22559:0:0:0:0:
192,192,21878,128,0,22559:0:0:0:0:
320,192,21878,128,0,22559:0:0:0:0:
192,192,22787,128,0,23469:0:0:0:0:
320,192,22787,128,0,23469:0:0:0:0:
448,192,22787,128,0,23469:0:0:0:0:
64,192,23696,128,0,23923:0:0:0:0:
192,192,23696,128,0,23923:0:0:0:0:
192,192,24037,128,0,24264:0:0:0:0:
320,192,24037,128,0,24264:0:0:0:0:
320,192,24378,128,0,24605:0:0:0:0:
448,192,24378,128,0,24605:0:0:0:0:
192,192,25514,1,0,0:0:0:0:
448,192,25741,1,0,0:0:0:0:
64,192,25741,1,0,0:0:0:0:
320,192,25969,1,0,0:0:0:0:
192,192,26196,1,0,0:0:0:0:
448,192,26196,1,0,0:0:0:0:
64,192,26423,1,0,0:0:0:0:
320,192,26650,1,0,0:0:0:0:
448,192,26650,1,0,0:0:0:0:
192,192,26878,1,0,0:0:0:0:
64,192,27105,1,0,0:0:0:0:
320,192,27105,1,0,0:0:0:0:
448,192,27332,1,0,0:0:0:0:
192,192,27559,1,0,0:0:0:0:
64,192,27559,1,0,0:0:0:0:
320,192,27787,1,0,0:0:0:0:
64,192,28014,1,0,0:0:0:0:
448,192,28014,1,0,0:0:0:0:
192,192,28241,1,0,0:0:0:0:
64,192,28469,1,0,0:0:0:0:
320,192,28469,1,0,0:0:0:0:
448,192,28696,1,0,0:0:0:0:
448,192,28923,1,0,0:0:0:0:
64,192,28923,1,0,0:0:0:0:
192,192,29150,1,0,0:0:0:0:
192,192,29378,1,0,0:0:0:0:
448,192,29378,1,0,0:0:0:0:
64,192,29605,1,0,0:0:0:0:
320,192,29832,1,0,0:0:0:0:
448,192,29832,1,0,0:0:0:0:
192,192,30059,1,0,0:0:0:0:
64,192,30287,1,0,0:0:0:0:
320,192,30287,1,0,0:0:0:0:
192,192,30514,1,0,0:0:0:0:
448,192,30741,1,0,0:0:0:0:
320,192,30741,1,0,0:0:0:0:
192,192,30969,1,0,0:0:0:0:
64,192,30969,1,0,0:0:0:0:
192,192,31309,1,0,0:0:0:0:
320,192,31309,1,0,0:0:0:0:
320,192,31650,1,0,0:0:0:0:
448,192,31650,1,0,0:0:0:0:
192,192,31878,1,0,0:0:0:0:
64,192,31878,1,0,0:0:0:0:
192,192,32048,1,0,0:0:0:0:
320,192,32219,1,0,0:0:0:0:
448,192,32332,1,0,0:0:0:0:
64,192,32787,128,0,34378:0:0:0:0:
448,192,32787,1,0,0:0:0:0:
320,192,33014,1,0,0:0:0:0:
192,192,33241,1,0,0:0:0:0:
320,192,33469,1,0,0:0:0:0:
448,192,33696,1,0,0:0:0:0:
320,192,33923,1,0,0:0:0:0:
192,192,34150,1,0,0:0:0:0:
320,192,34378,1,0,0:0:0:0:
448,192,34605,128,0,36196:0:0:0:0:
64,192,34605,1,0,0:0:0:0:
192,192,34832,1,0,0:0:0:0:
320,192,35059,1,0,0:0:0:0:
192,192,35287,1,0,0:0:0:0:
64,192,35514,1,0,0:0:0:0:
192,192,35741,1,0,0:0:0:0:
320,192,35969,1,0,0:0:0:0:
192,192,36196,1,0,0:0:0:0:
64,192,36423,128,0,38241:0:0:0:0:
448,192,36423,1,0,0:0:0:0:
320,192,36650,1,0,0:0:0:0:
192,192,36878,1,0,0:0:0:0:
320,192,37105,1,0,0:0:0:0:
448,192,37332,1,0,0:0:0:0:
192,192,37559,1,0,0:0:0:0:
320,192,37787,128,0,38241:0:0:0:0:
448,192,37787,128,0,38241:0:0:0:0:
192,192,40059,1,0,0:0:0:0:
320,192,40230,1,0,0:0:0:0:
192,192,40400,1,0,0:0:0:0:
320,192,40628,1,0,0:0:0:0:
192,192,40798,1,0,0:0:0:0:
320,192,40969,1,0,0:0:0:0:
192,192,41139,1,0,0:0:0:0:
320,192,41309,1,0,0:0:0:0:
192,192,41480,1,0,0:0:0:0:
64,192,41650,1,0,0:0:0:0:
448,192,41650,1,0,0:0:0:0:
320,192,41878,1,0,0:0:0:0:
192,192,42048,1,0,0:0:0:0:
320,192,42219,1,0,0:0:0:0:
192,192,42446,1,0,0:0:0:0:
320,192,42616,1,0,0:0:0:0:
192,192,42787,1,0,0:0:0:0:
192,192,42900,1,0,0:0:0:0:
320,192,43014,1,0,0:0:0:0:
320,192,43128,1,0,0:0:0:0:
192,192,43241,1,0,0:0:0:0:
320,192,43355,1,0,0:0:0:0:
64,192,43582,1,0,0:0:0:0:
448,192,43582,1,0,0:0:0:0:
192,192,43696,1,0,0:0:0:0:
320,192,43866,1,0,0:0:0:0:
192,192,44037,1,0,0:0:0:0:
320,192,44264,1,0,0:0:0:0:
192,192,44434,1,0,0:0:0:0:
320,192,44605,1,0,0:0:0:0:
192,192,44775,1,0,0:0:0:0:
320,192,44946,1,0,0:0:0:0:
192,192,45116,1,0,0:0:0:0:
64,192,45287,1,0,0:0:0:0:
448,192,45287,1,0,0:0:0:0:
320,192,45400,1,0,0:0:0:0:
192,192,45571,1,0,0:0:0:0:
320,192,45741,1,0,0:0:0:0:
320,192,45855,1,0,0:0:0:0:
192,192,46025,1,0,0:0:0:0:
320,192,46196,1,0,0:0:0:0:
192,192,46309,1,0,0:0:0:0:
320,192,46480,1,0,0:0:0:0:
192,192,46650,1,0,0:0:0:0:
192,192,46764,1,0,0:0:0:0:
320,192,46878,128,0,47105:0:0:0:0:
192,192,47105,1,0,0:0:0:0:
320,192,47219,1,0,0:0:0:0:
192,192,47332,1,0,0:0:0:0:
448,192,47332,1,0,0:0:0:0:
64,192,49150,128,0,50059:0:0:0:0:
192,192,49378,128,0,50059:0:0:0:0:
320,192,49605,128,0,50059:0:0:0:0:
448,192,49832,128,0,50059:0:0:0:0:
64,192,50969,128,0,51423:0:0:0:0:
448,192,50969,128,0,51423:0:0:0:0:
192,192,51423,1,0,0:0:0:0:
320,192,51650,1,0,0:0:0:0:
448,192,51878,1,0,0:0:0:0:
192,192,52105,1,0,0:0:0:0:
448,192,52332,1,0,0:0:0:0:
448,192,52559,1,0,0:0:0:0:
320,192,52787,1,0,0:0:0:0:
192,192,53014,1,0,0:0:0:0:
64,192,53241,1,0,0:0:0:0:
320,192,53469,1,0,0:0:0:0:
192,192,53696,1,0,0:0:0:0:
448,192,53923,1,0,0:0:0:0:
64,192,54150,128,0,54605:0:0:0:0:
192,192,54605,128,0,55059:0:0:0:0:
448,192,54605,128,0,55059:0:0:0:0:
64,192,55059,1,0,0:0:0:0:
320,192,55287,1,0,0:0:0:0:
192,192,55514,1,0,0:0:0:0:
448,192,55741,1,0,0:0:0:0:
64,192,55969,1,0,0:0:0:0:
320,192,56196,1,0,0:0:0:0:
320,192,56423,1,0,0:0:0:0:
192,192,56650,1,0,0:0:0:0:
64,192,56878,1,0,0:0:0:0:
320,192,57105,1,0,0:0:0:0:
192,192,57332,1,0,0:0:0:0:
448,192,57559,1,0,0:0:0:0:
64,192,57787,128,0,58241:0:0:0:0:
192,192,58241,128,0,58696:0:0:0:0:
320,192,58241,128,0,58696:0:0:0:0:
448,192,58696,1,0,0:0:0:0:
64,192,58696,1,0,0:0:0:0:
192,192,58923,1,0,0:0:0:0:
320,192,59037,1,0,0:0:0:0:
320,192,59264,1,0,0:0:0:0:
192,192,59378,1,0,0:0:0:0:
320,192,59605,1,0,0:0:0:0:
448,192,59605,1,0,0:0:0:0:
320,192,59832,1,0,0:0:0:0:
448,192,59832,1,0,0:0:0:0:
192,192,60059,1,0,0:0:0:0:
64,192,60059,1,0,0:0:0:0:
320,192,60400,1,0,0:0:0:0:
448,192,60514,1,0,0:0:0:0:
192,192,60741,1,0,0:0:0:0:
64,192,60855,1,0,0:0:0:0:
64,192,61082,1,0,0:0:0:0:
192,192,61196,1,0,0:0:0:0:
320,192,61309,1,0,0:0:0:0:
64,192,61423,1,0,0:0:0:0:
448,192,61423,1,0,0:0:0:0:
64,192,61878,128,0,62332:0:0:0:0:
448,192,61878,128,0,62332:0:0:0:0:
320,192,62332,1,0,0:0:0:0:
192,192,62332,1,0,0:0:0:0:
64,192,62559,1,0,0:0:0:0:
320,192,62673,1,0,0:0:0:0:
320,192,62900,1,0,0:0:0:0:
64,192,63014,1,0,0:0:0:0:
448,192,63241,1,0,0:0:0:0:
192,192,63241,1,0,0:0:0:0:
448,192,63412,1,0,0:0:0:0:
448,192,63582,1,0,0:0:0:0:
64,192,63696,128,0,63923:0:0:0:0:
192,192,63696,128,0,63923:0:0:0:0:
192,192,64037,128,0,64264:0:0:0:0:
320,192,64037,128,0,64264:0:0:0:0:
320,192,64378,128,0,64605:0:0:0:0:
448,192,64378,128,0,64605:0:0:0:0:
64,192,64719,128,0,65059:0:0:0:0:
192,192,64719,128,0,65059:0:0:0:0:
448,192,65059,1,0,0:0:0:0:
320,192,65287,1,0,0:0:0:0:
64,192,65514,1,0,0:0:0:0:
448,192,65514,1,0,0:0:0:0:
192,192,65741,1,0,0:0:0:0:
320,192,65855,1,0,0:0:0:0:
192,192,65969,1,0,0:0:0:0:
448,192,66423,1,0,0:0:0:0:
64,192,66650,1,0,0:0:0:0:
192,192,66764,1,0,0:0:0:0:
320,192,66878,1,0,0:0:0:0:
448,192,67332,1,0,0:0:0:0:
320,192,67559,1,0,0:0:0:0:
64,192,67787,1,0,0:0:0:0:
192,192,68014,1,0,0:0:0:0:
320,192,68241,1,0,0:0:0:0:
64,192,68469,1,0,0:0:0:0:
320,192,68696,1,0,0:0:0:0:
448,192,69150,1,0,0:0:0:0:
192,192,69378,1,0,0:0:0:0:
320,192,69491,1,0,0:0:0:0:
64,192,69605,1,0,0:0:0:0:
448,192,70059,1,0,0:0:0:0:
192,192,70287,1,0,0:0:0:0:
320,192,70400,1,0,0:0:0:0:
448,192,70514,1,0,0:0:0:0:
320,192,70969,1,0,0:0:0:0:
192,192,71196,1,0,0:0:0:0:
448,192,71423,1,0,0:0:0:0:
64,192,71650,1,0,0:0:0:0:
192,192,71878,1,0,0:0:0:0:
448,192,72105,1,0,0:0:0:0:
192,192,72332,1,0,0:0:0:0:
448,192,72787,1,0,0:0:0:0:
64,192,72787,128,0,73241:0:0:0:0:
320,192,73241,128,0,73696:0:0:0:0:
192,192,73696,128,0,74150:0:0:0:0:
320,192,74150,128,0,74605:0:0:0:0:
448,192,74605,128,0,75059:0:0:0:0:
64,192,75059,128,0,75514:0:0:0:0:
320,192,75514,128,0,75969:0:0:0:0:
192,192,75969,128,0,76423:0:0:0:0:
64,192,76423,1,0,0:0:0:0:
448,192,76423,1,0,0:0:0:0:
192,192,76650,1,0,0:0:0:0:
320,192,76764,1,0,0:0:0:0:
192,192,76878,1,0,0:0:0:0:
64,192,76991,1,0,0:0:0:0:
448,192,76991,1,0,0:0:0:0:
192,192,77332,1,0,0:0:0:0:
448,192,77332,1,0,0:0:0:0:
64,192,77559,1,0,0:0:0:0:
320,192,77673,1,0,0:0:0:0:
448,192,77787,1,0,0:0:0:0:
192,192,77900,1,0,0:0:0:0:
64,192,77900,1,0,0:0:0:0:
192,192,78241,128,0,79150:0:0:0:0:
320,192,78241,1,0,0:0:0:0:
448,192,78696,128,0,79150:0:0:0:0:
64,192,78696,1,0,0:0:0:0:
64,192,79150,1,0,0:0:0:0:
64,192,80059,1,0,0:0:0:0:
448,192,80059,1,0,0:0:0:0:
192,192,80230,1,0,0:0:0:0:
320,192,80400,1,0,0:0:0:0:
192,192,80514,1,0,0:0:0:0:
64,192,80514,1,0,0:0:0:0:
320,192,80741,128,0,80969:0:0:0:0:
64,192,80969,1,0,0:0:0:0:
448,192,80969,1,0,0:0:0:0:
192,192,81139,1,0,0:0:0:0:
320,192,81309,1,0,0:0:0:0:
448,192,81423,1,0,0:0:0:0:
192,192,81423,1,0,0:0:0:0:
64,192,81650,128,0,81878:0:0:0:0:
320,192,81878,1,0,0:0:0:0:
448,192,81878,1,0,0:0:0:0:
192,192,82105,1,0,0:0:0:0:
320,192,82332,1,0,0:0:0:0:
64,192,82559,1,0,0:0:0:0:
320,192,82787,1,0,0:0:0:0:
320,192,82900,1,0,0:0:0:0:
192,192,83014,1,0,0:0:0:0:
192,192,83128,1,0,0:0:0:0:
320,192,83241,1,0,0:0:0:0:
448,192,83241,1,0,0:0:0:0:
64,192,83469,128,0,83696:0:0:0:0:
192,192,83696,1,0,0:0:0:0:
448,192,83696,1,0,0:0:0:0:
320,192,83866,1,0,0:0:0:0:
448,192,84037,1,0,0:0:0:0:
192,192,84150,1,0,0:0:0:0:
64,192,84150,1,0,0:0:0:0:
320,192,84378,128,0,84605:0:0:0:0:
64,192,84605,1,0,0:0:0:0:
448,192,84605,1,0,0:0:0:0:
192,192,84775,1,0,0:0:0:0:
320,192,84946,1,0,0:0:0:0:
192,192,85059,1,0,0:0:0:0:
64,192,85059,1,0,0:0:0:0:
448,192,85287,128,0,85514:0:0:0:0:
320,192,85514,1,0,0:0:0:0:
64,192,85514,1,0,0:0:0:0:
192,192,85741,1,0,0:0:0:0:
448,192,85969,1,0,0:0:0:0:
64,192,86196,1,0,0:0:0:0:
320,192,86309,128,0,86537:0:0:0:0:
448,192,86537,1,0,0:0:0:0:
192,192,86650,1,0,0:0:0:0:
320,192,86764,1,0,0:0:0:0:
448,192,86878,1,0,0:0:0:0:
64,192,86878,1,0,0:0:0:0:
192,192,87105,1,0,0:0:0:0:
320,192,87105,1,0,0:0:0:0:
64,192,87332,1,0,0:0:0:0:
448,192,87332,1,0,0:0:0:0:
64,192,87900,1,0,0:0:0:0:
448,192,87900,1,0,0:0:0:0:
192,192,88241,1,0,0:0:0:0:
320,192,88241,1,0,0:0:0:0:
192,192,88469,1,0,0:0:0:0:
64,192,88469,1,0,0:0:0:0:
320,192,88696,1,0,0:0:0:0:
448,192,88696,1,0,0:0:0:0:
192,192,88923,1,0,0:0:0:0:
64,192,88923,1,0,0:0:0:0:
64,192,89150,1,0,0:0:0:0:
448,192,89150,1,0,0:0:0:0:
192,192,89378,1,0,0:0:0:0:
320,192,89378,1,0,0:0:0:0:
64,192,89605,1,0,0:0:0:0:
448,192,89605,1,0,0:0:0:0:
192,192,89832,1,0,0:0:0:0:
64,192,89832,1,0,0:0:0:0:
320,192,89946,1,0,0:0:0:0:
448,192,90059,1,0,0:0:0:0:
192,192,90287,1,0,0:0:0:0:
320,192,90514,1,0,0:0:0:0:
192,192,90628,1,0,0:0:0:0:
64,192,90741,128,0,90969:0:0:0:0:
320,192,90969,128,0,92787:0:0:0:0:
448,192,90969,128,0,92787:0:0:0:0:
64,192,91878,128,0,92787:0:0:0:0:
192,192,92787,1,0,0:0:0:0:
320,192,92900,1,0,0:0:0:0:
64,192,93014,1,0,0:0:0:0:
192,192,93128,1,0,0:0:0:0:
448,192,93241,1,0,0:0:0:0:
320,192,93355,1,0,0:0:0:0:
192,192,93469,1,0,0:0:0:0:
64,192,93582,1,0,0:0:0:0:
320,192,93696,1,0,0:0:0:0:
448,192,93696,1,0,0:0:0:0:
64,192,94378,1,0,0:0:0:0:
448,192,94378,1,0,0:0:0:0:
192,192,94605,1,0,0:0:0:0:
320,192,94719,1,0,0:0:0:0:
64,192,94832,1,0,0:0:0:0:
320,192,94946,1,0,0:0:0:0:
192,192,95059,1,0,0:0:0:0:
320,192,95173,1,0,0:0:0:0:
448,192,95287,1,0,0:0:0:0:
192,192,95400,1,0,0:0:0:0:
192,192,95628,1,0,0:0:0:0:
320,192,95741,1,0,0:0:0:0:
192,192,95855,1,0,0:0:0:0:
448,192,95969,1,0,0:0:0:0:
320,192,96082,1,0,0:0:0:0:
192,192,96196,1,0,0:0:0:0:
64,192,96309,1,0,0:0:0:0:
320,192,96423,1,0,0:0:0:0:
320,192,96537,1,0,0:0:0:0:
192,192,96650,1,0,0:0:0:0:
192,192,96764,1,0,0:0:0:0:
320,192,96878,1,0,0:0:0:0:
320,192,96991,1,0,0:0:0:0:
192,192,97105,1,0,0:0:0:0:
192,192,97219,1,0,0:0:0:0:
448,192,97332,1,0,0:0:0:0:
320,192,97446,1,0,0:0:0:0:
64,192,97559,1,0,0:0:0:0:
192,192,97673,1,0,0:0:0:0:
320,192,97787,1,0,0:0:0:0:
448,192,97787,1,0,0:0:0:0:
192,192,97957,1,0,0:0:0:0:
64,192,98128,1,0,0:0:0:0:
320,192,98241,1,0,0:0:0:0:
448,192,98241,1,0,0:0:0:0:
192,192,98355,1,0,0:0:0:0:
320,192,98469,1,0,0:0:0:0:
64,192,98582,1,0,0:0:0:0:
448,192,98696,1,0,0:0:0:0:
192,192,98809,1,0,0:0:0:0:
320,192,98923,1,0,0:0:0:0:
448,192,99037,1,0,0:0:0:0:
448,192,99264,1,0,0:0:0:0:
320,192,99378,1,0,0:0:0:0:
192,192,99491,1,0,0:0:0:0:
64,192,99605,1,0,0:0:0:0:
320,192,99719,1,0,0:0:0:0:
192,192,99832,1,0,0:0:0:0:
320,192,99946,1,0,0:0:0:0:
448,192,100059,128,0,100969:0:0:0:0:
64,192,100059,1,0,0:0:0:0:
192,192,100287,1,0,0:0:0:0:
320,192,100514,1,0,0:0:0:0:
192,192,100741,1,0,0:0:0:0:
64,192,100969,1,0,0:0:0:0:
320,192,100969,1,0,0:0:0:0:
192,192,101139,1,0,0:0:0:0:
64,192,101309,1,0,0:0:0:0:
448,192,101309,1,0,0:0:0:0:
320,192,101423,128,0,101878:0:0:0:0:
64,192,101878,128,0,102787:0:0:0:0:
448,192,101878,1,0,0:0:0:0:
320,192,102105,1,0,0:0:0:0:
192,192,102332,1,0,0:0:0:0:
320,192,102559,1,0,0:0:0:0:
448,192,102787,1,0,0:0:0:0:
448,192,103696,128,0,104605:0:0:0:0:
64,192,103696,1,0,0:0:0:0:
192,192,103923,1,0,0:0:0:0:
320,192,104150,1,0,0:0:0:0:
192,192,104378,1,0,0:0:0:0:
64,192,104605,1,0,0:0:0:0:
64,192,105514,128,0,106196:0:0:0:0:
192,192,105514,128,0,106196:0:0:0:0:
448,192,105514,128,0,106196:0:0:0:0:
64,192,106423,128,0,107105:0:0:0:0:
320,192,106423,128,0,107105:0:0:0:0:
448,192,106423,128,0,107105:0:0:0:0:
192,192,107332,128,0,107559:0:0:0:0:
448,192,107332,128,0,107559:0:0:0:0:
64,192,107673,128,0,107900:0:0:0:0:
320,192,107673,128,0,107900:0:0:0:0:
192,192,108014,128,0,108241:0:0:0:0:
448,192,108014,128,0,108241:0:0:0:0:
192,192,109150,1,0,0:0:0:0:
320,192,109321,1,0,0:0:0:0:
192,192,109491,1,0,0:0:0:0:
320,192,109719,1,0,0:0:0:0:
192,192,109889,1,0,0:0:0:0:
320,192,110059,1,0,0:0:0:0:
192,192,110230,1,0,0:0:0:0:
320,192,110400,1,0,0:0:0:0:
192,192,110571,1,0,0:0:0:0:
64,192,110741,1,0,0:0:0:0:
448,192,110741,1,0,0:0:0:0:
320,192,110969,1,0,0:0:0:0:
192,192,111139,1,0,0:0:0:0:
320,192,111309,1,0,0:0:0:0:
192,192,111537,1,0,0:0:0:0:
320,192,111707,1,0,0:0:0:0:
192,192,111878,1,0,0:0:0:0:
192,192,111991,1,0,0:0:0:0:
320,192,112105,1,0,0:0:0:0:
320,192,112219,1,0,0:0:0:0:
192,192,112332,1,0,0:0:0:0:
320,192,112446,1,0,0:0:0:0:
64,192,112673,1,0,0:0:0:0:
448,192,112673,1,0,0:0:0:0:
192,192,112787,1,0,0:0:0:0:
320,192,112957,1,0,0:0:0:0:
192,192,113128,1,0,0:0:0:0:
320,192,113355,1,0,0:0:0:0:
192,192,113525,1,0,0:0:0:0:
320,192,113696,1,0,0:0:0:0:
192,192,113866,1,0,0:0:0:0:
320,192,114037,1,0,0:0:0:0:
192,192,114207,1,0,0:0:0:0:
64,192,114378,1,0,0:0:0:0:
448,192,114378,1,0,0:0:0:0:
320,192,114491,1,0,0:0:0:0:
192,192,114662,1,0,0:0:0:0:
320,192,114832,1,0,0:0:0:0:
320,192,114946,1,0,0:0:0:0:
192,192,115116,1,0,0:0:0:0:
320,192,115287,1,0,0:0:0:0:
192,192,115400,1,0,0:0:0:0:
320,192,115571,1,0,0:0:0:0:
192,192,115741,1,0,0:0:0:0:
192,192,115855,1,0,0:0:0:0:
320,192,115969,128,0,116196:0:0:0:0:
192,192,116196,1,0,0:0:0:0:
192,192,116309,1,0,0:0:0:0:
448,192,116423,128,0,119037:0:0:0:0:
64,192,116423,128,0,116650:0:0:0:0:
192,192,116650,128,0,116878:0:0:0:0:
64,192,116878,128,0,117105:0:0:0:0:
192,192,117105,128,0,117332:0:0:0:0:
320,192,117332,128,0,117559:0:0:0:0:
64,192,117559,128,0,117787:0:0:0:0:
192,192,117787,128,0,118014:0:0:0:0:
320,192,118014,128,0,118241:0:0:0:0:
192,192,118241,128,0,118469:0:0:0:0:
64,192,118469,128,0,118696:0:0:0:0:
192,192,118696,128,0,118923:0:0:0:0:
320,192,118923,128,0,119037:0:0:0:0:
64,192,119037,1,0,0:0:0:0:
192,192,119037,1,0,0:0:0:0:
