osu file format v14

[General]
AudioFilename: audio.mp3
AudioLeadIn: 0
PreviewTime: 79605
Countdown: 1
SampleSet: Soft
StackLeniency: 0.7
Mode: 3
LetterboxInBreaks: 0
SpecialStyle: 0
WidescreenStoryboard: 1

[Editor]
DistanceSpacing: 0.8
BeatDivisor: 4
GridSize: 8
TimelineZoom: 1.5

[Metadata]
Title:Venomous Firefly
TitleUnicode:Venomous Firefly
Artist:Camellia
ArtistUnicode:かめりあ
Creator:Wonki
Version:ADVANCED
Source:SOUND VOLTEX IV HEAVENLY HAVEN
Tags:konami benami sdvx 4 東方永夜抄リミックス楽曲コンテスト touhou imperishable night remix song contest zun team shanghai alice 蠢々秋月 ~ mooned insect miny530
BeatmapID:1812409
BeatmapSetID:866944

[Difficulty]
HPDrainRate:8
CircleSize:4
OverallDifficulty:8
ApproachRate:5
SliderMultiplier:1.4
SliderTickRate:1

[Events]
//Background and Video events
0,0,"692885.jpg",0,0
//Break Periods
//Storyboard Layer 0 (Background)
//Storyboard Layer 1 (Fail)
//Storyboard Layer 2 (Pass)
//Storyboard Layer 3 (Foreground)
//Storyboard Sound Samples

[TimingPoints]
60,227.272727272727,4,2,1,45,1,0

[HitObjects]
64,192,60,5,0,0:0:0:0:
320,192,173,1,0,0:0:0:0:
64,192,287,128,0,514:0:0:0:0:
448,192,514,1,0,0:0:0:0:
448,192,741,1,0,0:0:0:0:
192,192,855,128,0,1082:0:0:0:0:
320,192,1082,1,0,0:0:0:0:
64,192,1196,128,0,1423:0:0:0:0:
448,192,1423,128,0,1878:0:0:0:0:
192,192,1878,1,0,0:0:0:0:
320,192,1991,1,0,0:0:0:0:
192,192,2105,128,0,2332:0:0:0:0:
448,192,2332,1,0,0:0:0:0:
448,192,2559,1,0,0:0:0:0:
64,192,2673,128,0,2900:0:0:0:0:
320,192,2900,1,0,0:0:0:0:
448,192,3014,128,0,3241:0:0:0:0:
192,192,3241,128,0,3696:0:0:0:0:
64,192,3696,1,0,0:0:0:0:
448,192,3696,1,0,0:0:0:0:
192,192,3923,1,0,0:0:0:0:
320,192,3923,1,0,0:0:0:0:
64,192,4150,1,0,0:0:0:0:
320,192,4150,1,0,0:0:0:0:
64,192,4378,1,0,0:0:0:0:
320,192,4378,1,0,0:0:0:0:
448,192,4491,1,0,0:0:0:0:
192,192,4491,1,0,0:0:0:0:
192,192,4719,1,0,0:0:0:0:
64,192,4719,1,0,0:0:0:0:
320,192,4832,1,0,0:0:0:0:
448,192,4832,1,0,0:0:0:0:
192,192,5059,128,0,5514:0:0:0:0:
320,192,5059,128,0,5514:0:0:0:0:
64,192,5514,1,0,0:0:0:0:
448,192,5514,1,0,0:0:0:0:
192,192,5741,1,0,0:0:0:0:
320,192,5741,1,0,0:0:0:0:
64,192,5969,1,0,0:0:0:0:
192,192,5969,1,0,0:0:0:0:
64,192,6196,1,0,0:0:0:0:
192,192,6196,1,0,0:0:0:0:
320,192,6309,1,0,0:0:0:0:
448,192,6309,1,0,0:0:0:0:
64,192,6537,1,0,0:0:0:0:
448,192,6537,1,0,0:0:0:0:
320,192,6650,1,0,0:0:0:0:
192,192,6650,1,0,0:0:0:0:
64,192,6991,128,0,7332:0:0:0:0:
192,192,6991,128,0,7332:0:0:0:0:
448,192,7332,1,0,0:0:0:0:
320,192,7332,1,0,0:0:0:0:
64,192,7900,1,0,0:0:0:0:
320,192,7900,1,0,0:0:0:0:
448,192,7900,1,0,0:0:0:0:
192,192,8241,1,0,0:0:0:0:
64,192,8241,1,0,0:0:0:0:
448,192,8241,1,0,0:0:0:0:
192,192,8809,1,0,0:0:0:0:
320,192,8809,1,0,0:0:0:0:
448,192,8809,1,0,0:0:0:0:
320,192,9150,1,0,0:0:0:0:
192,192,9150,1,0,0:0:0:0:
64,192,9150,1,0,0:0:0:0:
64,192,9605,1,0,0:0:0:0:
192,192,9605,1,0,0:0:0:0:
448,192,9605,1,0,0:0:0:0:
448,192,10059,1,0,0:0:0:0:
192,192,10059,1,0,0:0:0:0:
448,192,10514,128,0,10741:0:0:0:0:
64,192,10741,1,0,0:0:0:0:
192,192,10741,1,0,0:0:0:0:
448,192,10969,1,0,0:0:0:0:
320,192,11082,1,0,0:0:0:0:
64,192,11196,1,0,0:0:0:0:
192,192,11309,1,0,0:0:0:0:
448,192,11423,1,0,0:0:0:0:
320,192,11537,1,0,0:0:0:0:
64,192,11650,1,0,0:0:0:0:
192,192,11764,1,0,0:0:0:0:
320,192,11878,1,0,0:0:0:0:
448,192,11991,1,0,0:0:0:0:
192,192,12105,1,0,0:0:0:0:
64,192,12275,1,0,0:0:0:0:
320,192,12332,1,0,0:0:0:0:
448,192,12446,1,0,0:0:0:0:
192,192,12559,1,0,0:0:0:0:
64,192,12673,1,0,0:0:0:0:
320,192,12787,1,0,0:0:0:0:
448,192,12787,1,0,0:0:0:0:
320,192,13014,1,0,0:0:0:0:
64,192,13241,1,0,0:0:0:0:
192,192,13355,1,0,0:0:0:0:
320,192,13469,1,0,0:0:0:0:
448,192,13582,1,0,0:0:0:0:
192,192,13696,1,0,0:0:0:0:
64,192,13696,1,0,0:0:0:0:
448,192,13923,128,0,14605:0:0:0:0:
320,192,13923,128,0,14605:0:0:0:0:
192,192,14605,1,0,0:0:0:0:
64,192,14719,1,0,0:0:0:0:
320,192,14832,1,0,0:0:0:0:
448,192,14946,1,0,0:0:0:0:
192,192,15059,1,0,0:0:0:0:
64,192,15173,1,0,0:0:0:0:
320,192,15287,1,0,0:0:0:0:
448,192,15400,1,0,0:0:0:0:
64,192,15514,1,0,0:0:0:0:
192,192,15628,1,0,0:0:0:0:
448,192,15741,1,0,0:0:0:0:
320,192,15855,1,0,0:0:0:0:
64,192,15969,1,0,0:0:0:0:
64,192,16082,1,0,0:0:0:0:
448,192,16196,1,0,0:0:0:0:
448,192,16309,1,0,0:0:0:0:
192,192,16423,1,0,0:0:0:0:
64,192,16423,1,0,0:0:0:0:
320,192,16537,1,0,0:0:0:0:
448,192,16650,1,0,0:0:0:0:
192,192,16878,1,0,0:0:0:0:
192,192,16991,1,0,0:0:0:0:
320,192,17105,1,0,0:0:0:0:
320,192,17219,1,0,0:0:0:0:
192,192,17332,1,0,0:0:0:0:
64,192,17332,1,0,0:0:0:0:
320,192,17559,1,0,0:0:0:0:
192,192,17673,1,0,0:0:0:0:
448,192,17787,1,0,0:0:0:0:
320,192,17900,1,0,0:0:0:0:
192,192,18014,128,0,18241:0:0:0:0:
448,192,18241,1,0,0:0:0:0:
320,192,18355,1,0,0:0:0:0:
192,192,18469,1,0,0:0:0:0:
64,192,18582,1,0,0:0:0:0:
448,192,18696,1,0,0:0:0:0:
320,192,18809,1,0,0:0:0:0:
192,192,18923,1,0,0:0:0:0:
64,192,19037,1,0,0:0:0:0:
64,192,19150,1,0,0:0:0:0:
192,192,19264,1,0,0:0:0:0:
320,192,19378,1,0,0:0:0:0:
448,192,19491,1,0,0:0:0:0:
64,192,19605,1,0,0:0:0:0:
192,192,19719,1,0,0:0:0:0:
320,192,19832,1,0,0:0:0:0:
448,192,19946,1,0,0:0:0:0:
64,192,20059,1,0,0:0:0:0:
192,192,20059,1,0,0:0:0:0:
320,192,20287,1,0,0:0:0:0:
192,192,20514,1,0,0:0:0:0:
320,192,20741,1,0,0:0:0:0:
192,192,20855,1,0,0:0:0:0:
64,192,20855,1,0,0:0:0:0:
448,192,20855,1,0,0:0:0:0:
64,192,21196,1,0,0:0:0:0:
320,192,21196,1,0,0:0:0:0:
448,192,21196,1,0,0:0:0:0:
192,192,21594,1,0,0:0:0:0:
320,192,21594,1,0,0:0:0:0:
64,192,21878,1,0,0:0:0:0:
192,192,21934,1,0,0:0:0:0:
320,192,21991,1,0,0:0:0:0:
448,192,22048,1,0,0:0:0:0:
64,192,22105,1,0,0:0:0:0:
192,192,22162,1,0,0:0:0:0:
320,192,22219,1,0,0:0:0:0:
448,192,22275,1,0,0:0:0:0:
64,192,22332,1,0,0:0:0:0:
192,192,22389,1,0,0:0:0:0:
320,192,22446,1,0,0:0:0:0:
448,192,22503,1,0,0:0:0:0:
448,192,22787,1,0,0:0:0:0:
320,192,22844,1,0,0:0:0:0:
192,192,22900,1,0,0:0:0:0:
64,192,22957,1,0,0:0:0:0:
448,192,23014,1,0,0:0:0:0:
320,192,23071,1,0,0:0:0:0:
192,192,23128,1,0,0:0:0:0:
64,192,23184,1,0,0:0:0:0:
448,192,23241,1,0,0:0:0:0:
320,192,23298,1,0,0:0:0:0:
192,192,23355,1,0,0:0:0:0:
64,192,23412,1,0,0:0:0:0:
320,192,23696,128,0,23923:0:0:0:0:
64,192,23923,1,0,0:0:0:0:
192,192,23923,1,0,0:0:0:0:
320,192,23980,1,0,0:0:0:0:
448,192,23980,1,0,0:0:0:0:
192,192,24037,128,0,24264:0:0:0:0:
320,192,24264,1,0,0:0:0:0:
448,192,24264,1,0,0:0:0:0:
192,192,24321,1,0,0:0:0:0:
64,192,24321,1,0,0:0:0:0:
320,192,24378,128,0,24605:0:0:0:0:
192,192,24605,1,0,0:0:0:0:
64,192,24605,1,0,0:0:0:0:
448,192,25059,128,0,25287:0:0:0:0:
64,192,25287,128,0,25514:0:0:0:0:
320,192,25514,128,0,25628:0:0:0:0:
448,192,25514,128,0,25628:0:0:0:0:
192,192,25628,128,0,25741:0:0:0:0:
64,192,25741,128,0,25855:0:0:0:0:
320,192,25855,128,0,25969:0:0:0:0:
192,192,25969,128,0,26082:0:0:0:0:
448,192,25969,128,0,26082:0:0:0:0:
64,192,26196,128,0,26309:0:0:0:0:
320,192,26196,128,0,26309:0:0:0:0:
192,192,26309,128,0,26537:0:0:0:0:
448,192,26309,128,0,26537:0:0:0:0:
64,192,26537,128,0,26650:0:0:0:0:
448,192,26650,128,0,26764:0:0:0:0:
64,192,26764,128,0,26878:0:0:0:0:
192,192,26878,128,0,27105:0:0:0:0:
320,192,26878,128,0,27105:0:0:0:0:
64,192,27105,128,0,27332:0:0:0:0:
448,192,27105,128,0,27332:0:0:0:0:
192,192,27332,128,0,27446:0:0:0:0:
320,192,27332,128,0,27446:0:0:0:0:
448,192,27446,128,0,27559:0:0:0:0:
192,192,27559,128,0,27673:0:0:0:0:
320,192,27673,128,0,27787:0:0:0:0:
64,192,27787,128,0,27900:0:0:0:0:
448,192,27787,128,0,27900:0:0:0:0:
192,192,28014,128,0,28128:0:0:0:0:
320,192,28014,128,0,28128:0:0:0:0:
64,192,28128,128,0,28355:0:0:0:0:
448,192,28128,128,0,28355:0:0:0:0:
192,192,28355,128,0,28469:0:0:0:0:
320,192,28469,128,0,28582:0:0:0:0:
192,192,28582,128,0,28696:0:0:0:0:
320,192,28696,128,0,28923:0:0:0:0:
448,192,28696,128,0,28923:0:0:0:0:
192,192,28923,1,0,0:0:0:0:
192,192,29037,1,0,0:0:0:0:
320,192,29150,1,0,0:0:0:0:
320,192,29264,1,0,0:0:0:0:
64,192,29378,128,0,29491:0:0:0:0:
448,192,29378,128,0,29491:0:0:0:0:
192,192,29605,128,0,29719:0:0:0:0:
320,192,29605,128,0,29719:0:0:0:0:
64,192,29832,128,0,29946:0:0:0:0:
192,192,29832,128,0,29946:0:0:0:0:
320,192,29946,128,0,30059:0:0:0:0:
448,192,29946,128,0,30059:0:0:0:0:
192,192,30059,128,0,30173:0:0:0:0:
320,192,30173,128,0,30287:0:0:0:0:
192,192,30287,128,0,30400:0:0:0:0:
448,192,30400,128,0,30514:0:0:0:0:
64,192,30514,128,0,30741:0:0:0:0:
192,192,30514,128,0,30741:0:0:0:0:
448,192,30741,1,0,0:0:0:0:
320,192,30855,1,0,0:0:0:0:
192,192,30912,1,0,0:0:0:0:
64,192,30969,128,0,31309:0:0:0:0:
192,192,31082,1,0,0:0:0:0:
320,192,31196,1,0,0:0:0:0:
448,192,31309,128,0,31650:0:0:0:0:
320,192,31423,1,0,0:0:0:0:
192,192,31537,1,0,0:0:0:0:
64,192,31650,128,0,31878:0:0:0:0:
320,192,31764,1,0,0:0:0:0:
192,192,31878,1,0,0:0:0:0:
448,192,31878,1,0,0:0:0:0:
64,192,32048,1,0,0:0:0:0:
320,192,32048,1,0,0:0:0:0:
192,192,32219,1,0,0:0:0:0:
448,192,32219,1,0,0:0:0:0:
320,192,32332,1,0,0:0:0:0:
64,192,32332,1,0,0:0:0:0:
64,192,32787,1,0,0:0:0:0:
320,192,32787,1,0,0:0:0:0:
320,192,32900,1,0,0:0:0:0:
192,192,33014,1,0,0:0:0:0:
448,192,33014,1,0,0:0:0:0:
192,192,33128,1,0,0:0:0:0:
320,192,33241,1,0,0:0:0:0:
448,192,33241,1,0,0:0:0:0:
320,192,33355,1,0,0:0:0:0:
64,192,33469,1,0,0:0:0:0:
192,192,33469,1,0,0:0:0:0:
192,192,33582,1,0,0:0:0:0:
64,192,33696,1,0,0:0:0:0:
320,192,33696,1,0,0:0:0:0:
320,192,33809,1,0,0:0:0:0:
192,192,33923,1,0,0:0:0:0:
448,192,33923,1,0,0:0:0:0:
448,192,34037,1,0,0:0:0:0:
64,192,34150,1,0,0:0:0:0:
320,192,34150,1,0,0:0:0:0:
64,192,34264,1,0,0:0:0:0:
448,192,34378,1,0,0:0:0:0:
320,192,34378,1,0,0:0:0:0:
64,192,34605,1,0,0:0:0:0:
192,192,34605,1,0,0:0:0:0:
192,192,34719,1,0,0:0:0:0:
320,192,34832,1,0,0:0:0:0:
448,192,34832,1,0,0:0:0:0:
320,192,34946,1,0,0:0:0:0:
64,192,35059,1,0,0:0:0:0:
448,192,35059,1,0,0:0:0:0:
64,192,35173,1,0,0:0:0:0:
192,192,35287,1,0,0:0:0:0:
448,192,35287,1,0,0:0:0:0:
448,192,35400,1,0,0:0:0:0:
64,192,35514,1,0,0:0:0:0:
192,192,35571,1,0,0:0:0:0:
320,192,35628,1,0,0:0:0:0:
192,192,35741,1,0,0:0:0:0:
320,192,35798,1,0,0:0:0:0:
448,192,35855,1,0,0:0:0:0:
64,192,35969,1,0,0:0:0:0:
64,192,36082,1,0,0:0:0:0:
320,192,36196,1,0,0:0:0:0:
448,192,36196,1,0,0:0:0:0:
192,192,36423,1,0,0:0:0:0:
320,192,36480,1,0,0:0:0:0:
448,192,36537,1,0,0:0:0:0:
192,192,36594,1,0,0:0:0:0:
320,192,36650,1,0,0:0:0:0:
448,192,36707,1,0,0:0:0:0:
64,192,36764,1,0,0:0:0:0:
192,192,36821,1,0,0:0:0:0:
320,192,36878,1,0,0:0:0:0:
64,192,36934,1,0,0:0:0:0:
192,192,36991,1,0,0:0:0:0:
320,192,37048,1,0,0:0:0:0:
448,192,37105,1,0,0:0:0:0:
192,192,37162,1,0,0:0:0:0:
320,192,37219,1,0,0:0:0:0:
448,192,37275,1,0,0:0:0:0:
192,192,37332,1,0,0:0:0:0:
320,192,37389,1,0,0:0:0:0:
448,192,37446,1,0,0:0:0:0:
64,192,37503,1,0,0:0:0:0:
192,192,37559,1,0,0:0:0:0:
320,192,37616,1,0,0:0:0:0:
64,192,37673,1,0,0:0:0:0:
192,192,37730,1,0,0:0:0:0:
448,192,37787,1,0,0:0:0:0:
448,192,37900,1,0,0:0:0:0:
192,192,38014,1,0,0:0:0:0:
192,192,38128,1,0,0:0:0:0:
320,192,38241,1,0,0:0:0:0:
448,192,38241,1,0,0:0:0:0:
320,192,39832,1,0,0:0:0:0:
320,192,39946,1,0,0:0:0:0:
448,192,40059,1,0,0:0:0:0:
64,192,40059,1,0,0:0:0:0:
192,192,40230,1,0,0:0:0:0:
64,192,40400,1,0,0:0:0:0:
448,192,40400,1,0,0:0:0:0:
64,192,40628,1,0,0:0:0:0:
448,192,40628,1,0,0:0:0:0:
320,192,40798,1,0,0:0:0:0:
64,192,40969,1,0,0:0:0:0:
448,192,40969,1,0,0:0:0:0:
192,192,41139,1,0,0:0:0:0:
64,192,41309,1,0,0:0:0:0:
448,192,41309,1,0,0:0:0:0:
320,192,41480,1,0,0:0:0:0:
192,192,41650,1,0,0:0:0:0:
64,192,41650,1,0,0:0:0:0:
448,192,41650,1,0,0:0:0:0:
64,192,41878,1,0,0:0:0:0:
448,192,41878,1,0,0:0:0:0:
192,192,42048,1,0,0:0:0:0:
64,192,42219,1,0,0:0:0:0:
448,192,42219,1,0,0:0:0:0:
64,192,42446,1,0,0:0:0:0:
448,192,42446,1,0,0:0:0:0:
320,192,42616,1,0,0:0:0:0:
192,192,42787,1,0,0:0:0:0:
192,192,42900,1,0,0:0:0:0:
320,192,43014,1,0,0:0:0:0:
320,192,43128,1,0,0:0:0:0:
192,192,43241,1,0,0:0:0:0:
192,192,43355,1,0,0:0:0:0:
192,192,43582,1,0,0:0:0:0:
320,192,43582,1,0,0:0:0:0:
64,192,43696,1,0,0:0:0:0:
448,192,43696,1,0,0:0:0:0:
320,192,43866,1,0,0:0:0:0:
64,192,44037,1,0,0:0:0:0:
448,192,44037,1,0,0:0:0:0:
64,192,44264,1,0,0:0:0:0:
448,192,44264,1,0,0:0:0:0:
192,192,44434,1,0,0:0:0:0:
64,192,44605,1,0,0:0:0:0:
448,192,44605,1,0,0:0:0:0:
320,192,44775,1,0,0:0:0:0:
64,192,44946,1,0,0:0:0:0:
448,192,44946,1,0,0:0:0:0:
192,192,45116,1,0,0:0:0:0:
192,192,45287,1,0,0:0:0:0:
320,192,45287,1,0,0:0:0:0:
64,192,45400,1,0,0:0:0:0:
448,192,45400,1,0,0:0:0:0:
320,192,45571,1,0,0:0:0:0:
64,192,45741,1,0,0:0:0:0:
448,192,45741,1,0,0:0:0:0:
192,192,45855,1,0,0:0:0:0:
64,192,46025,1,0,0:0:0:0:
448,192,46025,1,0,0:0:0:0:
320,192,46196,1,0,0:0:0:0:
64,192,46309,1,0,0:0:0:0:
448,192,46309,1,0,0:0:0:0:
192,192,46480,1,0,0:0:0:0:
64,192,46650,1,0,0:0:0:0:
448,192,46650,1,0,0:0:0:0:
320,192,46764,1,0,0:0:0:0:
64,192,46878,1,0,0:0:0:0:
192,192,46934,1,0,0:0:0:0:
320,192,46991,1,0,0:0:0:0:
448,192,47048,1,0,0:0:0:0:
64,192,47105,1,0,0:0:0:0:
192,192,47219,1,0,0:0:0:0:
320,192,47332,1,0,0:0:0:0:
448,192,47332,1,0,0:0:0:0:
64,192,49150,1,0,0:0:0:0:
192,192,49207,1,0,0:0:0:0:
448,192,49264,1,0,0:0:0:0:
320,192,49321,1,0,0:0:0:0:
64,192,49378,1,0,0:0:0:0:
192,192,49434,1,0,0:0:0:0:
448,192,49491,1,0,0:0:0:0:
320,192,49548,1,0,0:0:0:0:
64,192,49605,1,0,0:0:0:0:
192,192,49662,1,0,0:0:0:0:
448,192,49719,1,0,0:0:0:0:
320,192,49775,1,0,0:0:0:0:
64,192,49832,1,0,0:0:0:0:
192,192,49889,1,0,0:0:0:0:
448,192,49946,1,0,0:0:0:0:
320,192,50003,1,0,0:0:0:0:
448,192,50514,128,0,50969:0:0:0:0:
64,192,50969,128,0,51196:0:0:0:0:
192,192,50969,128,0,51196:0:0:0:0:
448,192,51309,1,0,0:0:0:0:
320,192,51366,1,0,0:0:0:0:
192,192,51423,1,0,0:0:0:0:
448,192,51537,1,0,0:0:0:0:
192,192,51650,1,0,0:0:0:0:
320,192,51707,1,0,0:0:0:0:
448,192,51764,1,0,0:0:0:0:
64,192,51878,1,0,0:0:0:0:
320,192,51991,1,0,0:0:0:0:
192,192,52048,1,0,0:0:0:0:
64,192,52105,1,0,0:0:0:0:
64,192,52219,1,0,0:0:0:0:
448,192,52332,1,0,0:0:0:0:
192,192,52446,1,0,0:0:0:0:
192,192,52559,1,0,0:0:0:0:
192,192,52673,1,0,0:0:0:0:
320,192,52787,1,0,0:0:0:0:
320,192,52900,1,0,0:0:0:0:
192,192,53014,1,0,0:0:0:0:
448,192,53128,1,0,0:0:0:0:
320,192,53184,1,0,0:0:0:0:
192,192,53241,1,0,0:0:0:0:
192,192,53355,1,0,0:0:0:0:
64,192,53469,1,0,0:0:0:0:
192,192,53525,1,0,0:0:0:0:
320,192,53582,1,0,0:0:0:0:
320,192,53696,1,0,0:0:0:0:
192,192,53809,1,0,0:0:0:0:
320,192,53866,1,0,0:0:0:0:
448,192,53923,1,0,0:0:0:0:
448,192,54037,1,0,0:0:0:0:
192,192,54150,128,0,54378:0:0:0:0:
64,192,54150,128,0,54378:0:0:0:0:
320,192,54605,128,0,54832:0:0:0:0:
448,192,54605,128,0,54832:0:0:0:0:
192,192,54946,1,0,0:0:0:0:
320,192,55003,1,0,0:0:0:0:
448,192,55059,1,0,0:0:0:0:
448,192,55173,1,0,0:0:0:0:
64,192,55287,1,0,0:0:0:0:
192,192,55344,1,0,0:0:0:0:
320,192,55400,1,0,0:0:0:0:
320,192,55514,1,0,0:0:0:0:
448,192,55628,1,0,0:0:0:0:
320,192,55684,1,0,0:0:0:0:
192,192,55741,1,0,0:0:0:0:
192,192,55855,1,0,0:0:0:0:
448,192,55969,1,0,0:0:0:0:
64,192,56082,1,0,0:0:0:0:
64,192,56196,1,0,0:0:0:0:
64,192,56309,1,0,0:0:0:0:
448,192,56423,1,0,0:0:0:0:
448,192,56537,1,0,0:0:0:0:
192,192,56650,1,0,0:0:0:0:
448,192,56764,1,0,0:0:0:0:
320,192,56821,1,0,0:0:0:0:
192,192,56878,1,0,0:0:0:0:
192,192,56991,1,0,0:0:0:0:
64,192,57105,1,0,0:0:0:0:
192,192,57162,1,0,0:0:0:0:
320,192,57219,1,0,0:0:0:0:
320,192,57332,1,0,0:0:0:0:
192,192,57446,1,0,0:0:0:0:
320,192,57503,1,0,0:0:0:0:
448,192,57559,1,0,0:0:0:0:
448,192,57673,1,0,0:0:0:0:
192,192,57787,1,0,0:0:0:0:
64,192,57787,1,0,0:0:0:0:
320,192,57900,1,0,0:0:0:0:
448,192,58014,1,0,0:0:0:0:
320,192,58128,1,0,0:0:0:0:
64,192,58241,128,0,58469:0:0:0:0:
192,192,58241,128,0,58469:0:0:0:0:
448,192,58582,1,0,0:0:0:0:
192,192,58582,1,0,0:0:0:0:
320,192,58639,1,0,0:0:0:0:
192,192,58696,1,0,0:0:0:0:
448,192,58696,1,0,0:0:0:0:
320,192,58809,1,0,0:0:0:0:
64,192,58923,1,0,0:0:0:0:
448,192,58923,1,0,0:0:0:0:
192,192,58980,1,0,0:0:0:0:
64,192,59037,1,0,0:0:0:0:
448,192,59037,1,0,0:0:0:0:
320,192,59150,1,0,0:0:0:0:
192,192,59264,1,0,0:0:0:0:
64,192,59264,1,0,0:0:0:0:
320,192,59321,1,0,0:0:0:0:
192,192,59378,1,0,0:0:0:0:
64,192,59378,1,0,0:0:0:0:
448,192,59491,1,0,0:0:0:0:
64,192,59605,1,0,0:0:0:0:
448,192,59719,1,0,0:0:0:0:
448,192,59832,1,0,0:0:0:0:
448,192,59946,1,0,0:0:0:0:
192,192,60059,1,0,0:0:0:0:
192,192,60173,1,0,0:0:0:0:
320,192,60287,1,0,0:0:0:0:
192,192,60400,1,0,0:0:0:0:
64,192,60400,1,0,0:0:0:0:
448,192,60457,1,0,0:0:0:0:
192,192,60514,1,0,0:0:0:0:
64,192,60514,1,0,0:0:0:0:
320,192,60628,1,0,0:0:0:0:
192,192,60741,1,0,0:0:0:0:
448,192,60741,1,0,0:0:0:0:
320,192,60798,1,0,0:0:0:0:
192,192,60855,1,0,0:0:0:0:
448,192,60855,1,0,0:0:0:0:
64,192,60969,1,0,0:0:0:0:
448,192,61082,1,0,0:0:0:0:
320,192,61196,1,0,0:0:0:0:
320,192,61309,1,0,0:0:0:0:
192,192,61423,1,0,0:0:0:0:
64,192,61423,1,0,0:0:0:0:
192,192,61650,1,0,0:0:0:0:
320,192,61650,1,0,0:0:0:0:
320,192,61878,128,0,62105:0:0:0:0:
448,192,61878,128,0,62105:0:0:0:0:
320,192,62219,1,0,0:0:0:0:
448,192,62219,1,0,0:0:0:0:
192,192,62275,1,0,0:0:0:0:
320,192,62332,1,0,0:0:0:0:
448,192,62332,1,0,0:0:0:0:
192,192,62446,1,0,0:0:0:0:
64,192,62559,1,0,0:0:0:0:
320,192,62559,1,0,0:0:0:0:
192,192,62616,1,0,0:0:0:0:
64,192,62673,1,0,0:0:0:0:
320,192,62673,1,0,0:0:0:0:
448,192,62787,1,0,0:0:0:0:
64,192,62900,1,0,0:0:0:0:
192,192,62900,1,0,0:0:0:0:
320,192,62957,1,0,0:0:0:0:
192,192,63014,1,0,0:0:0:0:
64,192,63014,1,0,0:0:0:0:
320,192,63128,1,0,0:0:0:0:
448,192,63241,1,0,0:0:0:0:
64,192,63241,1,0,0:0:0:0:
192,192,63355,1,0,0:0:0:0:
320,192,63412,1,0,0:0:0:0:
192,192,63469,1,0,0:0:0:0:
64,192,63469,1,0,0:0:0:0:
320,192,63582,1,0,0:0:0:0:
64,192,63696,1,0,0:0:0:0:
192,192,63753,1,0,0:0:0:0:
448,192,63809,1,0,0:0:0:0:
320,192,63866,1,0,0:0:0:0:
192,192,63923,1,0,0:0:0:0:
448,192,64037,1,0,0:0:0:0:
320,192,64094,1,0,0:0:0:0:
64,192,64150,1,0,0:0:0:0:
192,192,64207,1,0,0:0:0:0:
320,192,64264,1,0,0:0:0:0:
64,192,64378,1,0,0:0:0:0:
192,192,64434,1,0,0:0:0:0:
448,192,64491,1,0,0:0:0:0:
320,192,64548,1,0,0:0:0:0:
192,192,64605,1,0,0:0:0:0:
448,192,64719,1,0,0:0:0:0:
320,192,64775,1,0,0:0:0:0:
64,192,64832,1,0,0:0:0:0:
192,192,64889,1,0,0:0:0:0:
320,192,64946,1,0,0:0:0:0:
192,192,65003,1,0,0:0:0:0:
320,192,65059,1,0,0:0:0:0:
448,192,65173,1,0,0:0:0:0:
320,192,65287,1,0,0:0:0:0:
192,192,65400,1,0,0:0:0:0:
64,192,65514,1,0,0:0:0:0:
448,192,65514,1,0,0:0:0:0:
192,192,65741,1,0,0:0:0:0:
320,192,65855,1,0,0:0:0:0:
192,192,65969,1,0,0:0:0:0:
448,192,66423,1,0,0:0:0:0:
64,192,66423,1,0,0:0:0:0:
192,192,66650,1,0,0:0:0:0:
320,192,66764,1,0,0:0:0:0:
448,192,66878,1,0,0:0:0:0:
64,192,67332,1,0,0:0:0:0:
320,192,67332,1,0,0:0:0:0:
192,192,67446,1,0,0:0:0:0:
64,192,67559,1,0,0:0:0:0:
320,192,67673,1,0,0:0:0:0:
448,192,67787,1,0,0:0:0:0:
192,192,67900,1,0,0:0:0:0:
64,192,68014,1,0,0:0:0:0:
320,192,68128,1,0,0:0:0:0:
192,192,68241,1,0,0:0:0:0:
448,192,68355,1,0,0:0:0:0:
64,192,68469,1,0,0:0:0:0:
448,192,68582,1,0,0:0:0:0:
192,192,68696,1,0,0:0:0:0:
64,192,68696,1,0,0:0:0:0:
64,192,69150,1,0,0:0:0:0:
448,192,69150,1,0,0:0:0:0:
192,192,69378,1,0,0:0:0:0:
320,192,69491,1,0,0:0:0:0:
192,192,69605,1,0,0:0:0:0:
64,192,70059,1,0,0:0:0:0:
320,192,70059,1,0,0:0:0:0:
192,192,70287,1,0,0:0:0:0:
320,192,70400,1,0,0:0:0:0:
448,192,70514,1,0,0:0:0:0:
64,192,70969,1,0,0:0:0:0:
320,192,70969,1,0,0:0:0:0:
192,192,71082,1,0,0:0:0:0:
64,192,71196,1,0,0:0:0:0:
320,192,71309,1,0,0:0:0:0:
448,192,71423,1,0,0:0:0:0:
320,192,71537,1,0,0:0:0:0:
64,192,71650,1,0,0:0:0:0:
192,192,71764,1,0,0:0:0:0:
320,192,71878,1,0,0:0:0:0:
448,192,71991,1,0,0:0:0:0:
192,192,72105,1,0,0:0:0:0:
448,192,72219,1,0,0:0:0:0:
64,192,72332,1,0,0:0:0:0:
320,192,72332,1,0,0:0:0:0:
64,192,72787,1,0,0:0:0:0:
320,192,72787,1,0,0:0:0:0:
448,192,72787,1,0,0:0:0:0:
192,192,73014,1,0,0:0:0:0:
320,192,73128,1,0,0:0:0:0:
192,192,73241,1,0,0:0:0:0:
64,192,73696,1,0,0:0:0:0:
448,192,73696,1,0,0:0:0:0:
192,192,73923,1,0,0:0:0:0:
320,192,74037,1,0,0:0:0:0:
448,192,74150,1,0,0:0:0:0:
320,192,74605,1,0,0:0:0:0:
192,192,74719,1,0,0:0:0:0:
64,192,74832,1,0,0:0:0:0:
320,192,74946,1,0,0:0:0:0:
192,192,75059,1,0,0:0:0:0:
64,192,75173,1,0,0:0:0:0:
192,192,75287,1,0,0:0:0:0:
64,192,75400,1,0,0:0:0:0:
448,192,75514,1,0,0:0:0:0:
320,192,75628,1,0,0:0:0:0:
448,192,75741,1,0,0:0:0:0:
320,192,75855,1,0,0:0:0:0:
448,192,75969,1,0,0:0:0:0:
320,192,76423,1,0,0:0:0:0:
64,192,76423,1,0,0:0:0:0:
192,192,76423,1,0,0:0:0:0:
448,192,76650,1,0,0:0:0:0:
320,192,76764,1,0,0:0:0:0:
192,192,76878,1,0,0:0:0:0:
64,192,76991,1,0,0:0:0:0:
320,192,76991,1,0,0:0:0:0:
448,192,76991,1,0,0:0:0:0:
192,192,77332,1,0,0:0:0:0:
64,192,77332,1,0,0:0:0:0:
448,192,77332,1,0,0:0:0:0:
192,192,77559,1,0,0:0:0:0:
320,192,77673,1,0,0:0:0:0:
448,192,77787,1,0,0:0:0:0:
320,192,77900,1,0,0:0:0:0:
192,192,77900,1,0,0:0:0:0:
64,192,77900,1,0,0:0:0:0:
448,192,78241,1,0,0:0:0:0:
320,192,78298,1,0,0:0:0:0:
192,192,78355,1,0,0:0:0:0:
64,192,78412,1,0,0:0:0:0:
448,192,78469,1,0,0:0:0:0:
320,192,78525,1,0,0:0:0:0:
192,192,78582,1,0,0:0:0:0:
64,192,78639,1,0,0:0:0:0:
448,192,78696,1,0,0:0:0:0:
320,192,78753,1,0,0:0:0:0:
192,192,78809,1,0,0:0:0:0:
64,192,78866,1,0,0:0:0:0:
448,192,78923,1,0,0:0:0:0:
320,192,78980,1,0,0:0:0:0:
192,192,79037,1,0,0:0:0:0:
64,192,79094,1,0,0:0:0:0:
320,192,79150,1,0,0:0:0:0:
448,192,79150,1,0,0:0:0:0:
448,192,79605,1,0,0:0:0:0:
192,192,79719,1,0,0:0:0:0:
320,192,79832,1,0,0:0:0:0:
64,192,79946,1,0,0:0:0:0:
320,192,80059,1,0,0:0:0:0:
448,192,80059,1,0,0:0:0:0:
192,192,80230,1,0,0:0:0:0:
320,192,80287,1,0,0:0:0:0:
448,192,80287,1,0,0:0:0:0:
192,192,80400,1,0,0:0:0:0:
64,192,80400,1,0,0:0:0:0:
320,192,80514,1,0,0:0:0:0:
448,192,80514,1,0,0:0:0:0:
64,192,80741,1,0,0:0:0:0:
192,192,80798,1,0,0:0:0:0:
320,192,80855,1,0,0:0:0:0:
448,192,80912,1,0,0:0:0:0:
64,192,80969,1,0,0:0:0:0:
192,192,80969,1,0,0:0:0:0:
320,192,81139,1,0,0:0:0:0:
192,192,81196,1,0,0:0:0:0:
64,192,81196,1,0,0:0:0:0:
320,192,81309,1,0,0:0:0:0:
448,192,81309,1,0,0:0:0:0:
64,192,81423,1,0,0:0:0:0:
192,192,81423,1,0,0:0:0:0:
448,192,81650,1,0,0:0:0:0:
320,192,81707,1,0,0:0:0:0:
192,192,81764,1,0,0:0:0:0:
64,192,81821,1,0,0:0:0:0:
448,192,81878,128,0,81991:0:0:0:0:
320,192,81991,128,0,82105:0:0:0:0:
192,192,82105,128,0,82219:0:0:0:0:
448,192,82219,128,0,82332:0:0:0:0:
64,192,82332,128,0,82446:0:0:0:0:
192,192,82446,128,0,82559:0:0:0:0:
320,192,82559,128,0,82673:0:0:0:0:
192,192,82673,128,0,82787:0:0:0:0:
64,192,82787,128,0,82900:0:0:0:0:
448,192,82787,128,0,82900:0:0:0:0:
320,192,82900,128,0,83014:0:0:0:0:
192,192,83014,128,0,83128:0:0:0:0:
64,192,83014,128,0,83128:0:0:0:0:
320,192,83128,128,0,83241:0:0:0:0:
192,192,83241,128,0,83355:0:0:0:0:
448,192,83241,128,0,83355:0:0:0:0:
64,192,83355,128,0,83469:0:0:0:0:
320,192,83469,1,0,0:0:0:0:
448,192,83525,1,0,0:0:0:0:
192,192,83582,1,0,0:0:0:0:
64,192,83639,1,0,0:0:0:0:
320,192,83696,1,0,0:0:0:0:
448,192,83696,1,0,0:0:0:0:
192,192,83866,1,0,0:0:0:0:
64,192,83923,1,0,0:0:0:0:
320,192,83923,1,0,0:0:0:0:
192,192,84037,1,0,0:0:0:0:
448,192,84037,1,0,0:0:0:0:
320,192,84150,1,0,0:0:0:0:
64,192,84150,1,0,0:0:0:0:
64,192,84378,1,0,0:0:0:0:
192,192,84434,1,0,0:0:0:0:
320,192,84491,1,0,0:0:0:0:
448,192,84548,1,0,0:0:0:0:
192,192,84605,1,0,0:0:0:0:
64,192,84605,1,0,0:0:0:0:
320,192,84775,1,0,0:0:0:0:
192,192,84832,1,0,0:0:0:0:
448,192,84832,1,0,0:0:0:0:
64,192,84946,1,0,0:0:0:0:
320,192,84946,1,0,0:0:0:0:
192,192,85059,1,0,0:0:0:0:
448,192,85059,1,0,0:0:0:0:
64,192,85287,1,0,0:0:0:0:
192,192,85344,1,0,0:0:0:0:
320,192,85400,1,0,0:0:0:0:
448,192,85457,1,0,0:0:0:0:
64,192,85514,1,0,0:0:0:0:
192,192,85514,1,0,0:0:0:0:
320,192,85628,1,0,0:0:0:0:
64,192,85741,1,0,0:0:0:0:
448,192,85741,1,0,0:0:0:0:
192,192,85855,1,0,0:0:0:0:
320,192,85855,1,0,0:0:0:0:
64,192,85969,1,0,0:0:0:0:
448,192,85969,1,0,0:0:0:0:
320,192,86082,1,0,0:0:0:0:
192,192,86196,1,0,0:0:0:0:
64,192,86196,1,0,0:0:0:0:
320,192,86309,1,0,0:0:0:0:
448,192,86309,1,0,0:0:0:0:
192,192,86423,1,0,0:0:0:0:
64,192,86423,1,0,0:0:0:0:
320,192,86537,1,0,0:0:0:0:
64,192,86650,1,0,0:0:0:0:
448,192,86650,1,0,0:0:0:0:
192,192,86764,1,0,0:0:0:0:
64,192,86878,1,0,0:0:0:0:
448,192,86878,1,0,0:0:0:0:
192,192,86991,1,0,0:0:0:0:
320,192,86991,1,0,0:0:0:0:
448,192,87105,1,0,0:0:0:0:
320,192,87162,1,0,0:0:0:0:
192,192,87219,1,0,0:0:0:0:
64,192,87275,1,0,0:0:0:0:
320,192,87332,1,0,0:0:0:0:
448,192,87332,1,0,0:0:0:0:
192,192,87503,1,0,0:0:0:0:
320,192,87503,1,0,0:0:0:0:
192,192,87673,1,0,0:0:0:0:
64,192,87673,1,0,0:0:0:0:
320,192,87787,1,0,0:0:0:0:
448,192,87787,1,0,0:0:0:0:
192,192,87900,1,0,0:0:0:0:
64,192,87900,1,0,0:0:0:0:
64,192,88014,1,0,0:0:0:0:
192,192,88071,1,0,0:0:0:0:
320,192,88128,1,0,0:0:0:0:
448,192,88184,1,0,0:0:0:0:
192,192,88241,1,0,0:0:0:0:
64,192,88241,1,0,0:0:0:0:
320,192,88355,1,0,0:0:0:0:
192,192,88469,1,0,0:0:0:0:
448,192,88469,1,0,0:0:0:0:
320,192,88582,1,0,0:0:0:0:
64,192,88696,1,0,0:0:0:0:
448,192,88696,1,0,0:0:0:0:
192,192,88809,1,0,0:0:0:0:
448,192,88923,1,0,0:0:0:0:
320,192,88980,1,0,0:0:0:0:
192,192,89037,1,0,0:0:0:0:
64,192,89094,1,0,0:0:0:0:
320,192,89150,1,0,0:0:0:0:
448,192,89150,1,0,0:0:0:0:
192,192,89264,1,0,0:0:0:0:
64,192,89378,1,0,0:0:0:0:
320,192,89378,1,0,0:0:0:0:
192,192,89491,1,0,0:0:0:0:
64,192,89605,1,0,0:0:0:0:
448,192,89605,1,0,0:0:0:0:
192,192,89719,1,0,0:0:0:0:
64,192,89832,1,0,0:0:0:0:
448,192,89832,1,0,0:0:0:0:
320,192,89946,1,0,0:0:0:0:
192,192,90059,1,0,0:0:0:0:
64,192,90059,1,0,0:0:0:0:
320,192,90173,1,0,0:0:0:0:
448,192,90173,1,0,0:0:0:0:
192,192,90287,1,0,0:0:0:0:
64,192,90287,1,0,0:0:0:0:
320,192,90400,1,0,0:0:0:0:
448,192,90400,1,0,0:0:0:0:
192,192,90514,1,0,0:0:0:0:
64,192,90514,1,0,0:0:0:0:
64,192,90969,1,0,0:0:0:0:
192,192,91025,1,0,0:0:0:0:
320,192,91082,1,0,0:0:0:0:
448,192,91139,1,0,0:0:0:0:
64,192,91196,1,0,0:0:0:0:
192,192,91253,1,0,0:0:0:0:
320,192,91309,1,0,0:0:0:0:
448,192,91366,1,0,0:0:0:0:
64,192,91423,1,0,0:0:0:0:
192,192,91480,1,0,0:0:0:0:
320,192,91537,1,0,0:0:0:0:
448,192,91594,1,0,0:0:0:0:
64,192,91650,1,0,0:0:0:0:
192,192,91707,1,0,0:0:0:0:
320,192,91764,1,0,0:0:0:0:
448,192,91821,1,0,0:0:0:0:
64,192,91878,1,0,0:0:0:0:
192,192,91934,1,0,0:0:0:0:
320,192,91991,1,0,0:0:0:0:
448,192,92048,1,0,0:0:0:0:
64,192,92105,1,0,0:0:0:0:
192,192,92162,1,0,0:0:0:0:
320,192,92219,1,0,0:0:0:0:
448,192,92275,1,0,0:0:0:0:
192,192,92332,1,0,0:0:0:0:
320,192,92389,1,0,0:0:0:0:
192,192,92446,1,0,0:0:0:0:
320,192,92503,1,0,0:0:0:0:
64,192,92559,1,0,0:0:0:0:
448,192,92616,1,0,0:0:0:0:
64,192,92673,1,0,0:0:0:0:
448,192,92730,1,0,0:0:0:0:
64,192,92787,1,0,0:0:0:0:
320,192,92900,1,0,0:0:0:0:
448,192,92900,1,0,0:0:0:0:
192,192,93014,1,0,0:0:0:0:
64,192,93014,1,0,0:0:0:0:
320,192,93128,1,0,0:0:0:0:
448,192,93128,1,0,0:0:0:0:
192,192,93241,1,0,0:0:0:0:
64,192,93355,1,0,0:0:0:0:
320,192,93355,1,0,0:0:0:0:
192,192,93469,1,0,0:0:0:0:
448,192,93469,1,0,0:0:0:0:
320,192,93582,1,0,0:0:0:0:
64,192,93582,1,0,0:0:0:0:
192,192,93696,1,0,0:0:0:0:
448,192,93696,1,0,0:0:0:0:
320,192,93809,1,0,0:0:0:0:
448,192,93923,1,0,0:0:0:0:
448,192,94150,128,0,94378:0:0:0:0:
192,192,94378,1,0,0:0:0:0:
64,192,94378,1,0,0:0:0:0:
64,192,94605,1,0,0:0:0:0:
448,192,94605,1,0,0:0:0:0:
320,192,94719,1,0,0:0:0:0:
448,192,94832,1,0,0:0:0:0:
64,192,94832,1,0,0:0:0:0:
192,192,94946,1,0,0:0:0:0:
320,192,95059,1,0,0:0:0:0:
448,192,95059,1,0,0:0:0:0:
320,192,95173,1,0,0:0:0:0:
192,192,95287,1,0,0:0:0:0:
64,192,95287,1,0,0:0:0:0:
448,192,95400,1,0,0:0:0:0:
192,192,95514,1,0,0:0:0:0:
64,192,95514,1,0,0:0:0:0:
448,192,95628,1,0,0:0:0:0:
320,192,95741,1,0,0:0:0:0:
64,192,95741,1,0,0:0:0:0:
192,192,95855,1,0,0:0:0:0:
320,192,95969,1,0,0:0:0:0:
448,192,95969,1,0,0:0:0:0:
64,192,96082,1,0,0:0:0:0:
192,192,96196,1,0,0:0:0:0:
448,192,96196,1,0,0:0:0:0:
320,192,96309,1,0,0:0:0:0:
192,192,96423,1,0,0:0:0:0:
64,192,96423,1,0,0:0:0:0:
320,192,96537,1,0,0:0:0:0:
448,192,96537,1,0,0:0:0:0:
192,192,96650,1,0,0:0:0:0:
64,192,96650,1,0,0:0:0:0:
320,192,96764,1,0,0:0:0:0:
448,192,96764,1,0,0:0:0:0:
192,192,96878,1,0,0:0:0:0:
64,192,96878,1,0,0:0:0:0:
320,192,96991,1,0,0:0:0:0:
448,192,96991,1,0,0:0:0:0:
192,192,97105,1,0,0:0:0:0:
64,192,97105,1,0,0:0:0:0:
448,192,97219,1,0,0:0:0:0:
320,192,97275,1,0,0:0:0:0:
64,192,97332,1,0,0:0:0:0:
192,192,97389,1,0,0:0:0:0:
320,192,97446,1,0,0:0:0:0:
448,192,97503,1,0,0:0:0:0:
192,192,97559,1,0,0:0:0:0:
320,192,97673,1,0,0:0:0:0:
64,192,97787,1,0,0:0:0:0:
448,192,97787,1,0,0:0:0:0:
192,192,97957,1,0,0:0:0:0:
320,192,97957,1,0,0:0:0:0:
64,192,98128,1,0,0:0:0:0:
448,192,98128,1,0,0:0:0:0:
192,192,98241,1,0,0:0:0:0:
320,192,98241,1,0,0:0:0:0:
448,192,98355,1,0,0:0:0:0:
64,192,98469,1,0,0:0:0:0:
192,192,98469,1,0,0:0:0:0:
320,192,98582,1,0,0:0:0:0:
64,192,98696,1,0,0:0:0:0:
448,192,98696,1,0,0:0:0:0:
448,192,98809,1,0,0:0:0:0:
192,192,98923,1,0,0:0:0:0:
64,192,98923,1,0,0:0:0:0:
320,192,99037,1,0,0:0:0:0:
192,192,99150,1,0,0:0:0:0:
64,192,99150,1,0,0:0:0:0:
320,192,99264,1,0,0:0:0:0:
64,192,99378,1,0,0:0:0:0:
448,192,99378,1,0,0:0:0:0:
192,192,99491,1,0,0:0:0:0:
320,192,99605,1,0,0:0:0:0:
448,192,99605,1,0,0:0:0:0:
64,192,99719,1,0,0:0:0:0:
192,192,99832,1,0,0:0:0:0:
448,192,99832,1,0,0:0:0:0:
320,192,99946,1,0,0:0:0:0:
64,192,100059,1,0,0:0:0:0:
192,192,100116,1,0,0:0:0:0:
320,192,100173,1,0,0:0:0:0:
448,192,100230,1,0,0:0:0:0:
64,192,100287,1,0,0:0:0:0:
192,192,100344,1,0,0:0:0:0:
320,192,100400,1,0,0:0:0:0:
448,192,100457,1,0,0:0:0:0:
64,192,100514,1,0,0:0:0:0:
192,192,100571,1,0,0:0:0:0:
320,192,100628,1,0,0:0:0:0:
448,192,100684,1,0,0:0:0:0:
64,192,100741,1,0,0:0:0:0:
192,192,100798,1,0,0:0:0:0:
320,192,100855,1,0,0:0:0:0:
448,192,100912,1,0,0:0:0:0:
192,192,100969,1,0,0:0:0:0:
64,192,100969,1,0,0:0:0:0:
320,192,101139,1,0,0:0:0:0:
448,192,101139,1,0,0:0:0:0:
192,192,101309,1,0,0:0:0:0:
64,192,101309,1,0,0:0:0:0:
320,192,101423,128,0,101650:0:0:0:0:
448,192,101423,128,0,101650:0:0:0:0:
192,192,101878,1,0,0:0:0:0:
64,192,101991,1,0,0:0:0:0:
448,192,101991,1,0,0:0:0:0:
320,192,101991,1,0,0:0:0:0:
192,192,102105,1,0,0:0:0:0:
64,192,102219,1,0,0:0:0:0:
320,192,102219,1,0,0:0:0:0:
448,192,102219,1,0,0:0:0:0:
192,192,102332,1,0,0:0:0:0:
64,192,102446,1,0,0:0:0:0:
320,192,102446,1,0,0:0:0:0:
448,192,102446,1,0,0:0:0:0:
192,192,102559,1,0,0:0:0:0:
64,192,102673,1,0,0:0:0:0:
320,192,102673,1,0,0:0:0:0:
448,192,102673,1,0,0:0:0:0:
192,192,102787,128,0,103696:0:0:0:0:
320,192,103696,1,0,0:0:0:0:
192,192,103809,1,0,0:0:0:0:
64,192,103809,1,0,0:0:0:0:
448,192,103809,1,0,0:0:0:0:
320,192,103923,1,0,0:0:0:0:
192,192,104037,1,0,0:0:0:0:
64,192,104037,1,0,0:0:0:0:
448,192,104037,1,0,0:0:0:0:
320,192,104150,1,0,0:0:0:0:
448,192,104264,1,0,0:0:0:0:
192,192,104264,1,0,0:0:0:0:
64,192,104264,1,0,0:0:0:0:
320,192,104378,1,0,0:0:0:0:
448,192,104491,1,0,0:0:0:0:
192,192,104491,1,0,0:0:0:0:
64,192,104491,1,0,0:0:0:0:
320,192,104605,128,0,105287:0:0:0:0:
64,192,105514,1,0,0:0:0:0:
192,192,105571,1,0,0:0:0:0:
448,192,105628,1,0,0:0:0:0:
320,192,105684,1,0,0:0:0:0:
64,192,105741,1,0,0:0:0:0:
192,192,105798,1,0,0:0:0:0:
448,192,105855,1,0,0:0:0:0:
320,192,105912,1,0,0:0:0:0:
64,192,105969,1,0,0:0:0:0:
192,192,106025,1,0,0:0:0:0:
448,192,106082,1,0,0:0:0:0:
320,192,106139,1,0,0:0:0:0:
192,192,106196,1,0,0:0:0:0:
64,192,106196,1,0,0:0:0:0:
320,192,106423,1,0,0:0:0:0:
448,192,106480,1,0,0:0:0:0:
192,192,106537,1,0,0:0:0:0:
64,192,106594,1,0,0:0:0:0:
320,192,106650,1,0,0:0:0:0:
448,192,106707,1,0,0:0:0:0:
192,192,106764,1,0,0:0:0:0:
64,192,106821,1,0,0:0:0:0:
320,192,106878,1,0,0:0:0:0:
448,192,106934,1,0,0:0:0:0:
192,192,106991,1,0,0:0:0:0:
64,192,107048,1,0,0:0:0:0:
320,192,107105,1,0,0:0:0:0:
448,192,107105,1,0,0:0:0:0:
192,192,107332,1,0,0:0:0:0:
448,192,107389,1,0,0:0:0:0:
192,192,107446,1,0,0:0:0:0:
448,192,107503,1,0,0:0:0:0:
192,192,107559,1,0,0:0:0:0:
64,192,107673,1,0,0:0:0:0:
320,192,107730,1,0,0:0:0:0:
64,192,107787,1,0,0:0:0:0:
320,192,107844,1,0,0:0:0:0:
64,192,107900,1,0,0:0:0:0:
448,192,108014,1,0,0:0:0:0:
192,192,108071,1,0,0:0:0:0:
448,192,108128,1,0,0:0:0:0:
192,192,108184,1,0,0:0:0:0:
448,192,108241,1,0,0:0:0:0:
320,192,108923,1,0,0:0:0:0:
320,192,109037,1,0,0:0:0:0:
448,192,109150,1,0,0:0:0:0:
64,192,109150,1,0,0:0:0:0:
192,192,109321,1,0,0:0:0:0:
64,192,109491,1,0,0:0:0:0:
448,192,109491,1,0,0:0:0:0:
64,192,109719,1,0,0:0:0:0:
448,192,109719,1,0,0:0:0:0:
320,192,109889,1,0,0:0:0:0:
64,192,110059,1,0,0:0:0:0:
448,192,110059,1,0,0:0:0:0:
192,192,110230,1,0,0:0:0:0:
64,192,110400,1,0,0:0:0:0:
448,192,110400,1,0,0:0:0:0:
320,192,110571,1,0,0:0:0:0:
192,192,110741,1,0,0:0:0:0:
64,192,110741,1,0,0:0:0:0:
448,192,110741,1,0,0:0:0:0:
64,192,110969,1,0,0:0:0:0:
448,192,110969,1,0,0:0:0:0:
192,192,111139,1,0,0:0:0:0:
64,192,111309,1,0,0:0:0:0:
448,192,111309,1,0,0:0:0:0:
64,192,111537,1,0,0:0:0:0:
448,192,111537,1,0,0:0:0:0:
320,192,111707,1,0,0:0:0:0:
192,192,111878,1,0,0:0:0:0:
192,192,111991,1,0,0:0:0:0:
320,192,112105,1,0,0:0:0:0:
320,192,112219,1,0,0:0:0:0:
192,192,112332,1,0,0:0:0:0:
192,192,112446,1,0,0:0:0:0:
192,192,112673,1,0,0:0:0:0:
320,192,112673,1,0,0:0:0:0:
64,192,112787,1,0,0:0:0:0:
448,192,112787,1,0,0:0:0:0:
320,192,112957,1,0,0:0:0:0:
64,192,113128,1,0,0:0:0:0:
448,192,113128,1,0,0:0:0:0:
64,192,113355,1,0,0:0:0:0:
448,192,113355,1,0,0:0:0:0:
192,192,113525,1,0,0:0:0:0:
64,192,113696,1,0,0:0:0:0:
448,192,113696,1,0,0:0:0:0:
320,192,113866,1,0,0:0:0:0:
64,192,114037,1,0,0:0:0:0:
448,192,114037,1,0,0:0:0:0:
192,192,114207,1,0,0:0:0:0:
192,192,114378,1,0,0:0:0:0:
320,192,114378,1,0,0:0:0:0:
64,192,114491,1,0,0:0:0:0:
448,192,114491,1,0,0:0:0:0:
320,192,114662,1,0,0:0:0:0:
64,192,114832,1,0,0:0:0:0:
448,192,114832,1,0,0:0:0:0:
192,192,114946,1,0,0:0:0:0:
64,192,115116,1,0,0:0:0:0:
448,192,115116,1,0,0:0:0:0:
320,192,115287,1,0,0:0:0:0:
64,192,115400,1,0,0:0:0:0:
448,192,115400,1,0,0:0:0:0:
192,192,115571,1,0,0:0:0:0:
64,192,115741,1,0,0:0:0:0:
448,192,115741,1,0,0:0:0:0:
320,192,115855,1,0,0:0:0:0:
64,192,115969,1,0,0:0:0:0:
192,192,116025,1,0,0:0:0:0:
320,192,116082,1,0,0:0:0:0:
448,192,116139,1,0,0:0:0:0:
64,192,116196,1,0,0:0:0:0:
192,192,116309,1,0,0:0:0:0:
448,192,116423,1,0,0:0:0:0:
320,192,116480,1,0,0:0:0:0:
192,192,116537,1,0,0:0:0:0:
64,192,116594,1,0,0:0:0:0:
448,192,116650,1,0,0:0:0:0:
320,192,116707,1,0,0:0:0:0:
192,192,116764,1,0,0:0:0:0:
64,192,116821,1,0,0:0:0:0:
448,192,116878,1,0,0:0:0:0:
320,192,116934,1,0,0:0:0:0:
192,192,116991,1,0,0:0:0:0:
64,192,117048,1,0,0:0:0:0:
448,192,117105,1,0,0:0:0:0:
320,192,117162,1,0,0:0:0:0:
192,192,117219,1,0,0:0:0:0:
64,192,117275,1,0,0:0:0:0:
320,192,117332,1,0,0:0:0:0:
448,192,117332,1,0,0:0:0:0:
320,192,117446,1,0,0:0:0:0:
448,192,117446,1,0,0:0:0:0:
64,192,117559,1,0,0:0:0:0:
192,192,117616,1,0,0:0:0:0:
320,192,117673,1,0,0:0:0:0:
448,192,117730,1,0,0:0:0:0:
64,192,117787,1,0,0:0:0:0:
192,192,117844,1,0,0:0:0:0:
320,192,117900,1,0,0:0:0:0:
448,192,117957,1,0,0:0:0:0:
64,192,118014,1,0,0:0:0:0:
192,192,118071,1,0,0:0:0:0:
320,192,118128,1,0,0:0:0:0:
448,192,118184,1,0,0:0:0:0:
192,192,118241,1,0,0:0:0:0:
320,192,118298,1,0,0:0:0:0:
448,192,118355,1,0,0:0:0:0:
64,192,118469,1,0,0:0:0:0:
320,192,118525,1,0,0:0:0:0:
192,192,118582,1,0,0:0:0:0:
448,192,118639,1,0,0:0:0:0:
64,192,118696,1,0,0:0:0:0:
320,192,118753,1,0,0:0:0:0:
192,192,118809,1,0,0:0:0:0:
448,192,118866,1,0,0:0:0:0:
64,192,118923,1,0,0:0:0:0:
320,192,118980,1,0,0:0:0:0:
192,192,119037,1,0,0:0:0:0:
448,192,119037,1,0,0:0:0:0:
