osu file format v14

[General]
AudioFilename: audio.mp3
AudioLeadIn: 0
PreviewTime: 190871
Countdown: 0
SampleSet: Normal
StackLeniency: 0.7
Mode: 3
LetterboxInBreaks: 0
SpecialStyle: 0
WidescreenStoryboard: 1

[Editor]
DistanceSpacing: 0.9
BeatDivisor: 4
GridSize: 8
TimelineZoom: 2.5

[Metadata]
Title:Upload Your Mind :: Download My Soul
TitleUnicode:Upload Your Mind :: Download My Soul
Artist:Camellia
ArtistUnicode:かめりあ
Creator:-mint-
Version:Multidimensional
Source:
Tags:kamelcamellia cametek masaya oya かめるかめりあ かめてく 大箭将也 大箭マサヤ featured artist fa heart of android comiket comic market c95 ctcd-018 progressive machinegun psytrance hardstyle osu!mania 4k world cup 2023 mwc23 mwc 4k 2023 quarterfinals qf hybrid hb2 qqqant electronic instrumental
BeatmapID:4284920
BeatmapSetID:2051840

[Difficulty]
HPDrainRate:8
CircleSize:4
OverallDifficulty:7.3
ApproachRate:5
SliderMultiplier:1.4
SliderTickRate:1

[Events]
//Background and Video events
0,0,"bg.jpg",0,0
//Break Periods
//Storyboard Layer 0 (Background)
//Storyboard Layer 1 (Fail)
//Storyboard Layer 2 (Pass)
//Storyboard Layer 3 (Foreground)
//Storyboard Layer 4 (Overlay)
//Storyboard Sound Samples

[TimingPoints]
4365,361.44578313253,4,1,1,60,1,0
14485,-100,4,1,1,40,0,0
15931,-100,4,1,1,50,0,0
17467,-100,4,1,1,35,0,0
28943,-100,4,1,1,40,0,0
37618,-100,4,1,1,45,0,0
39063,-100,4,1,1,50,0,0
52075,-100,4,1,1,60,0,0
60750,-100,4,1,1,45,0,0
63642,-100,4,1,1,60,0,0
83883,-100,4,1,1,40,0,0
86413,-100,4,1,1,50,0,0
86774,-100,4,1,1,60,0,0
96895,-100,4,1,1,50,0,0
97979,-100,4,1,1,60,0,0
107015,-100,4,1,1,40,0,0
109545,-100,4,1,1,55,0,0
109907,-100,4,1,1,60,0,0
120027,-100,4,1,1,45,0,0
121111,-100,4,1,1,50,0,0
121473,-100,4,1,1,60,0,0
131593,-100,4,1,1,40,0,0
133130,-100,4,1,1,30,0,0
138822,-100,4,1,1,35,0,0
140268,-100,4,1,1,40,0,0
141714,-100,4,1,1,45,0,0
143160,-100,4,1,1,50,0,0
144605,-100,4,1,1,35,0,0
156172,-100,4,1,1,40,0,0
164846,-100,4,1,1,45,0,0
166292,-100,4,1,1,50,0,0
179304,-100,4,1,1,60,0,0
187979,-100,4,1,1,50,0,0
190871,-100,4,1,1,60,0,1
211111,-100,4,1,1,45,0,0
212557,-100,4,1,1,60,0,0
213551,-100,4,1,1,45,0,0
214003,-100,4,1,1,60,0,1
215449,-100,4,1,1,45,0,0
216895,-100,4,1,1,60,0,1
218340,-100,4,1,1,45,0,0
220148,-100,4,1,1,60,0,1
225208,-100,4,1,1,60,0,0
225569,-100,4,1,1,60,0,1
227015,-100,4,1,1,45,0,0
228461,-100,4,1,1,60,0,1
229907,-100,4,1,1,45,0,0
231352,-100,4,1,1,60,0,0
235690,-100,4,1,1,40,0,0
236774,-100,4,1,1,50,0,0
237136,-100,4,1,1,60,0,0
247256,-100,4,1,1,45,0,0
248792,-100,4,1,1,50,0,0
249063,-100,4,1,1,60,0,0
257377,-100,4,1,1,50,0,0
260268,-100,4,1,1,60,0,0

[HitObjects]
320,192,4003,5,0,0:0:0:0:
448,192,4003,1,0,0:0:0:0:
448,192,4093,1,0,0:0:0:0:
64,192,4093,1,0,0:0:0:0:
64,192,4184,1,0,0:0:0:0:
320,192,4184,1,0,0:0:0:0:
192,192,4274,1,0,0:0:0:0:
320,192,4274,1,0,0:0:0:0:
64,192,4365,128,0,4726:0:0:0:0:
448,192,4365,128,0,4636:0:0:0:0:
192,192,4365,128,0,4545:0:0:0:0:
320,192,4545,128,0,4726:0:0:0:0:
192,192,4636,128,0,4726:0:0:0:0:
448,192,4726,128,0,5178:0:0:0:0:
192,192,4816,128,0,4997:0:0:0:0:
320,192,4907,128,0,5178:0:0:0:0:
64,192,4997,128,0,5087:0:0:0:0:
192,192,5087,128,0,5268:0:0:0:0:
448,192,5268,128,0,5449:0:0:0:0:
320,192,5268,128,0,5449:0:0:0:0:
64,192,5268,128,0,5449:0:0:0:0:
448,192,5539,128,0,5720:0:0:0:0:
64,192,5539,128,0,5720:0:0:0:0:
192,192,5539,128,0,5720:0:0:0:0:
64,192,5810,128,0,5931:0:0:0:0:
192,192,5810,128,0,6051:0:0:0:0:
320,192,5810,128,0,5991:0:0:0:0:
448,192,5991,128,0,6081:0:0:0:0:
64,192,6051,128,0,6172:0:0:0:0:
320,192,6111,128,0,6262:0:0:0:0:
448,192,6172,128,0,6352:0:0:0:0:
192,192,6352,1,0,0:0:0:0:
192,192,6443,1,0,0:0:0:0:
320,192,6443,128,0,6624:0:0:0:0:
448,192,6533,1,0,0:0:0:0:
64,192,6533,128,0,6895:0:0:0:0:
192,192,6714,128,0,6895:0:0:0:0:
448,192,6804,128,0,6985:0:0:0:0:
320,192,6895,128,0,7075:0:0:0:0:
64,192,7075,1,0,0:0:0:0:
448,192,7121,1,0,0:0:0:0:
64,192,7166,1,0,0:0:0:0:
448,192,7211,1,0,0:0:0:0:
320,192,7256,128,0,7437:0:0:0:0:
192,192,7256,128,0,7527:0:0:0:0:
448,192,7437,128,0,7527:0:0:0:0:
64,192,7437,128,0,7618:0:0:0:0:
320,192,7527,128,0,7618:0:0:0:0:
192,192,7618,1,0,0:0:0:0:
448,192,7663,1,0,0:0:0:0:
64,192,7708,1,0,0:0:0:0:
64,192,7798,1,0,0:0:0:0:
64,192,7889,1,0,0:0:0:0:
320,192,7979,1,0,0:0:0:0:
320,192,8069,1,0,0:0:0:0:
448,192,8160,128,0,8340:0:0:0:0:
192,192,8160,128,0,8340:0:0:0:0:
64,192,8160,128,0,8340:0:0:0:0:
448,192,8431,128,0,8611:0:0:0:0:
320,192,8431,128,0,8611:0:0:0:0:
192,192,8431,128,0,8611:0:0:0:0:
448,192,8702,128,0,8792:0:0:0:0:
320,192,8702,128,0,9063:0:0:0:0:
64,192,8702,128,0,8973:0:0:0:0:
448,192,8883,128,0,9063:0:0:0:0:
64,192,9063,1,0,0:0:0:0:
320,192,9154,1,0,0:0:0:0:
192,192,9244,128,0,9425:0:0:0:0:
448,192,9289,1,0,0:0:0:0:
64,192,9334,128,0,9515:0:0:0:0:
320,192,9425,128,0,9605:0:0:0:0:
192,192,9515,128,0,9696:0:0:0:0:
448,192,9605,128,0,9786:0:0:0:0:
320,192,9696,128,0,10057:0:0:0:0:
192,192,9786,128,0,9967:0:0:0:0:
448,192,9877,128,0,10057:0:0:0:0:
64,192,9967,128,0,10057:0:0:0:0:
192,192,10057,128,0,10148:0:0:0:0:
448,192,10148,128,0,10509:0:0:0:0:
64,192,10148,128,0,10419:0:0:0:0:
320,192,10148,128,0,10328:0:0:0:0:
192,192,10328,128,0,10509:0:0:0:0:
320,192,10419,128,0,10509:0:0:0:0:
64,192,10509,128,0,10961:0:0:0:0:
320,192,10599,128,0,10780:0:0:0:0:
192,192,10690,128,0,10961:0:0:0:0:
448,192,10780,128,0,10871:0:0:0:0:
320,192,10871,128,0,11051:0:0:0:0:
64,192,11051,128,0,11232:0:0:0:0:
192,192,11051,128,0,11232:0:0:0:0:
448,192,11051,128,0,11232:0:0:0:0:
64,192,11322,128,0,11503:0:0:0:0:
448,192,11322,128,0,11503:0:0:0:0:
320,192,11322,128,0,11503:0:0:0:0:
448,192,11593,128,0,11714:0:0:0:0:
320,192,11593,128,0,11834:0:0:0:0:
192,192,11593,128,0,11774:0:0:0:0:
64,192,11774,128,0,11864:0:0:0:0:
448,192,11834,128,0,11955:0:0:0:0:
192,192,11895,128,0,12045:0:0:0:0:
64,192,11955,128,0,12136:0:0:0:0:
320,192,12136,1,0,0:0:0:0:
320,192,12226,1,0,0:0:0:0:
192,192,12226,128,0,12407:0:0:0:0:
64,192,12316,1,0,0:0:0:0:
448,192,12316,128,0,12678:0:0:0:0:
320,192,12497,128,0,12678:0:0:0:0:
64,192,12587,128,0,12768:0:0:0:0:
192,192,12678,128,0,12858:0:0:0:0:
448,192,12858,1,0,0:0:0:0:
64,192,12904,1,0,0:0:0:0:
448,192,12949,1,0,0:0:0:0:
64,192,12994,1,0,0:0:0:0:
192,192,13039,128,0,13220:0:0:0:0:
320,192,13039,128,0,13310:0:0:0:0:
64,192,13220,128,0,13310:0:0:0:0:
448,192,13220,128,0,13401:0:0:0:0:
192,192,13310,128,0,13401:0:0:0:0:
320,192,13401,1,0,0:0:0:0:
64,192,13446,1,0,0:0:0:0:
448,192,13491,1,0,0:0:0:0:
448,192,13581,1,0,0:0:0:0:
448,192,13672,1,0,0:0:0:0:
192,192,13762,1,0,0:0:0:0:
192,192,13852,1,0,0:0:0:0:
64,192,13943,128,0,14124:0:0:0:0:
320,192,13943,128,0,14124:0:0:0:0:
448,192,13943,128,0,14124:0:0:0:0:
64,192,14214,128,0,14395:0:0:0:0:
192,192,14214,128,0,14395:0:0:0:0:
320,192,14214,128,0,14395:0:0:0:0:
192,192,14485,128,0,14846:0:0:0:0:
64,192,14485,128,0,14666:0:0:0:0:
320,192,14666,128,0,15208:0:0:0:0:
448,192,14756,128,0,15840:0:0:0:0:
64,192,15208,1,0,0:0:0:0:
320,192,15389,1,0,0:0:0:0:
64,192,15479,1,0,0:0:0:0:
192,192,15569,128,0,15931:0:0:0:0:
320,192,15660,1,0,0:0:0:0:
64,192,15750,1,0,0:0:0:0:
64,192,15931,128,0,16563:0:0:0:0:
448,192,15931,1,0,0:0:0:0:
192,192,16111,1,0,0:0:0:0:
448,192,16202,128,0,16383:0:0:0:0:
320,192,16292,128,0,16654:0:0:0:0:
192,192,16383,128,0,16654:0:0:0:0:
448,192,16473,128,0,16563:0:0:0:0:
64,192,16654,128,0,16925:0:0:0:0:
448,192,16654,128,0,17015:0:0:0:0:
320,192,16834,128,0,17196:0:0:0:0:
64,192,17015,128,0,17105:0:0:0:0:
192,192,17060,128,0,17377:0:0:0:0:
64,192,17377,5,0,0:0:0:0:
448,192,17377,1,0,0:0:0:0:
320,192,17377,1,0,0:0:0:0:
64,192,17648,1,0,0:0:0:0:
64,192,17919,1,0,0:0:0:0:
64,192,18190,1,0,0:0:0:0:
64,192,18461,1,0,0:0:0:0:
320,192,18581,1,0,0:0:0:0:
64,192,18642,1,0,0:0:0:0:
192,192,18702,1,0,0:0:0:0:
448,192,18822,1,0,0:0:0:0:
448,192,19093,1,0,0:0:0:0:
448,192,19364,1,0,0:0:0:0:
192,192,19545,1,0,0:0:0:0:
448,192,19636,1,0,0:0:0:0:
448,192,19907,1,0,0:0:0:0:
320,192,20087,1,0,0:0:0:0:
448,192,20148,1,0,0:0:0:0:
192,192,20208,1,0,0:0:0:0:
320,192,20268,1,0,0:0:0:0:
320,192,20539,1,0,0:0:0:0:
320,192,20810,1,0,0:0:0:0:
192,192,20871,1,0,0:0:0:0:
448,192,20991,1,0,0:0:0:0:
64,192,21036,1,0,0:0:0:0:
320,192,21081,1,0,0:0:0:0:
320,192,21352,1,0,0:0:0:0:
320,192,21533,1,0,0:0:0:0:
448,192,21714,1,0,0:0:0:0:
320,192,21895,1,0,0:0:0:0:
64,192,21955,1,0,0:0:0:0:
448,192,22015,1,0,0:0:0:0:
192,192,22075,1,0,0:0:0:0:
320,192,22136,1,0,0:0:0:0:
64,192,22196,1,0,0:0:0:0:
192,192,22256,1,0,0:0:0:0:
448,192,22316,1,0,0:0:0:0:
64,192,22377,1,0,0:0:0:0:
320,192,22437,1,0,0:0:0:0:
192,192,22497,1,0,0:0:0:0:
320,192,22557,1,0,0:0:0:0:
64,192,22618,1,0,0:0:0:0:
192,192,22678,1,0,0:0:0:0:
448,192,22738,1,0,0:0:0:0:
64,192,22798,1,0,0:0:0:0:
320,192,22858,1,0,0:0:0:0:
192,192,22919,1,0,0:0:0:0:
448,192,22979,1,0,0:0:0:0:
320,192,23069,1,0,0:0:0:0:
448,192,23160,1,0,0:0:0:0:
192,192,23160,1,0,0:0:0:0:
192,192,23431,1,0,0:0:0:0:
192,192,23702,1,0,0:0:0:0:
192,192,23973,1,0,0:0:0:0:
192,192,24244,1,0,0:0:0:0:
64,192,24364,1,0,0:0:0:0:
192,192,24425,1,0,0:0:0:0:
448,192,24485,1,0,0:0:0:0:
64,192,24605,1,0,0:0:0:0:
320,192,24605,1,0,0:0:0:0:
320,192,24877,1,0,0:0:0:0:
320,192,25148,1,0,0:0:0:0:
192,192,25328,1,0,0:0:0:0:
320,192,25419,1,0,0:0:0:0:
320,192,25690,1,0,0:0:0:0:
320,192,25871,1,0,0:0:0:0:
64,192,26051,1,0,0:0:0:0:
192,192,26051,1,0,0:0:0:0:
320,192,26096,1,0,0:0:0:0:
192,192,26322,1,0,0:0:0:0:
192,192,26593,1,0,0:0:0:0:
448,192,26684,1,0,0:0:0:0:
64,192,26864,1,0,0:0:0:0:
64,192,27136,1,0,0:0:0:0:
192,192,27316,1,0,0:0:0:0:
64,192,27377,1,0,0:0:0:0:
320,192,27437,1,0,0:0:0:0:
192,192,27497,1,0,0:0:0:0:
448,192,27557,1,0,0:0:0:0:
320,192,27618,1,0,0:0:0:0:
64,192,27678,1,0,0:0:0:0:
448,192,27738,1,0,0:0:0:0:
64,192,27798,1,0,0:0:0:0:
320,192,27858,1,0,0:0:0:0:
192,192,27919,1,0,0:0:0:0:
320,192,27979,1,0,0:0:0:0:
448,192,28039,1,0,0:0:0:0:
64,192,28099,1,0,0:0:0:0:
320,192,28160,1,0,0:0:0:0:
192,192,28220,1,0,0:0:0:0:
64,192,28280,1,0,0:0:0:0:
192,192,28340,1,0,0:0:0:0:
448,192,28401,1,0,0:0:0:0:
320,192,28461,1,0,0:0:0:0:
64,192,28521,1,0,0:0:0:0:
448,192,28581,128,0,28852:0:0:0:0:
192,192,28642,1,0,0:0:0:0:
320,192,28702,1,0,0:0:0:0:
64,192,28762,1,0,0:0:0:0:
192,192,28852,1,0,0:0:0:0:
448,192,28943,5,0,0:0:0:0:
64,192,28943,128,0,30027:0:0:0:0:
448,192,29214,1,0,0:0:0:0:
448,192,29485,1,0,0:0:0:0:
448,192,29756,1,0,0:0:0:0:
448,192,30027,1,0,0:0:0:0:
192,192,30148,128,0,30268:0:0:0:0:
448,192,30208,1,0,0:0:0:0:
320,192,30268,128,0,30389:0:0:0:0:
448,192,30389,128,0,31473:0:0:0:0:
64,192,30389,1,0,0:0:0:0:
64,192,30660,1,0,0:0:0:0:
64,192,30931,1,0,0:0:0:0:
320,192,31111,1,0,0:0:0:0:
192,192,31202,1,0,0:0:0:0:
192,192,31473,1,0,0:0:0:0:
64,192,31654,1,0,0:0:0:0:
192,192,31714,1,0,0:0:0:0:
320,192,31774,1,0,0:0:0:0:
64,192,31834,1,0,0:0:0:0:
448,192,31834,128,0,32437:0:0:0:0:
64,192,32105,1,0,0:0:0:0:
64,192,32377,1,0,0:0:0:0:
320,192,32437,128,0,32557:0:0:0:0:
192,192,32557,1,0,0:0:0:0:
64,192,32602,128,0,33280:0:0:0:0:
448,192,32648,1,0,0:0:0:0:
448,192,32919,1,0,0:0:0:0:
320,192,33099,1,0,0:0:0:0:
448,192,33160,1,0,0:0:0:0:
192,192,33220,1,0,0:0:0:0:
320,192,33280,128,0,34003:0:0:0:0:
64,192,33340,1,0,0:0:0:0:
192,192,33401,1,0,0:0:0:0:
448,192,33461,1,0,0:0:0:0:
64,192,33521,1,0,0:0:0:0:
448,192,33581,1,0,0:0:0:0:
192,192,33642,1,0,0:0:0:0:
64,192,33702,1,0,0:0:0:0:
448,192,33762,1,0,0:0:0:0:
64,192,33822,1,0,0:0:0:0:
192,192,33883,1,0,0:0:0:0:
448,192,33943,1,0,0:0:0:0:
64,192,34003,1,0,0:0:0:0:
320,192,34063,1,0,0:0:0:0:
448,192,34124,1,0,0:0:0:0:
64,192,34184,1,0,0:0:0:0:
192,192,34244,1,0,0:0:0:0:
320,192,34304,1,0,0:0:0:0:
64,192,34364,128,0,34726:0:0:0:0:
448,192,34425,1,0,0:0:0:0:
192,192,34485,1,0,0:0:0:0:
320,192,34545,1,0,0:0:0:0:
448,192,34636,1,0,0:0:0:0:
192,192,34726,1,0,0:0:0:0:
320,192,34771,128,0,35810:0:0:0:0:
192,192,34997,1,0,0:0:0:0:
192,192,35268,1,0,0:0:0:0:
192,192,35539,1,0,0:0:0:0:
192,192,35810,1,0,0:0:0:0:
320,192,35901,1,0,0:0:0:0:
448,192,35931,128,0,36051:0:0:0:0:
192,192,35991,128,0,36172:0:0:0:0:
320,192,36051,128,0,36172:0:0:0:0:
64,192,36172,128,0,36654:0:0:0:0:
448,192,36172,128,0,36352:0:0:0:0:
448,192,36443,1,0,0:0:0:0:
448,192,36714,128,0,36895:0:0:0:0:
192,192,36774,128,0,37256:0:0:0:0:
448,192,36985,1,0,0:0:0:0:
448,192,37256,1,0,0:0:0:0:
320,192,37256,128,0,38340:0:0:0:0:
448,192,37437,1,0,0:0:0:0:
64,192,37527,128,0,37889:0:0:0:0:
448,192,37618,128,0,39063:0:0:0:0:
192,192,37618,128,0,37798:0:0:0:0:
192,192,37889,128,0,38069:0:0:0:0:
64,192,37979,1,0,0:0:0:0:
192,192,38160,128,0,38340:0:0:0:0:
192,192,38431,128,0,38611:0:0:0:0:
320,192,38431,128,0,38702:0:0:0:0:
64,192,38521,128,0,38611:0:0:0:0:
192,192,38702,128,0,38792:0:0:0:0:
64,192,38702,128,0,38883:0:0:0:0:
192,192,38883,128,0,39063:0:0:0:0:
320,192,38973,1,0,0:0:0:0:
64,192,39063,1,0,0:0:0:0:
320,192,39063,128,0,39244:0:0:0:0:
64,192,39244,128,0,39515:0:0:0:0:
192,192,39244,128,0,39425:0:0:0:0:
448,192,39425,5,0,0:0:0:0:
192,192,39515,1,0,0:0:0:0:
192,192,39605,128,0,39786:0:0:0:0:
320,192,39605,128,0,39786:0:0:0:0:
448,192,39786,128,0,40057:0:0:0:0:
64,192,39786,1,0,0:0:0:0:
320,192,39877,128,0,40057:0:0:0:0:
64,192,39967,128,0,40148:0:0:0:0:
192,192,40057,128,0,40148:0:0:0:0:
448,192,40148,1,0,0:0:0:0:
320,192,40148,128,0,40419:0:0:0:0:
64,192,40238,128,0,40419:0:0:0:0:
448,192,40328,128,0,40419:0:0:0:0:
192,192,40419,128,0,40509:0:0:0:0:
320,192,40509,1,0,0:0:0:0:
448,192,40509,128,0,40690:0:0:0:0:
64,192,40509,128,0,40780:0:0:0:0:
192,192,40690,1,0,0:0:0:0:
320,192,40780,1,0,0:0:0:0:
64,192,40871,128,0,41051:0:0:0:0:
448,192,40961,1,0,0:0:0:0:
320,192,41051,1,0,0:0:0:0:
64,192,41142,1,0,0:0:0:0:
448,192,41232,128,0,41593:0:0:0:0:
64,192,41322,1,0,0:0:0:0:
192,192,41413,1,0,0:0:0:0:
320,192,41593,1,0,0:0:0:0:
192,192,41684,1,0,0:0:0:0:
64,192,41774,128,0,41955:0:0:0:0:
192,192,41864,1,0,0:0:0:0:
320,192,41955,128,0,42136:0:0:0:0:
64,192,42136,128,0,42316:0:0:0:0:
448,192,42226,1,0,0:0:0:0:
192,192,42316,128,0,42407:0:0:0:0:
320,192,42407,1,0,0:0:0:0:
64,192,42497,128,0,42587:0:0:0:0:
192,192,42587,1,0,0:0:0:0:
448,192,42678,128,0,42768:0:0:0:0:
192,192,42768,128,0,42949:0:0:0:0:
320,192,42858,1,0,0:0:0:0:
64,192,42858,128,0,43039:0:0:0:0:
448,192,42858,128,0,43130:0:0:0:0:
320,192,42949,128,0,43220:0:0:0:0:
192,192,43039,128,0,43130:0:0:0:0:
64,192,43130,1,0,0:0:0:0:
192,192,43220,128,0,43310:0:0:0:0:
448,192,43220,128,0,43310:0:0:0:0:
320,192,43310,1,0,0:0:0:0:
64,192,43401,1,0,0:0:0:0:
448,192,43401,128,0,43672:0:0:0:0:
192,192,43401,128,0,43581:0:0:0:0:
64,192,43491,128,0,43672:0:0:0:0:
320,192,43581,128,0,43762:0:0:0:0:
192,192,43672,1,0,0:0:0:0:
448,192,43762,128,0,43943:0:0:0:0:
64,192,43852,1,0,0:0:0:0:
320,192,43943,128,0,44033:0:0:0:0:
448,192,44033,1,0,0:0:0:0:
192,192,44124,128,0,44395:0:0:0:0:
448,192,44214,1,0,0:0:0:0:
320,192,44304,1,0,0:0:0:0:
192,192,44485,1,0,0:0:0:0:
448,192,44485,1,0,0:0:0:0:
64,192,44575,1,0,0:0:0:0:
320,192,44666,128,0,44756:0:0:0:0:
448,192,44666,128,0,44846:0:0:0:0:
192,192,44756,128,0,44937:0:0:0:0:
64,192,44756,128,0,45027:0:0:0:0:
320,192,44846,128,0,45027:0:0:0:0:
192,192,45027,128,0,45118:0:0:0:0:
448,192,45027,128,0,45208:0:0:0:0:
320,192,45118,1,0,0:0:0:0:
192,192,45208,1,0,0:0:0:0:
64,192,45208,128,0,45298:0:0:0:0:
192,192,45298,1,0,0:0:0:0:
448,192,45389,128,0,45479:0:0:0:0:
320,192,45389,128,0,45569:0:0:0:0:
64,192,45456,128,0,45569:0:0:0:0:
192,192,45524,128,0,45660:0:0:0:0:
448,192,45569,128,0,45660:0:0:0:0:
320,192,45660,128,0,45840:0:0:0:0:
64,192,45750,1,0,0:0:0:0:
192,192,45750,128,0,45931:0:0:0:0:
448,192,45750,128,0,45931:0:0:0:0:
64,192,45840,128,0,45931:0:0:0:0:
320,192,45931,128,0,46021:0:0:0:0:
448,192,46021,1,0,0:0:0:0:
64,192,46021,128,0,46202:0:0:0:0:
192,192,46021,128,0,46111:0:0:0:0:
448,192,46111,128,0,46202:0:0:0:0:
320,192,46111,128,0,46202:0:0:0:0:
192,192,46202,128,0,46292:0:0:0:0:
320,192,46292,1,0,0:0:0:0:
448,192,46292,128,0,46473:0:0:0:0:
64,192,46292,128,0,46473:0:0:0:0:
192,192,46473,128,0,46563:0:0:0:0:
448,192,46563,128,0,46744:0:0:0:0:
320,192,46744,128,0,46834:0:0:0:0:
192,192,46834,1,0,0:0:0:0:
448,192,46925,1,0,0:0:0:0:
64,192,47015,128,0,47196:0:0:0:0:
448,192,47105,1,0,0:0:0:0:
320,192,47196,1,0,0:0:0:0:
64,192,47286,1,0,0:0:0:0:
448,192,47377,1,0,0:0:0:0:
192,192,47467,1,0,0:0:0:0:
64,192,47557,128,0,47738:0:0:0:0:
192,192,47648,1,0,0:0:0:0:
448,192,47738,128,0,47828:0:0:0:0:
448,192,47919,128,0,48280:0:0:0:0:
320,192,48009,128,0,48190:0:0:0:0:
64,192,48099,128,0,48280:0:0:0:0:
192,192,48190,1,0,0:0:0:0:
320,192,48280,128,0,48371:0:0:0:0:
448,192,48371,1,0,0:0:0:0:
64,192,48461,128,0,48551:0:0:0:0:
320,192,48551,128,0,48732:0:0:0:0:
64,192,48642,128,0,48913:0:0:0:0:
448,192,48642,128,0,48822:0:0:0:0:
192,192,48642,1,0,0:0:0:0:
192,192,48732,128,0,49003:0:0:0:0:
320,192,48822,128,0,48913:0:0:0:0:
448,192,48913,1,0,0:0:0:0:
64,192,49003,128,0,49093:0:0:0:0:
320,192,49003,128,0,49093:0:0:0:0:
192,192,49093,1,0,0:0:0:0:
320,192,49184,128,0,49364:0:0:0:0:
64,192,49184,128,0,49274:0:0:0:0:
448,192,49184,1,0,0:0:0:0:
448,192,49274,128,0,49455:0:0:0:0:
64,192,49364,128,0,49455:0:0:0:0:
320,192,49455,1,0,0:0:0:0:
192,192,49545,128,0,49636:0:0:0:0:
192,192,49726,128,0,49907:0:0:0:0:
320,192,49726,128,0,49816:0:0:0:0:
64,192,49816,1,0,0:0:0:0:
320,192,49907,128,0,50178:0:0:0:0:
448,192,49907,128,0,49997:0:0:0:0:
192,192,49997,1,0,0:0:0:0:
448,192,50087,1,0,0:0:0:0:
64,192,50178,1,0,0:0:0:0:
192,192,50268,1,0,0:0:0:0:
320,192,50268,1,0,0:0:0:0:
448,192,50358,1,0,0:0:0:0:
320,192,50449,1,0,0:0:0:0:
192,192,50539,1,0,0:0:0:0:
64,192,50630,5,0,0:0:0:0:
448,192,50720,1,0,0:0:0:0:
320,192,50765,1,0,0:0:0:0:
192,192,50901,5,0,0:0:0:0:
448,192,50991,1,0,0:0:0:0:
64,192,51063,1,0,0:0:0:0:
448,192,51136,1,0,0:0:0:0:
64,192,51208,1,0,0:0:0:0:
448,192,51280,1,0,0:0:0:0:
64,192,51352,1,0,0:0:0:0:
448,192,51443,1,0,0:0:0:0:
64,192,51533,1,0,0:0:0:0:
448,192,51624,1,0,0:0:0:0:
320,192,51714,1,0,0:0:0:0:
192,192,51834,1,0,0:0:0:0:
320,192,51955,1,0,0:0:0:0:
64,192,52075,5,0,0:0:0:0:
448,192,52075,128,0,52346:0:0:0:0:
192,192,52075,1,0,0:0:0:0:
64,192,52256,1,0,0:0:0:0:
192,192,52256,1,0,0:0:0:0:
64,192,52346,1,0,0:0:0:0:
320,192,52437,128,0,52618:0:0:0:0:
192,192,52527,1,0,0:0:0:0:
64,192,52527,1,0,0:0:0:0:
448,192,52618,1,0,0:0:0:0:
192,192,52663,1,0,0:0:0:0:
320,192,52708,1,0,0:0:0:0:
448,192,52753,1,0,0:0:0:0:
192,192,52798,1,0,0:0:0:0:
64,192,52798,128,0,52979:0:0:0:0:
448,192,52979,1,0,0:0:0:0:
320,192,52979,1,0,0:0:0:0:
320,192,53069,1,0,0:0:0:0:
192,192,53160,1,0,0:0:0:0:
448,192,53250,1,0,0:0:0:0:
320,192,53250,1,0,0:0:0:0:
64,192,53340,128,0,53431:0:0:0:0:
448,192,53340,1,0,0:0:0:0:
192,192,53386,1,0,0:0:0:0:
320,192,53431,1,0,0:0:0:0:
448,192,53476,1,0,0:0:0:0:
192,192,53521,128,0,53792:0:0:0:0:
64,192,53521,1,0,0:0:0:0:
448,192,53702,1,0,0:0:0:0:
320,192,53702,1,0,0:0:0:0:
448,192,53792,1,0,0:0:0:0:
64,192,53883,128,0,54063:0:0:0:0:
320,192,53973,1,0,0:0:0:0:
448,192,53973,1,0,0:0:0:0:
192,192,54063,1,0,0:0:0:0:
320,192,54108,1,0,0:0:0:0:
64,192,54154,1,0,0:0:0:0:
192,192,54199,1,0,0:0:0:0:
320,192,54244,1,0,0:0:0:0:
448,192,54244,128,0,54425:0:0:0:0:
192,192,54425,1,0,0:0:0:0:
64,192,54425,1,0,0:0:0:0:
64,192,54515,1,0,0:0:0:0:
320,192,54605,1,0,0:0:0:0:
192,192,54696,1,0,0:0:0:0:
64,192,54696,1,0,0:0:0:0:
448,192,54786,128,0,54877:0:0:0:0:
192,192,54786,1,0,0:0:0:0:
320,192,54831,1,0,0:0:0:0:
64,192,54877,1,0,0:0:0:0:
192,192,54922,1,0,0:0:0:0:
448,192,54967,5,0,0:0:0:0:
320,192,54967,128,0,55238:0:0:0:0:
192,192,55148,1,0,0:0:0:0:
64,192,55148,1,0,0:0:0:0:
192,192,55238,1,0,0:0:0:0:
448,192,55328,128,0,55509:0:0:0:0:
64,192,55419,1,0,0:0:0:0:
192,192,55419,1,0,0:0:0:0:
320,192,55509,1,0,0:0:0:0:
64,192,55554,1,0,0:0:0:0:
448,192,55599,1,0,0:0:0:0:
320,192,55645,1,0,0:0:0:0:
64,192,55690,1,0,0:0:0:0:
192,192,55690,128,0,55871:0:0:0:0:
320,192,55871,1,0,0:0:0:0:
448,192,55871,1,0,0:0:0:0:
448,192,55961,1,0,0:0:0:0:
64,192,56051,1,0,0:0:0:0:
448,192,56142,1,0,0:0:0:0:
320,192,56142,1,0,0:0:0:0:
192,192,56232,128,0,56322:0:0:0:0:
320,192,56232,1,0,0:0:0:0:
64,192,56277,1,0,0:0:0:0:
448,192,56322,1,0,0:0:0:0:
320,192,56368,1,0,0:0:0:0:
64,192,56413,128,0,56684:0:0:0:0:
192,192,56413,1,0,0:0:0:0:
320,192,56593,1,0,0:0:0:0:
448,192,56593,1,0,0:0:0:0:
320,192,56684,1,0,0:0:0:0:
192,192,56774,128,0,56955:0:0:0:0:
448,192,56864,1,0,0:0:0:0:
320,192,56864,1,0,0:0:0:0:
64,192,56955,1,0,0:0:0:0:
448,192,57000,1,0,0:0:0:0:
192,192,57045,1,0,0:0:0:0:
64,192,57090,1,0,0:0:0:0:
448,192,57136,1,0,0:0:0:0:
320,192,57136,128,0,57316:0:0:0:0:
64,192,57316,1,0,0:0:0:0:
192,192,57316,1,0,0:0:0:0:
192,192,57407,1,0,0:0:0:0:
448,192,57497,1,0,0:0:0:0:
64,192,57587,1,0,0:0:0:0:
192,192,57587,1,0,0:0:0:0:
320,192,57678,128,0,57768:0:0:0:0:
64,192,57678,1,0,0:0:0:0:
448,192,57723,1,0,0:0:0:0:
192,192,57768,1,0,0:0:0:0:
64,192,57813,1,0,0:0:0:0:
448,192,57858,128,0,58039:0:0:0:0:
320,192,57858,1,0,0:0:0:0:
192,192,57949,1,0,0:0:0:0:
320,192,58039,1,0,0:0:0:0:
192,192,58084,1,0,0:0:0:0:
320,192,58130,1,0,0:0:0:0:
64,192,58175,1,0,0:0:0:0:
192,192,58220,128,0,58401:0:0:0:0:
448,192,58220,1,0,0:0:0:0:
320,192,58310,1,0,0:0:0:0:
64,192,58401,1,0,0:0:0:0:
320,192,58446,1,0,0:0:0:0:
64,192,58491,1,0,0:0:0:0:
448,192,58536,1,0,0:0:0:0:
320,192,58581,128,0,58762:0:0:0:0:
192,192,58581,1,0,0:0:0:0:
64,192,58672,1,0,0:0:0:0:
448,192,58762,1,0,0:0:0:0:
64,192,58807,1,0,0:0:0:0:
448,192,58852,1,0,0:0:0:0:
192,192,58898,1,0,0:0:0:0:
320,192,58943,1,0,0:0:0:0:
64,192,58943,1,0,0:0:0:0:
448,192,59033,1,0,0:0:0:0:
64,192,59124,1,0,0:0:0:0:
192,192,59169,1,0,0:0:0:0:
320,192,59214,1,0,0:0:0:0:
448,192,59259,1,0,0:0:0:0:
64,192,59304,1,0,0:0:0:0:
320,192,59349,1,0,0:0:0:0:
64,192,59395,1,0,0:0:0:0:
448,192,59440,1,0,0:0:0:0:
192,192,59485,1,0,0:0:0:0:
320,192,59530,1,0,0:0:0:0:
64,192,59575,1,0,0:0:0:0:
192,192,59621,1,0,0:0:0:0:
448,192,59666,1,0,0:0:0:0:
64,192,59711,1,0,0:0:0:0:
448,192,59756,1,0,0:0:0:0:
192,192,59801,1,0,0:0:0:0:
320,192,59846,1,0,0:0:0:0:
64,192,59892,1,0,0:0:0:0:
448,192,59937,1,0,0:0:0:0:
320,192,59982,1,0,0:0:0:0:
192,192,60027,1,0,0:0:0:0:
448,192,60072,1,0,0:0:0:0:
192,192,60118,1,0,0:0:0:0:
320,192,60163,1,0,0:0:0:0:
64,192,60208,1,0,0:0:0:0:
448,192,60253,1,0,0:0:0:0:
320,192,60298,1,0,0:0:0:0:
192,192,60343,1,0,0:0:0:0:
64,192,60389,1,0,0:0:0:0:
448,192,60434,1,0,0:0:0:0:
192,192,60479,1,0,0:0:0:0:
320,192,60524,1,0,0:0:0:0:
64,192,60569,1,0,0:0:0:0:
192,192,60614,1,0,0:0:0:0:
448,192,60660,1,0,0:0:0:0:
320,192,60705,1,0,0:0:0:0:
64,192,60750,1,0,0:0:0:0:
192,192,60750,1,0,0:0:0:0:
448,192,60810,1,0,0:0:0:0:
64,192,60871,1,0,0:0:0:0:
320,192,60931,1,0,0:0:0:0:
192,192,61111,1,0,0:0:0:0:
64,192,61172,1,0,0:0:0:0:
192,192,61232,1,0,0:0:0:0:
320,192,61292,1,0,0:0:0:0:
448,192,61473,1,0,0:0:0:0:
192,192,61473,1,0,0:0:0:0:
64,192,61563,1,0,0:0:0:0:
320,192,61654,1,0,0:0:0:0:
192,192,61699,1,0,0:0:0:0:
320,192,61744,1,0,0:0:0:0:
192,192,61789,1,0,0:0:0:0:
448,192,61834,1,0,0:0:0:0:
320,192,61925,1,0,0:0:0:0:
64,192,62015,1,0,0:0:0:0:
448,192,62015,1,0,0:0:0:0:
448,192,62105,1,0,0:0:0:0:
192,192,62151,1,0,0:0:0:0:
64,192,62196,1,0,0:0:0:0:
320,192,62256,1,0,0:0:0:0:
64,192,62286,1,0,0:0:0:0:
448,192,62316,1,0,0:0:0:0:
64,192,62377,1,0,0:0:0:0:
192,192,62467,1,0,0:0:0:0:
448,192,62557,1,0,0:0:0:0:
320,192,62618,1,0,0:0:0:0:
64,192,62678,1,0,0:0:0:0:
448,192,62738,1,0,0:0:0:0:
192,192,62828,1,0,0:0:0:0:
64,192,62919,1,0,0:0:0:0:
320,192,63009,1,0,0:0:0:0:
448,192,63009,1,0,0:0:0:0:
192,192,63099,1,0,0:0:0:0:
448,192,63099,1,0,0:0:0:0:
320,192,63145,1,0,0:0:0:0:
192,192,63190,1,0,0:0:0:0:
320,192,63235,1,0,0:0:0:0:
64,192,63280,128,0,63461:0:0:0:0:
448,192,63461,1,0,0:0:0:0:
448,192,63642,1,0,0:0:0:0:
192,192,63642,1,0,0:0:0:0:
64,192,63642,1,0,0:0:0:0:
192,192,63732,1,0,0:0:0:0:
448,192,63822,1,0,0:0:0:0:
320,192,63822,1,0,0:0:0:0:
192,192,63913,1,0,0:0:0:0:
320,192,63913,1,0,0:0:0:0:
64,192,64003,1,0,0:0:0:0:
448,192,64003,1,0,0:0:0:0:
448,192,64093,1,0,0:0:0:0:
320,192,64184,1,0,0:0:0:0:
64,192,64184,1,0,0:0:0:0:
320,192,64274,1,0,0:0:0:0:
192,192,64364,1,0,0:0:0:0:
448,192,64364,1,0,0:0:0:0:
192,192,64455,1,0,0:0:0:0:
320,192,64545,1,0,0:0:0:0:
64,192,64545,1,0,0:0:0:0:
64,192,64636,1,0,0:0:0:0:
448,192,64726,1,0,0:0:0:0:
192,192,64726,1,0,0:0:0:0:
192,192,64816,1,0,0:0:0:0:
448,192,64907,1,0,0:0:0:0:
64,192,64907,1,0,0:0:0:0:
64,192,64997,1,0,0:0:0:0:
320,192,65087,1,0,0:0:0:0:
192,192,65087,1,0,0:0:0:0:
320,192,65178,1,0,0:0:0:0:
64,192,65268,1,0,0:0:0:0:
448,192,65268,1,0,0:0:0:0:
448,192,65358,1,0,0:0:0:0:
320,192,65449,1,0,0:0:0:0:
192,192,65449,1,0,0:0:0:0:
320,192,65539,1,0,0:0:0:0:
192,192,65630,1,0,0:0:0:0:
448,192,65630,1,0,0:0:0:0:
448,192,65720,1,0,0:0:0:0:
64,192,65810,1,0,0:0:0:0:
320,192,65810,1,0,0:0:0:0:
64,192,65901,1,0,0:0:0:0:
448,192,65991,1,0,0:0:0:0:
192,192,65991,1,0,0:0:0:0:
192,192,66081,1,0,0:0:0:0:
64,192,66172,1,0,0:0:0:0:
448,192,66172,1,0,0:0:0:0:
320,192,66208,1,0,0:0:0:0:
192,192,66244,1,0,0:0:0:0:
64,192,66280,1,0,0:0:0:0:
320,192,66352,1,0,0:0:0:0:
448,192,66352,1,0,0:0:0:0:
320,192,66443,1,0,0:0:0:0:
192,192,66533,1,0,0:0:0:0:
64,192,66533,1,0,0:0:0:0:
192,192,66624,1,0,0:0:0:0:
448,192,66714,1,0,0:0:0:0:
320,192,66714,1,0,0:0:0:0:
320,192,66804,1,0,0:0:0:0:
192,192,66804,1,0,0:0:0:0:
448,192,66895,1,0,0:0:0:0:
64,192,66895,1,0,0:0:0:0:
64,192,66985,1,0,0:0:0:0:
192,192,67075,1,0,0:0:0:0:
448,192,67075,1,0,0:0:0:0:
192,192,67166,1,0,0:0:0:0:
320,192,67256,1,0,0:0:0:0:
64,192,67256,1,0,0:0:0:0:
320,192,67346,1,0,0:0:0:0:
192,192,67437,1,0,0:0:0:0:
448,192,67437,1,0,0:0:0:0:
448,192,67527,1,0,0:0:0:0:
320,192,67618,1,0,0:0:0:0:
64,192,67618,1,0,0:0:0:0:
320,192,67708,1,0,0:0:0:0:
192,192,67753,1,0,0:0:0:0:
64,192,67798,1,0,0:0:0:0:
448,192,67889,1,0,0:0:0:0:
64,192,67889,1,0,0:0:0:0:
192,192,67979,1,0,0:0:0:0:
320,192,67979,1,0,0:0:0:0:
192,192,68069,1,0,0:0:0:0:
448,192,68114,1,0,0:0:0:0:
320,192,68160,1,0,0:0:0:0:
64,192,68250,1,0,0:0:0:0:
64,192,68340,1,0,0:0:0:0:
448,192,68340,1,0,0:0:0:0:
192,192,68386,1,0,0:0:0:0:
320,192,68431,1,0,0:0:0:0:
192,192,68521,1,0,0:0:0:0:
448,192,68521,1,0,0:0:0:0:
192,192,68611,1,0,0:0:0:0:
320,192,68702,1,0,0:0:0:0:
448,192,68702,1,0,0:0:0:0:
64,192,68702,128,0,68770:0:0:0:0:
320,192,68792,1,0,0:0:0:0:
64,192,68837,128,0,68905:0:0:0:0:
448,192,68883,1,0,0:0:0:0:
448,192,68973,1,0,0:0:0:0:
64,192,68973,128,0,69063:0:0:0:0:
192,192,69063,128,0,69244:0:0:0:0:
448,192,69154,1,0,0:0:0:0:
320,192,69244,1,0,0:0:0:0:
192,192,69334,1,0,0:0:0:0:
448,192,69425,1,0,0:0:0:0:
320,192,69425,1,0,0:0:0:0:
64,192,69515,1,0,0:0:0:0:
448,192,69515,1,0,0:0:0:0:
320,192,69605,1,0,0:0:0:0:
64,192,69605,1,0,0:0:0:0:
192,192,69696,1,0,0:0:0:0:
320,192,69696,1,0,0:0:0:0:
64,192,69786,1,0,0:0:0:0:
448,192,69786,1,0,0:0:0:0:
64,192,69877,1,0,0:0:0:0:
192,192,69967,1,0,0:0:0:0:
448,192,69967,1,0,0:0:0:0:
192,192,70057,1,0,0:0:0:0:
320,192,70148,1,0,0:0:0:0:
64,192,70148,1,0,0:0:0:0:
320,192,70238,1,0,0:0:0:0:
448,192,70328,1,0,0:0:0:0:
192,192,70328,1,0,0:0:0:0:
448,192,70419,1,0,0:0:0:0:
64,192,70419,1,0,0:0:0:0:
320,192,70509,1,0,0:0:0:0:
192,192,70569,1,0,0:0:0:0:
320,192,70630,1,0,0:0:0:0:
64,192,70690,1,0,0:0:0:0:
448,192,70690,1,0,0:0:0:0:
64,192,70780,1,0,0:0:0:0:
192,192,70871,1,0,0:0:0:0:
320,192,70871,1,0,0:0:0:0:
192,192,70961,1,0,0:0:0:0:
320,192,71051,1,0,0:0:0:0:
64,192,71051,1,0,0:0:0:0:
320,192,71142,1,0,0:0:0:0:
448,192,71232,1,0,0:0:0:0:
192,192,71232,1,0,0:0:0:0:
64,192,71277,1,0,0:0:0:0:
448,192,71322,1,0,0:0:0:0:
192,192,71368,1,0,0:0:0:0:
320,192,71413,1,0,0:0:0:0:
64,192,71458,1,0,0:0:0:0:
320,192,71503,1,0,0:0:0:0:
192,192,71548,1,0,0:0:0:0:
448,192,71593,1,0,0:0:0:0:
64,192,71593,1,0,0:0:0:0:
448,192,71684,1,0,0:0:0:0:
320,192,71774,1,0,0:0:0:0:
192,192,71864,1,0,0:0:0:0:
64,192,71864,1,0,0:0:0:0:
320,192,71955,1,0,0:0:0:0:
64,192,71955,1,0,0:0:0:0:
320,192,72045,1,0,0:0:0:0:
192,192,72136,1,0,0:0:0:0:
448,192,72136,1,0,0:0:0:0:
192,192,72226,1,0,0:0:0:0:
64,192,72316,1,0,0:0:0:0:
320,192,72316,1,0,0:0:0:0:
448,192,72316,1,0,0:0:0:0:
320,192,72407,1,0,0:0:0:0:
448,192,72407,1,0,0:0:0:0:
64,192,72497,128,0,72587:0:0:0:0:
320,192,72587,1,0,0:0:0:0:
448,192,72587,1,0,0:0:0:0:
320,192,72678,128,0,72768:0:0:0:0:
192,192,72768,1,0,0:0:0:0:
64,192,72768,1,0,0:0:0:0:
192,192,72858,128,0,72949:0:0:0:0:
448,192,72949,1,0,0:0:0:0:
320,192,72994,1,0,0:0:0:0:
192,192,73039,1,0,0:0:0:0:
64,192,73039,1,0,0:0:0:0:
448,192,73039,1,0,0:0:0:0:
64,192,73130,1,0,0:0:0:0:
192,192,73130,1,0,0:0:0:0:
448,192,73220,128,0,73310:0:0:0:0:
192,192,73310,1,0,0:0:0:0:
64,192,73310,1,0,0:0:0:0:
192,192,73401,128,0,73491:0:0:0:0:
320,192,73491,1,0,0:0:0:0:
448,192,73491,1,0,0:0:0:0:
320,192,73581,128,0,73672:0:0:0:0:
64,192,73672,1,0,0:0:0:0:
192,192,73717,1,0,0:0:0:0:
64,192,73762,128,0,73852:0:0:0:0:
448,192,73762,128,0,73943:0:0:0:0:
320,192,73852,1,0,0:0:0:0:
64,192,73943,128,0,74124:0:0:0:0:
448,192,74003,128,0,74124:0:0:0:0:
192,192,74063,128,0,74214:0:0:0:0:
320,192,74124,128,0,74304:0:0:0:0:
448,192,74214,1,0,0:0:0:0:
64,192,74304,128,0,74485:0:0:0:0:
448,192,74395,1,0,0:0:0:0:
192,192,74485,128,0,74575:0:0:0:0:
320,192,74485,128,0,74666:0:0:0:0:
64,192,74575,128,0,74666:0:0:0:0:
64,192,74756,128,0,74937:0:0:0:0:
448,192,74846,128,0,75118:0:0:0:0:
320,192,74846,128,0,75027:0:0:0:0:
192,192,75027,128,0,75118:0:0:0:0:
320,192,75118,1,0,0:0:0:0:
448,192,75208,1,0,0:0:0:0:
64,192,75208,1,0,0:0:0:0:
192,192,75208,1,0,0:0:0:0:
64,192,75298,1,0,0:0:0:0:
448,192,75389,1,0,0:0:0:0:
192,192,75479,1,0,0:0:0:0:
64,192,75569,1,0,0:0:0:0:
448,192,75569,1,0,0:0:0:0:
320,192,75569,1,0,0:0:0:0:
192,192,75614,1,0,0:0:0:0:
320,192,75660,1,0,0:0:0:0:
64,192,75705,1,0,0:0:0:0:
448,192,75750,1,0,0:0:0:0:
192,192,75795,1,0,0:0:0:0:
448,192,75840,1,0,0:0:0:0:
64,192,75886,1,0,0:0:0:0:
192,192,75931,1,0,0:0:0:0:
320,192,75931,1,0,0:0:0:0:
192,192,76021,1,0,0:0:0:0:
64,192,76066,1,0,0:0:0:0:
320,192,76111,1,0,0:0:0:0:
192,192,76202,1,0,0:0:0:0:
448,192,76247,1,0,0:0:0:0:
320,192,76292,1,0,0:0:0:0:
64,192,76292,1,0,0:0:0:0:
320,192,76383,1,0,0:0:0:0:
448,192,76428,1,0,0:0:0:0:
192,192,76473,1,0,0:0:0:0:
320,192,76563,1,0,0:0:0:0:
64,192,76608,1,0,0:0:0:0:
192,192,76654,1,0,0:0:0:0:
448,192,76654,1,0,0:0:0:0:
320,192,76699,1,0,0:0:0:0:
192,192,76744,1,0,0:0:0:0:
448,192,76789,1,0,0:0:0:0:
64,192,76834,1,0,0:0:0:0:
320,192,76880,1,0,0:0:0:0:
64,192,76925,1,0,0:0:0:0:
448,192,76970,1,0,0:0:0:0:
320,192,77015,1,0,0:0:0:0:
192,192,77015,1,0,0:0:0:0:
320,192,77105,1,0,0:0:0:0:
192,192,77196,1,0,0:0:0:0:
64,192,77196,1,0,0:0:0:0:
320,192,77286,1,0,0:0:0:0:
448,192,77377,1,0,0:0:0:0:
64,192,77377,1,0,0:0:0:0:
192,192,77377,1,0,0:0:0:0:
64,192,77467,1,0,0:0:0:0:
320,192,77557,1,0,0:0:0:0:
448,192,77557,1,0,0:0:0:0:
64,192,77648,1,0,0:0:0:0:
320,192,77738,128,0,77919:0:0:0:0:
192,192,77919,128,0,78099:0:0:0:0:
448,192,78099,1,0,0:0:0:0:
320,192,78099,1,0,0:0:0:0:
64,192,78099,1,0,0:0:0:0:
64,192,78190,1,0,0:0:0:0:
448,192,78190,1,0,0:0:0:0:
320,192,78190,1,0,0:0:0:0:
192,192,78280,1,0,0:0:0:0:
320,192,78371,1,0,0:0:0:0:
448,192,78461,1,0,0:0:0:0:
64,192,78461,1,0,0:0:0:0:
192,192,78461,1,0,0:0:0:0:
320,192,78506,1,0,0:0:0:0:
192,192,78551,1,0,0:0:0:0:
448,192,78596,1,0,0:0:0:0:
64,192,78642,1,0,0:0:0:0:
320,192,78687,1,0,0:0:0:0:
64,192,78732,1,0,0:0:0:0:
448,192,78777,1,0,0:0:0:0:
320,192,78822,1,0,0:0:0:0:
192,192,78822,1,0,0:0:0:0:
320,192,78913,1,0,0:0:0:0:
448,192,78958,1,0,0:0:0:0:
192,192,79003,1,0,0:0:0:0:
320,192,79093,1,0,0:0:0:0:
64,192,79139,1,0,0:0:0:0:
192,192,79184,1,0,0:0:0:0:
448,192,79184,1,0,0:0:0:0:
192,192,79274,1,0,0:0:0:0:
64,192,79319,1,0,0:0:0:0:
320,192,79364,1,0,0:0:0:0:
448,192,79364,1,0,0:0:0:0:
448,192,79455,1,0,0:0:0:0:
192,192,79545,1,0,0:0:0:0:
64,192,79545,1,0,0:0:0:0:
320,192,79545,1,0,0:0:0:0:
64,192,79636,1,0,0:0:0:0:
448,192,79726,1,0,0:0:0:0:
320,192,79726,1,0,0:0:0:0:
192,192,79771,1,0,0:0:0:0:
320,192,79816,1,0,0:0:0:0:
192,192,79861,1,0,0:0:0:0:
448,192,79907,1,0,0:0:0:0:
64,192,79907,1,0,0:0:0:0:
64,192,80087,1,0,0:0:0:0:
192,192,80087,1,0,0:0:0:0:
320,192,80133,1,0,0:0:0:0:
192,192,80178,1,0,0:0:0:0:
320,192,80223,1,0,0:0:0:0:
64,192,80268,128,0,80358:0:0:0:0:
448,192,80268,128,0,80449:0:0:0:0:
64,192,80449,1,0,0:0:0:0:
448,192,80539,1,0,0:0:0:0:
192,192,80539,128,0,80810:0:0:0:0:
320,192,80720,128,0,80901:0:0:0:0:
448,192,80810,128,0,80901:0:0:0:0:
64,192,80810,1,0,0:0:0:0:
192,192,80901,128,0,80991:0:0:0:0:
64,192,80991,1,0,0:0:0:0:
320,192,80991,1,0,0:0:0:0:
448,192,80991,1,0,0:0:0:0:
320,192,81081,1,0,0:0:0:0:
448,192,81081,1,0,0:0:0:0:
192,192,81172,1,0,0:0:0:0:
64,192,81172,1,0,0:0:0:0:
64,192,81262,1,0,0:0:0:0:
192,192,81262,1,0,0:0:0:0:
320,192,81352,1,0,0:0:0:0:
448,192,81352,1,0,0:0:0:0:
64,192,81443,1,0,0:0:0:0:
448,192,81443,1,0,0:0:0:0:
320,192,81533,1,0,0:0:0:0:
64,192,81533,1,0,0:0:0:0:
192,192,81624,1,0,0:0:0:0:
320,192,81669,1,0,0:0:0:0:
448,192,81714,1,0,0:0:0:0:
64,192,81714,1,0,0:0:0:0:
64,192,81804,1,0,0:0:0:0:
192,192,81895,1,0,0:0:0:0:
192,192,81985,1,0,0:0:0:0:
448,192,82075,128,0,82256:0:0:0:0:
320,192,82075,1,0,0:0:0:0:
64,192,82166,1,0,0:0:0:0:
320,192,82256,1,0,0:0:0:0:
192,192,82346,1,0,0:0:0:0:
64,192,82346,1,0,0:0:0:0:
448,192,82392,1,0,0:0:0:0:
64,192,82437,1,0,0:0:0:0:
320,192,82437,1,0,0:0:0:0:
192,192,82527,1,0,0:0:0:0:
320,192,82527,1,0,0:0:0:0:
192,192,82618,1,0,0:0:0:0:
448,192,82708,1,0,0:0:0:0:
64,192,82708,1,0,0:0:0:0:
448,192,82798,1,0,0:0:0:0:
64,192,82889,1,0,0:0:0:0:
320,192,82889,1,0,0:0:0:0:
64,192,82979,1,0,0:0:0:0:
448,192,83069,1,0,0:0:0:0:
320,192,83069,1,0,0:0:0:0:
192,192,83114,1,0,0:0:0:0:
448,192,83160,1,0,0:0:0:0:
64,192,83160,1,0,0:0:0:0:
320,192,83250,1,0,0:0:0:0:
64,192,83250,1,0,0:0:0:0:
320,192,83340,1,0,0:0:0:0:
448,192,83431,1,0,0:0:0:0:
192,192,83431,1,0,0:0:0:0:
192,192,83521,1,0,0:0:0:0:
64,192,83611,1,0,0:0:0:0:
448,192,83611,1,0,0:0:0:0:
448,192,83702,1,0,0:0:0:0:
192,192,83792,1,0,0:0:0:0:
64,192,83792,1,0,0:0:0:0:
320,192,83837,1,0,0:0:0:0:
448,192,83883,128,0,84063:0:0:0:0:
192,192,83883,128,0,84154:0:0:0:0:
64,192,83883,128,0,84244:0:0:0:0:
320,192,84244,128,0,84425:0:0:0:0:
448,192,84304,128,0,85238:0:0:0:0:
192,192,84515,1,0,0:0:0:0:
320,192,84605,128,0,84741:0:0:0:0:
64,192,84877,128,0,85012:0:0:0:0:
192,192,85148,1,0,0:0:0:0:
64,192,85238,1,0,0:0:0:0:
192,192,85283,1,0,0:0:0:0:
448,192,85328,1,0,0:0:0:0:
320,192,85328,1,0,0:0:0:0:
64,192,85419,1,0,0:0:0:0:
320,192,85554,1,0,0:0:0:0:
192,192,85690,1,0,0:0:0:0:
64,192,85780,1,0,0:0:0:0:
448,192,86006,128,0,86232:0:0:0:0:
320,192,86413,1,0,0:0:0:0:
64,192,86413,1,0,0:0:0:0:
448,192,86503,1,0,0:0:0:0:
64,192,86503,1,0,0:0:0:0:
448,192,86593,1,0,0:0:0:0:
192,192,86593,1,0,0:0:0:0:
320,192,86684,1,0,0:0:0:0:
192,192,86684,1,0,0:0:0:0:
448,192,86774,1,0,0:0:0:0:
320,192,86774,1,0,0:0:0:0:
64,192,86774,1,0,0:0:0:0:
64,192,86864,1,0,0:0:0:0:
192,192,86955,1,0,0:0:0:0:
448,192,86955,1,0,0:0:0:0:
320,192,87045,1,0,0:0:0:0:
448,192,87136,1,0,0:0:0:0:
64,192,87136,1,0,0:0:0:0:
192,192,87136,1,0,0:0:0:0:
64,192,87226,1,0,0:0:0:0:
448,192,87316,1,0,0:0:0:0:
320,192,87316,1,0,0:0:0:0:
192,192,87407,1,0,0:0:0:0:
320,192,87497,1,0,0:0:0:0:
448,192,87497,1,0,0:0:0:0:
64,192,87497,1,0,0:0:0:0:
64,192,87587,1,0,0:0:0:0:
448,192,87678,1,0,0:0:0:0:
192,192,87678,1,0,0:0:0:0:
320,192,87768,1,0,0:0:0:0:
448,192,87858,1,0,0:0:0:0:
192,192,87858,1,0,0:0:0:0:
64,192,87858,1,0,0:0:0:0:
64,192,87949,1,0,0:0:0:0:
320,192,88039,1,0,0:0:0:0:
448,192,88039,1,0,0:0:0:0:
192,192,88130,1,0,0:0:0:0:
448,192,88130,1,0,0:0:0:0:
192,192,88220,1,0,0:0:0:0:
64,192,88220,1,0,0:0:0:0:
320,192,88220,1,0,0:0:0:0:
320,192,88310,1,0,0:0:0:0:
448,192,88401,1,0,0:0:0:0:
64,192,88401,1,0,0:0:0:0:
192,192,88491,1,0,0:0:0:0:
448,192,88581,1,0,0:0:0:0:
320,192,88581,1,0,0:0:0:0:
64,192,88581,1,0,0:0:0:0:
320,192,88672,1,0,0:0:0:0:
64,192,88762,1,0,0:0:0:0:
192,192,88762,1,0,0:0:0:0:
448,192,88852,1,0,0:0:0:0:
320,192,88943,1,0,0:0:0:0:
192,192,88943,1,0,0:0:0:0:
64,192,88943,1,0,0:0:0:0:
320,192,89033,1,0,0:0:0:0:
64,192,89124,1,0,0:0:0:0:
448,192,89124,1,0,0:0:0:0:
192,192,89214,1,0,0:0:0:0:
320,192,89304,1,0,0:0:0:0:
448,192,89304,1,0,0:0:0:0:
64,192,89304,1,0,0:0:0:0:
320,192,89395,1,0,0:0:0:0:
448,192,89485,1,0,0:0:0:0:
192,192,89485,1,0,0:0:0:0:
64,192,89485,1,0,0:0:0:0:
64,192,89575,1,0,0:0:0:0:
448,192,89666,1,0,0:0:0:0:
320,192,89666,1,0,0:0:0:0:
192,192,89666,1,0,0:0:0:0:
192,192,89756,1,0,0:0:0:0:
320,192,89846,1,0,0:0:0:0:
64,192,89846,1,0,0:0:0:0:
448,192,89937,1,0,0:0:0:0:
64,192,90027,1,0,0:0:0:0:
192,192,90027,1,0,0:0:0:0:
320,192,90027,1,0,0:0:0:0:
192,192,90118,1,0,0:0:0:0:
448,192,90208,1,0,0:0:0:0:
320,192,90208,1,0,0:0:0:0:
64,192,90298,1,0,0:0:0:0:
192,192,90389,1,0,0:0:0:0:
448,192,90389,1,0,0:0:0:0:
320,192,90389,1,0,0:0:0:0:
192,192,90479,1,0,0:0:0:0:
64,192,90569,1,0,0:0:0:0:
320,192,90569,1,0,0:0:0:0:
448,192,90660,1,0,0:0:0:0:
192,192,90750,1,0,0:0:0:0:
64,192,90750,1,0,0:0:0:0:
320,192,90750,1,0,0:0:0:0:
192,192,90840,1,0,0:0:0:0:
320,192,90931,1,0,0:0:0:0:
448,192,90931,1,0,0:0:0:0:
64,192,91021,1,0,0:0:0:0:
320,192,91111,1,0,0:0:0:0:
448,192,91111,1,0,0:0:0:0:
192,192,91111,1,0,0:0:0:0:
64,192,91202,1,0,0:0:0:0:
192,192,91202,1,0,0:0:0:0:
320,192,91292,1,0,0:0:0:0:
448,192,91383,1,0,0:0:0:0:
320,192,91473,1,0,0:0:0:0:
64,192,91473,1,0,0:0:0:0:
192,192,91473,1,0,0:0:0:0:
192,192,91563,1,0,0:0:0:0:
448,192,91654,1,0,0:0:0:0:
320,192,91654,1,0,0:0:0:0:
320,192,91744,1,0,0:0:0:0:
448,192,91834,1,0,0:0:0:0:
192,192,91834,1,0,0:0:0:0:
64,192,91834,1,0,0:0:0:0:
192,192,91925,1,0,0:0:0:0:
448,192,91970,1,0,0:0:0:0:
64,192,92015,1,0,0:0:0:0:
448,192,92105,1,0,0:0:0:0:
64,192,92105,1,0,0:0:0:0:
320,192,92196,1,0,0:0:0:0:
192,192,92196,1,0,0:0:0:0:
448,192,92286,1,0,0:0:0:0:
192,192,92377,1,0,0:0:0:0:
64,192,92377,1,0,0:0:0:0:
320,192,92467,1,0,0:0:0:0:
448,192,92557,1,0,0:0:0:0:
64,192,92557,1,0,0:0:0:0:
192,192,92557,1,0,0:0:0:0:
192,192,92648,1,0,0:0:0:0:
448,192,92738,1,0,0:0:0:0:
320,192,92828,1,0,0:0:0:0:
64,192,92828,1,0,0:0:0:0:
192,192,92828,1,0,0:0:0:0:
64,192,92919,1,0,0:0:0:0:
320,192,93009,1,0,0:0:0:0:
448,192,93099,1,0,0:0:0:0:
64,192,93099,1,0,0:0:0:0:
192,192,93099,1,0,0:0:0:0:
192,192,93190,1,0,0:0:0:0:
448,192,93280,1,0,0:0:0:0:
320,192,93371,1,0,0:0:0:0:
64,192,93371,1,0,0:0:0:0:
192,192,93371,1,0,0:0:0:0:
64,192,93461,1,0,0:0:0:0:
320,192,93551,1,0,0:0:0:0:
64,192,93642,1,0,0:0:0:0:
448,192,93642,1,0,0:0:0:0:
192,192,93642,1,0,0:0:0:0:
192,192,93732,1,0,0:0:0:0:
320,192,93822,1,0,0:0:0:0:
192,192,93913,1,0,0:0:0:0:
64,192,94003,1,0,0:0:0:0:
448,192,94003,1,0,0:0:0:0:
320,192,94003,1,0,0:0:0:0:
320,192,94093,1,0,0:0:0:0:
64,192,94184,1,0,0:0:0:0:
192,192,94274,1,0,0:0:0:0:
448,192,94274,1,0,0:0:0:0:
320,192,94274,1,0,0:0:0:0:
448,192,94364,1,0,0:0:0:0:
192,192,94455,1,0,0:0:0:0:
64,192,94545,1,0,0:0:0:0:
448,192,94545,1,0,0:0:0:0:
320,192,94545,1,0,0:0:0:0:
320,192,94636,1,0,0:0:0:0:
64,192,94726,1,0,0:0:0:0:
192,192,94816,1,0,0:0:0:0:
448,192,94816,1,0,0:0:0:0:
320,192,94816,1,0,0:0:0:0:
448,192,94907,1,0,0:0:0:0:
192,192,94997,1,0,0:0:0:0:
448,192,95087,1,0,0:0:0:0:
320,192,95087,1,0,0:0:0:0:
64,192,95087,1,0,0:0:0:0:
320,192,95178,1,0,0:0:0:0:
64,192,95268,1,0,0:0:0:0:
448,192,95358,1,0,0:0:0:0:
64,192,95449,1,0,0:0:0:0:
192,192,95449,1,0,0:0:0:0:
320,192,95449,1,0,0:0:0:0:
64,192,95539,1,0,0:0:0:0:
448,192,95630,1,0,0:0:0:0:
320,192,95720,1,0,0:0:0:0:
192,192,95720,1,0,0:0:0:0:
64,192,95720,1,0,0:0:0:0:
192,192,95810,1,0,0:0:0:0:
448,192,95901,1,0,0:0:0:0:
320,192,95991,1,0,0:0:0:0:
192,192,95991,1,0,0:0:0:0:
64,192,95991,1,0,0:0:0:0:
64,192,96081,1,0,0:0:0:0:
320,192,96172,1,0,0:0:0:0:
448,192,96262,1,0,0:0:0:0:
192,192,96262,1,0,0:0:0:0:
64,192,96262,1,0,0:0:0:0:
192,192,96352,1,0,0:0:0:0:
448,192,96443,1,0,0:0:0:0:
192,192,96533,1,0,0:0:0:0:
320,192,96533,1,0,0:0:0:0:
64,192,96533,1,0,0:0:0:0:
64,192,96624,1,0,0:0:0:0:
320,192,96714,1,0,0:0:0:0:
448,192,96714,1,0,0:0:0:0:
192,192,96804,1,0,0:0:0:0:
448,192,96895,1,0,0:0:0:0:
448,192,96985,1,0,0:0:0:0:
64,192,97075,128,0,97256:0:0:0:0:
320,192,97075,1,0,0:0:0:0:
320,192,97166,1,0,0:0:0:0:
192,192,97256,1,0,0:0:0:0:
192,192,97346,128,0,97437:0:0:0:0:
448,192,97437,1,0,0:0:0:0:
192,192,97527,128,0,97618:0:0:0:0:
320,192,97618,1,0,0:0:0:0:
64,192,97618,1,0,0:0:0:0:
320,192,97708,1,0,0:0:0:0:
192,192,97753,1,0,0:0:0:0:
448,192,97798,1,0,0:0:0:0:
64,192,97858,1,0,0:0:0:0:
448,192,97919,1,0,0:0:0:0:
192,192,97979,1,0,0:0:0:0:
320,192,97979,128,0,98160:0:0:0:0:
64,192,98069,1,0,0:0:0:0:
448,192,98160,1,0,0:0:0:0:
192,192,98160,1,0,0:0:0:0:
320,192,98250,1,0,0:0:0:0:
192,192,98340,128,0,98521:0:0:0:0:
64,192,98340,1,0,0:0:0:0:
448,192,98340,1,0,0:0:0:0:
448,192,98431,1,0,0:0:0:0:
320,192,98521,1,0,0:0:0:0:
64,192,98521,1,0,0:0:0:0:
64,192,98611,1,0,0:0:0:0:
192,192,98702,128,0,98883:0:0:0:0:
448,192,98702,1,0,0:0:0:0:
448,192,98792,1,0,0:0:0:0:
320,192,98883,1,0,0:0:0:0:
64,192,98928,1,0,0:0:0:0:
192,192,98973,1,0,0:0:0:0:
320,192,99018,1,0,0:0:0:0:
64,192,99063,128,0,99244:0:0:0:0:
448,192,99063,1,0,0:0:0:0:
448,192,99154,1,0,0:0:0:0:
192,192,99244,1,0,0:0:0:0:
320,192,99244,1,0,0:0:0:0:
192,192,99334,1,0,0:0:0:0:
64,192,99425,1,0,0:0:0:0:
448,192,99425,1,0,0:0:0:0:
448,192,99515,1,0,0:0:0:0:
192,192,99605,128,0,99696:0:0:0:0:
64,192,99605,1,0,0:0:0:0:
320,192,99651,1,0,0:0:0:0:
448,192,99696,1,0,0:0:0:0:
64,192,99741,1,0,0:0:0:0:
320,192,99786,128,0,99967:0:0:0:0:
192,192,99786,1,0,0:0:0:0:
192,192,99877,1,0,0:0:0:0:
64,192,99967,1,0,0:0:0:0:
448,192,99967,1,0,0:0:0:0:
448,192,100057,1,0,0:0:0:0:
320,192,100148,128,0,100328:0:0:0:0:
192,192,100148,1,0,0:0:0:0:
192,192,100238,1,0,0:0:0:0:
64,192,100328,1,0,0:0:0:0:
448,192,100374,1,0,0:0:0:0:
320,192,100419,1,0,0:0:0:0:
64,192,100464,1,0,0:0:0:0:
448,192,100509,128,0,100690:0:0:0:0:
192,192,100509,1,0,0:0:0:0:
192,192,100599,1,0,0:0:0:0:
320,192,100690,1,0,0:0:0:0:
64,192,100690,1,0,0:0:0:0:
320,192,100780,1,0,0:0:0:0:
64,192,100871,1,0,0:0:0:0:
192,192,100871,1,0,0:0:0:0:
192,192,100961,1,0,0:0:0:0:
320,192,101051,128,0,101142:0:0:0:0:
448,192,101051,1,0,0:0:0:0:
64,192,101096,1,0,0:0:0:0:
192,192,101142,1,0,0:0:0:0:
448,192,101187,1,0,0:0:0:0:
64,192,101232,128,0,101413:0:0:0:0:
320,192,101232,1,0,0:0:0:0:
320,192,101322,1,0,0:0:0:0:
192,192,101413,1,0,0:0:0:0:
448,192,101413,1,0,0:0:0:0:
192,192,101503,1,0,0:0:0:0:
64,192,101593,128,0,101774:0:0:0:0:
320,192,101593,1,0,0:0:0:0:
320,192,101684,1,0,0:0:0:0:
448,192,101774,1,0,0:0:0:0:
192,192,101819,1,0,0:0:0:0:
64,192,101864,1,0,0:0:0:0:
448,192,101910,1,0,0:0:0:0:
192,192,101955,128,0,102136:0:0:0:0:
320,192,101955,1,0,0:0:0:0:
320,192,102045,1,0,0:0:0:0:
64,192,102136,1,0,0:0:0:0:
448,192,102136,1,0,0:0:0:0:
64,192,102226,1,0,0:0:0:0:
320,192,102316,1,0,0:0:0:0:
192,192,102316,1,0,0:0:0:0:
320,192,102407,1,0,0:0:0:0:
64,192,102497,128,0,102587:0:0:0:0:
192,192,102497,1,0,0:0:0:0:
448,192,102542,1,0,0:0:0:0:
320,192,102587,1,0,0:0:0:0:
192,192,102633,1,0,0:0:0:0:
448,192,102678,128,0,102858:0:0:0:0:
64,192,102678,1,0,0:0:0:0:
64,192,102768,1,0,0:0:0:0:
320,192,102858,1,0,0:0:0:0:
192,192,102858,1,0,0:0:0:0:
320,192,102949,1,0,0:0:0:0:
448,192,103039,128,0,103220:0:0:0:0:
64,192,103039,1,0,0:0:0:0:
64,192,103130,1,0,0:0:0:0:
192,192,103220,1,0,0:0:0:0:
320,192,103265,1,0,0:0:0:0:
448,192,103310,1,0,0:0:0:0:
192,192,103355,1,0,0:0:0:0:
64,192,103401,1,0,0:0:0:0:
320,192,103401,1,0,0:0:0:0:
320,192,103491,1,0,0:0:0:0:
64,192,103536,1,0,0:0:0:0:
448,192,103581,1,0,0:0:0:0:
64,192,103672,1,0,0:0:0:0:
448,192,103672,1,0,0:0:0:0:
192,192,103762,1,0,0:0:0:0:
320,192,103762,1,0,0:0:0:0:
64,192,103852,1,0,0:0:0:0:
320,192,103943,1,0,0:0:0:0:
448,192,103943,1,0,0:0:0:0:
192,192,104033,1,0,0:0:0:0:
64,192,104124,1,0,0:0:0:0:
448,192,104124,1,0,0:0:0:0:
320,192,104124,1,0,0:0:0:0:
320,192,104214,1,0,0:0:0:0:
64,192,104304,1,0,0:0:0:0:
192,192,104395,1,0,0:0:0:0:
448,192,104395,1,0,0:0:0:0:
320,192,104395,1,0,0:0:0:0:
448,192,104485,1,0,0:0:0:0:
192,192,104575,1,0,0:0:0:0:
448,192,104666,1,0,0:0:0:0:
320,192,104666,1,0,0:0:0:0:
64,192,104711,1,0,0:0:0:0:
320,192,104756,1,0,0:0:0:0:
192,192,104801,1,0,0:0:0:0:
64,192,104846,1,0,0:0:0:0:
192,192,104937,1,0,0:0:0:0:
448,192,104937,1,0,0:0:0:0:
320,192,104937,1,0,0:0:0:0:
448,192,105027,1,0,0:0:0:0:
192,192,105118,1,0,0:0:0:0:
448,192,105208,1,0,0:0:0:0:
64,192,105208,1,0,0:0:0:0:
320,192,105208,1,0,0:0:0:0:
320,192,105298,1,0,0:0:0:0:
448,192,105389,1,0,0:0:0:0:
192,192,105434,1,0,0:0:0:0:
448,192,105479,1,0,0:0:0:0:
64,192,105524,1,0,0:0:0:0:
320,192,105569,1,0,0:0:0:0:
192,192,105569,1,0,0:0:0:0:
192,192,105660,1,0,0:0:0:0:
448,192,105750,1,0,0:0:0:0:
320,192,105795,1,0,0:0:0:0:
64,192,105840,1,0,0:0:0:0:
192,192,105840,1,0,0:0:0:0:
448,192,105886,1,0,0:0:0:0:
64,192,105931,1,0,0:0:0:0:
320,192,106021,1,0,0:0:0:0:
64,192,106111,1,0,0:0:0:0:
192,192,106111,1,0,0:0:0:0:
448,192,106157,1,0,0:0:0:0:
192,192,106202,1,0,0:0:0:0:
320,192,106247,1,0,0:0:0:0:
448,192,106292,1,0,0:0:0:0:
64,192,106383,1,0,0:0:0:0:
192,192,106383,1,0,0:0:0:0:
320,192,106428,1,0,0:0:0:0:
64,192,106473,1,0,0:0:0:0:
448,192,106518,1,0,0:0:0:0:
192,192,106563,1,0,0:0:0:0:
320,192,106608,1,0,0:0:0:0:
64,192,106654,1,0,0:0:0:0:
448,192,106654,1,0,0:0:0:0:
192,192,106699,1,0,0:0:0:0:
320,192,106744,1,0,0:0:0:0:
64,192,106789,1,0,0:0:0:0:
448,192,106834,1,0,0:0:0:0:
320,192,106880,1,0,0:0:0:0:
192,192,106925,1,0,0:0:0:0:
64,192,106970,1,0,0:0:0:0:
320,192,107015,128,0,107286:0:0:0:0:
448,192,107015,1,0,0:0:0:0:
320,192,107377,128,0,107648:0:0:0:0:
64,192,107738,128,0,108099:0:0:0:0:
448,192,108280,128,0,108461:0:0:0:0:
192,192,108461,128,0,108642:0:0:0:0:
192,192,108822,128,0,109093:0:0:0:0:
64,192,109184,128,0,109274:0:0:0:0:
448,192,109184,128,0,109545:0:0:0:0:
64,192,109364,128,0,109545:0:0:0:0:
192,192,109455,128,0,109545:0:0:0:0:
320,192,109545,128,0,109816:0:0:0:0:
64,192,109636,128,0,109816:0:0:0:0:
448,192,109726,128,0,109816:0:0:0:0:
192,192,109816,128,0,109907:0:0:0:0:
64,192,109907,1,0,0:0:0:0:
448,192,109907,1,0,0:0:0:0:
320,192,109907,1,0,0:0:0:0:
64,192,109997,1,0,0:0:0:0:
448,192,110087,1,0,0:0:0:0:
192,192,110087,1,0,0:0:0:0:
320,192,110178,1,0,0:0:0:0:
192,192,110178,1,0,0:0:0:0:
320,192,110268,128,0,110449:0:0:0:0:
448,192,110268,1,0,0:0:0:0:
64,192,110268,1,0,0:0:0:0:
64,192,110358,1,0,0:0:0:0:
192,192,110449,128,0,110539:0:0:0:0:
448,192,110449,1,0,0:0:0:0:
448,192,110539,1,0,0:0:0:0:
192,192,110630,1,0,0:0:0:0:
64,192,110630,1,0,0:0:0:0:
320,192,110630,1,0,0:0:0:0:
192,192,110720,1,0,0:0:0:0:
448,192,110810,128,0,110901:0:0:0:0:
320,192,110810,128,0,110901:0:0:0:0:
192,192,110901,1,0,0:0:0:0:
64,192,110901,1,0,0:0:0:0:
64,192,110991,1,0,0:0:0:0:
448,192,110991,1,0,0:0:0:0:
320,192,110991,1,0,0:0:0:0:
192,192,111081,128,0,111172:0:0:0:0:
448,192,111081,128,0,111172:0:0:0:0:
320,192,111172,1,0,0:0:0:0:
192,192,111262,1,0,0:0:0:0:
448,192,111352,1,0,0:0:0:0:
64,192,111352,128,0,111533:0:0:0:0:
320,192,111352,1,0,0:0:0:0:
320,192,111443,128,0,111593:0:0:0:0:
192,192,111533,128,0,111624:0:0:0:0:
448,192,111593,1,0,0:0:0:0:
64,192,111654,1,0,0:0:0:0:
192,192,111714,1,0,0:0:0:0:
448,192,111714,128,0,111895:0:0:0:0:
320,192,111714,1,0,0:0:0:0:
192,192,111804,1,0,0:0:0:0:
320,192,111895,1,0,0:0:0:0:
192,192,111985,1,0,0:0:0:0:
320,192,111985,128,0,112166:0:0:0:0:
448,192,112075,1,0,0:0:0:0:
64,192,112075,1,0,0:0:0:0:
64,192,112166,1,0,0:0:0:0:
448,192,112256,1,0,0:0:0:0:
192,192,112256,128,0,112346:0:0:0:0:
448,192,112346,1,0,0:0:0:0:
192,192,112437,1,0,0:0:0:0:
64,192,112437,128,0,112527:0:0:0:0:
320,192,112437,1,0,0:0:0:0:
320,192,112527,128,0,112618:0:0:0:0:
64,192,112618,1,0,0:0:0:0:
192,192,112618,1,0,0:0:0:0:
448,192,112663,1,0,0:0:0:0:
64,192,112708,1,0,0:0:0:0:
448,192,112753,1,0,0:0:0:0:
192,192,112798,1,0,0:0:0:0:
320,192,112798,1,0,0:0:0:0:
320,192,112889,128,0,113069:0:0:0:0:
64,192,112889,1,0,0:0:0:0:
448,192,112979,128,0,113069:0:0:0:0:
192,192,112979,1,0,0:0:0:0:
192,192,113069,1,0,0:0:0:0:
448,192,113160,1,0,0:0:0:0:
320,192,113160,1,0,0:0:0:0:
64,192,113250,1,0,0:0:0:0:
64,192,113340,1,0,0:0:0:0:
64,192,113431,1,0,0:0:0:0:
320,192,113521,1,0,0:0:0:0:
448,192,113521,1,0,0:0:0:0:
192,192,113521,1,0,0:0:0:0:
320,192,113611,1,0,0:0:0:0:
64,192,113702,128,0,113792:0:0:0:0:
192,192,113702,128,0,113792:0:0:0:0:
320,192,113792,1,0,0:0:0:0:
448,192,113792,1,0,0:0:0:0:
448,192,113883,1,0,0:0:0:0:
64,192,113883,1,0,0:0:0:0:
192,192,113883,1,0,0:0:0:0:
320,192,113973,128,0,114063:0:0:0:0:
64,192,113973,128,0,114063:0:0:0:0:
192,192,114063,1,0,0:0:0:0:
192,192,114154,1,0,0:0:0:0:
448,192,114244,1,0,0:0:0:0:
64,192,114244,128,0,114515:0:0:0:0:
320,192,114244,1,0,0:0:0:0:
192,192,114334,128,0,114515:0:0:0:0:
320,192,114425,128,0,114515:0:0:0:0:
448,192,114515,1,0,0:0:0:0:
64,192,114605,1,0,0:0:0:0:
320,192,114605,1,0,0:0:0:0:
192,192,114605,1,0,0:0:0:0:
320,192,114696,128,0,114877:0:0:0:0:
192,192,114786,128,0,114877:0:0:0:0:
448,192,114786,128,0,114877:0:0:0:0:
64,192,114877,128,0,114967:0:0:0:0:
448,192,114967,1,0,0:0:0:0:
320,192,114967,1,0,0:0:0:0:
192,192,114967,1,0,0:0:0:0:
192,192,115057,128,0,115238:0:0:0:0:
448,192,115148,128,0,115238:0:0:0:0:
64,192,115148,128,0,115238:0:0:0:0:
320,192,115238,128,0,115328:0:0:0:0:
64,192,115328,1,0,0:0:0:0:
192,192,115328,128,0,115419:0:0:0:0:
448,192,115328,1,0,0:0:0:0:
448,192,115419,128,0,115599:0:0:0:0:
192,192,115509,128,0,115599:0:0:0:0:
64,192,115509,128,0,115599:0:0:0:0:
320,192,115599,128,0,115690:0:0:0:0:
192,192,115690,1,0,0:0:0:0:
64,192,115690,1,0,0:0:0:0:
448,192,115690,1,0,0:0:0:0:
448,192,115780,1,0,0:0:0:0:
320,192,115871,1,0,0:0:0:0:
64,192,115871,1,0,0:0:0:0:
320,192,115961,1,0,0:0:0:0:
192,192,115961,1,0,0:0:0:0:
448,192,116051,1,0,0:0:0:0:
64,192,116051,1,0,0:0:0:0:
192,192,116051,128,0,116232:0:0:0:0:
448,192,116142,1,0,0:0:0:0:
64,192,116232,1,0,0:0:0:0:
320,192,116232,128,0,116322:0:0:0:0:
64,192,116322,1,0,0:0:0:0:
192,192,116413,1,0,0:0:0:0:
448,192,116413,1,0,0:0:0:0:
320,192,116413,1,0,0:0:0:0:
320,192,116503,1,0,0:0:0:0:
192,192,116593,128,0,116684:0:0:0:0:
64,192,116593,128,0,116684:0:0:0:0:
448,192,116684,1,0,0:0:0:0:
320,192,116684,1,0,0:0:0:0:
192,192,116774,1,0,0:0:0:0:
64,192,116774,1,0,0:0:0:0:
448,192,116774,1,0,0:0:0:0:
64,192,116864,128,0,116955:0:0:0:0:
320,192,116864,128,0,116955:0:0:0:0:
192,192,116955,1,0,0:0:0:0:
320,192,117045,1,0,0:0:0:0:
192,192,117136,1,0,0:0:0:0:
448,192,117136,128,0,117316:0:0:0:0:
64,192,117136,1,0,0:0:0:0:
192,192,117226,128,0,117377:0:0:0:0:
320,192,117316,128,0,117407:0:0:0:0:
64,192,117377,1,0,0:0:0:0:
448,192,117437,1,0,0:0:0:0:
192,192,117497,1,0,0:0:0:0:
64,192,117497,128,0,117678:0:0:0:0:
320,192,117497,1,0,0:0:0:0:
320,192,117587,1,0,0:0:0:0:
192,192,117678,1,0,0:0:0:0:
192,192,117768,128,0,117949:0:0:0:0:
320,192,117768,1,0,0:0:0:0:
448,192,117858,1,0,0:0:0:0:
64,192,117858,1,0,0:0:0:0:
448,192,117949,1,0,0:0:0:0:
320,192,118039,128,0,118130:0:0:0:0:
64,192,118039,1,0,0:0:0:0:
64,192,118130,1,0,0:0:0:0:
192,192,118220,1,0,0:0:0:0:
448,192,118220,128,0,118310:0:0:0:0:
320,192,118220,1,0,0:0:0:0:
192,192,118310,128,0,118401:0:0:0:0:
320,192,118401,1,0,0:0:0:0:
448,192,118401,1,0,0:0:0:0:
64,192,118446,1,0,0:0:0:0:
448,192,118491,1,0,0:0:0:0:
64,192,118536,1,0,0:0:0:0:
192,192,118581,1,0,0:0:0:0:
320,192,118581,1,0,0:0:0:0:
448,192,118672,1,0,0:0:0:0:
192,192,118672,128,0,118852:0:0:0:0:
320,192,118762,1,0,0:0:0:0:
64,192,118762,128,0,118852:0:0:0:0:
320,192,118852,1,0,0:0:0:0:
192,192,118943,1,0,0:0:0:0:
64,192,118943,1,0,0:0:0:0:
448,192,119033,1,0,0:0:0:0:
448,192,119124,1,0,0:0:0:0:
448,192,119214,1,0,0:0:0:0:
320,192,119304,1,0,0:0:0:0:
64,192,119304,1,0,0:0:0:0:
192,192,119304,1,0,0:0:0:0:
192,192,119395,1,0,0:0:0:0:
320,192,119485,1,0,0:0:0:0:
448,192,119485,128,0,119575:0:0:0:0:
64,192,119575,1,0,0:0:0:0:
192,192,119575,1,0,0:0:0:0:
320,192,119621,1,0,0:0:0:0:
448,192,119666,1,0,0:0:0:0:
64,192,119666,1,0,0:0:0:0:
448,192,119756,1,0,0:0:0:0:
192,192,119756,1,0,0:0:0:0:
192,192,119846,1,0,0:0:0:0:
320,192,119846,1,0,0:0:0:0:
64,192,119937,1,0,0:0:0:0:
320,192,119937,1,0,0:0:0:0:
448,192,120027,1,0,0:0:0:0:
64,192,120027,128,0,120840:0:0:0:0:
192,192,120208,1,0,0:0:0:0:
448,192,120298,1,0,0:0:0:0:
192,192,120479,1,0,0:0:0:0:
320,192,120569,1,0,0:0:0:0:
320,192,120750,1,0,0:0:0:0:
192,192,120840,1,0,0:0:0:0:
448,192,120931,1,0,0:0:0:0:
64,192,120976,1,0,0:0:0:0:
320,192,121021,1,0,0:0:0:0:
448,192,121066,1,0,0:0:0:0:
64,192,121111,1,0,0:0:0:0:
192,192,121111,1,0,0:0:0:0:
448,192,121202,1,0,0:0:0:0:
320,192,121202,1,0,0:0:0:0:
64,192,121292,1,0,0:0:0:0:
320,192,121292,1,0,0:0:0:0:
192,192,121383,1,0,0:0:0:0:
448,192,121473,1,0,0:0:0:0:
320,192,121473,1,0,0:0:0:0:
64,192,121473,1,0,0:0:0:0:
64,192,121563,1,0,0:0:0:0:
448,192,121654,1,0,0:0:0:0:
192,192,121654,1,0,0:0:0:0:
320,192,121744,1,0,0:0:0:0:
192,192,121744,1,0,0:0:0:0:
320,192,121834,128,0,122015:0:0:0:0:
448,192,121834,1,0,0:0:0:0:
64,192,121834,1,0,0:0:0:0:
64,192,121925,1,0,0:0:0:0:
192,192,122015,128,0,122105:0:0:0:0:
448,192,122015,1,0,0:0:0:0:
448,192,122105,1,0,0:0:0:0:
192,192,122196,1,0,0:0:0:0:
64,192,122196,1,0,0:0:0:0:
320,192,122196,1,0,0:0:0:0:
192,192,122286,1,0,0:0:0:0:
448,192,122377,128,0,122467:0:0:0:0:
320,192,122377,128,0,122467:0:0:0:0:
192,192,122467,1,0,0:0:0:0:
64,192,122467,1,0,0:0:0:0:
64,192,122557,1,0,0:0:0:0:
448,192,122557,1,0,0:0:0:0:
320,192,122557,1,0,0:0:0:0:
192,192,122648,128,0,122738:0:0:0:0:
448,192,122648,128,0,122738:0:0:0:0:
320,192,122738,1,0,0:0:0:0:
192,192,122828,1,0,0:0:0:0:
448,192,122919,1,0,0:0:0:0:
64,192,122919,128,0,123099:0:0:0:0:
320,192,122919,1,0,0:0:0:0:
320,192,123009,128,0,123160:0:0:0:0:
192,192,123099,128,0,123190:0:0:0:0:
448,192,123160,1,0,0:0:0:0:
64,192,123220,1,0,0:0:0:0:
192,192,123280,1,0,0:0:0:0:
448,192,123280,128,0,123461:0:0:0:0:
320,192,123280,1,0,0:0:0:0:
192,192,123371,1,0,0:0:0:0:
320,192,123461,1,0,0:0:0:0:
192,192,123551,1,0,0:0:0:0:
320,192,123551,128,0,123732:0:0:0:0:
448,192,123642,1,0,0:0:0:0:
64,192,123642,1,0,0:0:0:0:
64,192,123732,1,0,0:0:0:0:
448,192,123822,1,0,0:0:0:0:
192,192,123822,128,0,123913:0:0:0:0:
448,192,123913,1,0,0:0:0:0:
64,192,124003,1,0,0:0:0:0:
192,192,124003,1,0,0:0:0:0:
320,192,124043,1,0,0:0:0:0:
448,192,124083,1,0,0:0:0:0:
192,192,124124,1,0,0:0:0:0:
64,192,124184,1,0,0:0:0:0:
448,192,124229,1,0,0:0:0:0:
64,192,124274,1,0,0:0:0:0:
448,192,124319,1,0,0:0:0:0:
192,192,124364,1,0,0:0:0:0:
320,192,124364,1,0,0:0:0:0:
192,192,124455,1,0,0:0:0:0:
64,192,124545,1,0,0:0:0:0:
320,192,124545,1,0,0:0:0:0:
320,192,124636,1,0,0:0:0:0:
192,192,124636,1,0,0:0:0:0:
192,192,124726,128,0,124907:0:0:0:0:
64,192,124726,1,0,0:0:0:0:
448,192,124726,1,0,0:0:0:0:
448,192,124816,1,0,0:0:0:0:
320,192,124907,128,0,124997:0:0:0:0:
64,192,124907,1,0,0:0:0:0:
64,192,124997,1,0,0:0:0:0:
320,192,125087,1,0,0:0:0:0:
448,192,125087,1,0,0:0:0:0:
192,192,125087,1,0,0:0:0:0:
320,192,125178,1,0,0:0:0:0:
64,192,125268,128,0,125358:0:0:0:0:
192,192,125268,128,0,125358:0:0:0:0:
320,192,125358,1,0,0:0:0:0:
448,192,125358,1,0,0:0:0:0:
448,192,125449,1,0,0:0:0:0:
64,192,125449,1,0,0:0:0:0:
192,192,125449,1,0,0:0:0:0:
320,192,125539,128,0,125630:0:0:0:0:
64,192,125539,128,0,125630:0:0:0:0:
192,192,125630,1,0,0:0:0:0:
320,192,125720,1,0,0:0:0:0:
64,192,125810,1,0,0:0:0:0:
448,192,125810,128,0,125991:0:0:0:0:
192,192,125810,1,0,0:0:0:0:
192,192,125901,128,0,126051:0:0:0:0:
320,192,125991,128,0,126081:0:0:0:0:
64,192,126051,1,0,0:0:0:0:
448,192,126111,1,0,0:0:0:0:
320,192,126172,1,0,0:0:0:0:
64,192,126172,128,0,126352:0:0:0:0:
192,192,126172,1,0,0:0:0:0:
320,192,126262,1,0,0:0:0:0:
192,192,126352,1,0,0:0:0:0:
192,192,126443,128,0,126533:0:0:0:0:
320,192,126443,1,0,0:0:0:0:
64,192,126533,1,0,0:0:0:0:
448,192,126533,1,0,0:0:0:0:
320,192,126563,1,0,0:0:0:0:
192,192,126593,1,0,0:0:0:0:
448,192,126714,1,0,0:0:0:0:
320,192,126744,1,0,0:0:0:0:
192,192,126774,1,0,0:0:0:0:
64,192,126895,128,0,127075:0:0:0:0:
192,192,126985,128,0,127075:0:0:0:0:
320,192,127075,1,0,0:0:0:0:
192,192,127256,1,0,0:0:0:0:
64,192,127256,1,0,0:0:0:0:
448,192,127256,1,0,0:0:0:0:
448,192,127346,1,0,0:0:0:0:
192,192,127437,1,0,0:0:0:0:
64,192,127437,1,0,0:0:0:0:
320,192,127527,1,0,0:0:0:0:
192,192,127527,1,0,0:0:0:0:
448,192,127618,1,0,0:0:0:0:
64,192,127618,1,0,0:0:0:0:
448,192,127708,1,0,0:0:0:0:
192,192,127798,1,0,0:0:0:0:
64,192,127798,1,0,0:0:0:0:
320,192,127843,1,0,0:0:0:0:
64,192,127889,1,0,0:0:0:0:
448,192,127934,1,0,0:0:0:0:
192,192,127979,1,0,0:0:0:0:
320,192,127979,1,0,0:0:0:0:
320,192,128069,1,0,0:0:0:0:
192,192,128160,128,0,128250:0:0:0:0:
64,192,128160,128,0,128250:0:0:0:0:
448,192,128250,1,0,0:0:0:0:
320,192,128250,1,0,0:0:0:0:
64,192,128340,1,0,0:0:0:0:
448,192,128340,1,0,0:0:0:0:
64,192,128431,128,0,128521:0:0:0:0:
320,192,128431,128,0,128521:0:0:0:0:
192,192,128521,1,0,0:0:0:0:
448,192,128566,1,0,0:0:0:0:
64,192,128611,1,0,0:0:0:0:
192,192,128657,1,0,0:0:0:0:
448,192,128702,1,0,0:0:0:0:
320,192,128702,1,0,0:0:0:0:
448,192,128792,1,0,0:0:0:0:
320,192,128883,1,0,0:0:0:0:
192,192,128883,1,0,0:0:0:0:
64,192,128943,1,0,0:0:0:0:
448,192,129003,1,0,0:0:0:0:
64,192,129063,128,0,129244:0:0:0:0:
320,192,129063,1,0,0:0:0:0:
320,192,129154,1,0,0:0:0:0:
192,192,129244,1,0,0:0:0:0:
448,192,129289,1,0,0:0:0:0:
192,192,129334,128,0,129515:0:0:0:0:
320,192,129380,1,0,0:0:0:0:
64,192,129425,1,0,0:0:0:0:
448,192,129425,1,0,0:0:0:0:
448,192,129515,1,0,0:0:0:0:
320,192,129605,128,0,129696:0:0:0:0:
64,192,129605,1,0,0:0:0:0:
64,192,129696,1,0,0:0:0:0:
192,192,129786,128,0,129967:0:0:0:0:
320,192,129786,1,0,0:0:0:0:
448,192,129967,1,0,0:0:0:0:
64,192,130012,1,0,0:0:0:0:
448,192,130057,1,0,0:0:0:0:
192,192,130102,1,0,0:0:0:0:
320,192,130148,1,0,0:0:0:0:
64,192,130148,1,0,0:0:0:0:
320,192,130238,1,0,0:0:0:0:
192,192,130328,1,0,0:0:0:0:
64,192,130328,1,0,0:0:0:0:
320,192,130419,1,0,0:0:0:0:
192,192,130419,1,0,0:0:0:0:
64,192,130509,1,0,0:0:0:0:
448,192,130509,1,0,0:0:0:0:
64,192,130599,1,0,0:0:0:0:
320,192,130690,1,0,0:0:0:0:
448,192,130690,1,0,0:0:0:0:
192,192,130735,1,0,0:0:0:0:
320,192,130780,1,0,0:0:0:0:
64,192,130825,1,0,0:0:0:0:
448,192,130871,1,0,0:0:0:0:
192,192,130871,1,0,0:0:0:0:
448,192,130961,1,0,0:0:0:0:
64,192,131051,1,0,0:0:0:0:
192,192,131051,1,0,0:0:0:0:
448,192,131142,1,0,0:0:0:0:
192,192,131142,1,0,0:0:0:0:
320,192,131232,1,0,0:0:0:0:
64,192,131232,1,0,0:0:0:0:
448,192,131277,1,0,0:0:0:0:
64,192,131322,1,0,0:0:0:0:
320,192,131368,1,0,0:0:0:0:
192,192,131413,1,0,0:0:0:0:
448,192,131458,1,0,0:0:0:0:
320,192,131503,1,0,0:0:0:0:
192,192,131548,1,0,0:0:0:0:
448,192,131593,128,0,132226:0:0:0:0:
64,192,131593,128,0,131774:0:0:0:0:
320,192,131684,128,0,131774:0:0:0:0:
320,192,131910,128,0,132136:0:0:0:0:
192,192,132136,128,0,132316:0:0:0:0:
64,192,132316,128,0,132678:0:0:0:0:
448,192,132316,128,0,132587:0:0:0:0:
192,192,132497,128,0,132858:0:0:0:0:
448,192,132678,128,0,132768:0:0:0:0:
320,192,132723,128,0,133039:0:0:0:0:
64,192,133039,128,0,133762:0:0:0:0:
448,192,133039,128,0,134485:0:0:0:0:
192,192,133039,1,0,0:0:0:0:
64,192,134485,128,0,135931:0:0:0:0:
192,192,135931,1,0,0:0:0:0:
320,192,135931,128,0,137377:0:0:0:0:
192,192,137377,128,0,138822:0:0:0:0:
320,192,138822,1,0,0:0:0:0:
64,192,138822,128,0,140268:0:0:0:0:
320,192,139093,1,0,0:0:0:0:
320,192,139364,1,0,0:0:0:0:
320,192,139636,1,0,0:0:0:0:
320,192,139907,1,0,0:0:0:0:
320,192,140087,1,0,0:0:0:0:
192,192,140268,1,0,0:0:0:0:
448,192,140268,128,0,141714:0:0:0:0:
192,192,140539,1,0,0:0:0:0:
192,192,140810,1,0,0:0:0:0:
192,192,141081,1,0,0:0:0:0:
192,192,141352,1,0,0:0:0:0:
192,192,141533,1,0,0:0:0:0:
320,192,141714,128,0,141895:0:0:0:0:
64,192,141774,128,0,142075:0:0:0:0:
192,192,141834,128,0,144425:0:0:0:0:
320,192,141985,128,0,142166:0:0:0:0:
320,192,142256,128,0,142437:0:0:0:0:
320,192,142527,128,0,142708:0:0:0:0:
320,192,142798,128,0,142889:0:0:0:0:
320,192,142979,128,0,143069:0:0:0:0:
448,192,143160,128,0,144244:0:0:0:0:
320,192,143160,128,0,143340:0:0:0:0:
320,192,143431,128,0,143611:0:0:0:0:
320,192,143702,128,0,143883:0:0:0:0:
64,192,143973,128,0,144154:0:0:0:0:
320,192,143973,128,0,144154:0:0:0:0:
320,192,144244,128,0,144334:0:0:0:0:
64,192,144304,128,0,144515:0:0:0:0:
448,192,144364,128,0,144515:0:0:0:0:
320,192,144425,128,0,144605:0:0:0:0:
192,192,144515,128,0,144605:0:0:0:0:
64,192,144605,5,0,0:0:0:0:
448,192,144605,128,0,145690:0:0:0:0:
64,192,144877,1,0,0:0:0:0:
192,192,144967,1,0,0:0:0:0:
64,192,145148,1,0,0:0:0:0:
64,192,145419,1,0,0:0:0:0:
192,192,145509,1,0,0:0:0:0:
64,192,145690,1,0,0:0:0:0:
320,192,145871,128,0,145961:0:0:0:0:
192,192,145961,128,0,146051:0:0:0:0:
64,192,146051,128,0,147136:0:0:0:0:
448,192,146051,1,0,0:0:0:0:
448,192,146322,1,0,0:0:0:0:
320,192,146413,1,0,0:0:0:0:
448,192,146593,1,0,0:0:0:0:
448,192,146864,1,0,0:0:0:0:
320,192,146955,1,0,0:0:0:0:
448,192,147136,1,0,0:0:0:0:
320,192,147316,1,0,0:0:0:0:
448,192,147377,1,0,0:0:0:0:
192,192,147437,1,0,0:0:0:0:
320,192,147497,1,0,0:0:0:0:
64,192,147497,128,0,148099:0:0:0:0:
320,192,147768,1,0,0:0:0:0:
448,192,147858,1,0,0:0:0:0:
320,192,148039,1,0,0:0:0:0:
192,192,148099,128,0,148220:0:0:0:0:
64,192,148265,128,0,148943:0:0:0:0:
320,192,148310,1,0,0:0:0:0:
448,192,148401,1,0,0:0:0:0:
320,192,148581,1,0,0:0:0:0:
448,192,148762,1,0,0:0:0:0:
320,192,148822,1,0,0:0:0:0:
192,192,148883,1,0,0:0:0:0:
448,192,148943,1,0,0:0:0:0:
64,192,149003,1,0,0:0:0:0:
192,192,149063,1,0,0:0:0:0:
320,192,149124,1,0,0:0:0:0:
64,192,149184,1,0,0:0:0:0:
448,192,149244,1,0,0:0:0:0:
192,192,149304,1,0,0:0:0:0:
320,192,149364,1,0,0:0:0:0:
64,192,149425,1,0,0:0:0:0:
192,192,149485,1,0,0:0:0:0:
448,192,149545,1,0,0:0:0:0:
64,192,149605,1,0,0:0:0:0:
320,192,149666,1,0,0:0:0:0:
192,192,149726,1,0,0:0:0:0:
320,192,149786,1,0,0:0:0:0:
64,192,149846,1,0,0:0:0:0:
192,192,149907,1,0,0:0:0:0:
448,192,149967,1,0,0:0:0:0:
64,192,150027,128,0,150389:0:0:0:0:
320,192,150087,1,0,0:0:0:0:
192,192,150148,1,0,0:0:0:0:
448,192,150208,1,0,0:0:0:0:
320,192,150298,1,0,0:0:0:0:
192,192,150389,1,0,0:0:0:0:
448,192,150389,128,0,151473:0:0:0:0:
192,192,150660,1,0,0:0:0:0:
64,192,150750,1,0,0:0:0:0:
192,192,150931,1,0,0:0:0:0:
192,192,151202,1,0,0:0:0:0:
64,192,151292,1,0,0:0:0:0:
192,192,151473,1,0,0:0:0:0:
64,192,151654,128,0,151744:0:0:0:0:
448,192,151744,128,0,151834:0:0:0:0:
192,192,151834,128,0,152557:0:0:0:0:
320,192,151834,1,0,0:0:0:0:
320,192,152105,1,0,0:0:0:0:
448,192,152196,1,0,0:0:0:0:
320,192,152377,1,0,0:0:0:0:
64,192,152557,128,0,153190:0:0:0:0:
320,192,152648,1,0,0:0:0:0:
448,192,152738,1,0,0:0:0:0:
320,192,152919,1,0,0:0:0:0:
320,192,153099,1,0,0:0:0:0:
448,192,153190,1,0,0:0:0:0:
64,192,153280,1,0,0:0:0:0:
320,192,153325,128,0,153822:0:0:0:0:
64,192,153551,1,0,0:0:0:0:
192,192,153642,1,0,0:0:0:0:
64,192,153822,1,0,0:0:0:0:
448,192,153913,128,0,154726:0:0:0:0:
64,192,154093,1,0,0:0:0:0:
192,192,154184,1,0,0:0:0:0:
64,192,154364,1,0,0:0:0:0:
192,192,154545,1,0,0:0:0:0:
64,192,154605,1,0,0:0:0:0:
320,192,154666,1,0,0:0:0:0:
192,192,154726,128,0,155087:0:0:0:0:
448,192,154786,1,0,0:0:0:0:
320,192,154846,1,0,0:0:0:0:
64,192,154907,1,0,0:0:0:0:
448,192,154967,1,0,0:0:0:0:
64,192,155027,1,0,0:0:0:0:
320,192,155087,1,0,0:0:0:0:
192,192,155148,1,0,0:0:0:0:
320,192,155208,1,0,0:0:0:0:
448,192,155268,1,0,0:0:0:0:
64,192,155328,1,0,0:0:0:0:
320,192,155358,128,0,155630:0:0:0:0:
192,192,155449,1,0,0:0:0:0:
64,192,155509,1,0,0:0:0:0:
192,192,155569,1,0,0:0:0:0:
448,192,155630,1,0,0:0:0:0:
320,192,155690,1,0,0:0:0:0:
64,192,155750,1,0,0:0:0:0:
448,192,155810,128,0,156081:0:0:0:0:
192,192,155871,1,0,0:0:0:0:
320,192,155931,1,0,0:0:0:0:
64,192,155991,1,0,0:0:0:0:
192,192,156081,1,0,0:0:0:0:
448,192,156172,5,0,0:0:0:0:
64,192,156172,128,0,157256:0:0:0:0:
448,192,156443,1,0,0:0:0:0:
320,192,156533,1,0,0:0:0:0:
448,192,156714,1,0,0:0:0:0:
448,192,156985,1,0,0:0:0:0:
320,192,157075,1,0,0:0:0:0:
448,192,157256,1,0,0:0:0:0:
192,192,157437,128,0,157527:0:0:0:0:
320,192,157527,128,0,157618:0:0:0:0:
448,192,157618,128,0,158702:0:0:0:0:
64,192,157618,1,0,0:0:0:0:
64,192,157889,1,0,0:0:0:0:
192,192,157979,1,0,0:0:0:0:
64,192,158160,1,0,0:0:0:0:
320,192,158340,1,0,0:0:0:0:
192,192,158431,1,0,0:0:0:0:
64,192,158521,1,0,0:0:0:0:
192,192,158702,1,0,0:0:0:0:
64,192,158883,1,0,0:0:0:0:
192,192,158943,1,0,0:0:0:0:
320,192,159003,1,0,0:0:0:0:
64,192,159063,1,0,0:0:0:0:
448,192,159063,128,0,159696:0:0:0:0:
64,192,159334,1,0,0:0:0:0:
192,192,159425,1,0,0:0:0:0:
64,192,159605,1,0,0:0:0:0:
320,192,159696,128,0,159786:0:0:0:0:
192,192,159786,1,0,0:0:0:0:
64,192,159831,128,0,160509:0:0:0:0:
448,192,159877,1,0,0:0:0:0:
320,192,159967,1,0,0:0:0:0:
448,192,160148,1,0,0:0:0:0:
320,192,160328,1,0,0:0:0:0:
448,192,160389,1,0,0:0:0:0:
192,192,160449,1,0,0:0:0:0:
320,192,160509,128,0,161232:0:0:0:0:
64,192,160569,1,0,0:0:0:0:
192,192,160630,1,0,0:0:0:0:
448,192,160690,1,0,0:0:0:0:
64,192,160750,1,0,0:0:0:0:
448,192,160810,1,0,0:0:0:0:
192,192,160871,1,0,0:0:0:0:
64,192,160931,1,0,0:0:0:0:
448,192,160991,1,0,0:0:0:0:
64,192,161051,1,0,0:0:0:0:
192,192,161111,1,0,0:0:0:0:
448,192,161172,1,0,0:0:0:0:
64,192,161232,1,0,0:0:0:0:
320,192,161292,1,0,0:0:0:0:
448,192,161352,1,0,0:0:0:0:
64,192,161413,1,0,0:0:0:0:
192,192,161473,1,0,0:0:0:0:
320,192,161533,1,0,0:0:0:0:
64,192,161593,128,0,161955:0:0:0:0:
448,192,161654,1,0,0:0:0:0:
192,192,161714,1,0,0:0:0:0:
320,192,161774,1,0,0:0:0:0:
448,192,161864,1,0,0:0:0:0:
192,192,161955,128,0,162045:0:0:0:0:
320,192,162000,128,0,163039:0:0:0:0:
192,192,162226,128,0,162316:0:0:0:0:
64,192,162316,1,0,0:0:0:0:
192,192,162497,128,0,162587:0:0:0:0:
192,192,162768,128,0,162858:0:0:0:0:
64,192,162858,1,0,0:0:0:0:
192,192,163039,128,0,163130:0:0:0:0:
320,192,163152,1,0,0:0:0:0:
448,192,163197,128,0,163310:0:0:0:0:
192,192,163220,128,0,163401:0:0:0:0:
320,192,163310,128,0,163401:0:0:0:0:
64,192,163401,128,0,164304:0:0:0:0:
448,192,163401,128,0,163581:0:0:0:0:
448,192,163672,128,0,163762:0:0:0:0:
320,192,163762,1,0,0:0:0:0:
448,192,163943,128,0,164124:0:0:0:0:
448,192,164214,128,0,164304:0:0:0:0:
320,192,164304,1,0,0:0:0:0:
448,192,164485,128,0,164575:0:0:0:0:
192,192,164485,128,0,164756:0:0:0:0:
448,192,164666,128,0,164756:0:0:0:0:
64,192,164756,1,0,0:0:0:0:
320,192,164846,1,0,0:0:0:0:
192,192,164846,128,0,165027:0:0:0:0:
448,192,164892,128,0,166925:0:0:0:0:
192,192,165118,128,0,165298:0:0:0:0:
64,192,165208,1,0,0:0:0:0:
192,192,165389,128,0,165569:0:0:0:0:
192,192,165660,128,0,165840:0:0:0:0:
320,192,165660,128,0,165931:0:0:0:0:
64,192,165750,128,0,165840:0:0:0:0:
192,192,165931,128,0,166021:0:0:0:0:
64,192,165931,128,0,166111:0:0:0:0:
192,192,166111,128,0,166292:0:0:0:0:
320,192,166202,1,0,0:0:0:0:
64,192,166292,1,0,0:0:0:0:
320,192,166292,128,0,166473:0:0:0:0:
64,192,166473,128,0,166744:0:0:0:0:
192,192,166473,128,0,166654:0:0:0:0:
320,192,166654,1,0,0:0:0:0:
192,192,166744,1,0,0:0:0:0:
192,192,166834,128,0,167015:0:0:0:0:
320,192,166834,128,0,167015:0:0:0:0:
448,192,167015,1,0,0:0:0:0:
64,192,167015,1,0,0:0:0:0:
448,192,167105,128,0,167286:0:0:0:0:
320,192,167196,128,0,167286:0:0:0:0:
64,192,167196,128,0,167377:0:0:0:0:
192,192,167286,128,0,167377:0:0:0:0:
448,192,167377,1,0,0:0:0:0:
320,192,167377,128,0,167648:0:0:0:0:
64,192,167467,128,0,167648:0:0:0:0:
448,192,167557,128,0,167648:0:0:0:0:
192,192,167648,128,0,167738:0:0:0:0:
320,192,167738,1,0,0:0:0:0:
448,192,167738,128,0,167919:0:0:0:0:
64,192,167738,128,0,168009:0:0:0:0:
192,192,167919,1,0,0:0:0:0:
320,192,168009,1,0,0:0:0:0:
192,192,168099,128,0,168371:0:0:0:0:
64,192,168099,128,0,168280:0:0:0:0:
448,192,168280,1,0,0:0:0:0:
64,192,168371,1,0,0:0:0:0:
192,192,168461,128,0,168642:0:0:0:0:
448,192,168461,128,0,168822:0:0:0:0:
320,192,168642,1,0,0:0:0:0:
192,192,168732,1,0,0:0:0:0:
320,192,168822,1,0,0:0:0:0:
64,192,169003,128,0,169184:0:0:0:0:
448,192,169003,128,0,169093:0:0:0:0:
192,192,169093,1,0,0:0:0:0:
320,192,169184,128,0,169364:0:0:0:0:
448,192,169184,128,0,169364:0:0:0:0:
192,192,169364,128,0,169545:0:0:0:0:
64,192,169364,128,0,169455:0:0:0:0:
448,192,169455,1,0,0:0:0:0:
64,192,169545,128,0,169726:0:0:0:0:
320,192,169545,128,0,169636:0:0:0:0:
192,192,169726,128,0,169816:0:0:0:0:
320,192,169726,128,0,169907:0:0:0:0:
448,192,169816,1,0,0:0:0:0:
64,192,169907,128,0,169997:0:0:0:0:
192,192,169907,128,0,170178:0:0:0:0:
320,192,170087,1,0,0:0:0:0:
64,192,170087,128,0,170268:0:0:0:0:
448,192,170087,128,0,170358:0:0:0:0:
320,192,170178,128,0,170449:0:0:0:0:
192,192,170268,128,0,170358:0:0:0:0:
64,192,170358,1,0,0:0:0:0:
192,192,170449,128,0,170539:0:0:0:0:
448,192,170449,128,0,170539:0:0:0:0:
320,192,170539,1,0,0:0:0:0:
64,192,170630,1,0,0:0:0:0:
448,192,170630,128,0,170901:0:0:0:0:
192,192,170630,128,0,170810:0:0:0:0:
64,192,170720,128,0,170901:0:0:0:0:
320,192,170810,128,0,170991:0:0:0:0:
192,192,170901,1,0,0:0:0:0:
448,192,170991,128,0,171172:0:0:0:0:
64,192,170991,128,0,171172:0:0:0:0:
320,192,171172,128,0,171352:0:0:0:0:
192,192,171172,128,0,171262:0:0:0:0:
448,192,171262,1,0,0:0:0:0:
192,192,171352,128,0,171624:0:0:0:0:
64,192,171352,128,0,171533:0:0:0:0:
320,192,171533,1,0,0:0:0:0:
64,192,171624,1,0,0:0:0:0:
192,192,171714,1,0,0:0:0:0:
448,192,171714,1,0,0:0:0:0:
64,192,171804,1,0,0:0:0:0:
320,192,171895,128,0,171985:0:0:0:0:
448,192,171895,128,0,172075:0:0:0:0:
192,192,171985,128,0,172166:0:0:0:0:
64,192,171985,128,0,172256:0:0:0:0:
320,192,172075,128,0,172256:0:0:0:0:
192,192,172256,128,0,172346:0:0:0:0:
448,192,172256,128,0,172437:0:0:0:0:
320,192,172346,1,0,0:0:0:0:
192,192,172437,1,0,0:0:0:0:
64,192,172437,128,0,172527:0:0:0:0:
192,192,172527,1,0,0:0:0:0:
448,192,172618,128,0,172708:0:0:0:0:
320,192,172618,128,0,172798:0:0:0:0:
64,192,172685,128,0,172798:0:0:0:0:
192,192,172753,128,0,172889:0:0:0:0:
448,192,172798,128,0,172889:0:0:0:0:
320,192,172889,128,0,173069:0:0:0:0:
64,192,172979,1,0,0:0:0:0:
192,192,172979,128,0,173160:0:0:0:0:
448,192,172979,128,0,173160:0:0:0:0:
64,192,173069,128,0,173160:0:0:0:0:
320,192,173160,128,0,173250:0:0:0:0:
448,192,173250,1,0,0:0:0:0:
64,192,173250,128,0,173431:0:0:0:0:
192,192,173250,128,0,173340:0:0:0:0:
448,192,173340,128,0,173431:0:0:0:0:
320,192,173340,128,0,173431:0:0:0:0:
192,192,173431,128,0,173521:0:0:0:0:
320,192,173521,1,0,0:0:0:0:
448,192,173521,128,0,173702:0:0:0:0:
64,192,173521,128,0,173702:0:0:0:0:
192,192,173702,128,0,173792:0:0:0:0:
320,192,173702,128,0,173883:0:0:0:0:
448,192,173792,128,0,174063:0:0:0:0:
64,192,173792,128,0,173973:0:0:0:0:
192,192,173883,1,0,0:0:0:0:
320,192,173973,128,0,174063:0:0:0:0:
64,192,174063,1,0,0:0:0:0:
448,192,174154,1,0,0:0:0:0:
192,192,174244,128,0,174425:0:0:0:0:
64,192,174244,128,0,174515:0:0:0:0:
320,192,174425,1,0,0:0:0:0:
192,192,174515,1,0,0:0:0:0:
64,192,174605,1,0,0:0:0:0:
448,192,174605,1,0,0:0:0:0:
320,192,174786,128,0,174877:0:0:0:0:
64,192,174786,128,0,174967:0:0:0:0:
192,192,174877,1,0,0:0:0:0:
320,192,174967,128,0,175148:0:0:0:0:
448,192,174967,128,0,175057:0:0:0:0:
64,192,175148,128,0,175238:0:0:0:0:
448,192,175148,128,0,175509:0:0:0:0:
320,192,175238,128,0,175419:0:0:0:0:
64,192,175328,128,0,175509:0:0:0:0:
192,192,175328,128,0,175419:0:0:0:0:
192,192,175509,128,0,175690:0:0:0:0:
320,192,175509,128,0,175599:0:0:0:0:
64,192,175599,1,0,0:0:0:0:
320,192,175690,128,0,175961:0:0:0:0:
448,192,175690,128,0,175780:0:0:0:0:
64,192,175871,128,0,176142:0:0:0:0:
448,192,175871,128,0,176051:0:0:0:0:
192,192,175871,1,0,0:0:0:0:
192,192,175961,128,0,176232:0:0:0:0:
320,192,176051,128,0,176142:0:0:0:0:
448,192,176142,1,0,0:0:0:0:
64,192,176232,128,0,176322:0:0:0:0:
320,192,176232,128,0,176322:0:0:0:0:
192,192,176322,1,0,0:0:0:0:
320,192,176413,128,0,176593:0:0:0:0:
64,192,176413,128,0,176503:0:0:0:0:
448,192,176413,1,0,0:0:0:0:
448,192,176503,128,0,176684:0:0:0:0:
64,192,176593,128,0,176774:0:0:0:0:
320,192,176684,1,0,0:0:0:0:
192,192,176774,128,0,176864:0:0:0:0:
448,192,176774,128,0,176955:0:0:0:0:
192,192,176955,128,0,177136:0:0:0:0:
320,192,176955,128,0,177045:0:0:0:0:
64,192,177045,1,0,0:0:0:0:
320,192,177136,128,0,177407:0:0:0:0:
448,192,177136,128,0,177226:0:0:0:0:
192,192,177226,1,0,0:0:0:0:
448,192,177316,1,0,0:0:0:0:
192,192,177407,1,0,0:0:0:0:
64,192,177497,1,0,0:0:0:0:
320,192,177497,1,0,0:0:0:0:
320,192,177678,128,0,177768:0:0:0:0:
448,192,177678,128,0,177858:0:0:0:0:
192,192,177768,1,0,0:0:0:0:
64,192,177858,5,0,0:0:0:0:
448,192,177949,1,0,0:0:0:0:
320,192,177994,1,0,0:0:0:0:
192,192,178130,1,0,0:0:0:0:
448,192,178220,1,0,0:0:0:0:
64,192,178292,1,0,0:0:0:0:
448,192,178364,1,0,0:0:0:0:
64,192,178437,1,0,0:0:0:0:
448,192,178509,1,0,0:0:0:0:
64,192,178581,1,0,0:0:0:0:
448,192,178672,1,0,0:0:0:0:
64,192,178762,1,0,0:0:0:0:
448,192,178852,1,0,0:0:0:0:
320,192,178943,1,0,0:0:0:0:
192,192,179046,1,0,0:0:0:0:
64,192,179149,1,0,0:0:0:0:
320,192,179253,1,0,0:0:0:0:
64,192,179304,5,0,0:0:0:0:
192,192,179304,1,0,0:0:0:0:
448,192,179304,128,0,179575:0:0:0:0:
192,192,179485,1,0,0:0:0:0:
64,192,179485,1,0,0:0:0:0:
64,192,179575,1,0,0:0:0:0:
320,192,179666,128,0,179846:0:0:0:0:
64,192,179756,1,0,0:0:0:0:
192,192,179756,1,0,0:0:0:0:
448,192,179846,1,0,0:0:0:0:
192,192,179892,1,0,0:0:0:0:
320,192,179937,1,0,0:0:0:0:
448,192,179982,1,0,0:0:0:0:
64,192,180027,128,0,180208:0:0:0:0:
192,192,180027,1,0,0:0:0:0:
320,192,180208,1,0,0:0:0:0:
448,192,180208,1,0,0:0:0:0:
320,192,180298,1,0,0:0:0:0:
192,192,180389,1,0,0:0:0:0:
320,192,180479,1,0,0:0:0:0:
448,192,180479,1,0,0:0:0:0:
448,192,180569,1,0,0:0:0:0:
64,192,180569,128,0,180660:0:0:0:0:
192,192,180614,1,0,0:0:0:0:
320,192,180660,1,0,0:0:0:0:
448,192,180705,1,0,0:0:0:0:
64,192,180750,1,0,0:0:0:0:
192,192,180750,128,0,181021:0:0:0:0:
320,192,180931,1,0,0:0:0:0:
448,192,180931,1,0,0:0:0:0:
448,192,181021,1,0,0:0:0:0:
64,192,181111,128,0,181292:0:0:0:0:
448,192,181202,1,0,0:0:0:0:
320,192,181202,1,0,0:0:0:0:
192,192,181292,1,0,0:0:0:0:
320,192,181337,1,0,0:0:0:0:
64,192,181383,1,0,0:0:0:0:
192,192,181428,1,0,0:0:0:0:
448,192,181473,128,0,181654:0:0:0:0:
320,192,181473,1,0,0:0:0:0:
64,192,181654,1,0,0:0:0:0:
192,192,181654,1,0,0:0:0:0:
64,192,181744,1,0,0:0:0:0:
320,192,181834,1,0,0:0:0:0:
64,192,181925,1,0,0:0:0:0:
192,192,181925,1,0,0:0:0:0:
192,192,182015,1,0,0:0:0:0:
448,192,182015,128,0,182105:0:0:0:0:
320,192,182060,1,0,0:0:0:0:
64,192,182105,1,0,0:0:0:0:
192,192,182151,1,0,0:0:0:0:
448,192,182196,5,0,0:0:0:0:
320,192,182196,128,0,182467:0:0:0:0:
64,192,182377,1,0,0:0:0:0:
192,192,182377,1,0,0:0:0:0:
192,192,182467,1,0,0:0:0:0:
448,192,182557,128,0,182738:0:0:0:0:
192,192,182648,1,0,0:0:0:0:
64,192,182648,1,0,0:0:0:0:
320,192,182738,1,0,0:0:0:0:
64,192,182783,1,0,0:0:0:0:
448,192,182828,1,0,0:0:0:0:
320,192,182874,1,0,0:0:0:0:
192,192,182919,128,0,183099:0:0:0:0:
64,192,182919,1,0,0:0:0:0:
448,192,183099,1,0,0:0:0:0:
320,192,183099,1,0,0:0:0:0:
448,192,183190,1,0,0:0:0:0:
64,192,183280,1,0,0:0:0:0:
320,192,183371,1,0,0:0:0:0:
448,192,183371,1,0,0:0:0:0:
320,192,183461,1,0,0:0:0:0:
192,192,183461,128,0,183551:0:0:0:0:
64,192,183506,1,0,0:0:0:0:
448,192,183551,1,0,0:0:0:0:
320,192,183596,1,0,0:0:0:0:
192,192,183642,1,0,0:0:0:0:
64,192,183642,128,0,183913:0:0:0:0:
448,192,183822,1,0,0:0:0:0:
320,192,183822,1,0,0:0:0:0:
320,192,183913,1,0,0:0:0:0:
192,192,184003,128,0,184184:0:0:0:0:
320,192,184093,1,0,0:0:0:0:
448,192,184093,1,0,0:0:0:0:
64,192,184184,1,0,0:0:0:0:
448,192,184229,1,0,0:0:0:0:
192,192,184274,1,0,0:0:0:0:
64,192,184319,1,0,0:0:0:0:
320,192,184364,128,0,184545:0:0:0:0:
448,192,184364,1,0,0:0:0:0:
192,192,184545,1,0,0:0:0:0:
64,192,184545,1,0,0:0:0:0:
192,192,184636,1,0,0:0:0:0:
448,192,184726,1,0,0:0:0:0:
192,192,184816,1,0,0:0:0:0:
64,192,184816,1,0,0:0:0:0:
64,192,184907,1,0,0:0:0:0:
320,192,184907,128,0,184997:0:0:0:0:
448,192,184952,1,0,0:0:0:0:
192,192,184997,1,0,0:0:0:0:
64,192,185042,1,0,0:0:0:0:
320,192,185087,1,0,0:0:0:0:
448,192,185087,128,0,185268:0:0:0:0:
192,192,185178,1,0,0:0:0:0:
320,192,185268,1,0,0:0:0:0:
192,192,185313,1,0,0:0:0:0:
320,192,185358,1,0,0:0:0:0:
64,192,185404,1,0,0:0:0:0:
448,192,185449,1,0,0:0:0:0:
192,192,185449,128,0,185630:0:0:0:0:
320,192,185539,1,0,0:0:0:0:
64,192,185630,1,0,0:0:0:0:
320,192,185675,1,0,0:0:0:0:
64,192,185720,1,0,0:0:0:0:
448,192,185765,1,0,0:0:0:0:
192,192,185810,1,0,0:0:0:0:
320,192,185810,128,0,185991:0:0:0:0:
64,192,185901,1,0,0:0:0:0:
448,192,185991,1,0,0:0:0:0:
64,192,186036,1,0,0:0:0:0:
448,192,186081,1,0,0:0:0:0:
192,192,186127,1,0,0:0:0:0:
64,192,186172,1,0,0:0:0:0:
320,192,186172,1,0,0:0:0:0:
448,192,186262,1,0,0:0:0:0:
64,192,186352,1,0,0:0:0:0:
192,192,186398,1,0,0:0:0:0:
320,192,186443,1,0,0:0:0:0:
448,192,186488,1,0,0:0:0:0:
64,192,186533,1,0,0:0:0:0:
320,192,186578,1,0,0:0:0:0:
64,192,186624,1,0,0:0:0:0:
448,192,186669,1,0,0:0:0:0:
192,192,186714,1,0,0:0:0:0:
320,192,186759,1,0,0:0:0:0:
64,192,186804,1,0,0:0:0:0:
192,192,186849,1,0,0:0:0:0:
448,192,186895,1,0,0:0:0:0:
64,192,186940,1,0,0:0:0:0:
448,192,186985,1,0,0:0:0:0:
192,192,187030,1,0,0:0:0:0:
320,192,187075,1,0,0:0:0:0:
64,192,187121,1,0,0:0:0:0:
448,192,187166,1,0,0:0:0:0:
320,192,187211,1,0,0:0:0:0:
192,192,187256,1,0,0:0:0:0:
448,192,187301,1,0,0:0:0:0:
192,192,187346,1,0,0:0:0:0:
320,192,187392,1,0,0:0:0:0:
64,192,187437,1,0,0:0:0:0:
448,192,187482,1,0,0:0:0:0:
320,192,187527,1,0,0:0:0:0:
192,192,187572,1,0,0:0:0:0:
64,192,187618,1,0,0:0:0:0:
448,192,187663,1,0,0:0:0:0:
192,192,187708,1,0,0:0:0:0:
320,192,187753,1,0,0:0:0:0:
64,192,187798,1,0,0:0:0:0:
192,192,187843,1,0,0:0:0:0:
448,192,187889,1,0,0:0:0:0:
320,192,187934,1,0,0:0:0:0:
192,192,187979,128,0,188250:0:0:0:0:
64,192,187979,128,0,188160:0:0:0:0:
192,192,188340,128,0,188611:0:0:0:0:
448,192,188702,128,0,188883:0:0:0:0:
192,192,188702,1,0,0:0:0:0:
64,192,188792,1,0,0:0:0:0:
320,192,188883,1,0,0:0:0:0:
192,192,188928,1,0,0:0:0:0:
320,192,188973,1,0,0:0:0:0:
192,192,189018,1,0,0:0:0:0:
448,192,189063,1,0,0:0:0:0:
320,192,189154,1,0,0:0:0:0:
448,192,189244,1,0,0:0:0:0:
64,192,189244,128,0,189334:0:0:0:0:
448,192,189334,1,0,0:0:0:0:
192,192,189380,1,0,0:0:0:0:
64,192,189425,1,0,0:0:0:0:
320,192,189425,128,0,189605:0:0:0:0:
64,192,189515,1,0,0:0:0:0:
64,192,189605,1,0,0:0:0:0:
192,192,189696,128,0,189786:0:0:0:0:
320,192,189786,128,0,190057:0:0:0:0:
448,192,189786,128,0,189877:0:0:0:0:
64,192,189877,128,0,189967:0:0:0:0:
448,192,189967,128,0,190148:0:0:0:0:
192,192,190057,128,0,190148:0:0:0:0:
64,192,190148,128,0,190328:0:0:0:0:
448,192,190238,1,0,0:0:0:0:
320,192,190238,1,0,0:0:0:0:
448,192,190328,1,0,0:0:0:0:
192,192,190328,1,0,0:0:0:0:
320,192,190374,1,0,0:0:0:0:
192,192,190419,1,0,0:0:0:0:
320,192,190464,1,0,0:0:0:0:
64,192,190509,128,0,190690:0:0:0:0:
448,192,190690,1,0,0:0:0:0:
320,192,190690,1,0,0:0:0:0:
64,192,190871,5,0,0:0:0:0:
448,192,190871,1,0,0:0:0:0:
320,192,190871,1,0,0:0:0:0:
192,192,190871,1,0,0:0:0:0:
64,192,190961,128,0,191142:0:0:0:0:
448,192,191051,128,0,191142:0:0:0:0:
192,192,191142,128,0,191232:0:0:0:0:
320,192,191187,1,0,0:0:0:0:
448,192,191232,1,0,0:0:0:0:
64,192,191232,128,0,191413:0:0:0:0:
448,192,191322,128,0,191413:0:0:0:0:
192,192,191322,1,0,0:0:0:0:
320,192,191413,1,0,0:0:0:0:
448,192,191503,128,0,191593:0:0:0:0:
192,192,191503,1,0,0:0:0:0:
320,192,191593,1,0,0:0:0:0:
64,192,191593,1,0,0:0:0:0:
448,192,191684,1,0,0:0:0:0:
64,192,191684,128,0,191864:0:0:0:0:
192,192,191774,128,0,191864:0:0:0:0:
448,192,191864,128,0,192136:0:0:0:0:
320,192,191864,1,0,0:0:0:0:
192,192,191955,1,0,0:0:0:0:
64,192,191955,1,0,0:0:0:0:
192,192,192045,128,0,192226:0:0:0:0:
64,192,192136,1,0,0:0:0:0:
320,192,192136,128,0,192316:0:0:0:0:
448,192,192226,128,0,192316:0:0:0:0:
64,192,192316,128,0,192497:0:0:0:0:
192,192,192316,1,0,0:0:0:0:
448,192,192407,128,0,192587:0:0:0:0:
192,192,192497,128,0,192587:0:0:0:0:
320,192,192587,128,0,192678:0:0:0:0:
64,192,192587,1,0,0:0:0:0:
192,192,192678,1,0,0:0:0:0:
448,192,192678,128,0,192858:0:0:0:0:
192,192,192768,128,0,192858:0:0:0:0:
320,192,192768,1,0,0:0:0:0:
64,192,192858,1,0,0:0:0:0:
192,192,192949,128,0,193039:0:0:0:0:
320,192,192949,1,0,0:0:0:0:
64,192,193039,1,0,0:0:0:0:
448,192,193039,1,0,0:0:0:0:
192,192,193130,1,0,0:0:0:0:
448,192,193130,128,0,193310:0:0:0:0:
320,192,193220,128,0,193310:0:0:0:0:
64,192,193280,128,0,193401:0:0:0:0:
192,192,193340,128,0,193491:0:0:0:0:
448,192,193401,1,0,0:0:0:0:
320,192,193401,128,0,193581:0:0:0:0:
64,192,193491,128,0,193581:0:0:0:0:
192,192,193581,128,0,193762:0:0:0:0:
448,192,193581,1,0,0:0:0:0:
64,192,193672,128,0,193762:0:0:0:0:
448,192,193762,128,0,193943:0:0:0:0:
320,192,193762,1,0,0:0:0:0:
192,192,193852,128,0,194033:0:0:0:0:
320,192,193943,128,0,194033:0:0:0:0:
64,192,194033,128,0,194124:0:0:0:0:
448,192,194033,1,0,0:0:0:0:
320,192,194124,1,0,0:0:0:0:
192,192,194124,128,0,194304:0:0:0:0:
320,192,194214,128,0,194304:0:0:0:0:
64,192,194214,1,0,0:0:0:0:
448,192,194304,1,0,0:0:0:0:
320,192,194395,128,0,194485:0:0:0:0:
64,192,194395,1,0,0:0:0:0:
448,192,194485,1,0,0:0:0:0:
192,192,194485,1,0,0:0:0:0:
320,192,194575,1,0,0:0:0:0:
192,192,194575,128,0,194756:0:0:0:0:
448,192,194666,128,0,194846:0:0:0:0:
64,192,194666,1,0,0:0:0:0:
320,192,194756,128,0,194937:0:0:0:0:
192,192,194846,1,0,0:0:0:0:
64,192,194846,128,0,195027:0:0:0:0:
448,192,194937,128,0,195027:0:0:0:0:
320,192,195027,128,0,195208:0:0:0:0:
192,192,195027,1,0,0:0:0:0:
448,192,195118,128,0,195208:0:0:0:0:
192,192,195208,128,0,195389:0:0:0:0:
64,192,195208,1,0,0:0:0:0:
320,192,195298,128,0,195479:0:0:0:0:
64,192,195389,128,0,195479:0:0:0:0:
448,192,195479,128,0,195569:0:0:0:0:
192,192,195479,1,0,0:0:0:0:
64,192,195569,1,0,0:0:0:0:
320,192,195569,128,0,195750:0:0:0:0:
64,192,195660,128,0,195750:0:0:0:0:
448,192,195660,1,0,0:0:0:0:
192,192,195750,1,0,0:0:0:0:
64,192,195840,128,0,195931:0:0:0:0:
448,192,195840,1,0,0:0:0:0:
192,192,195931,1,0,0:0:0:0:
320,192,195931,1,0,0:0:0:0:
64,192,196021,1,0,0:0:0:0:
320,192,196021,128,0,196202:0:0:0:0:
192,192,196111,128,0,196292:0:0:0:0:
448,192,196111,1,0,0:0:0:0:
64,192,196202,128,0,196292:0:0:0:0:
320,192,196292,1,0,0:0:0:0:
448,192,196292,128,0,196473:0:0:0:0:
320,192,196383,128,0,196473:0:0:0:0:
192,192,196473,1,0,0:0:0:0:
64,192,196473,128,0,196563:0:0:0:0:
192,192,196563,128,0,196654:0:0:0:0:
448,192,196654,5,0,0:0:0:0:
320,192,196654,1,0,0:0:0:0:
64,192,196654,1,0,0:0:0:0:
448,192,196744,128,0,196925:0:0:0:0:
64,192,196834,128,0,196925:0:0:0:0:
320,192,196925,128,0,197015:0:0:0:0:
192,192,196925,1,0,0:0:0:0:
64,192,197015,1,0,0:0:0:0:
448,192,197015,128,0,197196:0:0:0:0:
64,192,197105,128,0,197196:0:0:0:0:
320,192,197105,1,0,0:0:0:0:
192,192,197196,1,0,0:0:0:0:
64,192,197286,128,0,197377:0:0:0:0:
320,192,197286,1,0,0:0:0:0:
192,192,197377,1,0,0:0:0:0:
448,192,197377,1,0,0:0:0:0:
64,192,197467,1,0,0:0:0:0:
448,192,197467,128,0,197648:0:0:0:0:
192,192,197557,128,0,197738:0:0:0:0:
320,192,197557,1,0,0:0:0:0:
64,192,197648,128,0,197828:0:0:0:0:
448,192,197738,1,0,0:0:0:0:
320,192,197738,128,0,197919:0:0:0:0:
192,192,197828,128,0,197919:0:0:0:0:
448,192,197919,1,0,0:0:0:0:
64,192,197919,128,0,198099:0:0:0:0:
192,192,198009,128,0,198099:0:0:0:0:
448,192,198099,128,0,198280:0:0:0:0:
320,192,198099,1,0,0:0:0:0:
64,192,198190,128,0,198371:0:0:0:0:
320,192,198280,128,0,198371:0:0:0:0:
192,192,198371,128,0,198461:0:0:0:0:
448,192,198371,1,0,0:0:0:0:
320,192,198461,1,0,0:0:0:0:
64,192,198461,128,0,198642:0:0:0:0:
320,192,198551,128,0,198642:0:0:0:0:
192,192,198551,1,0,0:0:0:0:
448,192,198642,1,0,0:0:0:0:
320,192,198732,128,0,198822:0:0:0:0:
192,192,198732,1,0,0:0:0:0:
448,192,198822,1,0,0:0:0:0:
64,192,198822,1,0,0:0:0:0:
320,192,198913,1,0,0:0:0:0:
64,192,198913,128,0,199093:0:0:0:0:
448,192,199003,128,0,199184:0:0:0:0:
192,192,199003,1,0,0:0:0:0:
320,192,199093,128,0,199274:0:0:0:0:
64,192,199184,1,0,0:0:0:0:
192,192,199184,128,0,199364:0:0:0:0:
448,192,199274,128,0,199364:0:0:0:0:
320,192,199364,128,0,199545:0:0:0:0:
64,192,199364,1,0,0:0:0:0:
448,192,199455,128,0,199545:0:0:0:0:
64,192,199545,128,0,199726:0:0:0:0:
192,192,199545,1,0,0:0:0:0:
320,192,199636,128,0,199816:0:0:0:0:
192,192,199726,128,0,199816:0:0:0:0:
448,192,199816,128,0,199907:0:0:0:0:
64,192,199816,1,0,0:0:0:0:
192,192,199907,1,0,0:0:0:0:
320,192,199907,128,0,200087:0:0:0:0:
192,192,199997,128,0,200087:0:0:0:0:
448,192,199997,1,0,0:0:0:0:
64,192,200087,1,0,0:0:0:0:
192,192,200178,128,0,200268:0:0:0:0:
448,192,200178,1,0,0:0:0:0:
64,192,200268,1,0,0:0:0:0:
320,192,200268,1,0,0:0:0:0:
192,192,200358,1,0,0:0:0:0:
320,192,200358,128,0,200539:0:0:0:0:
64,192,200449,128,0,200630:0:0:0:0:
448,192,200449,1,0,0:0:0:0:
192,192,200539,128,0,200720:0:0:0:0:
320,192,200630,1,0,0:0:0:0:
448,192,200630,128,0,200810:0:0:0:0:
64,192,200720,128,0,200901:0:0:0:0:
320,192,200810,128,0,200901:0:0:0:0:
192,192,200901,1,0,0:0:0:0:
448,192,200901,128,0,200991:0:0:0:0:
192,192,200991,1,0,0:0:0:0:
320,192,200991,1,0,0:0:0:0:
320,192,201081,128,0,201172:0:0:0:0:
448,192,201172,128,0,201262:0:0:0:0:
64,192,201172,1,0,0:0:0:0:
64,192,201262,128,0,201352:0:0:0:0:
448,192,201352,1,0,0:0:0:0:
192,192,201352,128,0,201533:0:0:0:0:
448,192,201443,128,0,201533:0:0:0:0:
64,192,201443,1,0,0:0:0:0:
320,192,201533,1,0,0:0:0:0:
64,192,201624,1,0,0:0:0:0:
192,192,201624,1,0,0:0:0:0:
320,192,201714,1,0,0:0:0:0:
448,192,201714,1,0,0:0:0:0:
64,192,201714,128,0,201804:0:0:0:0:
448,192,201804,1,0,0:0:0:0:
192,192,201895,1,0,0:0:0:0:
320,192,201985,1,0,0:0:0:0:
448,192,201985,1,0,0:0:0:0:
64,192,201985,128,0,202075:0:0:0:0:
320,192,202075,1,0,0:0:0:0:
64,192,202166,1,0,0:0:0:0:
192,192,202256,1,0,0:0:0:0:
448,192,202256,128,0,202346:0:0:0:0:
320,192,202346,1,0,0:0:0:0:
64,192,202437,1,0,0:0:0:0:
192,192,202437,1,0,0:0:0:0:
448,192,202437,1,0,0:0:0:0:
320,192,202482,1,0,0:0:0:0:
192,192,202527,1,0,0:0:0:0:
320,192,202572,1,0,0:0:0:0:
64,192,202618,1,0,0:0:0:0:
448,192,202708,1,0,0:0:0:0:
64,192,202708,1,0,0:0:0:0:
192,192,202798,1,0,0:0:0:0:
448,192,202798,128,0,202889:0:0:0:0:
192,192,202889,128,0,202979:0:0:0:0:
320,192,202979,1,0,0:0:0:0:
448,192,202979,1,0,0:0:0:0:
192,192,203069,128,0,203160:0:0:0:0:
320,192,203160,1,0,0:0:0:0:
448,192,203160,1,0,0:0:0:0:
64,192,203160,1,0,0:0:0:0:
320,192,203250,128,0,203431:0:0:0:0:
64,192,203340,1,0,0:0:0:0:
192,192,203340,128,0,203431:0:0:0:0:
448,192,203431,128,0,203611:0:0:0:0:
192,192,203521,1,0,0:0:0:0:
64,192,203521,1,0,0:0:0:0:
320,192,203521,1,0,0:0:0:0:
64,192,203611,128,0,203792:0:0:0:0:
448,192,203702,1,0,0:0:0:0:
192,192,203702,128,0,203792:0:0:0:0:
320,192,203792,128,0,203883:0:0:0:0:
448,192,203883,1,0,0:0:0:0:
64,192,203883,1,0,0:0:0:0:
192,192,203883,1,0,0:0:0:0:
192,192,203973,128,0,204063:0:0:0:0:
320,192,204063,128,0,204154:0:0:0:0:
448,192,204063,1,0,0:0:0:0:
64,192,204154,128,0,204244:0:0:0:0:
448,192,204244,1,0,0:0:0:0:
320,192,204244,1,0,0:0:0:0:
192,192,204244,128,0,204334:0:0:0:0:
448,192,204334,128,0,204425:0:0:0:0:
192,192,204425,1,0,0:0:0:0:
64,192,204425,1,0,0:0:0:0:
448,192,204515,128,0,204605:0:0:0:0:
192,192,204605,1,0,0:0:0:0:
64,192,204605,1,0,0:0:0:0:
320,192,204605,1,0,0:0:0:0:
192,192,204696,128,0,204846:0:0:0:0:
448,192,204786,128,0,204907:0:0:0:0:
320,192,204786,1,0,0:0:0:0:
64,192,204846,128,0,204967:0:0:0:0:
320,192,204907,128,0,205057:0:0:0:0:
448,192,204967,1,0,0:0:0:0:
192,192,204967,128,0,205102:0:0:0:0:
64,192,205057,128,0,205148:0:0:0:0:
320,192,205148,1,0,0:0:0:0:
448,192,205148,1,0,0:0:0:0:
192,192,205193,1,0,0:0:0:0:
320,192,205238,1,0,0:0:0:0:
192,192,205283,1,0,0:0:0:0:
448,192,205328,1,0,0:0:0:0:
448,192,205419,1,0,0:0:0:0:
192,192,205419,1,0,0:0:0:0:
64,192,205419,1,0,0:0:0:0:
320,192,205509,128,0,205599:0:0:0:0:
192,192,205599,1,0,0:0:0:0:
64,192,205599,1,0,0:0:0:0:
448,192,205690,1,0,0:0:0:0:
320,192,205690,1,0,0:0:0:0:
192,192,205690,128,0,205780:0:0:0:0:
448,192,205780,128,0,205871:0:0:0:0:
320,192,205871,1,0,0:0:0:0:
64,192,205871,1,0,0:0:0:0:
192,192,205871,1,0,0:0:0:0:
64,192,205961,128,0,206051:0:0:0:0:
192,192,206051,1,0,0:0:0:0:
320,192,206051,1,0,0:0:0:0:
448,192,206051,1,0,0:0:0:0:
320,192,206142,128,0,206322:0:0:0:0:
64,192,206232,128,0,206322:0:0:0:0:
192,192,206232,1,0,0:0:0:0:
448,192,206322,128,0,206413:0:0:0:0:
192,192,206413,1,0,0:0:0:0:
64,192,206413,1,0,0:0:0:0:
320,192,206413,128,0,206593:0:0:0:0:
192,192,206503,128,0,206684:0:0:0:0:
64,192,206593,1,0,0:0:0:0:
448,192,206593,128,0,206684:0:0:0:0:
320,192,206684,128,0,206774:0:0:0:0:
192,192,206774,1,0,0:0:0:0:
448,192,206774,1,0,0:0:0:0:
64,192,206774,1,0,0:0:0:0:
64,192,206864,128,0,207045:0:0:0:0:
448,192,206955,1,0,0:0:0:0:
320,192,206955,128,0,207045:0:0:0:0:
192,192,207045,1,0,0:0:0:0:
320,192,207136,1,0,0:0:0:0:
448,192,207136,1,0,0:0:0:0:
64,192,207136,128,0,207226:0:0:0:0:
448,192,207226,128,0,207316:0:0:0:0:
192,192,207316,1,0,0:0:0:0:
64,192,207316,1,0,0:0:0:0:
448,192,207407,128,0,207497:0:0:0:0:
64,192,207497,1,0,0:0:0:0:
192,192,207497,1,0,0:0:0:0:
320,192,207497,1,0,0:0:0:0:
192,192,207587,128,0,207678:0:0:0:0:
64,192,207678,128,0,207768:0:0:0:0:
320,192,207768,1,0,0:0:0:0:
448,192,207768,1,0,0:0:0:0:
192,192,207768,128,0,207858:0:0:0:0:
320,192,207858,1,0,0:0:0:0:
64,192,207904,1,0,0:0:0:0:
192,192,207949,1,0,0:0:0:0:
448,192,207994,1,0,0:0:0:0:
320,192,208039,1,0,0:0:0:0:
64,192,208039,1,0,0:0:0:0:
64,192,208130,1,0,0:0:0:0:
192,192,208220,1,0,0:0:0:0:
320,192,208220,1,0,0:0:0:0:
448,192,208220,1,0,0:0:0:0:
448,192,208310,1,0,0:0:0:0:
192,192,208401,1,0,0:0:0:0:
64,192,208491,1,0,0:0:0:0:
320,192,208491,1,0,0:0:0:0:
448,192,208491,1,0,0:0:0:0:
320,192,208581,1,0,0:0:0:0:
64,192,208672,1,0,0:0:0:0:
192,192,208762,1,0,0:0:0:0:
320,192,208762,1,0,0:0:0:0:
448,192,208762,1,0,0:0:0:0:
448,192,208852,1,0,0:0:0:0:
192,192,208943,1,0,0:0:0:0:
64,192,209033,1,0,0:0:0:0:
320,192,209033,1,0,0:0:0:0:
448,192,209033,1,0,0:0:0:0:
320,192,209124,1,0,0:0:0:0:
64,192,209214,1,0,0:0:0:0:
192,192,209304,1,0,0:0:0:0:
448,192,209304,1,0,0:0:0:0:
192,192,209395,1,0,0:0:0:0:
64,192,209485,1,0,0:0:0:0:
448,192,209485,1,0,0:0:0:0:
448,192,209575,1,0,0:0:0:0:
320,192,209666,1,0,0:0:0:0:
192,192,209666,1,0,0:0:0:0:
64,192,209666,1,0,0:0:0:0:
64,192,209756,1,0,0:0:0:0:
320,192,209846,1,0,0:0:0:0:
448,192,209937,1,0,0:0:0:0:
192,192,209937,1,0,0:0:0:0:
64,192,209937,1,0,0:0:0:0:
192,192,210027,1,0,0:0:0:0:
448,192,210118,1,0,0:0:0:0:
320,192,210208,1,0,0:0:0:0:
192,192,210208,1,0,0:0:0:0:
64,192,210208,1,0,0:0:0:0:
64,192,210298,1,0,0:0:0:0:
320,192,210389,1,0,0:0:0:0:
448,192,210479,1,0,0:0:0:0:
192,192,210479,1,0,0:0:0:0:
64,192,210479,1,0,0:0:0:0:
192,192,210569,1,0,0:0:0:0:
448,192,210660,1,0,0:0:0:0:
320,192,210750,1,0,0:0:0:0:
64,192,210750,1,0,0:0:0:0:
192,192,210840,1,0,0:0:0:0:
448,192,210931,1,0,0:0:0:0:
64,192,210976,1,0,0:0:0:0:
448,192,211021,1,0,0:0:0:0:
64,192,211066,1,0,0:0:0:0:
192,192,211111,1,0,0:0:0:0:
320,192,211111,1,0,0:0:0:0:
448,192,211202,128,0,211292:0:0:0:0:
192,192,211292,128,0,211383:0:0:0:0:
320,192,211383,128,0,211473:0:0:0:0:
64,192,211473,128,0,211563:0:0:0:0:
192,192,211563,128,0,211654:0:0:0:0:
448,192,211654,128,0,211834:0:0:0:0:
192,192,211744,128,0,211834:0:0:0:0:
192,192,211925,128,0,212015:0:0:0:0:
320,192,212105,128,0,212467:0:0:0:0:
64,192,212196,128,0,212467:0:0:0:0:
448,192,212286,128,0,212377:0:0:0:0:
192,192,212377,128,0,212467:0:0:0:0:
448,192,212467,128,0,212557:0:0:0:0:
64,192,212557,1,0,0:0:0:0:
192,192,212557,1,0,0:0:0:0:
320,192,212602,1,0,0:0:0:0:
192,192,212648,1,0,0:0:0:0:
64,192,212648,1,0,0:0:0:0:
320,192,212738,1,0,0:0:0:0:
448,192,212738,1,0,0:0:0:0:
64,192,212828,1,0,0:0:0:0:
448,192,212828,1,0,0:0:0:0:
320,192,212919,1,0,0:0:0:0:
64,192,212919,1,0,0:0:0:0:
192,192,213009,1,0,0:0:0:0:
320,192,213009,1,0,0:0:0:0:
448,192,213099,1,0,0:0:0:0:
64,192,213190,1,0,0:0:0:0:
192,192,213190,1,0,0:0:0:0:
320,192,213190,1,0,0:0:0:0:
192,192,213280,1,0,0:0:0:0:
64,192,213371,1,0,0:0:0:0:
320,192,213371,1,0,0:0:0:0:
448,192,213371,1,0,0:0:0:0:
320,192,213461,1,0,0:0:0:0:
192,192,213551,128,0,213732:0:0:0:0:
64,192,213551,128,0,213642:0:0:0:0:
448,192,213642,128,0,213913:0:0:0:0:
64,192,213732,128,0,213913:0:0:0:0:
320,192,213822,128,0,213913:0:0:0:0:
192,192,213913,128,0,214003:0:0:0:0:
448,192,214003,5,0,0:0:0:0:
64,192,214003,1,0,0:0:0:0:
320,192,214003,1,0,0:0:0:0:
448,192,214093,128,0,214274:0:0:0:0:
64,192,214184,128,0,214274:0:0:0:0:
320,192,214274,128,0,214364:0:0:0:0:
192,192,214319,1,0,0:0:0:0:
448,192,214364,128,0,214545:0:0:0:0:
64,192,214364,1,0,0:0:0:0:
320,192,214455,1,0,0:0:0:0:
64,192,214455,128,0,214545:0:0:0:0:
192,192,214545,1,0,0:0:0:0:
320,192,214636,1,0,0:0:0:0:
64,192,214636,128,0,214726:0:0:0:0:
448,192,214726,1,0,0:0:0:0:
192,192,214726,1,0,0:0:0:0:
448,192,214816,128,0,214997:0:0:0:0:
64,192,214816,1,0,0:0:0:0:
320,192,214907,128,0,214997:0:0:0:0:
192,192,214997,1,0,0:0:0:0:
64,192,214997,128,0,215268:0:0:0:0:
448,192,215087,1,0,0:0:0:0:
320,192,215087,1,0,0:0:0:0:
320,192,215178,128,0,215358:0:0:0:0:
192,192,215268,128,0,215449:0:0:0:0:
448,192,215268,1,0,0:0:0:0:
64,192,215358,128,0,215449:0:0:0:0:
448,192,215449,128,0,215630:0:0:0:0:
64,192,215539,128,0,215720:0:0:0:0:
320,192,215630,128,0,215720:0:0:0:0:
192,192,215720,128,0,215810:0:0:0:0:
64,192,215810,128,0,215991:0:0:0:0:
320,192,215901,128,0,215991:0:0:0:0:
448,192,216081,1,0,0:0:0:0:
320,192,216081,128,0,216172:0:0:0:0:
64,192,216262,128,0,216714:0:0:0:0:
320,192,216262,1,0,0:0:0:0:
192,192,216352,128,0,216443:0:0:0:0:
448,192,216413,128,0,216533:0:0:0:0:
320,192,216473,128,0,216624:0:0:0:0:
192,192,216533,128,0,216804:0:0:0:0:
448,192,216624,128,0,216714:0:0:0:0:
320,192,216714,128,0,216804:0:0:0:0:
64,192,216804,128,0,216895:0:0:0:0:
448,192,216895,1,0,0:0:0:0:
320,192,216895,1,0,0:0:0:0:
192,192,216895,1,0,0:0:0:0:
320,192,216985,128,0,217166:0:0:0:0:
192,192,217075,128,0,217166:0:0:0:0:
64,192,217166,1,0,0:0:0:0:
448,192,217166,128,0,217256:0:0:0:0:
320,192,217256,128,0,217437:0:0:0:0:
192,192,217256,1,0,0:0:0:0:
448,192,217346,1,0,0:0:0:0:
192,192,217346,128,0,217437:0:0:0:0:
64,192,217437,1,0,0:0:0:0:
448,192,217527,1,0,0:0:0:0:
192,192,217527,128,0,217618:0:0:0:0:
320,192,217618,1,0,0:0:0:0:
64,192,217618,1,0,0:0:0:0:
320,192,217708,128,0,217889:0:0:0:0:
192,192,217708,1,0,0:0:0:0:
448,192,217798,1,0,0:0:0:0:
64,192,217798,128,0,217979:0:0:0:0:
192,192,217889,128,0,218069:0:0:0:0:
448,192,217979,128,0,218160:0:0:0:0:
320,192,217979,1,0,0:0:0:0:
64,192,218069,128,0,218160:0:0:0:0:
320,192,218160,1,0,0:0:0:0:
192,192,218160,128,0,218340:0:0:0:0:
64,192,218250,128,0,218340:0:0:0:0:
320,192,218340,128,0,218521:0:0:0:0:
192,192,218431,128,0,218611:0:0:0:0:
448,192,218521,128,0,218611:0:0:0:0:
64,192,218611,128,0,218702:0:0:0:0:
192,192,218702,128,0,218883:0:0:0:0:
448,192,218792,128,0,218883:0:0:0:0:
64,192,218973,1,0,0:0:0:0:
448,192,218973,128,0,219063:0:0:0:0:
320,192,219154,128,0,219425:0:0:0:0:
192,192,219244,1,0,0:0:0:0:
64,192,219244,128,0,219425:0:0:0:0:
448,192,219334,128,0,219605:0:0:0:0:
192,192,219425,128,0,219696:0:0:0:0:
64,192,219515,128,0,219696:0:0:0:0:
320,192,219605,128,0,219786:0:0:0:0:
448,192,219696,128,0,219786:0:0:0:0:
64,192,219786,5,0,0:0:0:0:
192,192,219786,1,0,0:0:0:0:
64,192,219967,1,0,0:0:0:0:
192,192,219967,1,0,0:0:0:0:
64,192,220148,128,0,220328:0:0:0:0:
448,192,220148,1,0,0:0:0:0:
320,192,220148,1,0,0:0:0:0:
192,192,220238,1,0,0:0:0:0:
448,192,220238,128,0,220328:0:0:0:0:
320,192,220328,1,0,0:0:0:0:
192,192,220419,1,0,0:0:0:0:
448,192,220419,128,0,220509:0:0:0:0:
64,192,220509,1,0,0:0:0:0:
320,192,220509,1,0,0:0:0:0:
64,192,220599,128,0,220780:0:0:0:0:
448,192,220599,1,0,0:0:0:0:
192,192,220690,1,0,0:0:0:0:
320,192,220690,128,0,220871:0:0:0:0:
448,192,220780,128,0,220961:0:0:0:0:
192,192,220871,128,0,221051:0:0:0:0:
64,192,220871,1,0,0:0:0:0:
320,192,220961,128,0,221051:0:0:0:0:
448,192,221051,128,0,221232:0:0:0:0:
64,192,221051,1,0,0:0:0:0:
320,192,221142,128,0,221232:0:0:0:0:
192,192,221232,1,0,0:0:0:0:
64,192,221232,128,0,221413:0:0:0:0:
448,192,221322,128,0,221503:0:0:0:0:
192,192,221413,128,0,221503:0:0:0:0:
64,192,221503,1,0,0:0:0:0:
320,192,221503,128,0,221593:0:0:0:0:
448,192,221593,128,0,221774:0:0:0:0:
192,192,221593,1,0,0:0:0:0:
320,192,221684,1,0,0:0:0:0:
192,192,221684,128,0,221774:0:0:0:0:
64,192,221774,1,0,0:0:0:0:
192,192,221864,1,0,0:0:0:0:
320,192,221864,1,0,0:0:0:0:
448,192,221955,1,0,0:0:0:0:
192,192,221955,1,0,0:0:0:0:
448,192,222045,128,0,222136:0:0:0:0:
320,192,222136,1,0,0:0:0:0:
64,192,222136,1,0,0:0:0:0:
64,192,222226,128,0,222316:0:0:0:0:
448,192,222316,1,0,0:0:0:0:
320,192,222316,1,0,0:0:0:0:
320,192,222407,128,0,222497:0:0:0:0:
64,192,222497,1,0,0:0:0:0:
192,192,222497,1,0,0:0:0:0:
192,192,222587,128,0,222678:0:0:0:0:
448,192,222678,1,0,0:0:0:0:
320,192,222678,1,0,0:0:0:0:
448,192,222768,1,0,0:0:0:0:
64,192,222768,1,0,0:0:0:0:
448,192,222858,128,0,223039:0:0:0:0:
192,192,222858,1,0,0:0:0:0:
64,192,222949,128,0,223039:0:0:0:0:
192,192,223039,128,0,223220:0:0:0:0:
320,192,223039,1,0,0:0:0:0:
64,192,223130,1,0,0:0:0:0:
320,192,223130,128,0,223220:0:0:0:0:
448,192,223220,1,0,0:0:0:0:
320,192,223310,128,0,223401:0:0:0:0:
64,192,223401,1,0,0:0:0:0:
192,192,223401,1,0,0:0:0:0:
320,192,223491,1,0,0:0:0:0:
64,192,223491,1,0,0:0:0:0:
64,192,223581,1,0,0:0:0:0:
448,192,223581,128,0,223762:0:0:0:0:
320,192,223672,128,0,223852:0:0:0:0:
64,192,223762,128,0,223943:0:0:0:0:
192,192,223762,1,0,0:0:0:0:
448,192,223852,128,0,224033:0:0:0:0:
192,192,223943,128,0,224124:0:0:0:0:
320,192,223943,1,0,0:0:0:0:
64,192,224033,128,0,224124:0:0:0:0:
320,192,224124,1,0,0:0:0:0:
448,192,224124,1,0,0:0:0:0:
192,192,224214,1,0,0:0:0:0:
64,192,224214,1,0,0:0:0:0:
448,192,224214,128,0,224395:0:0:0:0:
320,192,224304,128,0,224395:0:0:0:0:
192,192,224395,128,0,224485:0:0:0:0:
64,192,224485,1,0,0:0:0:0:
448,192,224485,1,0,0:0:0:0:
320,192,224485,128,0,224666:0:0:0:0:
64,192,224575,128,0,224666:0:0:0:0:
64,192,224756,1,0,0:0:0:0:
320,192,224756,128,0,224846:0:0:0:0:
192,192,224756,128,0,224937:0:0:0:0:
320,192,224937,128,0,225027:0:0:0:0:
192,192,225027,1,0,0:0:0:0:
448,192,225027,1,0,0:0:0:0:
64,192,225027,128,0,225208:0:0:0:0:
448,192,225118,128,0,225298:0:0:0:0:
192,192,225208,128,0,225298:0:0:0:0:
64,192,225298,1,0,0:0:0:0:
320,192,225298,128,0,225479:0:0:0:0:
64,192,225389,1,0,0:0:0:0:
448,192,225389,128,0,225479:0:0:0:0:
192,192,225479,128,0,225569:0:0:0:0:
448,192,225569,1,0,0:0:0:0:
320,192,225569,1,0,0:0:0:0:
64,192,225569,1,0,0:0:0:0:
448,192,225660,128,0,225840:0:0:0:0:
192,192,225750,128,0,225840:0:0:0:0:
64,192,225840,128,0,225931:0:0:0:0:
320,192,225931,1,0,0:0:0:0:
448,192,225931,1,0,0:0:0:0:
192,192,225931,128,0,226021:0:0:0:0:
320,192,226021,128,0,226111:0:0:0:0:
192,192,226111,1,0,0:0:0:0:
64,192,226111,1,0,0:0:0:0:
320,192,226202,128,0,226292:0:0:0:0:
192,192,226292,1,0,0:0:0:0:
64,192,226292,1,0,0:0:0:0:
448,192,226292,1,0,0:0:0:0:
192,192,226383,128,0,226563:0:0:0:0:
448,192,226473,1,0,0:0:0:0:
320,192,226473,128,0,226563:0:0:0:0:
64,192,226563,128,0,226744:0:0:0:0:
320,192,226654,1,0,0:0:0:0:
448,192,226654,1,0,0:0:0:0:
192,192,226654,1,0,0:0:0:0:
448,192,226744,128,0,226925:0:0:0:0:
64,192,226834,1,0,0:0:0:0:
320,192,226834,128,0,227015:0:0:0:0:
192,192,226925,128,0,227015:0:0:0:0:
64,192,227015,128,0,227196:0:0:0:0:
448,192,227105,128,0,227286:0:0:0:0:
192,192,227196,128,0,227286:0:0:0:0:
320,192,227286,128,0,227377:0:0:0:0:
448,192,227377,128,0,227557:0:0:0:0:
192,192,227467,128,0,227557:0:0:0:0:
192,192,227648,128,0,227738:0:0:0:0:
448,192,227828,128,0,228190:0:0:0:0:
192,192,227828,1,0,0:0:0:0:
320,192,227919,128,0,228009:0:0:0:0:
64,192,227979,128,0,228099:0:0:0:0:
192,192,228039,128,0,228280:0:0:0:0:
320,192,228099,128,0,228371:0:0:0:0:
64,192,228190,128,0,228371:0:0:0:0:
448,192,228280,128,0,228371:0:0:0:0:
192,192,228371,128,0,228461:0:0:0:0:
64,192,228461,1,0,0:0:0:0:
320,192,228461,1,0,0:0:0:0:
448,192,228461,1,0,0:0:0:0:
64,192,228551,1,0,0:0:0:0:
448,192,228551,1,0,0:0:0:0:
320,192,228551,128,0,228732:0:0:0:0:
192,192,228642,128,0,228732:0:0:0:0:
448,192,228732,128,0,228822:0:0:0:0:
64,192,228822,1,0,0:0:0:0:
192,192,228822,1,0,0:0:0:0:
320,192,228822,128,0,228913:0:0:0:0:
64,192,228913,128,0,229003:0:0:0:0:
448,192,229003,1,0,0:0:0:0:
320,192,229003,1,0,0:0:0:0:
64,192,229093,128,0,229184:0:0:0:0:
320,192,229184,1,0,0:0:0:0:
192,192,229184,1,0,0:0:0:0:
448,192,229184,1,0,0:0:0:0:
320,192,229274,128,0,229455:0:0:0:0:
64,192,229364,128,0,229455:0:0:0:0:
192,192,229364,1,0,0:0:0:0:
448,192,229455,128,0,229545:0:0:0:0:
192,192,229545,1,0,0:0:0:0:
64,192,229545,1,0,0:0:0:0:
320,192,229545,128,0,229726:0:0:0:0:
192,192,229636,128,0,229816:0:0:0:0:
64,192,229726,1,0,0:0:0:0:
448,192,229726,128,0,229816:0:0:0:0:
320,192,229816,128,0,229907:0:0:0:0:
448,192,229907,1,0,0:0:0:0:
192,192,229907,128,0,229997:0:0:0:0:
448,192,229997,1,0,0:0:0:0:
64,192,230087,128,0,230178:0:0:0:0:
192,192,230178,1,0,0:0:0:0:
448,192,230268,128,0,230358:0:0:0:0:
320,192,230313,1,0,0:0:0:0:
192,192,230358,128,0,230449:0:0:0:0:
448,192,230449,1,0,0:0:0:0:
192,192,230539,128,0,230630:0:0:0:0:
64,192,230630,1,0,0:0:0:0:
320,192,230720,128,0,230810:0:0:0:0:
448,192,230810,128,0,230991:0:0:0:0:
320,192,230901,128,0,231172:0:0:0:0:
64,192,230991,128,0,231262:0:0:0:0:
448,192,231081,128,0,231262:0:0:0:0:
192,192,231172,128,0,231262:0:0:0:0:
320,192,231262,128,0,231352:0:0:0:0:
192,192,231352,1,0,0:0:0:0:
64,192,231352,1,0,0:0:0:0:
448,192,231352,128,0,231624:0:0:0:0:
64,192,231443,128,0,231624:0:0:0:0:
320,192,231533,128,0,231714:0:0:0:0:
192,192,231624,128,0,231714:0:0:0:0:
64,192,231714,128,0,231985:0:0:0:0:
448,192,231714,1,0,0:0:0:0:
448,192,231804,128,0,231985:0:0:0:0:
192,192,231895,128,0,232075:0:0:0:0:
320,192,231985,128,0,232075:0:0:0:0:
64,192,232075,1,0,0:0:0:0:
448,192,232075,128,0,232346:0:0:0:0:
64,192,232166,128,0,232346:0:0:0:0:
320,192,232256,128,0,232437:0:0:0:0:
192,192,232346,128,0,232437:0:0:0:0:
448,192,232437,1,0,0:0:0:0:
64,192,232437,128,0,232618:0:0:0:0:
448,192,232527,128,0,232708:0:0:0:0:
320,192,232618,128,0,232708:0:0:0:0:
64,192,232708,128,0,232798:0:0:0:0:
320,192,232798,1,0,0:0:0:0:
192,192,232798,128,0,233069:0:0:0:0:
320,192,232889,128,0,233069:0:0:0:0:
64,192,232979,128,0,233160:0:0:0:0:
448,192,233069,128,0,233160:0:0:0:0:
192,192,233160,1,0,0:0:0:0:
320,192,233160,128,0,233431:0:0:0:0:
192,192,233250,128,0,233431:0:0:0:0:
448,192,233340,128,0,233792:0:0:0:0:
64,192,233431,128,0,233521:0:0:0:0:
320,192,233521,1,0,0:0:0:0:
192,192,233521,128,0,233702:0:0:0:0:
320,192,233611,128,0,233792:0:0:0:0:
64,192,233702,128,0,233883:0:0:0:0:
192,192,233792,128,0,233883:0:0:0:0:
448,192,233883,1,0,0:0:0:0:
320,192,233883,1,0,0:0:0:0:
448,192,233973,1,0,0:0:0:0:
64,192,233973,1,0,0:0:0:0:
320,192,234063,1,0,0:0:0:0:
64,192,234063,1,0,0:0:0:0:
192,192,234154,1,0,0:0:0:0:
320,192,234154,1,0,0:0:0:0:
448,192,234244,1,0,0:0:0:0:
64,192,234244,1,0,0:0:0:0:
320,192,234289,1,0,0:0:0:0:
192,192,234334,1,0,0:0:0:0:
64,192,234380,1,0,0:0:0:0:
448,192,234425,1,0,0:0:0:0:
192,192,234470,1,0,0:0:0:0:
320,192,234515,1,0,0:0:0:0:
64,192,234560,1,0,0:0:0:0:
192,192,234605,1,0,0:0:0:0:
448,192,234651,1,0,0:0:0:0:
64,192,234696,1,0,0:0:0:0:
320,192,234741,1,0,0:0:0:0:
448,192,234786,1,0,0:0:0:0:
192,192,234831,1,0,0:0:0:0:
64,192,234877,1,0,0:0:0:0:
448,192,234922,1,0,0:0:0:0:
320,192,234967,1,0,0:0:0:0:
192,192,235012,1,0,0:0:0:0:
448,192,235057,1,0,0:0:0:0:
64,192,235102,1,0,0:0:0:0:
192,192,235148,1,0,0:0:0:0:
320,192,235193,1,0,0:0:0:0:
448,192,235238,1,0,0:0:0:0:
192,192,235283,1,0,0:0:0:0:
64,192,235328,1,0,0:0:0:0:
320,192,235374,1,0,0:0:0:0:
192,192,235419,1,0,0:0:0:0:
448,192,235464,1,0,0:0:0:0:
320,192,235509,1,0,0:0:0:0:
64,192,235554,1,0,0:0:0:0:
192,192,235599,1,0,0:0:0:0:
320,192,235645,1,0,0:0:0:0:
448,192,235690,128,0,236051:0:0:0:0:
64,192,235780,128,0,235961:0:0:0:0:
192,192,235871,128,0,236187:0:0:0:0:
320,192,235961,128,0,236142:0:0:0:0:
64,192,236051,128,0,236232:0:0:0:0:
448,192,236142,128,0,236322:0:0:0:0:
320,192,236232,1,0,0:0:0:0:
192,192,236277,1,0,0:0:0:0:
64,192,236322,1,0,0:0:0:0:
320,192,236368,1,0,0:0:0:0:
448,192,236413,1,0,0:0:0:0:
448,192,236503,128,0,236593:0:0:0:0:
192,192,236684,128,0,236774:0:0:0:0:
320,192,236774,1,0,0:0:0:0:
64,192,236774,128,0,236955:0:0:0:0:
448,192,236864,128,0,237045:0:0:0:0:
192,192,236955,128,0,237045:0:0:0:0:
320,192,237045,128,0,237136:0:0:0:0:
192,192,237136,1,0,0:0:0:0:
448,192,237136,1,0,0:0:0:0:
64,192,237136,1,0,0:0:0:0:
192,192,237226,1,0,0:0:0:0:
448,192,237316,1,0,0:0:0:0:
320,192,237316,1,0,0:0:0:0:
64,192,237377,1,0,0:0:0:0:
320,192,237407,1,0,0:0:0:0:
192,192,237437,1,0,0:0:0:0:
64,192,237497,1,0,0:0:0:0:
448,192,237497,1,0,0:0:0:0:
448,192,237587,1,0,0:0:0:0:
320,192,237678,1,0,0:0:0:0:
64,192,237678,1,0,0:0:0:0:
320,192,237768,1,0,0:0:0:0:
192,192,237858,1,0,0:0:0:0:
448,192,237858,1,0,0:0:0:0:
192,192,237949,1,0,0:0:0:0:
64,192,238039,1,0,0:0:0:0:
320,192,238039,1,0,0:0:0:0:
64,192,238130,1,0,0:0:0:0:
448,192,238130,1,0,0:0:0:0:
192,192,238220,1,0,0:0:0:0:
448,192,238220,1,0,0:0:0:0:
320,192,238280,1,0,0:0:0:0:
192,192,238310,1,0,0:0:0:0:
448,192,238340,1,0,0:0:0:0:
64,192,238401,1,0,0:0:0:0:
64,192,238491,1,0,0:0:0:0:
320,192,238581,1,0,0:0:0:0:
192,192,238581,1,0,0:0:0:0:
320,192,238672,1,0,0:0:0:0:
448,192,238762,1,0,0:0:0:0:
192,192,238822,1,0,0:0:0:0:
448,192,238852,1,0,0:0:0:0:
64,192,238883,1,0,0:0:0:0:
320,192,238943,1,0,0:0:0:0:
192,192,238943,1,0,0:0:0:0:
320,192,239033,1,0,0:0:0:0:
192,192,239124,1,0,0:0:0:0:
448,192,239124,1,0,0:0:0:0:
448,192,239214,1,0,0:0:0:0:
64,192,239304,1,0,0:0:0:0:
320,192,239304,1,0,0:0:0:0:
64,192,239395,1,0,0:0:0:0:
192,192,239485,1,0,0:0:0:0:
320,192,239485,1,0,0:0:0:0:
448,192,239575,1,0,0:0:0:0:
192,192,239575,1,0,0:0:0:0:
64,192,239666,1,0,0:0:0:0:
448,192,239666,1,0,0:0:0:0:
320,192,239702,1,0,0:0:0:0:
192,192,239738,1,0,0:0:0:0:
64,192,239774,1,0,0:0:0:0:
320,192,239846,1,0,0:0:0:0:
448,192,239846,1,0,0:0:0:0:
320,192,239937,1,0,0:0:0:0:
192,192,240027,1,0,0:0:0:0:
64,192,240027,1,0,0:0:0:0:
192,192,240118,1,0,0:0:0:0:
64,192,240208,1,0,0:0:0:0:
448,192,240268,1,0,0:0:0:0:
192,192,240298,1,0,0:0:0:0:
320,192,240328,1,0,0:0:0:0:
448,192,240389,1,0,0:0:0:0:
64,192,240389,1,0,0:0:0:0:
64,192,240479,1,0,0:0:0:0:
192,192,240569,1,0,0:0:0:0:
448,192,240569,1,0,0:0:0:0:
192,192,240660,1,0,0:0:0:0:
320,192,240750,1,0,0:0:0:0:
64,192,240750,1,0,0:0:0:0:
320,192,240840,1,0,0:0:0:0:
448,192,240931,1,0,0:0:0:0:
192,192,241021,1,0,0:0:0:0:
64,192,241021,1,0,0:0:0:0:
64,192,241111,1,0,0:0:0:0:
192,192,241111,1,0,0:0:0:0:
320,192,241157,1,0,0:0:0:0:
448,192,241202,1,0,0:0:0:0:
192,192,241292,1,0,0:0:0:0:
320,192,241292,1,0,0:0:0:0:
64,192,241337,1,0,0:0:0:0:
448,192,241383,1,0,0:0:0:0:
192,192,241428,1,0,0:0:0:0:
320,192,241473,1,0,0:0:0:0:
448,192,241518,1,0,0:0:0:0:
192,192,241563,1,0,0:0:0:0:
64,192,241563,1,0,0:0:0:0:
320,192,241654,1,0,0:0:0:0:
448,192,241654,1,0,0:0:0:0:
64,192,241654,1,0,0:0:0:0:
320,192,241744,1,0,0:0:0:0:
192,192,241834,1,0,0:0:0:0:
448,192,241925,1,0,0:0:0:0:
320,192,241970,1,0,0:0:0:0:
192,192,242015,1,0,0:0:0:0:
64,192,242015,1,0,0:0:0:0:
448,192,242015,1,0,0:0:0:0:
192,192,242105,1,0,0:0:0:0:
320,192,242196,1,0,0:0:0:0:
448,192,242196,1,0,0:0:0:0:
64,192,242196,128,0,242264:0:0:0:0:
320,192,242286,1,0,0:0:0:0:
64,192,242331,128,0,242399:0:0:0:0:
448,192,242377,1,0,0:0:0:0:
64,192,242467,128,0,242557:0:0:0:0:
192,192,242467,128,0,242738:0:0:0:0:
448,192,242467,128,0,242738:0:0:0:0:
320,192,242738,1,0,0:0:0:0:
192,192,242828,1,0,0:0:0:0:
448,192,242919,1,0,0:0:0:0:
320,192,242919,1,0,0:0:0:0:
64,192,243009,1,0,0:0:0:0:
448,192,243009,1,0,0:0:0:0:
320,192,243099,1,0,0:0:0:0:
64,192,243099,1,0,0:0:0:0:
192,192,243190,1,0,0:0:0:0:
320,192,243190,1,0,0:0:0:0:
64,192,243280,1,0,0:0:0:0:
448,192,243280,1,0,0:0:0:0:
64,192,243371,1,0,0:0:0:0:
192,192,243461,1,0,0:0:0:0:
448,192,243461,1,0,0:0:0:0:
192,192,243551,1,0,0:0:0:0:
320,192,243642,1,0,0:0:0:0:
64,192,243642,1,0,0:0:0:0:
320,192,243732,1,0,0:0:0:0:
448,192,243822,1,0,0:0:0:0:
192,192,243822,1,0,0:0:0:0:
448,192,243913,1,0,0:0:0:0:
64,192,243913,1,0,0:0:0:0:
64,192,244003,1,0,0:0:0:0:
320,192,244003,1,0,0:0:0:0:
192,192,244048,1,0,0:0:0:0:
448,192,244093,1,0,0:0:0:0:
64,192,244139,1,0,0:0:0:0:
320,192,244184,1,0,0:0:0:0:
192,192,244244,1,0,0:0:0:0:
64,192,244304,1,0,0:0:0:0:
448,192,244364,1,0,0:0:0:0:
320,192,244364,1,0,0:0:0:0:
448,192,244455,1,0,0:0:0:0:
192,192,244455,1,0,0:0:0:0:
64,192,244545,1,0,0:0:0:0:
448,192,244545,1,0,0:0:0:0:
64,192,244636,1,0,0:0:0:0:
320,192,244681,1,0,0:0:0:0:
448,192,244726,1,0,0:0:0:0:
192,192,244726,1,0,0:0:0:0:
64,192,244771,1,0,0:0:0:0:
448,192,244816,1,0,0:0:0:0:
192,192,244861,1,0,0:0:0:0:
320,192,244907,1,0,0:0:0:0:
64,192,244952,1,0,0:0:0:0:
320,192,244997,1,0,0:0:0:0:
192,192,245042,1,0,0:0:0:0:
448,192,245087,1,0,0:0:0:0:
64,192,245087,1,0,0:0:0:0:
448,192,245178,1,0,0:0:0:0:
320,192,245268,1,0,0:0:0:0:
192,192,245358,1,0,0:0:0:0:
64,192,245358,1,0,0:0:0:0:
320,192,245449,1,0,0:0:0:0:
448,192,245449,1,0,0:0:0:0:
64,192,245449,1,0,0:0:0:0:
320,192,245539,1,0,0:0:0:0:
192,192,245630,1,0,0:0:0:0:
448,192,245630,1,0,0:0:0:0:
192,192,245720,1,0,0:0:0:0:
64,192,245810,1,0,0:0:0:0:
320,192,245810,1,0,0:0:0:0:
448,192,245810,1,0,0:0:0:0:
320,192,245901,1,0,0:0:0:0:
448,192,245901,1,0,0:0:0:0:
64,192,245991,128,0,246081:0:0:0:0:
320,192,246081,1,0,0:0:0:0:
448,192,246081,1,0,0:0:0:0:
320,192,246172,128,0,246262:0:0:0:0:
192,192,246262,1,0,0:0:0:0:
64,192,246262,1,0,0:0:0:0:
192,192,246352,128,0,246443:0:0:0:0:
448,192,246443,1,0,0:0:0:0:
320,192,246488,1,0,0:0:0:0:
192,192,246533,1,0,0:0:0:0:
64,192,246533,1,0,0:0:0:0:
448,192,246533,1,0,0:0:0:0:
64,192,246624,1,0,0:0:0:0:
192,192,246624,1,0,0:0:0:0:
448,192,246714,128,0,246804:0:0:0:0:
192,192,246804,1,0,0:0:0:0:
64,192,246804,1,0,0:0:0:0:
192,192,246895,128,0,246985:0:0:0:0:
320,192,246985,1,0,0:0:0:0:
448,192,246985,1,0,0:0:0:0:
320,192,247075,128,0,247166:0:0:0:0:
64,192,247166,1,0,0:0:0:0:
192,192,247211,1,0,0:0:0:0:
64,192,247256,128,0,247437:0:0:0:0:
448,192,247256,128,0,247377:0:0:0:0:
320,192,247316,128,0,247497:0:0:0:0:
192,192,247377,128,0,247557:0:0:0:0:
448,192,247437,128,0,247557:0:0:0:0:
64,192,247497,128,0,247618:0:0:0:0:
320,192,247557,1,0,0:0:0:0:
448,192,247618,1,0,0:0:0:0:
192,192,247618,128,0,247798:0:0:0:0:
448,192,247708,1,0,0:0:0:0:
64,192,247798,128,0,247979:0:0:0:0:
448,192,247889,1,0,0:0:0:0:
192,192,247979,128,0,248069:0:0:0:0:
320,192,247979,128,0,248160:0:0:0:0:
64,192,248069,128,0,248160:0:0:0:0:
64,192,248250,128,0,248431:0:0:0:0:
448,192,248340,128,0,248702:0:0:0:0:
320,192,248340,128,0,248521:0:0:0:0:
192,192,248521,128,0,248702:0:0:0:0:
320,192,248611,128,0,248792:0:0:0:0:
64,192,248792,1,0,0:0:0:0:
192,192,248792,1,0,0:0:0:0:
448,192,248792,1,0,0:0:0:0:
320,192,248883,1,0,0:0:0:0:
64,192,248973,1,0,0:0:0:0:
192,192,248973,1,0,0:0:0:0:
64,192,249063,1,0,0:0:0:0:
448,192,249063,1,0,0:0:0:0:
320,192,249063,1,0,0:0:0:0:
192,192,249108,1,0,0:0:0:0:
320,192,249154,1,0,0:0:0:0:
64,192,249199,1,0,0:0:0:0:
448,192,249244,1,0,0:0:0:0:
192,192,249289,1,0,0:0:0:0:
448,192,249334,1,0,0:0:0:0:
64,192,249380,1,0,0:0:0:0:
192,192,249425,1,0,0:0:0:0:
320,192,249425,1,0,0:0:0:0:
192,192,249515,1,0,0:0:0:0:
64,192,249560,1,0,0:0:0:0:
320,192,249605,1,0,0:0:0:0:
192,192,249696,1,0,0:0:0:0:
448,192,249741,1,0,0:0:0:0:
320,192,249786,1,0,0:0:0:0:
64,192,249786,1,0,0:0:0:0:
320,192,249877,1,0,0:0:0:0:
448,192,249922,1,0,0:0:0:0:
192,192,249967,1,0,0:0:0:0:
320,192,250057,1,0,0:0:0:0:
64,192,250102,1,0,0:0:0:0:
192,192,250148,1,0,0:0:0:0:
448,192,250148,1,0,0:0:0:0:
320,192,250193,1,0,0:0:0:0:
192,192,250238,1,0,0:0:0:0:
448,192,250283,1,0,0:0:0:0:
64,192,250328,1,0,0:0:0:0:
320,192,250389,1,0,0:0:0:0:
64,192,250449,1,0,0:0:0:0:
192,192,250509,1,0,0:0:0:0:
448,192,250509,1,0,0:0:0:0:
320,192,250630,1,0,0:0:0:0:
448,192,250660,1,0,0:0:0:0:
64,192,250690,1,0,0:0:0:0:
320,192,250750,1,0,0:0:0:0:
448,192,250780,1,0,0:0:0:0:
320,192,250871,1,0,0:0:0:0:
192,192,250871,1,0,0:0:0:0:
64,192,250991,1,0,0:0:0:0:
192,192,251021,1,0,0:0:0:0:
448,192,251051,1,0,0:0:0:0:
64,192,251111,1,0,0:0:0:0:
192,192,251142,1,0,0:0:0:0:
320,192,251232,128,0,251322:0:0:0:0:
448,192,251322,1,0,0:0:0:0:
192,192,251413,128,0,251503:0:0:0:0:
192,192,251593,128,0,251774:0:0:0:0:
448,192,251774,1,0,0:0:0:0:
320,192,251774,1,0,0:0:0:0:
64,192,251774,1,0,0:0:0:0:
320,192,251864,1,0,0:0:0:0:
448,192,251955,1,0,0:0:0:0:
64,192,251955,1,0,0:0:0:0:
192,192,251955,1,0,0:0:0:0:
320,192,252000,1,0,0:0:0:0:
192,192,252045,1,0,0:0:0:0:
448,192,252090,1,0,0:0:0:0:
64,192,252136,1,0,0:0:0:0:
320,192,252181,1,0,0:0:0:0:
64,192,252226,1,0,0:0:0:0:
448,192,252271,1,0,0:0:0:0:
320,192,252316,1,0,0:0:0:0:
192,192,252316,1,0,0:0:0:0:
320,192,252407,1,0,0:0:0:0:
448,192,252452,1,0,0:0:0:0:
192,192,252497,1,0,0:0:0:0:
320,192,252587,1,0,0:0:0:0:
64,192,252633,1,0,0:0:0:0:
192,192,252678,1,0,0:0:0:0:
448,192,252678,1,0,0:0:0:0:
192,192,252768,1,0,0:0:0:0:
64,192,252813,1,0,0:0:0:0:
320,192,252858,1,0,0:0:0:0:
448,192,252858,1,0,0:0:0:0:
192,192,252949,1,0,0:0:0:0:
320,192,253039,1,0,0:0:0:0:
64,192,253039,1,0,0:0:0:0:
448,192,253039,1,0,0:0:0:0:
448,192,253160,1,0,0:0:0:0:
320,192,253160,1,0,0:0:0:0:
64,192,253160,1,0,0:0:0:0:
448,192,253280,1,0,0:0:0:0:
192,192,253280,1,0,0:0:0:0:
320,192,253280,1,0,0:0:0:0:
320,192,253401,1,0,0:0:0:0:
192,192,253401,1,0,0:0:0:0:
64,192,253401,1,0,0:0:0:0:
64,192,253521,1,0,0:0:0:0:
192,192,253521,1,0,0:0:0:0:
320,192,253521,1,0,0:0:0:0:
448,192,253642,1,0,0:0:0:0:
64,192,253642,1,0,0:0:0:0:
192,192,253642,1,0,0:0:0:0:
64,192,253762,1,0,0:0:0:0:
320,192,253762,1,0,0:0:0:0:
448,192,253762,1,0,0:0:0:0:
64,192,253883,1,0,0:0:0:0:
448,192,253883,1,0,0:0:0:0:
320,192,253883,1,0,0:0:0:0:
320,192,254003,1,0,0:0:0:0:
192,192,254063,1,0,0:0:0:0:
64,192,254124,128,0,254304:0:0:0:0:
448,192,254304,1,0,0:0:0:0:
64,192,254485,1,0,0:0:0:0:
320,192,254485,1,0,0:0:0:0:
448,192,254485,1,0,0:0:0:0:
320,192,254575,1,0,0:0:0:0:
448,192,254575,1,0,0:0:0:0:
192,192,254666,1,0,0:0:0:0:
64,192,254666,1,0,0:0:0:0:
64,192,254756,1,0,0:0:0:0:
192,192,254756,1,0,0:0:0:0:
320,192,254846,1,0,0:0:0:0:
448,192,254846,1,0,0:0:0:0:
64,192,254937,1,0,0:0:0:0:
448,192,254937,1,0,0:0:0:0:
320,192,255027,1,0,0:0:0:0:
64,192,255027,1,0,0:0:0:0:
192,192,255118,1,0,0:0:0:0:
320,192,255163,1,0,0:0:0:0:
448,192,255208,1,0,0:0:0:0:
64,192,255208,1,0,0:0:0:0:
192,192,255298,1,0,0:0:0:0:
192,192,255389,1,0,0:0:0:0:
64,192,255479,1,0,0:0:0:0:
320,192,255479,1,0,0:0:0:0:
448,192,255569,1,0,0:0:0:0:
192,192,255630,1,0,0:0:0:0:
448,192,255660,1,0,0:0:0:0:
64,192,255690,1,0,0:0:0:0:
192,192,255750,1,0,0:0:0:0:
320,192,255750,1,0,0:0:0:0:
448,192,255840,1,0,0:0:0:0:
192,192,255931,1,0,0:0:0:0:
192,192,256021,1,0,0:0:0:0:
448,192,256111,1,0,0:0:0:0:
320,192,256111,1,0,0:0:0:0:
64,192,256157,1,0,0:0:0:0:
448,192,256202,1,0,0:0:0:0:
64,192,256247,1,0,0:0:0:0:
192,192,256292,1,0,0:0:0:0:
320,192,256292,1,0,0:0:0:0:
320,192,256383,1,0,0:0:0:0:
64,192,256473,1,0,0:0:0:0:
448,192,256563,1,0,0:0:0:0:
320,192,256563,1,0,0:0:0:0:
192,192,256608,1,0,0:0:0:0:
448,192,256654,1,0,0:0:0:0:
64,192,256654,1,0,0:0:0:0:
64,192,256744,1,0,0:0:0:0:
448,192,256834,1,0,0:0:0:0:
320,192,256925,1,0,0:0:0:0:
192,192,256925,1,0,0:0:0:0:
192,192,257015,1,0,0:0:0:0:
448,192,257075,1,0,0:0:0:0:
320,192,257136,1,0,0:0:0:0:
64,192,257196,1,0,0:0:0:0:
448,192,257196,1,0,0:0:0:0:
64,192,257286,1,0,0:0:0:0:
448,192,257377,1,0,0:0:0:0:
320,192,257377,1,0,0:0:0:0:
192,192,257377,128,0,257557:0:0:0:0:
448,192,257557,128,0,257738:0:0:0:0:
64,192,257618,128,0,257858:0:0:0:0:
320,192,257678,128,0,257798:0:0:0:0:
192,192,257738,128,0,258099:0:0:0:0:
448,192,257798,128,0,257919:0:0:0:0:
320,192,257858,128,0,258009:0:0:0:0:
64,192,257919,128,0,258099:0:0:0:0:
448,192,258099,128,0,258371:0:0:0:0:
192,192,258190,1,0,0:0:0:0:
192,192,258280,1,0,0:0:0:0:
320,192,258280,1,0,0:0:0:0:
64,192,258371,1,0,0:0:0:0:
448,192,258461,128,0,258702:0:0:0:0:
192,192,258521,128,0,258642:0:0:0:0:
320,192,258581,128,0,258822:0:0:0:0:
64,192,258642,128,0,258762:0:0:0:0:
192,192,258702,128,0,258943:0:0:0:0:
448,192,258762,128,0,258883:0:0:0:0:
64,192,258822,128,0,259003:0:0:0:0:
320,192,258883,128,0,259063:0:0:0:0:
448,192,258943,128,0,259154:0:0:0:0:
192,192,259003,128,0,259124:0:0:0:0:
64,192,259063,128,0,259274:0:0:0:0:
320,192,259124,128,0,259214:0:0:0:0:
192,192,259184,128,0,259395:0:0:0:0:
448,192,259244,128,0,259334:0:0:0:0:
320,192,259304,128,0,259485:0:0:0:0:
64,192,259364,128,0,259455:0:0:0:0:
448,192,259425,128,0,259545:0:0:0:0:
192,192,259485,128,0,259726:0:0:0:0:
64,192,259545,128,0,259907:0:0:0:0:
448,192,259636,1,0,0:0:0:0:
320,192,259726,1,0,0:0:0:0:
192,192,259816,1,0,0:0:0:0:
448,192,259907,1,0,0:0:0:0:
320,192,259907,128,0,260178:0:0:0:0:
64,192,259997,128,0,260178:0:0:0:0:
448,192,260087,128,0,260178:0:0:0:0:
192,192,260178,128,0,260268:0:0:0:0:
64,192,260268,1,0,0:0:0:0:
320,192,260268,1,0,0:0:0:0:
448,192,260268,1,0,0:0:0:0:
64,192,260449,1,0,0:0:0:0:
192,192,260449,1,0,0:0:0:0:
448,192,260494,1,0,0:0:0:0:
192,192,260539,1,0,0:0:0:0:
320,192,260630,1,0,0:0:0:0:
64,192,260630,1,0,0:0:0:0:
320,192,260720,1,0,0:0:0:0:
448,192,260810,1,0,0:0:0:0:
192,192,260810,1,0,0:0:0:0:
192,192,260901,1,0,0:0:0:0:
448,192,261081,1,0,0:0:0:0:
320,192,261081,1,0,0:0:0:0:
64,192,261127,1,0,0:0:0:0:
448,192,261172,1,0,0:0:0:0:
320,192,261262,1,0,0:0:0:0:
192,192,261352,1,0,0:0:0:0:
64,192,261352,1,0,0:0:0:0:
448,192,261398,1,0,0:0:0:0:
64,192,261443,1,0,0:0:0:0:
192,192,261533,1,0,0:0:0:0:
320,192,261533,1,0,0:0:0:0:
320,192,261624,1,0,0:0:0:0:
448,192,261714,1,0,0:0:0:0:
192,192,261714,1,0,0:0:0:0:
192,192,261804,1,0,0:0:0:0:
320,192,261895,1,0,0:0:0:0:
448,192,261895,1,0,0:0:0:0:
64,192,261940,1,0,0:0:0:0:
448,192,261985,1,0,0:0:0:0:
320,192,262075,1,0,0:0:0:0:
192,192,262075,1,0,0:0:0:0:
192,192,262166,1,0,0:0:0:0:
448,192,262256,1,0,0:0:0:0:
64,192,262256,1,0,0:0:0:0:
448,192,262346,1,0,0:0:0:0:
192,192,262527,1,0,0:0:0:0:
64,192,262527,1,0,0:0:0:0:
448,192,262572,1,0,0:0:0:0:
64,192,262618,1,0,0:0:0:0:
192,192,262708,1,0,0:0:0:0:
448,192,262798,1,0,0:0:0:0:
320,192,262798,1,0,0:0:0:0:
64,192,262843,1,0,0:0:0:0:
448,192,262889,1,0,0:0:0:0:
320,192,262979,128,0,263069:0:0:0:0:
64,192,263160,1,0,0:0:0:0:
192,192,263160,1,0,0:0:0:0:
448,192,263160,1,0,0:0:0:0:
448,192,263340,1,0,0:0:0:0:
320,192,263340,1,0,0:0:0:0:
64,192,263386,1,0,0:0:0:0:
320,192,263431,1,0,0:0:0:0:
192,192,263431,1,0,0:0:0:0:
448,192,263521,1,0,0:0:0:0:
64,192,263521,1,0,0:0:0:0:
448,192,263611,1,0,0:0:0:0:
192,192,263611,1,0,0:0:0:0:
192,192,263702,1,0,0:0:0:0:
320,192,263702,1,0,0:0:0:0:
320,192,263792,1,0,0:0:0:0:
64,192,263792,1,0,0:0:0:0:
64,192,263973,1,0,0:0:0:0:
192,192,263973,1,0,0:0:0:0:
448,192,264018,1,0,0:0:0:0:
64,192,264063,1,0,0:0:0:0:
320,192,264063,1,0,0:0:0:0:
192,192,264154,1,0,0:0:0:0:
320,192,264244,1,0,0:0:0:0:
448,192,264244,1,0,0:0:0:0:
64,192,264289,1,0,0:0:0:0:
448,192,264334,1,0,0:0:0:0:
192,192,264334,1,0,0:0:0:0:
320,192,264425,1,0,0:0:0:0:
64,192,264425,1,0,0:0:0:0:
320,192,264515,1,0,0:0:0:0:
192,192,264515,1,0,0:0:0:0:
448,192,264605,1,0,0:0:0:0:
192,192,264605,1,0,0:0:0:0:
448,192,264696,1,0,0:0:0:0:
192,192,264786,1,0,0:0:0:0:
64,192,264786,1,0,0:0:0:0:
448,192,264831,1,0,0:0:0:0:
320,192,264877,1,0,0:0:0:0:
192,192,264877,1,0,0:0:0:0:
64,192,264967,1,0,0:0:0:0:
448,192,264967,1,0,0:0:0:0:
64,192,265057,1,0,0:0:0:0:
320,192,265057,1,0,0:0:0:0:
192,192,265148,1,0,0:0:0:0:
320,192,265148,1,0,0:0:0:0:
192,192,265238,1,0,0:0:0:0:
448,192,265238,1,0,0:0:0:0:
320,192,265419,1,0,0:0:0:0:
448,192,265419,1,0,0:0:0:0:
64,192,265464,1,0,0:0:0:0:
192,192,265509,1,0,0:0:0:0:
448,192,265509,1,0,0:0:0:0:
320,192,265599,1,0,0:0:0:0:
64,192,265690,1,0,0:0:0:0:
192,192,265690,1,0,0:0:0:0:
448,192,265690,1,0,0:0:0:0:
64,192,265871,1,0,0:0:0:0:
320,192,265871,1,0,0:0:0:0:
448,192,265871,1,0,0:0:0:0:
64,192,266051,1,0,0:0:0:0:
192,192,266051,1,0,0:0:0:0:
320,192,266051,1,0,0:0:0:0:
448,192,266232,1,0,0:0:0:0:
320,192,266232,1,0,0:0:0:0:
64,192,266277,1,0,0:0:0:0:
320,192,266322,1,0,0:0:0:0:
192,192,266413,1,0,0:0:0:0:
448,192,266413,1,0,0:0:0:0:
192,192,266503,1,0,0:0:0:0:
64,192,266593,1,0,0:0:0:0:
320,192,266593,1,0,0:0:0:0:
320,192,266684,1,0,0:0:0:0:
64,192,266864,1,0,0:0:0:0:
192,192,266864,1,0,0:0:0:0:
448,192,266910,1,0,0:0:0:0:
64,192,266955,1,0,0:0:0:0:
192,192,267045,1,0,0:0:0:0:
320,192,267136,1,0,0:0:0:0:
448,192,267136,1,0,0:0:0:0:
64,192,267181,1,0,0:0:0:0:
448,192,267226,1,0,0:0:0:0:
320,192,267316,1,0,0:0:0:0:
192,192,267316,1,0,0:0:0:0:
192,192,267407,1,0,0:0:0:0:
320,192,267497,1,0,0:0:0:0:
448,192,267497,1,0,0:0:0:0:
192,192,267678,1,0,0:0:0:0:
64,192,267678,1,0,0:0:0:0:
448,192,267723,1,0,0:0:0:0:
320,192,267768,1,0,0:0:0:0:
192,192,267768,1,0,0:0:0:0:
64,192,267858,1,0,0:0:0:0:
448,192,267858,1,0,0:0:0:0:
64,192,267949,1,0,0:0:0:0:
320,192,267949,1,0,0:0:0:0:
192,192,268039,1,0,0:0:0:0:
320,192,268039,1,0,0:0:0:0:
192,192,268130,1,0,0:0:0:0:
448,192,268130,1,0,0:0:0:0:
320,192,268310,1,0,0:0:0:0:
448,192,268310,1,0,0:0:0:0:
64,192,268355,1,0,0:0:0:0:
192,192,268401,1,0,0:0:0:0:
448,192,268401,1,0,0:0:0:0:
320,192,268491,1,0,0:0:0:0:
64,192,268581,1,0,0:0:0:0:
192,192,268581,1,0,0:0:0:0:
448,192,268627,1,0,0:0:0:0:
320,192,268672,1,0,0:0:0:0:
64,192,268672,1,0,0:0:0:0:
192,192,268762,128,0,268852:0:0:0:0:
320,192,268943,1,0,0:0:0:0:
448,192,268943,1,0,0:0:0:0:
64,192,268943,1,0,0:0:0:0:
192,192,269124,1,0,0:0:0:0:
64,192,269124,1,0,0:0:0:0:
448,192,269169,1,0,0:0:0:0:
192,192,269214,1,0,0:0:0:0:
64,192,269304,1,0,0:0:0:0:
320,192,269304,1,0,0:0:0:0:
320,192,269395,1,0,0:0:0:0:
192,192,269485,1,0,0:0:0:0:
448,192,269485,1,0,0:0:0:0:
192,192,269575,1,0,0:0:0:0:
320,192,269756,1,0,0:0:0:0:
448,192,269756,1,0,0:0:0:0:
64,192,269801,1,0,0:0:0:0:
448,192,269846,1,0,0:0:0:0:
320,192,269937,1,0,0:0:0:0:
64,192,270027,1,0,0:0:0:0:
192,192,270027,1,0,0:0:0:0:
448,192,270072,1,0,0:0:0:0:
64,192,270118,1,0,0:0:0:0:
320,192,270208,1,0,0:0:0:0:
192,192,270208,1,0,0:0:0:0:
320,192,270298,1,0,0:0:0:0:
64,192,270389,1,0,0:0:0:0:
192,192,270389,1,0,0:0:0:0:
448,192,270434,1,0,0:0:0:0:
320,192,270479,1,0,0:0:0:0:
192,192,270479,1,0,0:0:0:0:
448,192,270569,1,0,0:0:0:0:
64,192,270569,1,0,0:0:0:0:
64,192,270660,1,0,0:0:0:0:
448,192,270750,1,0,0:0:0:0:
320,192,270750,1,0,0:0:0:0:
192,192,270795,1,0,0:0:0:0:
64,192,270840,1,0,0:0:0:0:
320,192,270840,1,0,0:0:0:0:
448,192,270931,1,0,0:0:0:0:
192,192,270931,1,0,0:0:0:0:
448,192,271021,1,0,0:0:0:0:
64,192,271111,1,0,0:0:0:0:
192,192,271111,1,0,0:0:0:0:
320,192,271157,1,0,0:0:0:0:
448,192,271202,1,0,0:0:0:0:
64,192,271202,1,0,0:0:0:0:
320,192,271292,1,0,0:0:0:0:
192,192,271292,1,0,0:0:0:0:
192,192,271383,1,0,0:0:0:0:
448,192,271473,1,0,0:0:0:0:
320,192,271473,1,0,0:0:0:0:
64,192,271518,1,0,0:0:0:0:
448,192,271563,1,0,0:0:0:0:
192,192,271608,1,0,0:0:0:0:
320,192,271654,1,0,0:0:0:0:
64,192,271699,1,0,0:0:0:0:
448,192,271744,1,0,0:0:0:0:
320,192,271789,1,0,0:0:0:0:
192,192,271834,1,0,0:0:0:0:
64,192,271834,1,0,0:0:0:0:
