osu file format v14

[General]
AudioFilename: audio.mp3
AudioLeadIn: 0
PreviewTime: 24601
Countdown: 1
SampleSet: None
StackLeniency: 0.7
Mode: 0
LetterboxInBreaks: 0
WidescreenStoryboard: 0

[Editor]
DistanceSpacing: 0.6
BeatDivisor: 16
GridSize: 8
TimelineZoom: 4.300003

[Metadata]
Title://Under Construxion//
TitleUnicode:⫻Under Construxion⫻
Artist:Camellia
ArtistUnicode:かめりあ
Creator:Critality
Version:{W*I*P}
Source:
Tags:
BeatmapID:2165030
BeatmapSetID:1035558

[Difficulty]
HPDrainRate:3
CircleSize:4
OverallDifficulty:10
ApproachRate:10
SliderMultiplier:2
SliderTickRate:1

[Events]
//Background and Video events
0,0,"Fantasy_Angry_Robot_Android_096180_.jpg",0,0
//Break Periods
2,51468,58971
2,110896,115389
2,117373,121675
2,159658,171199
//Storyboard Layer 0 (Background)
//Storyboard Layer 1 (Fail)
//Storyboard Layer 2 (Pass)
//Storyboard Layer 3 (Foreground)
//Storyboard Layer 4 (Overlay)
//Storyboard Sound Samples

[TimingPoints]
2506.43120079714,190.47619047619,4,1,0,100,1,0
14506,-66.6666666666667,4,1,0,100,0,0
14696,-76.9230769230769,4,1,0,100,0,0
15077,-47.6190476190476,4,1,0,100,0,0
15744,-100,4,1,0,100,0,0
16125,-40,4,1,0,100,0,0
17744,-50,4,1,0,100,0,0
18792,-100,4,1,0,100,0,0
26887,-66.6666666666667,4,1,0,100,0,0
29649,-100,4,1,0,100,0,0
31458,-47.6190476190476,4,1,0,100,0,0
32220,-40,4,1,0,100,0,0
32506,-35.7142857142857,4,1,0,100,0,0
32792,-29.4117647058824,4,1,0,100,0,0
32982,-66.6666666666667,4,1,0,100,0,0
35649,-50,4,1,0,100,0,0
40601,-133.333333333333,4,1,0,100,0,0
42125,-50,4,1,0,100,0,0
43649,-133.333333333333,4,1,0,100,0,0
44411,-33.3333333333333,4,1,0,100,0,0
45173,-50,4,1,0,100,0,0
46887,-100,4,1,0,100,0,0
48220,-50,4,1,0,100,0,0
48601,-133.333333333333,4,1,0,100,0,0
60411,-33.3333333333333,4,1,0,100,0,0
61935,-33.3333333333333,4,1,0,100,0,0
62315,-28.5714285714286,4,1,0,100,0,0
62506,-33.3333333333333,4,1,0,100,0,0
69363,-52.6315789473684,4,1,0,100,0,0
69554,-33.3333333333333,4,1,0,100,0,0
71077,-50,4,1,0,100,0,0
72220,-133.333333333333,4,1,0,100,0,0
72601,-50,4,1,0,100,0,0
74887,-285.714285714284,4,1,0,100,0,0
75649,-50,4,1,0,100,0,0
77173,-33.3333333333333,4,1,0,100,0,0
77935,-66.6666666666667,4,1,0,100,0,0
78696,-33.3333333333333,4,1,0,100,0,0
89744,-50,4,1,0,100,0,0
90887,-100,4,1,0,100,0,0
115839,-133.333333333333,4,1,0,100,0,0
122887,-66.6666666666667,4,1,0,100,0,0
128220,-100,4,1,0,100,0,0
128601,-66.6666666666667,4,1,0,100,0,0
132030,-105.263157894737,4,1,0,100,0,0
132125,-111.111111111111,4,1,0,100,0,0
132220,-117.647058823529,4,1,0,100,0,0
132315,-125,4,1,0,100,0,0
132411,-133.333333333333,4,1,0,100,0,0
132506,-142.857142857143,4,1,0,100,0,0
132601,-153.846153846154,4,1,0,100,0,0
132696,-166.666666666667,4,1,0,100,0,0
132792,-181.818181818182,4,1,0,100,0,0
132887,-200,4,1,0,100,0,0
132982,-222.222222222222,4,1,0,100,0,0
133077,-250,4,1,0,100,0,0
133173,-285.714285714286,4,1,0,100,0,0
133268,-333.333333333333,4,1,0,100,0,0
133363,-400,4,1,0,100,0,0
133458,-500,4,1,0,100,0,0
133554,-500,4,1,0,100,0,0
135077,-76.9230769230769,4,1,0,100,0,0
145744,-181.818181818181,4,1,0,100,0,0
147268,-133.333333333333,4,1,0,100,0,0
150315,-66.6666666666667,4,1,0,100,0,0
153363,-133.333333333333,4,1,0,100,0,0
156411,-66.6666666666667,4,1,0,100,0,0
159458,-200,4,1,0,100,0,0

[HitObjects]
45,50,2506,6,0,L|19:200,1,150
77,271,2696,2,0,L|105:112,1,150
127,31,2887,1,0,0:0:0:0:
127,31,2982,2,0,P|168:65|308:39,1,200
241,147,3268,2,0,L|153:211,1,100
158,310,3458,1,0,0:0:0:0:
158,310,3554,2,0,L|60:290,2,100
343,288,3839,2,0,P|301:314|252:311,1,100
253,211,4030,6,0,L|298:66,1,150
383,30,4220,2,0,L|336:185,1,150
318,266,4411,1,0,0:0:0:0:
318,266,4506,2,0,P|370:255|483:342,1,200
472,214,4792,2,0,L|462:111,2,100
364,341,5077,1,0,0:0:0:0:
184,340,5173,5,0,0:0:0:0:
176,335,5220,1,0,0:0:0:0:
168,329,5268,1,0,0:0:0:0:
160,323,5315,1,0,0:0:0:0:
152,317,5363,1,0,0:0:0:0:
143,311,5411,1,0,0:0:0:0:
135,305,5458,1,0,0:0:0:0:
126,299,5506,1,0,0:0:0:0:
117,293,5554,6,0,L|69:137,1,150
123,66,5744,2,0,L|171:221,1,150
218,272,5935,1,0,0:0:0:0:
218,272,6030,2,0,P|247:226|386:208,1,200
248,85,6315,1,0,0:0:0:0:
248,85,6411,2,0,L|150:54,1,100
126,190,6601,1,0,0:0:0:0:
126,190,6696,2,0,L|30:258,1,100
70,321,6887,2,0,P|142:292|261:331,1,200
271,357,7268,5,0,0:0:0:0:
276,172,7363,1,0,0:0:0:0:
449,258,7458,1,0,0:0:0:0:
458,285,7649,5,0,0:0:0:0:
284,164,7744,1,0,0:0:0:0:
257,369,7839,1,0,0:0:0:0:
455,117,8125,5,0,0:0:0:0:
63,162,8411,1,0,0:0:0:0:
51,179,8601,6,0,L|141:40,1,150
225,42,8792,2,0,L|136:179,1,150
101,268,8982,1,0,0:0:0:0:
101,268,9077,2,0,P|160:240|279:297,1,200
404,336,9363,2,0,L|326:242,1,100
278,123,9554,1,0,0:0:0:0:
280,129,9649,2,0,L|421:123,1,100
467,206,9839,1,0,0:0:0:0:
467,206,9935,2,0,L|518:104,1,100
391,30,10125,6,0,L|226:37,1,150
197,109,10315,2,0,L|360:101,1,150
433,117,10506,1,0,0:0:0:0:
433,117,10601,2,0,P|384:184|438:294,1,200
311,185,10887,2,0,P|253:162|143:239,1,200
150,356,11268,5,0,0:0:0:0:
147,346,11315,1,0,0:0:0:0:
144,336,11363,1,0,0:0:0:0:
142,326,11411,1,0,0:0:0:0:
140,316,11458,1,0,0:0:0:0:
136,306,11506,1,0,0:0:0:0:
134,296,11554,1,0,0:0:0:0:
131,286,11601,1,0,0:0:0:0:
128,276,11649,5,0,0:0:0:0:
459,37,11839,1,0,0:0:0:0:
53,203,12410,5,0,0:0:0:0:
512,281,12601,1,0,0:0:0:0:
200,160,13173,5,0,0:0:0:0:
102,36,14506,6,0,B|82:39|82:39|69:30|83:9|83:9|47:62|112:129|67:224,1,225.000008583069
5,377,14696,6,0,B|4:305|4:305|71:266,1,129.999994049073
173,138,14887,2,0,B|168:215|168:215|108:254,1,129.999994049073
0,227,15077,1,0,0:0:0:0:
180,59,15173,6,0,B|184:31|184:31|257:48|303:0|303:0|301:82|301:82|383:124|376:283,1,419.999987182618
488,91,15458,6,0,B|491:50|491:50|431:55|392:-11|392:-11|394:65|394:65|452:143|447:251,1,419.999987182618
478,373,15744,6,0,B|489:311,1,50
407,346,15839,2,0,B|419:282|419:282,1,50
336,310,15935,1,0,0:0:0:0:
148,359,16125,5,0,0:0:0:0:
181,65,16220,2,0,B|185:85|185:85|182:74|182:74|189:104|189:104|187:92|187:92|192:123|192:123|190:112|190:112|194:139|194:139|191:128|191:128|197:164|197:164|195:151|195:151|201:178|201:178|198:167|198:167|203:193|203:193|204:184|204:184|206:210|206:210|205:188|205:188|207:213|207:213|204:203|204:203|211:245|211:245|212:227|212:227|219:253|219:253|218:237|218:237|219:268|219:268|209:231|209:231|221:275|221:275|215:247|215:247|224:272|224:272|222:259|222:259|225:292|225:292|216:274|216:274|217:302|217:302|214:261|214:261|231:297|231:297|223:267|223:267|230:307|230:307|222:282|222:282|229:313|229:313|221:290|221:290|230:323|230:323,1,1000
247,383,16696,5,0,0:0:0:0:
297,5,16982,1,0,0:0:0:0:
512,384,17744,6,0,B|513:307|513:307|438:260|438:260|351:333|351:333|295:332|295:332|257:301|257:301|258:362|258:362|206:327|206:327|66:328|66:328|7:262|7:262|7:183,1,800
51,130,18221,6,0,B|83:130|83:130|81:230|81:230|107:255|107:255|195:255|195:255|262:177|262:177|433:173,1,500
509,166,18506,6,0,B|492:166|492:166|410:50|410:50|322:50|322:50|274:108|274:108|144:109,1,400
16,44,18792,6,0,B|29:92,1,50
82,24,18887,2,0,B|97:76|97:76,1,50
149,4,18982,1,0,0:0:0:0:
259,344,19173,1,0,0:0:0:0:
435,35,19268,1,0,0:0:0:0:
435,35,19744,5,0,0:0:0:0:
0,220,20029,1,0,0:0:0:0:
512,295,20220,1,0,0:0:0:0:
97,340,20792,5,0,0:0:0:0:
256,192,20839,12,0,25363,0:0:0:0:
37,175,26887,5,0,0:0:0:0:
72,381,26982,1,0,0:0:0:0:
154,101,27077,5,0,0:0:0:0:
189,307,27172,1,0,0:0:0:0:
298,167,27268,5,0,0:0:0:0:
337,372,27363,1,0,0:0:0:0:
475,232,27458,5,0,0:0:0:0:
481,218,27506,1,0,0:0:0:0:
487,204,27554,1,0,0:0:0:0:
494,191,27601,1,0,0:0:0:0:
501,177,27649,5,0,0:0:0:0:
289,223,27744,1,0,0:0:0:0:
443,364,27839,1,0,0:0:0:0:
421,155,27935,5,0,0:0:0:0:
416,140,27982,1,0,0:0:0:0:
410,124,28030,1,0,0:0:0:0:
282,76,28125,5,0,0:0:0:0:
273,62,28173,1,0,0:0:0:0:
265,48,28220,1,0,0:0:0:0:
135,137,28315,5,0,0:0:0:0:
120,131,28363,1,0,0:0:0:0:
105,124,28411,5,0,0:0:0:0:
76,331,28506,1,0,0:0:0:0:
220,99,28601,5,0,0:0:0:0:
201,307,28696,1,0,0:0:0:0:
331,154,28792,5,0,0:0:0:0:
315,362,28887,1,0,0:0:0:0:
174,240,28982,5,0,0:0:0:0:
187,232,29030,1,0,0:0:0:0:
199,224,29077,1,0,0:0:0:0:
211,215,29125,1,0,0:0:0:0:
223,206,29173,1,0,0:0:0:0:
382,221,29268,5,0,0:0:0:0:
374,233,29315,1,0,0:0:0:0:
364,244,29363,1,0,0:0:0:0:
99,146,29458,5,0,0:0:0:0:
111,137,29506,1,0,0:0:0:0:
124,129,29554,1,0,0:0:0:0:
296,116,29649,6,0,L|298:71,1,25
323,103,29696,6,0,L|324:57,1,25
361,97,29744,6,0,L|361:54,1,25
397,101,29792,6,0,L|400:57,1,25
428,109,29839,6,0,L|431:62,1,25
459,124,29887,6,0,L|460:84,1,25
487,152,29935,6,0,L|436:253,1,100
292,353,30125,2,0,L|349:251,1,100
271,64,30315,5,0,0:0:0:0:
263,77,30363,1,0,0:0:0:0:
255,90,30411,1,0,0:0:0:0:
103,269,30506,5,0,0:0:0:0:
111,256,30554,1,0,0:0:0:0:
119,243,30601,1,0,0:0:0:0:
80,99,30696,5,0,0:0:0:0:
31,305,30792,1,0,0:0:0:0:
201,65,30887,5,0,0:0:0:0:
151,268,30982,1,0,0:0:0:0:
302,122,31077,5,0,0:0:0:0:
256,328,31173,1,0,0:0:0:0:
114,141,31268,6,0,L|228:114,1,100
368,83,31458,6,0,B|421:71|421:71|474:98|474:98,2,104.999996795654
329,286,31649,6,0,B|276:298|276:298|224:273|224:273,2,104.999996795654
490,165,31839,5,0,0:0:0:0:
323,4,31935,2,0,B|221:41|221:41|217:142,1,210.000008010865
215,350,32125,1,0,0:0:0:0:
455,219,32220,6,0,B|407:219|407:219|374:134|374:134|306:134|306:134|267:212|267:212|149:211|149:211|109:114|109:114,1,500
60,10,32506,6,0,B|81:63|81:63|-6:100|-6:100|40:229|40:229|15:240|15:240|40:228|40:228|81:336|81:336|136:313|136:313|155:351,1,559.999982910157
352,384,32792,6,0,B|330:333|330:333|416:315|416:315|386:237|386:237|348:244|348:244|317:160,1,340.000006484985
290,106,32982,5,0,0:3:0:0:
176,281,33077,1,0,0:3:0:0:
227,0,33173,5,0,0:3:0:0:
118,179,33268,1,0,0:3:0:0:
109,3,33363,5,0,0:3:0:0:
0,181,33458,1,0,0:3:0:0:
190,99,33554,5,0,0:3:0:0:
202,107,33601,1,0,0:3:0:0:
214,115,33649,1,0,0:3:0:0:
225,123,33696,1,0,0:3:0:0:
238,130,33744,6,0,L|374:218,1,150.000005722046
512,309,33935,1,0,0:0:0:0:
423,91,34030,2,0,L|322:32,2,75.0000028610231
404,328,34220,1,0,0:0:0:0:
257,245,34315,2,0,L|104:148,1,150.000005722046
100,81,34506,6,0,L|52:80,1,37.5000014305115
58,120,34554,2,0,L|-5:120,1,37.5000014305115
37,174,34601,2,0,L|-20:173,1,37.5000014305115
37,223,34649,2,0,L|-24:225,1,37.5000014305115
64,271,34696,5,0,0:0:0:0:
79,271,34744,1,0,0:0:0:0:
94,271,34792,1,0,0:0:0:0:
314,132,34887,1,0,0:0:0:0:
298,132,34935,1,0,0:0:0:0:
283,132,34982,1,0,0:0:0:0:
203,340,35077,5,0,0:0:0:0:
437,252,35172,1,0,0:0:0:0:
421,252,35220,1,0,0:0:0:0:
405,252,35268,2,0,L|322:253,2,75.0000028610231
270,170,35458,1,0,0:0:0:0:
162,272,35554,1,0,0:0:0:0:
147,270,35602,1,0,0:0:0:0:
132,269,35649,6,0,P|185:49|431:275,1,700
384,340,36030,6,0,B|395:437|239:465|215:335|274:293|274:293|224:329|154:329|116:236,1,450
25,173,36315,5,0,0:0:0:0:
314,342,36506,1,0,0:0:0:0:
410,61,36696,1,0,0:0:0:0:
43,93,36887,5,0,0:0:0:0:
256,384,36982,1,0,0:0:0:0:
471,106,37077,1,0,0:0:0:0:
512,70,37268,5,0,0:0:0:0:
185,384,37363,1,0,0:0:0:0:
0,0,37458,1,0,0:0:0:0:
256,192,37554,12,0,38887,0:0:0:0:
399,159,39077,5,0,0:0:0:0:
340,384,39173,1,0,0:0:0:0:
213,124,39268,2,0,L|247:22,2,100
144,352,39458,1,0,0:0:0:0:
396,175,39554,2,0,L|428:58,2,100
379,185,39696,1,0,0:0:0:0:
363,197,39744,1,0,0:0:0:0:
347,209,39792,1,0,0:0:0:0:
330,220,39839,6,0,B|244:268|244:268|147:240,1,200
238,30,40030,1,0,0:0:0:0:
500,166,40125,6,0,B|474:260|474:260|385:309,1,200
289,108,40316,1,0,0:0:0:0:
170,326,40411,5,0,0:0:0:0:
147,338,40458,1,0,0:0:0:0:
123,350,40506,1,0,0:0:0:0:
99,363,40554,1,0,0:0:0:0:
73,374,40601,6,0,P|43:338|2:320,1,75.0000028610231
28,222,40792,2,0,P|73:208|119:207,1,75.0000028610231
165,354,40982,1,0,0:0:0:0:
165,354,41077,2,0,P|222:343|240:332,1,75.0000028610231
114,193,41268,1,0,0:0:0:0:
114,193,41363,2,0,P|153:256|175:268,1,75.0000028610231
191,91,41554,1,0,0:0:0:0:
191,91,41649,2,0,P|237:91|277:104,1,75.0000028610231
262,323,41839,2,0,P|200:370|145:328,1,150.000005722046
95,149,42125,5,0,0:0:0:0:
169,352,42221,1,0,0:0:0:0:
282,139,42316,2,0,L|326:49,2,100
318,353,42506,1,0,0:0:0:0:
441,142,42602,2,0,L|404:21,2,100
423,338,42744,1,0,0:0:0:0:
399,328,42792,1,0,0:0:0:0:
375,319,42840,1,0,0:0:0:0:
352,309,42887,6,0,B|256:268|256:268|185:195,1,200
348,150,43078,1,0,0:0:0:0:
177,319,43173,2,0,B|104:240|104:240|101:132,1,200
310,70,43363,1,0,0:0:0:0:
314,315,43459,5,0,0:0:0:0:
302,292,43506,1,0,0:0:0:0:
290,268,43554,1,0,0:0:0:0:
277,244,43602,1,0,0:0:0:0:
266,227,43649,6,0,P|275:183|343:206,1,112.500004291535
369,227,43839,2,0,P|354:171|285:161,1,112.500004291535
235,160,44030,2,0,P|276:125|380:266,1,262.500010013581
366,311,44411,6,0,B|328:378|328:378|207:356,1,150.000005722046
303,34,44696,6,0,B|380:33|380:33|421:149,1,150.000005722046
100,236,44982,6,0,B|60:169|60:169|140:75,1,150.000005722046
446,119,45173,6,0,B|440:123|440:123|437:111|437:111|435:125|435:125|432:107|432:107|429:129|429:129|425:109|425:109|423:124|423:124|417:108|417:108|414:121|414:121|408:108|408:108|407:121|407:121|401:108|401:108|397:117|397:117|394:110|394:110|390:116|390:116|408:117|408:117|387:112|387:112|404:113|404:113|364:114|364:114|298:114|298:114,1,300
287,102,45363,5,0,0:0:0:0:
236,333,45458,1,0,0:0:0:0:
140,101,45554,2,0,L|107:-2,2,100
71,333,45744,1,0,0:0:0:0:
88,322,45792,1,0,0:0:0:0:
104,311,45839,1,0,0:0:0:0:
121,300,45887,1,0,0:0:0:0:
137,288,45935,6,0,B|231:222|231:222|259:109,1,200
29,85,46125,1,0,0:0:0:0:
318,230,46220,2,0,B|344:118|344:118|288:15,1,200,0|0,0:0|0:0,0:3:0:0:
98,157,46411,1,0,0:0:0:0:
161,360,46506,2,0,L|377:327,1,200
435,285,46696,6,0,B|438:273|438:273|436:283|436:283|439:269|439:269|438:279|438:279|441:265|441:265|436:277|436:277|435:268|436:267|433:281|433:281|438:261|438:261|434:272|434:272|442:261|442:261|441:270|440:270|441:253|441:253|437:265|437:265|436:256|436:256|434:264|434:264|443:254|443:254|439:261|439:261|441:249|441:249|437:257|437:257|445:249|445:249|437:252|437:252|443:244|443:244|443:250|443:250|440:244|440:244|443:260|443:260|447:240|448:240|440:245|440:245|445:236|445:237|437:251|437:251|440:229|440:229,1,300
303,50,46887,2,0,P|247:45|175:57,1,100
99,155,47077,2,0,P|153:145|204:123,2,100
259,173,47363,1,0,0:0:0:0:
99,240,47458,2,0,P|160:234|227:244,1,100
81,323,47649,1,0,0:0:0:0:
233,321,47744,2,0,P|190:357|122:390,1,100
295,241,47935,1,0,0:0:0:0:
371,371,48030,2,0,P|423:344|469:286,1,100
512,214,48220,5,0,0:0:0:0:
204,313,48315,1,0,0:0:0:0:
437,43,48411,1,0,0:0:0:0:
151,140,48506,1,0,0:0:0:0:
430,306,48601,6,0,P|431:338|293:306,1,225.000008583069
274,278,48982,5,0,0:0:0:0:
0,197,49077,1,0,0:0:0:0:
325,101,49173,1,0,0:0:0:0:
34,22,49268,1,0,0:0:0:0:
361,18,49363,6,0,P|250:75|239:196,1,225.000008583069
249,351,49744,5,0,0:0:0:0:
256,192,49839,12,0,51268,0:0:0:0:
433,117,60411,6,0,B|366:183|366:183|319:183|319:183|341:157|341:157|285:157|285:157|222:224|222:224|134:224|134:224|87:173,1,450.000017166138
11,76,60601,6,0,B|25:79|21:69|21:69|17:61|7:65|7:65|-3:70|1:77|1:77|6:87|15:86|15:86|27:81|25:70|25:70|19:57|4:61|4:61|-7:66|-2:80|-2:80|2:92|17:90|17:90|32:84|28:68|28:68|21:54|2:58|2:58|-12:62|-6:82|-6:82|0:96|19:95|19:95|36:87|33:67|33:67|20:42|-1:53|-1:53|-18:59|-11:86|-11:86|-3:104|24:92|24:92|37:76,1,450.000017166138
181,124,60792,6,0,B|169:132|179:136|179:136|187:139|191:129|191:129|195:118|186:116|186:116|176:113|170:120|170:120|165:132|175:138|175:138|189:143|196:130|196:130|201:117|187:111|187:111|175:107|166:118|166:118|160:133|174:142|174:142|189:147|200:130|200:130|207:116|189:107|189:107|174:102|161:116|161:116|155:135|171:146|171:146|192:155|206:131|206:131|213:114|189:101|189:101|171:94|160:122|160:122|162:143,1,450.000017166138
20,204,60982,6,0,B|-2:276|-2:276|23:346,1,150.000005722046
92,316,61077,2,0,B|141:371|141:371|226:388,1,150.000005722046
264,303,61173,6,0,B|256:291|252:301|252:301|249:309|259:313|259:313|270:317|272:308|272:308|275:298|268:292|268:292|256:287|250:297|250:297|245:311|258:318|258:318|271:323|277:309|277:309|281:297|270:288|270:288|255:282|246:296|246:296|241:311|258:322|258:322|272:329|281:311|281:311|286:296|272:283|272:283|253:277|242:293|242:293|234:320|257:328|257:328|274:335|287:311|287:311|294:293|266:282|266:282|245:284,1,450.000017166138
190,162,61363,6,0,B|202:154|191:150|191:150|184:147|180:157|180:157|176:168|185:170|185:170|195:173|201:166|201:166|206:154|196:148|196:148|181:143|175:156|175:156|170:169|184:175|184:175|196:179|205:168|205:168|210:153|197:144|197:144|181:139|171:156|171:156|164:170|182:179|182:179|197:184|210:170|210:170|216:151|200:140|200:140|173:132|165:155|165:155|158:172|181:185|181:185|200:192|211:164|211:164|209:151,1,450.000017166138
308,44,61554,6,0,B|321:47|318:37|318:37|315:29|305:33|305:33|294:37|298:45|298:45|302:54|312:54|312:54|324:50|322:39|322:39|317:25|302:28|302:28|289:33|294:48|294:48|299:59|313:59|313:59|328:53|326:37|326:37|320:22|300:25|300:25|284:29|289:49|289:49|295:63|315:64|315:64|333:56|331:37|331:37|319:11|296:20|296:20|279:26|285:53|285:53|291:71|320:61|320:61|329:51,1,450.000017166138
414,83,61744,6,0,B|466:122|466:122|377:258|377:258|332:258|332:258|332:358|332:358|400:360|400:360|438:325,1,450.000017166138
468,289,61935,6,0,B|470:215|470:215|365:149|365:149|339:188|339:188|72:189,1,450.000017166138
19,166,62125,6,0,B|107:84|107:84|162:118|162:118|280:119|280:119|322:62|322:62|408:62,1,450.000017166138
472,58,62315,6,0,B|469:232|469:232|411:293|411:293|288:294|288:294|248:258|248:258|62:256,1,525.00000500679
76,267,62506,6,0,B|76:380|76:380|155:325|155:325|217:327|217:327|260:364|260:364|490:363|490:363,1,450.000017166138
482,367,62696,6,0,B|399:357|399:357|335:305,1,150.000005722046
380,246,62792,2,0,B|329:205|329:205|310:110,1,150.000005722046
400,71,62887,6,0,B|385:68|390:78|390:78|393:85|403:81|403:81|414:76|409:68|409:68|404:59|395:60|395:60|383:65|385:76|385:76|392:90|406:85|406:85|419:80|413:66|413:66|407:54|393:56|393:56|378:62|382:78|382:78|389:92|409:88|409:88|424:83|417:64|417:64|410:50|391:51|391:51|373:60|377:79|377:79|390:104|412:93|412:93|429:86|421:60|421:60|414:42|386:54|386:54|373:71,1,450.000017166138
214,62,63077,6,0,B|202:70|212:74|212:74|220:77|224:67|224:67|228:56|219:54|219:54|209:51|203:58|203:58|198:70|208:76|208:76|222:81|229:68|229:68|234:55|220:49|220:49|208:45|199:56|199:56|193:71|207:80|207:80|222:85|233:68|233:68|240:54|222:45|222:45|207:40|194:54|194:54|188:73|204:84|204:84|231:92|239:69|239:69|246:52|222:39|222:39|204:32|193:60|193:60|195:81,1,450.000017166138
92,195,63268,6,0,B|80:203|90:207|90:207|98:210|102:200|102:200|106:189|97:187|97:187|87:184|81:191|81:191|76:203|86:209|86:209|100:214|107:201|107:201|112:188|98:182|98:182|86:178|77:189|77:189|71:204|85:213|85:213|100:218|111:201|111:201|118:187|100:178|100:178|85:173|72:187|72:187|66:206|82:217|82:217|109:225|117:202|117:202|124:185|100:172|100:172|82:165|71:193|71:193|73:214,1,450.000017166138
239,205,63458,6,0,B|227:213|237:217|237:217|245:220|249:210|249:210|253:199|244:197|244:197|234:194|228:201|228:201|223:213|233:219|233:219|247:224|254:211|254:211|259:198|245:192|245:192|233:188|224:199|224:199|218:214|232:223|232:223|247:228|258:211|258:211|265:197|247:188|247:188|232:183|219:197|219:197|213:216|229:227|229:227|256:235|264:212|264:212|271:195|247:182|247:182|229:175|218:203|218:203|220:224,1,450.000017166138
50,49,63649,6,0,B|38:57|48:61|48:61|56:64|60:54|60:54|64:43|55:41|55:41|45:38|39:45|39:45|34:57|44:63|44:63|58:68|65:55|65:55|70:42|56:36|56:36|44:32|35:43|35:43|29:58|43:67|43:67|58:72|69:55|69:55|76:41|58:32|58:32|43:27|30:41|30:41|24:60|40:71|40:71|67:79|75:56|75:56|82:39|58:26|58:26|40:19|29:47|29:47|31:68,1,450.000017166138
48,147,63839,6,0,B|49:193|49:193|114:231|114:231|203:192|203:192|206:40|206:40|286:40,1,450.000017166138
414,47,64030,6,0,B|377:48|377:48|450:122|450:122|448:252|448:252|366:368|366:368|290:323,1,450.000017166138
270,318,64220,6,0,B|270:404|270:404|190:357|190:357|190:276|190:276|276:235|276:235|276:92,1,450.000017166138
158,123,64411,2,0,B|149:100|149:100|155:115|155:115|142:87|142:87|152:108|152:108|140:80|140:80|147:96|147:96|133:65|133:65|145:93|145:93|136:71|136:71|142:84|142:84|130:56|130:56|134:70|134:70|128:49|128:49|139:83|139:83|133:62|133:62|126:50|126:50|137:66|137:66|124:45|124:45|130:62|130:62|123:37,1,450.000017166138
0,0,64601,6,0,B|0:34|0:34|0:15|0:15|0:63|0:63|0:44|0:44|0:81|0:81|0:51|0:51|0:93|0:93|0:70|0:70|0:146|0:146|0:109|0:109|0:142|0:142|0:130|0:130|0:180,1,450.000017166138
0,326,64792,2,0,B|0:274|0:274|0:292|0:292|0:260|0:260|0:284|0:284|1:246,1,150.000005722046
99,331,64887,1,0,0:0:0:0:
114,331,64935,1,0,0:0:0:0:
128,330,64982,6,0,B|131:286|150:259|150:259|144:271|143:281|143:281|159:258|180:240|180:240|175:252|174:260|174:260|198:232|224:223|224:223|222:232|220:236|220:236|245:221|283:216|283:216|270:221|262:230|262:230|307:215|328:217|328:217|319:231|319:231|354:231|354:231,1,450.000017166138
469,286,65173,6,0,B|495:359|436:429|436:429|322:349|420:235|477:171|344:104,1,450.000017166138
340,26,65363,6,0,B|328:34|338:38|338:38|346:41|350:31|350:31|354:20|345:18|345:18|335:15|329:22|329:22|324:34|334:40|334:40|348:45|355:32|355:32|360:19|346:13|346:13|334:9|325:20|325:20|319:35|333:44|333:44|348:49|359:32|359:32|366:18|348:9|348:9|333:4|320:18|320:18|314:37|330:48|330:48|357:56|365:33|365:33|372:16|348:3|348:3|330:-4|319:24|319:24|321:45,1,450.000017166138
257,191,65554,6,0,B|245:199|255:203|255:203|263:206|267:196|267:196|271:185|262:183|262:183|252:180|246:187|246:187|241:199|251:205|251:205|265:210|272:197|272:197|277:184|263:178|263:178|251:174|242:185|242:185|236:200|250:209|250:209|265:214|276:197|276:197|283:183|265:174|265:174|250:169|237:183|237:183|231:202|247:213|247:213|274:221|282:198|282:198|289:181|265:168|265:168|247:161|236:189|236:189|238:210,1,450.000017166138
131,32,65744,6,0,B|119:40|129:44|129:44|137:47|141:37|141:37|145:26|136:24|136:24|126:21|120:28|120:28|115:40|125:46|125:46|139:51|146:38|146:38|151:25|137:19|137:19|125:15|116:26|116:26|110:41|124:50|124:50|139:55|150:38|150:38|157:24|139:15|139:15|124:10|111:24|111:24|105:43|121:54|121:54|148:62|156:39|156:39|163:22|139:9|139:9|121:2|110:30|110:30|115:52,1,450.000017166138
66,112,65935,6,0,B|13:222|13:222|88:357|88:357|172:224|172:224|212:224,1,450.000017166138
278,223,66125,6,0,P|394:28|212:133,1,600.000022888185
325,119,66506,5,0,0:0:0:0:
17,48,66601,1,0,0:0:0:0:
483,30,66696,2,0,B|520:184|520:184|504:184|504:184|520:184|520:184|479:336|479:336|342:336,1,450.000017166138
256,338,66887,6,0,B|300:287|300:287|236:228|236:228|191:241|191:241|153:226|153:226|93:280|93:280|134:337|134:337|33:339,1,450.000017166138
0,339,67077,6,0,B|3:242|3:242|85:177|85:177|-1:89|-1:89|0:11|0:11|69:12,1,450.000017166138
166,13,67268,6,0,B|121:14|121:14|118:194|120:68|251:119|251:119|253:43|462:62,1,450.000017166138
499,125,67458,6,0,B|487:133|497:137|497:137|505:140|509:130|509:130|513:119|504:117|504:117|494:114|488:121|488:121|483:133|493:139|493:139|507:144|514:131|514:131|519:118|505:112|505:112|493:108|484:119|484:119|478:134|492:143|492:143|507:148|518:131|518:131|525:117|507:108|507:108|492:103|479:117|479:117|473:136|489:147|489:147|516:155|524:132|524:132|531:115|507:102|507:102|489:95|478:123|478:123|480:144,1,450.000017166138
348,279,67649,6,0,B|356:291|360:281|360:281|363:273|353:269|353:269|342:265|340:274|340:274|337:284|344:290|344:290|356:295|362:285|362:285|367:271|354:264|354:264|341:259|335:273|335:273|331:285|342:294|342:294|357:300|366:286|366:286|371:271|354:260|354:260|340:253|331:271|331:271|326:286|340:299|340:299|359:305|370:289|370:289|378:262|355:254|355:254|338:247|325:271|325:271|318:289|346:300|346:300|367:298,1,450.000017166138
469,357,67839,6,0,B|465:222|465:222|366:148|366:148|426:59|426:59|426:18|426:18|358:18,1,450.000017166138
257,23,68030,6,0,B|308:23|308:23|240:102|240:102|288:147|288:147|288:247|288:247|249:304|249:304|251:345|251:345|205:346,1,450.000017166138
157,346,68220,6,0,B|157:315|157:315|87:317|87:317|78:342|78:342|57:314|57:314|74:282|74:282|153:196|153:196|179:208|179:208|153:196|153:196|156:46,1,450.000017166138
66,3,68411,6,0,B|15:70|15:70|81:100|81:100|135:29|135:29|251:88|251:88|370:88,1,450.000017166138
463,97,68601,5,0,0:0:0:0:
463,112,68649,1,0,0:0:0:0:
463,126,68696,1,0,0:0:0:0:
463,141,68744,1,0,0:0:0:0:
464,156,68792,6,0,B|398:209|398:209|354:165|354:165|278:165|278:165|279:192|279:192|278:165|278:165|196:165|196:165|138:212|138:212|93:177|93:177|43:179,1,450.000017166138
31,233,68982,5,0,0:0:0:0:
31,248,69030,1,0,0:0:0:0:
31,262,69077,1,0,0:0:0:0:
31,277,69125,1,0,0:0:0:0:
30,292,69173,6,0,B|104:350|104:350|177:274|177:274|288:274|288:274|345:232|345:232|346:148,1,450.000017166138
306,101,69363,6,0,P|254:86|230:49,1,94.9999974632264
173,96,69458,2,0,P|140:57|147:12,1,94.9999974632264
62,137,69554,6,0,B|50:145|60:149|60:149|68:152|72:142|72:142|76:131|67:129|67:129|57:126|51:133|51:133|46:145|56:151|56:151|70:156|77:143|77:143|82:130|68:124|68:124|56:120|47:131|47:131|41:146|55:155|55:155|70:160|81:143|81:143|88:129|70:120|70:120|55:115|42:129|42:129|36:148|52:159|52:159|79:167|87:144|87:144|94:127|70:114|70:114|52:107|41:135|41:135|43:156,1,450.000017166138
232,192,69744,6,0,B|220:200|230:204|230:204|238:207|242:197|242:197|246:186|237:184|237:184|227:181|221:188|221:188|216:200|226:206|226:206|240:211|247:198|247:198|252:185|238:179|238:179|226:175|217:186|217:186|211:201|225:210|225:210|240:215|251:198|251:198|258:184|240:175|240:175|225:170|212:184|212:184|206:203|222:214|222:214|249:222|257:199|257:199|264:182|240:169|240:169|222:162|211:190|211:190|213:211,1,450.000017166138
170,0,69935,6,0,B|158:8|168:12|168:12|176:15|180:5|180:5|184:-6|175:-8|175:-8|165:-11|159:-4|159:-4|154:8|164:14|164:14|178:19|185:6|185:6|190:-7|176:-13|176:-13|164:-17|155:-6|155:-6|149:9|163:18|163:18|178:23|189:6|189:6|196:-8|178:-17|178:-17|163:-22|150:-8|150:-8|144:11|160:22|160:22|187:30|195:7|195:7|202:-10|178:-23|178:-23|160:-30|149:-2|149:-2|151:19,1,450.000017166138
103,285,70125,6,0,B|91:293|101:297|101:297|109:300|113:290|113:290|117:279|108:277|108:277|98:274|92:281|92:281|87:293|97:299|97:299|111:304|118:291|118:291|123:278|109:272|109:272|97:268|88:279|88:279|82:294|96:303|96:303|111:308|122:291|122:291|129:277|111:268|111:268|96:263|83:277|83:277|77:296|93:307|93:307|120:315|128:292|128:292|135:275|111:262|111:262|93:255|82:283|82:283|84:304,1,450.000017166138
188,384,70315,6,0,B|324:321|324:321|422:196|422:196|475:56,1,450.000017166138
470,0,70506,2,0,B|334:63|334:63|236:188|236:188|183:328,1,450.000017166138
137,366,70696,6,0,B|92:338|92:338|89:268|89:268|-8:239,2,200.000007629395
213,378,70887,6,0,B|263:362|263:362|284:295|284:295|385:292,2,200.000007629395
172,219,71077,6,0,B|109:31|109:31|-2:203,1,400
333,21,71458,6,0,B|399:213|399:213|492:18,1,400
179,21,71839,6,0,B|113:213|113:213|35:52,1,300
34,50,72030,2,0,B|-7:-45|-7:-45|186:23,1,300
339,83,72220,6,0,L|449:129,1,112.500004291535
512,153,72411,2,0,L|409:112,1,75.0000028610231
232,34,72601,5,0,0:0:0:0:
157,282,72696,1,0,0:0:0:0:
111,23,72792,6,0,B|106:70|106:70|205:188,1,200
370,350,72982,6,0,B|375:303|375:303|276:185,1,200
55,118,73173,5,0,0:0:0:0:
232,325,73268,1,0,0:0:0:0:
152,116,73363,5,0,0:0:0:0:
427,221,73458,1,0,0:0:0:0:
234,85,73554,5,0,0:0:0:0:
512,103,73649,1,0,0:0:0:0:
315,0,73744,5,0,0:0:0:0:
301,284,73839,1,0,0:0:0:0:
509,239,73935,5,0,0:0:0:0:
250,215,74030,1,0,0:0:0:0:
430,189,74125,5,0,0:0:0:0:
192,132,74220,1,0,0:0:0:0:
358,119,74315,5,0,0:0:0:0:
110,0,74411,1,0,0:0:0:0:
350,49,74506,5,0,0:0:0:0:
189,251,74601,1,0,0:0:0:0:
337,128,74696,5,0,0:0:0:0:
271,339,74792,1,0,0:0:0:0:
387,201,74887,6,0,L|393:286,2,69.9999978637696
232,34,75649,5,0,0:0:0:0:
147,272,75744,1,0,0:0:0:0:
140,45,75839,5,0,0:0:0:0:
405,115,75935,1,0,0:0:0:0:
249,330,76030,6,0,B|187:340|187:340|27:209,1,200
2,110,76221,5,0,0:0:0:0:
211,265,76316,1,0,0:0:0:0:
427,221,76411,5,0,0:0:0:0:
152,116,76506,1,0,0:0:0:0:
408,62,76602,5,0,0:0:0:0:
304,312,76697,1,0,0:0:0:0:
82,139,76792,5,0,0:0:0:0:
376,233,76887,1,0,0:0:0:0:
142,313,76983,5,0,0:0:0:0:
288,22,77078,1,0,0:0:0:0:
176,53,77173,6,0,L|114:115,1,75.0000028610231
166,115,77220,2,0,L|145:213,1,75.0000028610231
182,173,77268,2,0,L|215:253,1,75.0000028610231
349,247,77458,1,0,0:0:0:0:
420,10,77554,6,0,L|502:17,1,75.0000028610231
470,56,77601,2,0,L|526:138,1,75.0000028610231
477,116,77649,2,0,L|476:202,1,75.0000028610231
349,247,77839,1,0,0:0:0:0:
371,104,77935,6,0,L|461:345,1,225.000008583069
315,369,78125,2,0,L|210:117,1,225.000008583069
267,60,78315,6,0,L|353:267,1,225.000008583069
401,383,78506,2,0,L|297:132,1,225.000008583069
286,74,78696,6,0,L|285:-1,1,75.0000028610231,0|0,1:1|1:1,1:1:0:0:
287,78,78744,6,0,L|314:8,1,75.0000028610231,0|0,1:1|1:1,1:1:0:0:
289,82,78792,6,0,L|341:28,1,75.0000028610231,0|0,1:1|1:1,1:1:0:0:
291,86,78839,6,0,L|359:55,1,75.0000028610231,0|0,1:1|1:1,1:1:0:0:
293,90,78887,6,0,L|367:89,1,75.0000028610231,0|0,1:1|1:1,1:1:0:0:
295,94,78935,6,0,L|364:121,1,75.0000028610231,0|0,1:1|1:1,1:1:0:0:
297,98,78983,6,0,L|350:150,1,75.0000028610231,0|0,1:1|1:1,1:1:0:0:
299,102,79030,6,0,L|329:170,1,75.0000028610231,0|0,1:1|1:1,1:1:0:0:
301,106,79077,6,0,L|301:180,1,75.0000028610231,0|0,1:1|1:1,1:1:0:0:
303,110,79125,6,0,L|275:179,1,75.0000028610231,0|0,1:1|1:1,1:1:0:0:
305,114,79173,6,0,L|252:167,1,75.0000028610231,0|0,1:1|1:1,1:1:0:0:
307,118,79220,6,0,L|238:148,1,75.0000028610231,0|0,1:1|1:1,1:1:0:0:
309,122,79268,6,0,L|234:122,1,75.0000028610231,0|0,1:1|1:1,1:1:0:0:
311,126,79315,6,0,L|241:98,1,75.0000028610231,0|0,1:1|1:1,1:1:0:0:
313,130,79363,6,0,L|259:77,1,75.0000028610231,0|0,1:1|1:1,1:1:0:0:
315,134,79411,6,0,L|284:65,1,75.0000028610231,0|0,1:1|1:1,1:1:0:0:
316,136,79458,5,0,1:1:0:0:
338,156,79506,1,0,1:1:0:0:
367,164,79554,1,0,1:1:0:0:
396,159,79601,1,0,1:1:0:0:
420,141,79649,1,0,1:1:0:0:
448,132,79696,1,0,1:1:0:0:
475,145,79744,1,0,1:1:0:0:
488,172,79792,1,0,1:1:0:0:
479,200,79839,1,0,1:1:0:0:
167,11,80030,1,0,0:0:0:0:
76,384,80220,6,0,L|75:309,1,75.0000028610231,0|0,1:1|1:1,1:1:0:0:
104,378,80268,6,0,L|75:308,1,75.0000028610231,0|0,1:1|1:1,1:1:0:0:
128,361,80315,6,0,L|74:308,1,75.0000028610231,0|0,1:1|1:1,1:1:0:0:
144,337,80363,6,0,L|74:308,1,75.0000028610231,0|0,1:1|1:1,1:1:0:0:
150,308,80411,6,0,L|75:308,1,75.0000028610231,0|0,1:1|1:1,1:1:0:0:
144,280,80458,6,0,L|74:308,1,75.0000028610231,0|0,1:1|1:1,1:1:0:0:
127,255,80506,6,0,L|74:308,1,75.0000028610231,0|0,1:1|1:1,1:1:0:0:
103,239,80554,6,0,L|74:308,1,75.0000028610231,0|0,1:1|1:1,1:1:0:0:
74,234,80601,6,0,L|74:308,1,75.0000028610231,0|0,1:1|1:1,1:1:0:0:
46,239,80649,6,0,L|74:308,1,75.0000028610231,0|0,1:1|1:1,1:1:0:0:
21,256,80696,6,0,L|74:308,1,75.0000028610231,0|0,1:1|1:1,1:1:0:0:
5,280,80744,6,0,L|74:308,1,75.0000028610231,0|0,1:1|1:1,1:1:0:0:
0,309,80792,6,0,L|74:308,1,75.0000028610231,0|0,1:1|1:1,1:1:0:0:
5,337,80839,6,0,L|74:308,1,75.0000028610231,0|0,1:1|1:1,1:1:0:0:
22,362,80887,6,0,L|74:308,1,75.0000028610231,0|0,1:1|1:1,1:1:0:0:
68,384,80935,5,0,1:1:0:0:
143,307,81744,6,0,L|92:253,1,75.0000028610231
160,283,81791,6,0,L|92:253,1,75.0000028610231
166,254,81839,6,0,L|92:253,1,75.0000028610231
163,227,81887,6,0,L|92:253,1,75.0000028610231
246,41,82030,6,0,L|191:92,1,75.0000028610231
222,24,82077,6,0,L|191:92,1,75.0000028610231
193,17,82125,6,0,L|191:91,1,75.0000028610231
165,22,82173,6,0,L|191:92,1,75.0000028610231
273,269,82315,6,0,L|347:270,1,75.0000028610231
277,297,82363,6,0,L|347:270,1,75.0000028610231
293,322,82411,6,0,L|347:270,1,75.0000028610231
317,339,82458,6,0,L|347:270,1,75.0000028610231
403,110,82601,6,0,L|352:56,1,75.0000028610231
420,86,82649,6,0,L|352:56,1,75.0000028610231
426,57,82696,6,0,L|352:56,1,75.0000028610231
423,30,82744,6,0,L|352:56,1,75.0000028610231
55,337,82887,6,0,B|106:202|106:202|161:212|161:212|229:134|229:134|307:188|307:188|352:96|352:96|426:106|426:106|465:68,1,600.000022888185
476,37,83268,6,0,B|451:45|451:45|437:63|453:81|453:81|445:68|420:81|407:60|407:60|385:65|353:25|353:25|342:35|342:35|338:19|338:19|337:50|337:50|356:41|382:48|382:48|350:51|326:35|304:13|304:13|277:30|277:30|292:28|263:53|286:91|286:91|269:58|296:34|296:34|266:38|249:7|212:9|212:9|218:32|218:32|185:29|185:29|205:42|205:42|197:68|148:69|140:140|140:140|134:121|134:121|132:148|132:148|123:109|157:112|170:78|170:78|164:134|204:115|211:143|211:143|186:164|248:176|201:193|201:193|247:205|276:150|276:150|271:194|271:194|298:167|298:167|300:186|300:186|316:118|351:156|351:156|461:152|461:152|402:125|472:175|434:217|434:217|450:221|450:221|501:209|501:209|451:221|451:221|472:276|455:255|455:255|438:234|438:234|465:240|465:240|447:226|447:226|460:265|460:265|401:231|401:231|327:251|340:313|392:309|392:309|363:213|363:213|436:332|319:351|319:351|303:350|303:350|310:339|310:339|296:344|296:344|286:292|286:292|272:299|272:299|295:311|295:311|230:339|230:339|246:249|246:249|220:262|252:294|252:294|213:194|158:348|158:348|122:346|122:346|147:306|147:306|122:303|122:303|151:267|151:267|117:254|117:254|41:337|41:337|40:321|40:321|49:324|49:324|36:324|36:324|48:319|48:319|34:315|34:315|50:313|50:313|35:309|35:309|50:308|50:308|35:305|35:305|52:304|52:304|37:301|37:301|50:298|50:298|37:296|37:296|53:296|53:296|33:293|33:293|39:313|39:313|45:76|45:76,1,3600.00013732911
74,120,84792,5,0,0:0:0:0:
84,118,84839,1,0,0:0:0:0:
94,116,84887,1,0,0:0:0:0:
104,114,84935,1,0,0:0:0:0:
114,112,84982,1,0,0:0:0:0:
169,257,85077,1,0,0:0:0:0:
306,185,85173,1,0,0:0:0:0:
306,185,85744,5,0,0:0:0:0:
295,182,85792,1,0,0:0:0:0:
284,179,85839,1,0,0:0:0:0:
273,176,85887,1,0,0:0:0:0:
262,173,85935,1,0,0:0:0:0:
139,275,86030,1,0,0:0:0:0:
126,278,86220,1,0,0:0:0:0:
15,142,86315,5,0,0:0:0:0:
24,146,86363,1,0,0:0:0:0:
33,150,86411,1,0,0:0:0:0:
42,154,86458,1,0,0:0:0:0:
51,158,86506,1,0,0:0:0:0:
152,18,86601,1,0,0:0:0:0:
307,69,86696,1,0,0:0:0:0:
307,69,87268,5,0,0:0:0:0:
302,78,87315,1,0,0:0:0:0:
297,87,87363,1,0,0:0:0:0:
292,96,87411,1,0,0:0:0:0:
287,105,87458,1,0,0:0:0:0:
401,227,87554,1,0,0:0:0:0:
401,246,87744,1,0,0:0:0:0:
438,120,87839,5,0,0:0:0:0:
428,118,87886,1,0,0:0:0:0:
418,116,87934,1,0,0:0:0:0:
408,114,87982,1,0,0:0:0:0:
398,112,88029,1,0,0:0:0:0:
343,257,88124,1,0,0:0:0:0:
206,185,88220,1,0,0:0:0:0:
206,185,88791,5,0,0:0:0:0:
217,182,88839,1,0,0:0:0:0:
228,179,88886,1,0,0:0:0:0:
239,176,88934,1,0,0:0:0:0:
250,173,88982,1,0,0:0:0:0:
373,275,89077,1,0,0:0:0:0:
386,278,89267,1,0,0:0:0:0:
497,142,89362,5,0,0:0:0:0:
488,146,89410,1,0,0:0:0:0:
479,150,89458,1,0,0:0:0:0:
470,154,89505,1,0,0:0:0:0:
461,158,89553,1,0,0:0:0:0:
354,42,89648,1,0,0:0:0:0:
326,191,89744,6,0,P|277:296|119:145,1,400
326,191,90030,2,0,P|236:304|142:135,1,400
326,191,90315,2,0,P|284:282|178:244,1,200
320,131,90506,6,0,B|278:128|278:128|309:137|309:137|271:135|271:135|296:139|296:139|256:135|256:135|284:139|284:139|251:138|251:138|273:141|273:141|230:136|230:136|257:139|257:139|218:144|218:144|241:136|241:136|210:146|210:146|225:135|225:135|196:152|196:152|204:139|204:139|171:163|171:163|184:148|184:148|148:174|148:174|164:160|164:160|126:178|126:178|131:173|131:173|106:185|93:171,1,700
74,120,90887,5,0,0:0:0:0:
84,118,90934,1,0,0:0:0:0:
94,116,90982,1,0,0:0:0:0:
104,114,91030,1,0,0:0:0:0:
114,112,91077,1,0,0:0:0:0:
169,257,91172,1,0,0:0:0:0:
298,192,91268,2,0,P|320:157|315:92,1,100
388,184,91458,2,0,P|373:234|383:284,1,100
314,361,91649,2,0,P|305:299|280:253,1,100
306,185,91839,5,0,0:0:0:0:
295,182,91887,1,0,0:0:0:0:
284,179,91934,1,0,0:0:0:0:
273,176,91982,1,0,0:0:0:0:
262,173,92030,1,0,0:0:0:0:
139,275,92125,2,0,P|126:258|118:300,1,100
118,303,92315,1,0,0:0:0:0:
15,142,92410,5,0,0:0:0:0:
24,146,92458,1,0,0:0:0:0:
33,150,92506,1,0,0:0:0:0:
42,154,92553,1,0,0:0:0:0:
51,158,92601,1,0,0:0:0:0:
152,18,92696,1,0,0:0:0:0:
307,69,92792,2,0,P|369:113|404:118,1,100
428,238,92982,2,0,P|374:196|329:187,1,100
174,153,93173,2,0,P|224:177|280:173,1,100
307,69,93363,5,0,0:0:0:0:
302,78,93410,1,0,0:0:0:0:
297,87,93458,1,0,0:0:0:0:
292,96,93506,1,0,0:0:0:0:
287,105,93553,1,0,0:0:0:0:
363,230,93649,2,0,P|377:205|401:248,1,100
401,246,93839,1,0,0:0:0:0:
438,120,93934,5,0,0:0:0:0:
428,118,93981,1,0,0:0:0:0:
418,116,94029,1,0,0:0:0:0:
408,114,94077,1,0,0:0:0:0:
398,112,94124,1,0,0:0:0:0:
343,257,94219,1,0,0:0:0:0:
228,169,94315,2,0,P|175:153|92:179,1,100
29,86,94506,2,0,P|77:99|143:70,1,100
279,36,94696,2,0,P|205:62|183:98,1,100
206,185,94886,5,0,0:0:0:0:
217,182,94934,1,0,0:0:0:0:
228,179,94981,1,0,0:0:0:0:
239,176,95029,1,0,0:0:0:0:
250,173,95077,1,0,0:0:0:0:
339,274,95173,2,0,P|349:241|384:277,1,100
386,278,95362,1,0,0:0:0:0:
497,142,95457,5,0,0:0:0:0:
488,146,95505,1,0,0:0:0:0:
479,150,95553,1,0,0:0:0:0:
470,154,95600,1,0,0:0:0:0:
461,158,95648,1,0,0:0:0:0:
360,18,95743,1,0,0:0:0:0:
205,69,95839,6,0,P|140:103|104:106,1,100
20,214,96030,2,0,P|90:192|145:189,1,100
168,311,96220,2,0,P|214:247|240:223,1,100
318,308,96411,2,0,P|334:237|353:202,1,100
459,117,96601,2,0,P|436:179|409:213,1,100
268,283,96792,2,0,P|301:218|329:187,1,100
512,219,96981,5,0,0:0:0:0:
486,238,97030,1,0,0:0:0:0:
461,257,97077,1,0,0:0:0:0:
436,276,97125,1,0,0:0:0:0:
411,295,97173,1,0,0:0:0:0:
97,308,97268,6,0,L|160:246,1,50
68,117,97363,2,0,L|118:140,1,50
211,186,97458,1,0,0:0:0:0:
489,283,97554,5,0,0:0:0:0:
459,295,97601,1,0,0:0:0:0:
430,306,97649,1,0,0:0:0:0:
401,318,97696,1,0,0:0:0:0:
372,330,97744,1,0,0:0:0:0:
72,262,97840,6,0,L|154:221,1,50
93,70,97935,2,0,L|143:109,1,50
214,174,98030,1,0,0:0:0:0:
450,339,98125,5,0,0:0:0:0:
418,343,98173,1,0,0:0:0:0:
387,347,98220,1,0,0:0:0:0:
356,351,98268,1,0,0:0:0:0:
325,355,98315,1,0,0:0:0:0:
60,212,98411,6,0,L|152:194,1,50
130,33,98506,2,0,L|166:80,1,50
220,164,98601,1,0,0:0:0:0:
398,384,98696,5,0,0:0:0:0:
367,379,98744,1,0,0:0:0:0:
335,375,98792,1,0,0:0:0:0:
304,370,98839,1,0,0:0:0:0:
273,366,98887,1,0,0:0:0:0:
61,161,98983,6,0,L|155:166,1,50
176,6,99078,2,0,L|199:63,1,50
228,155,99173,1,0,0:0:0:0:
0,219,100030,5,0,0:0:0:0:
26,238,100077,1,0,0:0:0:0:
51,257,100125,1,0,0:0:0:0:
76,276,100173,1,0,0:0:0:0:
101,295,100220,1,0,0:0:0:0:
415,308,100315,6,0,L|345:245,1,50
444,117,100410,2,0,L|388:141,1,50
301,186,100505,1,0,0:0:0:0:
23,283,100601,5,0,0:0:0:0:
53,295,100649,1,0,0:0:0:0:
82,306,100696,1,0,0:0:0:0:
111,318,100744,1,0,0:0:0:0:
140,330,100792,1,0,0:0:0:0:
438,261,100887,6,0,L|353:219,1,50
418,70,100982,2,0,L|369:109,1,50
297,174,101077,1,0,0:0:0:0:
62,339,101173,5,0,0:0:0:0:
94,343,101220,1,0,0:0:0:0:
125,347,101268,1,0,0:0:0:0:
156,351,101315,1,0,0:0:0:0:
187,355,101363,1,0,0:0:0:0:
451,212,101458,6,0,L|362:194,1,50
381,33,101554,2,0,L|347:79,1,50
291,164,101648,1,0,0:0:0:0:
114,384,101744,5,0,0:0:0:0:
145,379,101792,1,0,0:0:0:0:
177,375,101839,1,0,0:0:0:0:
208,370,101887,1,0,0:0:0:0:
239,366,101935,1,0,0:0:0:0:
450,161,102030,6,0,L|352:166,1,50
334,6,102125,2,0,L|312:63,1,50
283,155,102220,1,0,0:0:0:0:
309,231,102315,6,0,P|317:267|301:327,2,66.6666666666667
209,298,102506,2,0,P|161:332|102:317,2,66.6666666666667
95,269,102696,5,0,0:0:0:0:
80,214,102760,1,0,0:0:0:0:
90,159,102823,1,0,0:0:0:0:
131,120,102887,1,0,0:0:0:0:
186,112,102950,1,0,0:0:0:0:
238,90,103014,1,0,0:0:0:0:
275,48,103077,5,0,0:0:0:0:
249,50,103125,1,0,0:0:0:0:
224,53,103173,1,0,0:0:0:0:
199,56,103220,1,0,0:0:0:0:
173,58,103268,1,0,0:0:0:0:
32,260,103363,6,0,L|104:200,1,50
166,143,103458,2,0,L|172:227,1,50
179,318,103554,1,0,0:0:0:0:
262,46,103649,5,0,0:0:0:0:
287,53,103697,1,0,0:0:0:0:
311,60,103745,1,0,0:0:0:0:
335,67,103792,1,0,0:0:0:0:
361,74,103840,1,0,0:0:0:0:
488,220,103935,6,0,L|407:173,1,50
336,128,104030,2,0,L|344:211,1,50
353,302,104126,1,0,0:0:0:0:
334,69,104220,5,0,0:0:0:0:
309,60,104268,1,0,0:0:0:0:
285,52,104316,1,0,0:0:0:0:
261,44,104363,1,0,0:0:0:0:
237,35,104411,1,0,0:0:0:0:
99,17,104506,6,0,L|184:57,1,50
262,89,104601,2,0,L|188:130,1,50
109,175,104697,1,0,0:0:0:0:
378,113,104792,5,0,0:0:0:0:
387,138,104840,1,0,0:0:0:0:
395,162,104888,1,0,0:0:0:0:
403,186,104935,1,0,0:0:0:0:
412,210,104983,1,0,0:0:0:0:
454,315,105077,6,0,L|400:239,1,50
355,167,105172,2,0,L|328:247,1,50
297,333,105268,1,0,0:0:0:0:
214,336,105363,5,0,0:0:0:0:
214,336,105458,1,0,0:0:0:0:
157,107,105554,1,0,0:0:0:0:
103,333,105744,1,0,0:0:0:0:
333,186,106030,1,0,0:0:0:0:
232,116,106125,5,0,0:0:0:0:
232,130,106173,1,0,0:0:0:0:
232,144,106220,1,0,0:0:0:0:
232,159,106268,1,0,0:0:0:0:
232,173,106315,1,0,0:0:0:0:
162,282,106411,6,0,L|224:246,1,50
347,190,106506,2,0,L|296:151,1,50
165,94,106601,1,0,0:0:0:0:
278,277,106696,5,0,0:0:0:0:
278,259,106744,1,0,0:0:0:0:
278,242,106791,1,0,0:0:0:0:
278,224,106839,1,0,0:0:0:0:
278,207,106886,1,0,0:0:0:0:
355,90,106982,6,0,L|286:130,1,50
151,191,107077,2,0,L|207:234,1,50
351,297,107172,1,0,0:0:0:0:
200,89,107268,5,0,0:0:0:0:
200,110,107316,1,0,0:0:0:0:
200,131,107363,1,0,0:0:0:0:
200,153,107411,1,0,0:0:0:0:
200,173,107458,1,0,0:0:0:0:
115,298,107554,6,0,L|190:254,1,50
339,187,107649,2,0,L|277:139,1,50
118,70,107744,1,0,0:0:0:0:
348,288,107839,5,0,0:0:0:0:
348,264,107887,1,0,0:0:0:0:
348,242,107934,1,0,0:0:0:0:
348,218,107982,1,0,0:0:0:0:
348,195,108029,1,0,0:0:0:0:
441,58,108125,6,0,L|358:106,1,50
194,180,108220,2,0,L|261:232,1,50
437,308,108315,1,0,0:0:0:0:
148,83,108411,5,0,0:0:0:0:
148,109,108459,1,0,0:0:0:0:
148,132,108506,1,0,0:0:0:0:
148,157,108554,1,0,0:0:0:0:
148,181,108601,1,0,0:0:0:0:
50,325,108697,6,0,L|130:277,1,50
308,197,108792,2,0,L|236:142,1,50
54,62,108887,1,0,0:0:0:0:
351,315,108982,5,0,0:0:0:0:
351,287,109030,1,0,0:0:0:0:
351,261,109077,1,0,0:0:0:0:
351,234,109125,1,0,0:0:0:0:
351,208,109172,1,0,0:0:0:0:
458,49,109268,6,0,L|375:97,1,50
174,190,109363,2,0,L|252:251,1,50
454,338,109458,1,0,0:0:0:0:
122,55,109554,5,0,0:0:0:0:
122,88,109602,1,0,0:0:0:0:
122,119,109649,1,0,0:0:0:0:
122,152,109697,1,0,0:0:0:0:
122,182,109744,1,0,0:0:0:0:
3,352,109840,6,0,L|83:305,1,50
316,197,109935,2,0,L|239:145,1,50
8,34,110030,1,0,0:0:0:0:
382,346,110125,5,0,0:0:0:0:
382,310,110173,1,0,0:0:0:0:
382,276,110220,1,0,0:0:0:0:
382,240,110268,1,0,0:0:0:0:
382,206,110315,1,0,0:0:0:0:
512,19,110411,6,0,L|305:139,1,200
383,334,110696,1,0,0:0:0:0:
58,269,115839,5,0,0:0:0:0:
137,197,115935,1,0,0:0:0:0:
97,40,116030,2,0,P|88:90|89:113,1,75.0000028610231
210,304,116220,5,0,0:0:0:0:
288,219,116315,1,0,0:0:0:0:
273,82,116411,2,0,P|238:127|230:172,1,75.0000028610231
362,332,116601,5,0,0:0:0:0:
421,213,116696,1,0,0:0:0:0:
209,217,116792,1,0,0:0:0:0:
502,40,117173,5,0,0:0:0:0:
411,88,122125,6,0,P|367:106|333:101,1,75.0000028610231
248,58,122268,1,0,0:0:0:0:
214,20,122315,2,0,P|222:75|215:100,1,75.0000028610231
49,184,122506,5,0,0:0:0:0:
64,251,122569,1,0,0:0:0:0:
114,299,122633,1,0,0:0:0:0:
183,299,122696,1,0,0:0:0:0:
242,261,122760,1,0,0:0:0:0:
311,257,122823,1,0,0:0:0:0:
370,294,122887,6,0,B|406:222|406:222|396:152,1,150.000005722046
315,7,123077,1,0,0:0:0:0:
315,7,123173,1,0,0:0:0:0:
315,7,123268,6,0,B|267:72|267:72|268:182,1,150.000005722046
330,343,123458,1,0,0:0:0:0:
330,343,123554,6,0,B|338:264|338:264|317:186,1,150.000005722046
176,29,123744,1,0,0:0:0:0:
176,29,123839,1,0,0:0:0:0:
176,29,123935,1,0,0:0:0:0:
176,29,124030,1,0,0:0:0:0:
176,29,124125,1,0,0:0:0:0:
176,29,124220,1,0,0:0:0:0:
176,29,124315,1,0,0:0:0:0:
176,29,124411,6,0,B|225:90|225:90|292:113,1,150.000005722046
512,95,124601,1,0,0:0:0:0:
512,95,124696,1,0,0:0:0:0:
512,95,124792,2,0,B|430:83|430:83|362:97,1,150.000005722046
114,220,124982,1,0,0:0:0:0:
114,220,125077,2,0,B|192:208|192:208|266:242,1,150.000005722046
430,331,125268,1,0,0:0:0:0:
430,331,125363,1,0,0:0:0:0:
430,331,125458,1,0,0:0:0:0:
430,331,125554,6,0,B|423:254|423:254|382:188,1,150.000005722046
102,298,125744,2,0,B|181:285|181:285|250:242,1,150.000005722046
257,0,125935,6,0,B|227:81|227:81|236:172,1,150.000005722046
256,362,126125,1,0,0:0:0:0:
256,362,126221,1,0,0:0:0:0:
256,362,126316,6,0,B|328:305|328:305|357:228,1,150.000005722046
458,9,126506,1,0,0:0:0:0:
458,9,126602,6,0,B|484:86|484:86|463:170,1,150.000005722046
386,316,126792,1,0,0:0:0:0:
386,316,126887,1,0,0:0:0:0:
386,316,126983,1,0,0:0:0:0:
386,316,127078,1,0,0:0:0:0:
386,316,127173,1,0,0:0:0:0:
386,316,127268,1,0,0:0:0:0:
386,316,127363,1,0,0:0:0:0:
386,316,127459,6,0,B|320:270|320:270|302:202,1,150.000005722046
270,4,127649,1,0,0:0:0:0:
270,4,127744,1,0,0:0:0:0:
270,4,127840,2,0,B|293:76|293:76|289:156,1,150.000005722046
195,378,128030,1,0,0:0:0:0:
195,378,128125,1,0,0:0:0:0:
195,378,128220,2,0,B|135:329|135:329|150:261|150:261|98:195|98:195,1,200
23,45,128602,6,0,B|100:52|100:52|166:93,1,150.000005722046
301,369,128792,2,0,B|222:356|222:356|157:310,1,150.000005722046
247,66,128982,6,0,B|271:28|271:28|332:8,2,75.0000028610231
204,146,129173,1,0,0:0:0:0:
159,223,129268,1,0,0:0:0:0:
114,301,129363,1,0,0:0:0:0:
52,117,129554,6,0,B|28:79|28:79|-33:59,2,75.0000028610231
95,197,129745,1,0,0:0:0:0:
140,274,129840,1,0,0:0:0:0:
185,352,129935,1,0,0:0:0:0:
60,99,130125,6,0,B|37:67|37:67|34:19,2,75.0000028610231
143,134,130316,1,0,0:0:0:0:
224,170,130411,1,0,0:0:0:0:
307,202,130506,6,0,B|330:170|330:170|333:122,2,75.0000028610231
240,263,130697,1,0,0:0:0:0:
168,317,130792,1,0,0:0:0:0:
98,373,130887,1,0,0:0:0:0:
60,99,131077,6,0,B|37:67|37:67|34:19,2,75.0000028610231
134,125,131268,1,0,0:0:0:0:
230,165,131363,1,0,0:0:0:0:
326,205,131458,1,0,0:0:0:0:
230,268,131649,6,0,B|207:300|207:300|204:348,2,75.0000028610231
284,169,131840,1,0,0:0:0:0:
380,129,131935,1,0,0:0:0:0:
406,357,132030,5,0,0:0:0:0:
382,357,132077,1,0,0:0:0:0:
359,351,132125,1,0,0:0:0:0:
340,338,132173,1,0,0:0:0:0:
327,321,132220,1,0,0:0:0:0:
322,300,132268,1,0,0:0:0:0:
326,280,132315,1,0,0:0:0:0:
338,264,132363,1,0,0:0:0:0:
355,257,132411,5,0,0:0:0:0:
373,257,132458,1,0,0:0:0:0:
388,265,132506,1,0,0:0:0:0:
400,277,132554,1,0,0:0:0:0:
412,286,132601,1,0,0:0:0:0:
427,290,132649,1,0,0:0:0:0:
441,285,132696,1,0,0:0:0:0:
451,273,132744,1,0,0:0:0:0:
457,260,132792,5,0,0:0:0:0:
459,246,132839,1,0,0:0:0:0:
456,233,132887,1,0,0:0:0:0:
449,222,132935,1,0,0:0:0:0:
439,215,132982,1,0,0:0:0:0:
427,213,133030,1,0,0:0:0:0:
417,214,133077,1,0,0:0:0:0:
407,218,133125,1,0,0:0:0:0:
398,219,133173,5,0,0:0:0:0:
389,218,133220,1,0,0:0:0:0:
381,215,133268,1,0,0:0:0:0:
374,210,133315,1,0,0:0:0:0:
369,205,133363,1,0,0:0:0:0:
365,199,133411,1,0,0:0:0:0:
363,194,133458,1,0,0:0:0:0:
363,188,133506,1,0,0:0:0:0:
363,182,133554,6,0,B|287:258|203:144|138:237,1,240
145,358,135077,6,0,L|314:341,1,129.999994049073
409,151,135268,1,0,0:0:0:0:
487,370,135363,1,0,0:0:0:0:
302,227,135458,2,0,L|133:210,1,129.999994049073
2,376,135649,1,0,0:0:0:0:
68,152,135744,1,0,0:0:0:0:
81,151,135792,1,0,0:0:0:0:
94,150,135839,6,0,L|240:133,1,129.999994049073
447,208,136030,2,0,L|301:191,1,129.999994049073
44,44,136220,2,0,L|17:189,2,129.999994049073
278,18,136506,1,0,0:0:0:0:
367,358,136601,6,0,L|198:341,1,129.999994049073
48,159,136792,1,0,0:0:0:0:
39,375,136887,1,0,0:0:0:0:
243,206,136982,2,0,L|412:189,1,129.999994049073
468,52,137173,1,0,0:0:0:0:
486,332,137268,1,0,0:0:0:0:
475,330,137316,1,0,0:0:0:0:
466,329,137363,6,0,L|320:312,1,129.999994049073
56,118,137554,2,0,L|193:110,1,129.999994049073
426,162,137744,1,0,0:0:0:0:
211,51,137839,1,0,0:0:0:0:
404,323,137935,1,0,0:0:0:0:
194,257,138030,1,0,0:0:0:0:
145,358,138125,6,0,L|314:341,1,129.999994049073
464,159,138316,1,0,0:0:0:0:
473,375,138411,1,0,0:0:0:0:
269,206,138506,2,0,L|100:189,1,129.999994049073
44,52,138697,1,0,0:0:0:0:
26,332,138792,1,0,0:0:0:0:
37,330,138840,1,0,0:0:0:0:
46,329,138887,6,0,L|192:312,1,129.999994049073
456,118,139078,2,0,L|319:110,1,129.999994049073
86,162,139268,2,0,P|26:118|-24:68,2,129.999994049073
318,257,139554,1,0,0:0:0:0:
429,149,139649,5,0,0:0:0:0:
423,145,139696,1,0,0:0:0:0:
417,141,139744,1,0,0:0:0:0:
411,137,139792,1,0,0:0:0:0:
405,133,139839,1,0,0:0:0:0:
399,128,139887,1,0,0:0:0:0:
392,121,139935,2,0,L|377:52,5,64.9999970245363
289,52,140220,5,0,0:0:0:0:
286,57,140268,1,0,0:0:0:0:
282,62,140315,1,0,0:0:0:0:
277,67,140363,1,0,0:0:0:0:
272,71,140411,1,0,0:0:0:0:
267,75,140458,1,0,0:0:0:0:
261,77,140506,2,0,L|242:162,5,64.9999970245363
236,207,140792,6,0,B|176:240|176:240|98:243,1,129.999994049073
0,141,140982,2,0,B|60:108|60:108|138:105,1,129.999994049073
394,201,141173,6,0,L|250:280,1,129.999994049073
57,314,141364,1,0,0:0:0:0:
226,85,141459,1,0,0:0:0:0:
285,354,141554,2,0,L|116:337,1,129.999994049073
8,108,141745,1,0,0:0:0:0:
144,264,141840,1,0,0:0:0:0:
155,262,141888,1,0,0:0:0:0:
164,261,141935,6,0,L|310:244,1,129.999994049073
456,118,142126,2,0,L|319:110,1,129.999994049073
119,70,142316,2,0,L|-23:9,2,129.999994049073
350,175,142602,1,0,0:0:0:0:
184,347,142697,6,0,L|15:330,1,129.999994049073
48,159,142888,1,0,0:0:0:0:
39,375,142983,1,0,0:0:0:0:
243,206,143078,2,0,L|412:189,1,129.999994049073
468,52,143269,1,0,0:0:0:0:
486,332,143364,1,0,0:0:0:0:
475,330,143412,1,0,0:0:0:0:
466,329,143459,6,0,L|320:312,1,129.999994049073
56,118,143650,2,0,L|193:110,1,129.999994049073
426,162,143840,2,0,P|486:118|536:68,1,129.999994049073
156,268,144030,1,0,0:0:0:0:
145,358,144221,6,0,L|314:341,1,129.999994049073
464,159,144412,1,0,0:0:0:0:
269,206,144602,2,0,L|100:189,1,129.999994049073
102,29,144792,2,0,P|145:85|117:140,1,129.999994049073
46,329,144983,6,0,L|192:312,1,129.999994049073
192,43,145173,1,0,0:0:0:0:
86,162,145364,2,0,P|26:118|-24:68,1,129.999994049073
318,257,145554,2,0,B|345:276|345:276|348:300|348:300|370:322,3,64.9999970245363
408,319,145744,6,0,P|439:306|445:230,1,110.000003356934
396,185,146030,1,0,0:0:0:0:
322,185,146125,2,0,P|275:186|232:141,1,110.000003356934
261,63,146411,1,0,0:0:0:0:
170,17,146506,5,0,0:0:0:0:
116,85,146601,1,0,0:0:0:0:
158,162,146696,1,0,0:0:0:0:
119,240,146792,1,0,0:0:0:0:
206,261,146887,1,0,0:0:0:0:
194,344,146982,1,0,0:0:0:0:
280,366,147077,1,0,0:0:0:0:
340,307,147173,1,0,0:0:0:0:
160,207,147268,6,0,P|225:175|312:179,1,150.000005722046
380,362,147554,1,0,0:0:0:0:
76,277,147649,2,0,P|81:196|126:133,1,150.000005722046
399,167,147935,1,0,0:0:0:0:
166,229,148030,5,0,0:0:0:0:
190,89,148125,1,0,0:0:0:0:
318,103,148220,1,0,0:0:0:0:
304,243,148315,1,0,0:0:0:0:
267,0,148411,6,0,P|351:0|411:44,1,150.000005722046
492,251,148696,1,0,0:0:0:0:
324,69,148792,2,0,P|357:112|348:203,1,150.000005722046
180,277,149077,1,0,0:0:0:0:
423,208,149173,2,0,P|382:273|309:305,1,150.000005722046
134,276,149458,1,0,0:0:0:0:
290,42,149554,5,0,0:0:0:0:
394,101,149649,1,0,0:0:0:0:
320,213,149744,1,0,0:0:0:0:
215,149,149839,1,0,0:0:0:0:
391,0,149935,6,0,P|478:33|501:82,1,150.000005722046
492,361,150315,5,0,0:0:0:0:
464,110,150411,1,0,0:0:0:0:
413,331,150506,5,0,0:0:0:0:
317,70,150601,1,0,0:0:0:0:
323,308,150696,5,0,0:0:0:0:
149,90,150792,1,0,0:0:0:0:
49,344,150887,5,0,0:0:0:0:
63,349,150935,1,0,0:0:0:0:
71,350,150982,1,0,0:0:0:0:
82,350,151030,1,0,0:0:0:0:
94,348,151077,5,0,0:0:0:0:
159,81,151173,1,0,0:0:0:0:
177,306,151268,5,0,0:0:0:0:
298,54,151363,1,0,0:0:0:0:
252,251,151458,5,0,0:0:0:0:
465,75,151554,2,0,B|419:141|419:141|406:229,1,150.000005722046
410,357,151744,5,0,0:0:0:0:
396,352,151792,1,0,0:0:0:0:
376,346,151839,5,0,0:0:0:0:
85,238,151935,1,0,0:0:0:0:
290,329,152030,5,0,0:0:0:0:
186,100,152125,1,0,0:0:0:0:
206,335,152220,5,0,0:0:0:0:
351,63,152315,1,0,0:0:0:0:
117,366,152411,5,0,0:0:0:0:
106,354,152458,1,0,0:0:0:0:
97,338,152506,1,0,0:0:0:0:
91,322,152554,1,0,0:0:0:0:
87,306,152601,6,0,P|134:194|162:295,2,300.000011444092
352,207,153363,6,0,P|287:175|200:179,1,150.000005722046
132,362,153649,1,0,0:0:0:0:
436,277,153744,2,0,P|431:196|386:133,1,150.000005722046
113,167,154030,1,0,0:0:0:0:
346,229,154125,5,0,0:0:0:0:
322,89,154220,1,0,0:0:0:0:
194,103,154315,1,0,0:0:0:0:
208,243,154410,1,0,0:0:0:0:
245,0,154506,6,0,P|161:0|101:44,1,150.000005722046
20,251,154791,1,0,0:0:0:0:
188,69,154887,2,0,P|155:112|164:203,1,150.000005722046
332,277,155172,1,0,0:0:0:0:
89,208,155268,2,0,P|130:273|203:305,1,150.000005722046
378,276,155553,1,0,0:0:0:0:
222,42,155649,5,0,0:0:0:0:
118,101,155744,1,0,0:0:0:0:
192,213,155839,1,0,0:0:0:0:
297,149,155934,1,0,0:0:0:0:
121,0,156030,6,0,P|34:33|11:82,1,150.000005722046
20,361,156410,5,0,0:0:0:0:
48,110,156506,1,0,0:0:0:0:
99,331,156601,5,0,0:0:0:0:
195,70,156696,1,0,0:0:0:0:
189,308,156791,5,0,0:0:0:0:
363,90,156887,1,0,0:0:0:0:
463,344,156982,5,0,0:0:0:0:
449,349,157030,1,0,0:0:0:0:
441,350,157077,1,0,0:0:0:0:
430,350,157125,1,0,0:0:0:0:
418,348,157172,5,0,0:0:0:0:
353,81,157268,1,0,0:0:0:0:
335,306,157363,5,0,0:0:0:0:
214,54,157458,1,0,0:0:0:0:
260,251,157553,5,0,0:0:0:0:
47,75,157649,2,0,B|93:141|93:141|106:229,1,150.000005722046
102,357,157839,5,0,0:0:0:0:
116,352,157887,1,0,0:0:0:0:
136,346,157934,5,0,0:0:0:0:
137,345,157935,6,0,L|148:319,13,25.0000009536744
203,145,158220,6,0,L|217:178,13,25.0000009536744
284,364,158506,2,0,L|299:338,13,25.0000009536744
406,197,158792,6,0,L|408:140,1,37.5000014305115
380,167,158839,6,0,L|383:117,1,37.5000014305115
349,144,158887,6,0,L|350:97,1,37.5000014305115
311,130,158935,6,0,L|312:77,1,37.5000014305115
270,125,158982,6,0,L|269:59,1,37.5000014305115
229,135,159030,6,0,L|228:79,1,37.5000014305115
192,153,159077,6,0,L|192:83,1,37.5000014305115
159,179,159125,6,0,L|160:122,1,37.5000014305115
139,216,159173,6,0,L|140:168,1,37.5000014305115
130,255,159220,6,0,L|131:200,1,37.5000014305115
131,294,159268,6,0,L|130:252,1,37.5000014305115
133,334,159315,6,0,L|132:291,1,37.5000014305115
152,367,159363,6,0,L|154:316,1,37.5000014305115
209,374,159411,6,0,L|270:375,1,37.5000014305115
302,371,159458,5,0,0:0:0:0:
55,0,171649,6,0,B|10:46|17:90|17:90|34:105|68:98|68:98|54:143|54:143|82:104|82:104|92:155|92:155|99:105|99:105|123:151|123:151|112:104|112:104|149:136|149:136|120:96|120:96|169:112|169:112|126:89|126:89|178:83|178:83|127:85|127:85|111:41|111:41|160:60|160:60|185:24|185:24|229:50|229:50|259:9|259:9|280:65|280:65|320:59|320:59|277:108|319:157|319:157|205:145|182:240|182:240|211:171|325:184|308:274|308:274|383:190|383:190|329:108|417:64|419:6|419:6|417:64|490:119|428:197|428:197|498:229|504:372|405:391|404:270|404:270|381:327|381:327|333:318|307:407|221:285|174:388|174:388|96:353|123:312|123:312|70:291|80:220|80:220|-5:190|-47:254,1,3000
