osu file format v14

[General]
AudioFilename: audio.mp3
AudioLeadIn: 0
PreviewTime: 58058
Countdown: 0
SampleSet: Soft
StackLeniency: 0.3
Mode: 0
LetterboxInBreaks: 0
WidescreenStoryboard: 1

[Editor]
DistanceSpacing: 0.6
BeatDivisor: 4
GridSize: 16
TimelineZoom: 3.100005

[Metadata]
Title:Ultimate Ascension
TitleUnicode:Ultimate Ascension
Artist:Camellia
ArtistUnicode:かめりあ
Creator:Sing
Version:debug
Source:SOUND VOLTEX III GRAVITY WARS
Tags:KamelCamellia Cametek Konami SDVX Whoosh Dubstep Melodic Breakcore Artcore
BeatmapID:1843663
BeatmapSetID:514342

[Difficulty]
HPDrainRate:5.8
CircleSize:4
OverallDifficulty:8.2
ApproachRate:9.6
SliderMultiplier:1.92
SliderTickRate:1

[Events]
//Background and Video events
0,0,"symmetry.jpg",0,0
//Break Periods
2,84958,89049
//Storyboard Layer 0 (Background)
//Storyboard Layer 1 (Fail)
//Storyboard Layer 2 (Pass)
//Storyboard Layer 3 (Foreground)
//Storyboard Sound Samples

[TimingPoints]
758,300,4,2,1,50,1,0
758,-76.9230769230769,4,2,1,50,0,0
1658,-100,4,2,1,40,0,0
2558,-76.9230769230769,4,2,1,50,0,0
4058,-100,4,2,1,40,0,0
4958,-76.9230769230769,4,2,1,50,0,0
6458,-100,4,2,1,40,0,0
7358,-76.9230769230769,4,2,1,50,0,0
8858,-100,4,2,1,40,0,0
10058,-200,4,2,1,50,0,0
10358,-90.9090909090909,4,2,1,50,0,0
11258,-90.9090909090909,4,1,1,50,0,0
11333,-66.6666666666667,4,2,1,50,0,0
11471,-90.9090909090909,4,2,1,50,0,0
11558,-100,4,2,1,50,0,0
11708,-90.9090909090909,4,2,1,50,0,0
13658,-90.9090909090909,4,1,1,50,0,0
13733,-90.9090909090909,4,2,1,50,0,0
17558,-76.9230769230769,4,2,1,50,0,0
20258,-133.333333333333,4,2,1,50,0,0
21158,-83.3333333333333,4,2,2,30,0,0
21233,-83.3333333333333,4,2,1,30,0,0
27458,-76.9230769230769,4,2,1,35,0,0
28358,-71.4285714285714,4,2,1,40,0,0
28958,-66.6666666666667,4,2,1,45,0,0
29558,-62.5,4,2,1,50,0,0
30158,-100,4,2,1,50,0,0
30758,-66.6666666666667,4,2,2,50,0,0
30833,-66.6666666666667,4,2,1,50,0,0
37358,-71.4285714285714,4,2,1,50,0,0
37658,-76.9230769230769,4,2,1,50,0,0
37958,-66.6666666666667,4,2,1,50,0,0
39158,-76.9230769230769,4,2,1,50,0,0
40058,-62.5,4,2,1,50,0,0
40358,-66.6666666666667,4,2,2,50,0,0
40433,-66.6666666666667,4,2,1,50,0,0
43958,-58.8235294117647,4,2,1,50,0,0
44258,-66.6666666666667,4,2,1,50,0,0
45158,-133.333333333333,4,2,1,50,0,0
45758,-66.6666666666667,4,2,1,50,0,0
46508,-58.8235294117647,4,2,1,50,0,0
46808,-58.8235294117647,4,1,1,50,0,0
46958,-50,4,2,1,50,0,0
47033,-50,4,2,1,60,0,0
47108,-50,4,2,1,70,0,0
47183,-50,4,2,1,80,0,0
47258,-66.6666666666667,4,2,1,85,0,0
47333,-66.6666666666667,4,2,1,90,0,0
47408,-66.6666666666667,4,2,1,95,0,0
47483,-66.6666666666667,4,2,1,100,0,0
47558,-100,4,2,2,30,0,0
47633,-100,4,2,1,30,0,0
49358,-66.6666666666667,4,2,1,60,0,0
49958,-100,4,2,1,40,0,0
50858,-100,4,1,1,40,0,0
50933,-100,4,2,1,40,0,0
51758,-66.6666666666667,4,2,1,60,0,0
52358,-76.9230769230769,4,2,1,50,0,0
55958,-66.6666666666667,4,2,1,55,0,0
57158,-200,4,2,1,40,0,0
57458,-133.333333333333,4,2,1,45,0,0
57758,-100,4,2,1,50,0,0
58058,-100,4,2,1,52,0,0
58133,-100,4,2,1,54,0,0
58208,-100,4,2,1,56,0,0
58283,-100,4,2,1,58,0,0
58358,-62.5,4,2,2,60,0,1
58433,-62.5,4,2,1,60,0,1
68258,-166.666666666667,4,2,1,30,0,0
68558,-83.3333333333333,4,2,1,35,0,0
68783,-76.9230769230769,4,2,1,40,0,0
69308,-71.4285714285714,4,2,1,45,0,0
69758,-66.6666666666667,4,2,1,50,0,0
69983,-62.5,4,2,1,55,0,0
70208,-50,4,2,1,55,0,0
70358,-62.5,4,2,2,60,0,1
70433,-62.5,4,2,1,60,0,1
77558,-71.4285714285714,4,2,2,55,0,0
77633,-71.4285714285714,4,2,1,55,0,0
89558,-76.9230769230769,4,2,1,50,0,0
91658,-76.9230769230769,4,2,1,55,0,0
95558,-55.5555555555556,4,2,2,60,0,1
95633,-55.5555555555556,4,2,1,60,0,1
98108,-38.4615384615385,4,2,1,60,0,1
98333,-43.4782608695652,4,2,1,60,0,1
98558,-55.5555555555556,4,2,1,60,0,1
105158,-55.5555555555556,4,2,2,60,0,1
105233,-55.5555555555556,4,2,1,60,0,1
106358,-50,4,2,1,60,0,1
106583,-50,4,2,1,30,0,1
107258,-50,4,2,1,40,0,1
107558,-55.5555555555556,4,2,1,60,0,1
109808,-38.4615384615385,4,2,1,60,0,1
109958,-43.4782608695652,4,2,2,70,0,1
110033,-43.4782608695652,4,2,1,70,0,1
114758,-76.9230769230769,4,2,1,40,0,0
116558,-66.6666666666667,4,2,1,50,0,0
118058,-76.9230769230769,4,2,1,45,0,0
118958,-66.6666666666667,4,2,1,55,0,0
119258,-55.5555555555556,4,2,1,55,0,0
119558,-66.6666666666667,4,2,2,60,0,0

[Colours]
Combo1 : 255,0,0
Combo2 : 255,192,106
Combo3 : 192,192,192
Combo4 : 185,115,115
Combo5 : 255,128,128
Combo6 : 231,203,169
Combo7 : 128,128,128
Combo8 : 208,131,89

[HitObjects]
227,107,758,54,0,B|147:50|147:50|174:198,1,249.599988574219,4|0,1:0|0:0,0:0:0:0:
174,199,1658,86,0,L|126:194,1,48
41,187,1808,2,0,L|9:183,2,24
242,271,1958,2,0,B|282:210|282:210|257:131,2,144
126,194,2558,86,0,L|142:340,1,124.79999428711,4|0,1:0|0:0,0:0:0:0:
369,226,2783,2,0,L|353:372,1,124.79999428711,4|0,1:0|0:0,0:0:0:0:
248,283,3008,2,0,L|253:210,1,62.3999971435548,4|0,1:0|0:0,0:0:0:0:
226,66,3158,54,0,B|269:70|302:46|302:46|324:92|360:110|360:110|404:87|480:110,1,249.599988574219,4|0,1:0|0:0,0:0:0:0:
440,101,4058,86,0,L|433:161,1,48
369,226,4208,2,0,L|480:245,1,96
405,316,4508,2,0,L|400:357,2,24
360,204,4658,2,0,L|342:131,2,64
280,325,4958,86,0,B|233:332|204:362|204:362|182:328|114:310,1,166.399992382813,4|0,1:0|0:0,0:0:0:0:
17,184,5258,2,0,B|96:172|96:172|122:184|122:184|221:169,1,187.199991430664,4|0,1:0|0:0,0:0:0:0:
358,113,5558,54,0,P|388:59|278:87,1,249.599988574219,4|0,1:0|0:0,0:0:0:0:
272,68,6458,86,0,L|262:147,1,48
255,196,6608,2,0,L|249:238,2,24
181,96,6758,2,0,P|158:62|50:68,2,144
255,196,7358,86,0,L|402:173,1,124.79999428711,4|0,1:0|0:0,0:0:0:0:
187,291,7583,2,0,P|130:333|68:303,1,124.79999428711,4|0,1:0|0:0,0:0:0:0:
264,179,7808,2,0,L|339:166,1,62.3999971435548,4|0,1:0|0:0,0:0:0:0:
452,36,7958,54,0,B|491:3|491:3|509:145|509:145|455:120,1,249.599988574219,4|0,1:0|0:0,0:0:0:0:
458,121,8858,86,0,L|449:203,1,48
408,262,9008,2,0,P|455:244|517:262,1,96
469,350,9308,2,0,L|464:317,2,24
378,176,9458,85,0,1:0:0:0:
333,159,9533,1,0,1:0:0:0:
286,167,9608,1,0,1:0:0:0:
250,197,9683,1,0,1:0:0:0:
233,241,9758,1,0,1:0:0:0:
215,297,9833,1,0,1:0:0:0:
169,334,9908,1,0,1:0:0:0:
110,339,9983,1,0,1:0:0:0:
58,310,10058,54,0,L|69:240,1,72
161,142,10358,85,4,1:0:0:0:
150,10,10508,2,0,L|159:126,1,105.600003222656,2|0,0:1|1:0,0:0:0:0:
233,241,10808,1,0,0:0:0:0:
233,241,10883,1,0,0:0:0:0:
233,241,10958,2,0,P|291:249|338:221,1,105.600003222656,2|0,1:0|0:0,0:0:0:0:
98,244,11183,2,0,P|50:221|0:231,1,105.600003222656,2|0,0:1|0:0,0:0:0:0:
165,323,11408,2,0,L|160:365,2,36.0000013732911
164,170,11558,53,0,1:0:0:0:
332,30,11708,2,0,B|356:80|356:80|338:152,1,105.600003222656,2|0,0:1|1:0,0:0:0:0:
255,85,12008,1,0,0:0:0:0:
255,85,12083,1,0,0:0:0:0:
255,85,12158,2,0,L|268:155,1,52.8000016113282,2|0,1:0|0:0,0:0:0:0:
440,117,12308,2,0,L|430:168,1,52.8000016113282,2|0,0:1|0:0,0:0:0:0:
249,105,12458,2,0,L|262:175,1,52.8000016113282,2|0,1:0|0:0,0:0:0:0:
365,233,12608,2,0,L|356:280,2,26.4000008056641
445,90,12758,53,0,1:0:0:0:
459,272,12908,2,0,P|407:238|335:239,1,105.600003222656,2|0,0:1|1:0,0:0:0:0:
244,272,13208,1,0,0:0:0:0:
244,272,13283,1,0,0:0:0:0:
244,272,13358,2,0,P|249:327|256:384,1,105.600003222656,2|0,1:0|0:0,0:0:0:0:
63,354,13583,2,0,P|69:301|74:248,1,105.600003222656,2|0,0:1|0:0,0:0:0:0:
164,170,13808,2,0,L|163:205,2,26.4000008056641
248,81,13958,53,0,1:0:0:0:
123,66,14108,2,0,B|175:48|175:48|234:75,1,105.600003222656,2|0,0:1|1:0,0:0:0:0:
37,126,14408,1,0,0:0:0:0:
37,126,14483,1,0,0:0:0:0:
37,126,14558,2,0,L|33:92,2,26.4000008056641,0|0|0,1:0|0:0|0:0,0:0:0:0:
51,211,14708,2,0,L|57:263,1,52.8000016113282,2|0,0:1|0:0,0:0:0:0:
236,360,14858,2,0,B|281:321|281:321|267:189,1,158.400004833985,2|0,1:0|0:0,0:0:0:0:
440,117,15158,85,4,1:0:0:0:
245,38,15308,2,0,L|260:163,1,105.600003222656,2|0,1:0|1:0,0:0:0:0:
190,279,15608,53,0,1:0:0:0:
190,279,15683,1,0,0:0:0:0:
190,279,15758,1,0,1:0:0:0:
398,351,15908,2,0,L|413:226,1,105.600003222656,2|0,1:0|1:0,0:0:0:0:
344,54,16208,53,0,1:0:0:0:
344,54,16283,1,0,0:0:0:0:
344,54,16358,1,0,1:0:0:0:
127,125,16508,1,2,1:0:0:0:
315,265,16658,1,0,1:0:0:0:
223,29,16808,53,0,1:0:0:0:
223,29,16883,1,0,0:0:0:0:
223,29,16958,2,0,L|231:102,1,52.8000016113282,0|0,1:0|0:0,0:0:0:0:
211,263,17108,2,0,L|205:210,1,52.8000016113282,2|0,1:0|0:0,0:0:0:0:
320,168,17258,1,0,1:0:0:0:
359,162,17333,1,0,0:0:0:0:
398,157,17408,1,0,1:0:0:0:
437,152,17483,1,0,0:0:0:0:
477,147,17558,54,0,L|469:220,1,62.3999971435548,4|0,1:0|0:0,0:0:0:0:
456,317,17708,2,0,L|449:371,2,31.1999985717774,0|0|0,1:0|0:0|0:0,0:0:0:0:
365,224,17858,54,0,L|357:151,1,62.3999971435548,0|0,1:0|0:0,0:0:0:0:
344,54,18008,2,0,L|337:0,2,31.1999985717774,0|0|0,1:0|0:0|0:0,0:0:0:0:
253,147,18158,54,0,L|245:220,1,62.3999971435548,0|0,1:0|0:0,0:0:0:0:
232,317,18308,2,0,L|225:371,2,31.1999985717774,0|0|0,1:0|0:0|0:0,0:0:0:0:
141,224,18458,54,0,L|133:151,1,62.3999971435548,0|0,1:0|0:0,0:0:0:0:
120,54,18608,2,0,L|113:0,2,31.1999985717774,0|0|0,1:0|0:0|0:0,0:0:0:0:
39,110,18758,53,0,1:0:0:0:
70,143,18833,1,0,1:0:0:0:
114,158,18908,1,0,1:0:0:0:
159,149,18983,1,0,1:0:0:0:
194,118,19058,53,0,1:0:0:0:
193,171,19133,1,0,1:0:0:0:
223,216,19208,1,0,1:0:0:0:
273,235,19283,1,0,1:0:0:0:
326,224,19358,53,0,1:0:0:0:
375,187,19433,1,0,1:0:0:0:
436,185,19508,1,0,1:0:0:0:
487,220,19583,1,0,1:0:0:0:
508,277,19658,53,0,1:0:0:0:
492,343,19733,1,0,1:0:0:0:
436,384,19808,1,0,1:0:0:0:
368,380,19883,1,0,1:0:0:0:
318,332,19958,53,4,1:0:0:0:
366,115,20108,1,0,0:0:0:0:
366,115,20183,1,0,0:0:0:0:
366,115,20258,2,0,P|371:161|378:213,1,72.0000027465821
480,291,20558,2,0,P|482:256|492:193,1,72.0000027465821
512,106,20858,1,0,0:0:0:0:
279,144,21158,86,0,L|156:127,1,115.199996484375,4|0,1:0|0:0,0:0:0:0:
33,99,21383,1,0,0:0:0:0:
33,99,21458,2,0,B|69:84|104:46|104:46|72:221,1,230.39999296875,0|0,1:0|1:0,0:0:0:0:
196,270,21908,53,0,0:0:0:0:
196,270,21983,1,0,0:0:0:0:
196,270,22058,2,0,P|192:226|192:192,1,57.5999982421876,0|0,1:0|0:0,0:0:0:0:
194,118,22208,2,0,P|192:146|189:175,1,57.5999982421876
2,275,22358,54,0,L|116:290,1,115.199996484375,0|0,1:0|0:0,0:0:0:0:
251,347,22583,1,0,0:0:0:0:
251,347,22658,2,0,B|295:290|295:290|263:141,1,172.799994726563,0|0,1:0|0:0,0:0:0:0:
236,39,22958,53,0,1:0:0:0:
208,133,23058,1,0,0:0:0:0:
299,109,23158,1,0,0:0:0:0:
440,258,23258,54,0,L|309:241,1,115.199996484375,0|0,0:0|0:0,1:0:0:0:
325,243,23483,1,0,0:0:0:0:
325,243,23558,53,0,1:0:0:0:
407,108,23708,1,0,0:0:0:0:
407,108,23783,1,0,0:0:0:0:
407,108,23858,2,0,P|410:145|413:186,1,57.5999982421876,0|0,1:0|0:0,0:0:0:0:
499,137,24008,2,0,P|501:103|505:59,1,57.5999982421876
343,25,24158,54,0,B|241:12|285:94|162:64,1,172.799994726563,0|0,1:0|0:0,0:0:0:0:
86,20,24458,2,0,P|100:85|101:138,1,115.199996484375,0|0,1:0|0:0,0:0:0:0:
101,133,24683,1,0,0:0:0:0:
101,133,24758,54,0,L|31:123,1,57.5999982421876,0|0,1:0|0:0,0:0:0:0:
216,171,24908,1,0,0:0:0:0:
216,171,24983,1,0,0:0:0:0:
216,171,25058,2,0,L|285:161,1,57.5999982421876,0|0,1:0|0:0,0:0:0:0:
136,242,25208,1,0,0:0:0:0:
136,242,25283,1,0,0:0:0:0:
136,242,25358,53,0,1:0:0:0:
136,242,25433,2,0,L|142:304,1,57.5999982421876
72,355,25583,1,0,0:0:0:0:
72,355,25658,2,0,L|14:360,1,57.5999982421876,0|0,1:0|0:0,0:0:0:0:
226,340,25808,2,0,L|295:333,1,57.5999982421876
425,227,25958,54,0,B|307:197|307:197|325:219|337:258,1,172.799994726563,0|0,1:0|0:0,0:0:0:0:
238,314,26258,2,0,P|240:278|243:246,1,57.5999982421876,0|0,1:0|0:0,0:0:0:0:
212,113,26408,2,0,P|214:141|215:170,1,57.5999982421876
151,236,26558,54,0,P|81:248|21:218,1,115.199996484375,0|0,1:0|0:0,0:0:0:0:
40,233,26783,1,0,0:0:0:0:
40,233,26858,1,0,1:0:0:0:
120,56,27008,1,0,0:0:0:0:
306,172,27158,54,0,P|313:137|316:95,1,57.5999982421876,0|0,1:0|0:0,0:0:0:0:
325,22,27308,2,0,P|318:57|315:99,1,57.5999982421876
486,214,27458,54,0,L|406:230,1,62.3999971435548,0|0,1:0|0:0,0:0:0:0:
248,341,27608,2,0,L|328:357,1,62.3999971435548
400,363,27758,2,0,L|413:222,1,124.79999428711,0|0,1:0|0:0,0:0:0:0:
384,254,27983,1,0,1:0:0:0:
354,259,28058,1,0,1:0:0:0:
324,252,28133,1,0,1:0:0:0:
299,234,28208,1,0,1:0:0:0:
282,207,28283,1,0,1:0:0:0:
277,177,28358,22,0,P|239:192|207:189,1,67.1999979492188,0|0,1:0|0:0,0:0:0:0:
37,119,28508,2,0,P|70:119|100:132,1,67.1999979492188,0|0,1:0|0:0,0:0:0:0:
111,357,28658,1,0,0:0:0:0:
111,357,28733,2,0,B|146:315|146:315|134:217,1,134.399995898438,0|0,1:0|0:0,0:0:0:0:
135,8,28958,54,0,L|116:164,1,144.000005493164,0|0,1:0|0:0,0:0:0:0:
361,185,29183,2,0,B|282:168|316:246|190:202,1,144.000005493164,0|0,1:0|0:0,0:0:0:0:
36,281,29408,2,0,P|80:272|124:273,1,72.0000027465821,0|0,1:0|0:0,0:0:0:0:
252,139,29558,54,0,B|264:82|281:55|281:55|230:79|193:82|193:82|116:78|112:14|137:-21|210:-31|237:30|189:83|189:83|155:160|198:245,1,576,4|0,1:0|0:0,0:0:0:0:
130,360,30158,54,0,P|161:227|35:279,1,336,0|0,1:0|0:0,0:0:0:0:
8,78,30758,6,0,B|63:87|99:134|99:134|130:89|191:76,1,216.000008239746,6|0,1:0|0:0,0:0:0:0:
186,77,31058,2,0,P|183:38|176:-2,1,72.0000027465821,2|0,1:0|0:0,0:0:0:0:
379,70,31208,2,0,P|369:104|362:139,1,72.0000027465821,2|0,0:1|0:0,0:0:0:0:
258,199,31358,22,0,L|283:50,1,144.000005493164,2|0,1:0|0:0,0:0:0:0:
281,56,31583,1,0,0:0:0:0:
281,56,31658,2,0,L|194:72,1,72.0000027465821,2|0,1:0|0:0,0:0:0:0:
342,239,31808,2,0,L|412:225,1,72.0000027465821,2|0,0:1|0:0,0:0:0:0:
182,182,31958,22,0,B|119:138|119:138|142:274,1,216.000008239746,2|0,1:0|0:0,0:0:0:0:
186,343,32258,2,0,B|151:358|151:358|113:350,1,72.0000027465821,2|0,1:0|0:0,0:0:0:0:
252,241,32408,21,0,0:0:0:0:
252,241,32483,1,0,0:0:0:0:
252,241,32558,2,0,L|411:267,1,144.000005493164,2|0,1:0|0:0,0:0:0:0:
394,264,32783,1,0,0:0:0:0:
394,264,32858,2,0,P|397:226|403:186,1,72.0000027465821,2|0,1:0|0:0,0:0:0:0:
486,44,33008,2,0,P|483:82|477:122,1,72.0000027465821,2|0,0:1|0:0,0:0:0:0:
297,121,33158,22,0,P|273:66|374:99,1,216.000008239746,2|0,1:0|0:0,0:0:0:0:
319,210,33458,2,0,P|279:214|234:216,1,72.0000027465821,2|0,1:0|0:0,0:0:0:0:
116,35,33608,2,0,P|151:37|187:40,1,72.0000027465821,2|0,0:1|0:0,0:0:0:0:
284,117,33758,22,0,L|190:127,1,72.0000027465821,2|0,1:0|0:0,0:0:0:0:
61,140,33908,1,0,0:0:0:0:
61,140,33983,1,0,0:0:0:0:
61,140,34058,2,0,B|74:175|74:175|64:225,1,72.0000027465821,2|0,1:0|0:0,0:0:0:0:
170,265,34208,2,0,B|157:230|157:230|167:180,1,72.0000027465821,2|0,0:1|0:0,0:0:0:0:
321,334,34358,22,0,B|283:337|245:323|245:323|226:348|201:365|201:365|170:350|71:352,1,216.000008239746,2|0,1:0|0:0,0:0:0:0:
23,361,34658,2,0,L|41:279,1,72.0000027465821,2|0,1:0|0:0,0:0:0:0:
292,249,34808,2,2,L|285:164,1,72.0000027465821,0|0,0:0|0:0,0:1:0:0:
177,29,34958,22,0,B|139:60|139:60|150:155,1,144.000005493164,2|0,1:0|0:0,0:0:0:0:
150,155,35183,1,0,0:0:0:0:
150,155,35258,2,0,L|63:143,1,72.0000027465821,10|0,1:0|0:0,0:0:0:0:
409,140,35408,21,0,1:0:0:0:
409,140,35483,1,0,1:0:0:0:
409,140,35558,2,0,B|346:149|271:107|271:107|287:144|286:185,1,216.000008239746,6|0,1:0|0:0,0:0:0:0:
269,367,35858,2,0,P|278:325|279:275,1,72.0000027465821,2|0,1:0|0:0,0:0:0:0:
176,160,36008,2,0,P|178:195|186:230,1,72.0000027465821,2|0,0:1|0:0,0:0:0:0:
426,253,36158,22,0,L|270:271,1,144.000005493164,2|0,1:0|0:0,0:0:0:0:
188,332,36383,1,0,0:0:0:0:
188,332,36458,2,0,L|113:321,1,72.0000027465821,2|0,1:0|0:0,0:0:0:0:
286,176,36608,2,0,L|360:169,1,72.0000027465821,2|0,0:1|0:0,0:0:0:0:
168,50,36758,21,0,1:0:0:0:
282,269,36908,1,0,1:0:0:0:
365,46,37058,21,0,1:0:0:0:
161,240,37208,1,0,1:0:0:0:
80,28,37358,22,0,L|89:109,1,67.1999979492188,2|0,1:0|0:0,0:0:0:0:
56,21,37508,2,0,L|65:102,1,67.1999979492188,0|0,1:0|0:0,0:0:0:0:
286,176,37658,22,0,L|295:95,1,62.3999971435548,2|0,1:0|0:0,0:0:0:0:
310,164,37808,2,0,L|319:83,1,62.3999971435548,0|0,1:0|0:0,0:0:0:0:
456,336,37958,5,0,1:0:0:0:
429,289,38033,1,0,1:0:0:0:
385,259,38108,1,0,1:0:0:0:
332,251,38183,1,0,1:0:0:0:
281,268,38258,2,0,P|296:312|303:346,1,72.0000027465821,0|0,1:0|0:0,0:0:0:0:
461,193,38408,53,0,1:0:0:0:
461,193,38483,1,0,1:0:0:0:
461,193,38558,2,0,P|469:157|480:123,1,72.0000027465821,0|0,1:0|0:0,0:0:0:0:
313,66,38708,2,0,L|318:112,2,36.0000013732911,0|0|0,1:0|0:0|0:0,0:0:0:0:
168,161,38858,2,0,P|121:224|215:207,1,216.000008239746,2|0,1:0|0:0,0:0:0:0:
50,137,39158,54,0,P|30:208|44:274,1,124.79999428711,6|0,1:0|0:0,0:0:0:0:
262,311,39383,2,0,P|292:256|297:195,1,124.79999428711,6|0,1:0|0:0,0:0:0:0:
209,21,39608,54,0,L|173:174,1,124.79999428711,6|0,1:0|0:0,0:0:0:0:
124,364,39833,2,0,L|152:242,1,124.79999428711,6|0,1:0|0:0,0:0:0:0:
275,178,40058,54,0,P|326:157|362:159,1,76.8,6|0,1:0|0:0,0:0:0:0:
78,128,40208,2,0,P|40:87|8:74,1,76.8,2|0,1:0|0:0,0:0:0:0:
262,311,40358,70,0,B|377:279|344:377|481:338,1,216.000008239746,6|0,1:0|0:0,0:0:0:0:
442,193,40658,2,0,P|430:233|425:280,2,72.0000027465821,10|0|2,0:1|0:0|0:1,0:0:0:0:
286,36,40883,21,0,1:0:0:0:
286,36,40958,2,0,P|296:70|301:106,1,72.0000027465821,2|0,0:1|0:0,0:0:0:0:
275,216,41108,1,0,1:0:0:0:
275,216,41183,1,0,0:0:0:0:
275,216,41258,2,0,L|179:205,1,72.0000027465821,10|0,0:1|0:0,0:0:0:0:
411,100,41408,2,0,L|507:89,1,72.0000027465821,2|0,0:1|0:0,0:0:0:0:
193,56,41558,22,0,B|126:19|126:19|151:154,1,216.000008239746,2|0,1:0|0:0,0:0:0:0:
119,197,41858,1,10,0:1:0:0:
68,209,41933,1,0,0:0:0:0:
20,186,42008,1,2,0:1:0:0:
0,137,42083,22,0,L|16:59,2,72.0000027465821,2|0|0,1:0|0:0|0:0,0:0:0:0:
64,321,42308,1,0,1:0:0:0:
90,306,42383,2,0,P|160:280|240:307,1,144.000005493164,8|0,0:0|0:0,0:0:0:0:
251,311,42608,2,0,L|265:240,1,72.0000027465821,8|0,0:0|0:0,0:0:0:0:
322,58,42758,22,0,B|396:95|396:95|359:253,1,216.000008239746,2|0,1:0|0:0,0:0:0:0:
229,153,43058,2,0,P|275:148|318:134,2,72.0000027465821,10|0|2,0:1|0:0|0:1,0:0:0:0:
402,323,43283,21,0,1:0:0:0:
402,323,43358,2,0,P|367:314|331:311,1,72.0000027465821,2|0,0:1|0:0,0:0:0:0:
154,361,43508,1,0,1:0:0:0:
154,361,43583,1,0,0:0:0:0:
154,361,43658,2,0,L|141:269,1,72.0000027465821,10|0,0:1|0:0,0:0:0:0:
366,225,43808,2,0,L|379:133,1,72.0000027465821,2|0,0:1|0:0,0:0:0:0:
65,33,43958,22,0,P|96:22|88:54,1,81.6000015563965,2|0,1:0|0:0,0:0:0:0:
266,164,44108,2,0,P|257:131|289:142,1,81.6000015563965,2|0,0:1|0:0,0:0:0:0:
183,30,44258,1,8,1:2:0:0:
181,83,44333,1,0,1:0:0:0:
153,128,44408,1,0,1:0:0:0:
106,153,44483,1,0,1:0:0:0:
53,150,44558,22,0,P|65:197|69:238,1,72.0000027465821,0|0,1:0|1:0,0:0:0:0:
249,328,44708,2,0,P|254:292|263:257,1,72.0000027465821,0|0,1:0|1:0,0:0:0:0:
289,142,44858,21,8,0:0:0:0:
349,131,44933,1,8,0:0:0:0:
394,173,45008,1,8,0:0:0:0:
443,209,45083,1,8,0:0:0:0:
503,195,45158,38,2,B|423:141|423:141|463:322,1,252.000009613037,6|0,1:1|1:1,0:1:0:0:
257,258,45758,54,0,L|344:243,1,72.0000027465821,10|0,1:0|0:0,0:0:0:0:
338,49,45908,2,0,L|267:61,1,72.0000027465821,2|0,0:1|0:0,0:0:0:0:
238,248,46058,54,0,L|325:233,1,72.0000027465821,2|0,0:1|0:0,0:0:0:0:
319,39,46208,2,0,L|248:51,1,72.0000027465821,2|0,0:1|0:0,0:0:0:0:
133,183,46358,53,0,1:0:0:0:
289,142,46508,2,0,B|256:149|256:149|240:162|240:162|194:169,1,81.6000015563965
53,150,46658,2,0,B|1:130|1:130|18:264|18:264|60:228,1,244.80000466919,0|0,0:0|1:0,0:0:0:0:
249,9,46958,54,2,P|295:51|173:51,1,288,10|2,0:1|0:1,0:1:0:0:
182,80,47258,2,2,P|269:110|250:22,1,216.000008239746,0|2,0:1|0:1,0:1:0:0:
85,12,47558,86,0,P|83:70|112:121,1,96,4|0,1:0|0:0,0:0:0:0:
288,159,47858,2,0,L|174:175,1,96,0|0,1:0|0:0,0:0:0:0:
192,172,48083,1,0,0:0:0:0:
192,172,48158,1,0,1:0:0:0:
88,331,48308,1,0,0:0:0:0:
88,331,48383,1,0,0:0:0:0:
88,331,48458,2,0,P|80:273|105:220,1,96,0|0,1:0|0:0,0:0:0:0:
294,72,48758,53,0,1:0:0:0:
245,253,48908,1,0,0:0:0:0:
467,211,49058,2,0,L|353:195,1,96,0|0,1:0|0:0,0:0:0:0:
371,197,49283,1,0,0:0:0:0:
371,197,49358,22,0,B|346:266|346:266|369:356,1,144.000005493164,0|0,1:0|0:0,0:0:0:0:
186,331,49583,2,0,B|211:262|211:262|188:172,1,144.000005493164,0|0,1:0|0:0,0:0:0:0:
294,72,49808,2,0,L|285:168,1,72.0000027465821,0|0,1:0|0:0,0:0:0:0:
92,238,49958,22,0,L|75:125,1,96,0|0,1:0|0:0,0:0:0:0:
77,143,50183,1,0,0:0:0:0:
77,143,50258,1,0,1:0:0:0:
194,88,50408,1,0,0:0:0:0:
13,36,50558,54,0,P|72:50|132:47,1,96,0|0,1:0|0:0,0:0:0:0:
287,179,50783,2,0,P|239:180|192:193,1,96
148,369,51008,2,0,L|157:313,1,48
328,265,51158,54,0,L|337:321,1,48,0|0,1:0|0:0,0:0:0:0:
414,373,51308,1,0,0:0:0:0:
240,315,51458,1,0,1:0:0:0:
391,174,51608,1,0,0:0:0:0:
501,281,51758,86,0,P|435:269|318:269,1,144.000005493164,0|0,1:0|0:0,0:0:0:0:
222,87,51983,2,0,P|293:84|364:71,1,144.000005493164,0|0,1:0|0:0,0:0:0:0:
491,14,52208,2,0,P|482:54|479:96,1,72.0000027465821,0|0,1:0|0:0,0:0:0:0:
453,180,52358,54,0,L|378:172,3,62.3999971435548,0|0|0|0,1:0|1:0|1:0|1:0,0:0:0:0:
364,47,52658,2,0,L|289:55,3,62.3999971435548,0|0|0|0,1:0|1:0|1:0|1:0,0:0:0:0:
335,312,52958,2,0,L|260:304,3,62.3999971435548,0|0|0|0,1:0|1:0|1:0|1:0,0:0:0:0:
268,130,53258,54,0,L|193:138,1,62.3999971435548,0|0,1:0|1:0,0:0:0:0:
170,228,53408,2,0,L|95:220,1,62.3999971435548,0|0,1:0|1:0,0:0:0:0:
0,90,53558,53,0,1:0:0:0:
34,52,53633,1,0,1:0:0:0:
84,41,53708,1,0,1:0:0:0:
132,61,53783,1,0,1:0:0:0:
159,104,53858,1,0,1:0:0:0:
157,155,53933,1,0,1:0:0:0:
125,196,54008,1,0,1:0:0:0:
113,245,54083,1,0,1:0:0:0:
133,292,54158,1,0,1:0:0:0:
177,318,54233,1,0,1:0:0:0:
228,311,54308,1,0,1:0:0:0:
263,274,54383,1,0,1:0:0:0:
270,224,54458,1,0,1:0:0:0:
304,186,54533,1,0,1:0:0:0:
355,186,54608,1,0,1:0:0:0:
389,223,54683,1,0,1:0:0:0:
383,273,54758,54,0,L|390:314,4,31.1999985717774,0|0|0|0|0,1:0|0:0|0:0|0:0|0:0,0:0:0:0:
198,202,54983,2,0,L|191:243,4,31.1999985717774,0|0|0|0|0,0:0|0:0|1:0|0:0|0:0,0:0:0:0:
304,128,55208,2,0,L|300:178,2,31.1999985717774
434,105,55358,54,0,L|441:146,4,31.1999985717774,0|0|0|0|0,1:0|0:0|0:0|0:0|0:0,0:0:0:0:
164,73,55583,2,0,L|157:114,4,31.1999985717774,0|0|0|0|0,0:0|0:0|1:0|0:0|0:0,0:0:0:0:
286,244,55808,2,0,L|282:294,2,31.1999985717774
352,35,55958,54,0,L|342:114,1,72.0000027465821,0|0,1:0|0:0,0:0:0:0:
107,336,56108,2,0,L|116:256,1,72.0000027465821
339,49,56258,54,0,L|329:119,1,72.0000027465821,0|0,1:0|0:0,0:0:0:0:
119,320,56408,2,0,L|128:249,1,72.0000027465821
328,62,56558,54,0,L|319:136,1,72.0000027465821,0|0,1:0|0:0,0:0:0:0:
131,307,56708,2,0,L|140:229,1,72.0000027465821
316,76,56858,54,0,L|306:149,1,72.0000027465821,0|0,1:0|0:0,0:0:0:0:
142,292,57008,2,0,L|151:214,1,72.0000027465821
494,288,57158,54,0,P|457:273|411:282,1,72,2|0,0:1|0:0,0:0:0:0:
285,346,57458,54,0,P|320:348|353:333,1,72.0000027465821,2|0,0:1|0:0,0:0:0:0:
345,247,57758,54,0,L|329:141,1,96,2|0,0:1|0:0,0:0:0:0:
329,142,57983,1,0,1:0:0:0:
328,132,58058,1,0,1:0:0:0:
274,95,58133,1,0,1:0:0:0:
210,100,58208,1,0,1:0:0:0:
163,145,58283,1,0,1:0:0:0:
156,209,58358,6,0,P|115:294|-11:253,1,230.4,6|0,1:0|0:0,0:0:0:0:
0,272,58658,2,0,P|17:324|20:358,1,76.8,2|0,1:0|0:0,0:0:0:0:
253,176,58808,2,0,P|240:212|234:250,1,76.8
64,24,58958,22,0,B|96:69|96:69|73:182,1,153.6,2|0,1:0|0:0,0:0:0:0:
76,165,59183,1,2,0:1:0:0:
76,165,59258,2,0,L|-15:153,1,76.8,0|0,1:0|0:0,0:0:0:0:
165,356,59408,2,0,L|241:346,1,76.8,2|0,0:1|0:0,0:0:0:0:
449,147,59558,21,0,1:0:0:0:
389,156,59633,1,0,0:0:0:0:
329,166,59708,2,0,L|252:175,1,76.8,2|0,0:1|0:0,0:0:0:0:
371,259,59858,2,0,B|411:263|411:263|451:246,1,76.8,2|0,1:0|0:0,0:0:0:0:
405,57,60008,2,0,B|365:53|365:53|325:70,1,76.8
156,301,60158,22,0,B|190:211|137:224|162:145,1,153.6,2|0,1:0|0:0,0:0:0:0:
162,143,60383,1,2,0:1:0:0:
165,136,60458,2,0,P|203:152|261:152,1,76.8,0|0,1:0|0:0,0:0:0:0:
89,250,60608,2,0,P|50:253|15:269,1,76.8,2|0,0:1|0:0,0:0:0:0:
320,113,60758,22,0,P|332:26|241:77,1,230.4,2|0,1:0|0:0,0:0:0:0:
262,267,61058,1,0,1:0:0:0:
319,274,61133,1,0,0:0:0:0:
376,282,61208,22,0,P|369:327|364:365,1,76.8,2|0,0:1|0:0,0:0:0:0:
441,191,61358,2,0,P|483:173|519:158,1,76.8,0|0,1:0|0:0,0:0:0:0:
330,181,61508,2,0,P|293:152|263:129,1,76.8,2|0,0:1|0:0,0:0:0:0:
101,21,61658,21,0,1:0:0:0:
82,75,61733,1,0,0:0:0:0:
76,132,61808,2,0,P|122:124|173:121,1,76.8,2|0,0:1|0:0,0:0:0:0:
348,168,61958,21,0,1:0:0:0:
366,113,62033,1,0,0:0:0:0:
372,56,62108,2,0,B|284:83|304:22|208:51,1,153.6,2|0,0:1|1:0,0:0:0:0:
207,272,62333,2,0,B|254:229|254:229|234:90,1,153.6,2|0,0:1|0:0,0:0:0:0:
13,78,62558,2,0,P|-1:127|3:169,1,76.8,2|0,1:0|0:0,0:0:0:0:
152,337,62708,21,0,1:0:0:0:
214,362,62783,1,0,1:0:0:0:
275,330,62858,1,0,1:0:0:0:
288,263,62933,1,0,1:0:0:0:
316,200,63008,1,0,1:0:0:0:
382,183,63083,1,0,1:0:0:0:
437,223,63158,22,0,B|473:259|473:259|503:131|503:131|451:140,1,230.4,6|0,1:0|0:0,0:0:0:0:
350,82,63458,2,0,P|405:74|433:65,1,76.8,2|0,1:0|0:0,0:0:0:0:
363,277,63608,2,0,P|325:267|287:262,1,76.8
80,151,63758,22,0,B|164:122|143:204|261:158,1,153.6,2|0,1:0|0:0,0:0:0:0:
233,165,63983,1,2,0:1:0:0:
239,161,64058,2,0,P|255:111|239:64,1,76.8,0|0,1:0|0:0,0:0:0:0:
113,223,64208,2,0,P|110:260|125:296,1,76.8,2|0,0:1|0:0,0:0:0:0:
337,371,64358,21,0,1:0:0:0:
343,317,64433,1,0,0:0:0:0:
350,263,64508,2,0,B|369:227|369:227|360:176,1,76.8,2|0,0:1|0:0,0:0:0:0:
212,60,64658,2,0,B|233:94|233:94|282:112,1,76.8,2|0,1:0|0:0,0:0:0:0:
456,41,64808,2,0,B|415:42|415:42|375:75,1,76.8
251,266,64958,22,0,L|57:241,1,153.6,2|0,1:0|0:0,0:0:0:0:
98,246,65183,1,2,0:1:0:0:
98,246,65258,2,0,P|111:283|100:333,1,76.8,0|0,1:0|0:0,0:0:0:0:
11,245,65408,21,0,1:0:0:0:
25,190,65483,1,0,1:0:0:0:
71,156,65558,2,0,B|123:138|154:79|154:79|194:129|262:145,1,230.4,2|0,1:0|0:0,0:0:0:0:
483,60,65858,21,0,1:0:0:0:
438,26,65933,1,0,0:0:0:0:
382,34,66008,2,0,B|340:73|340:73|371:211,1,153.6,2|0,0:1|1:0,0:0:0:0:
431,311,66233,21,0,0:0:0:0:
456,303,66308,2,0,L|358:328,1,76.8,2|0,0:1|0:0,0:0:0:0:
90,232,66458,1,0,1:0:0:0:
146,245,66533,1,0,0:0:0:0:
201,257,66608,2,0,L|299:282,1,76.8,2|0,0:1|0:0,0:0:0:0:
384,186,66758,69,0,1:0:0:0:
374,129,66833,1,0,1:0:0:0:
367,72,66908,2,0,B|285:63|313:130|220:110,1,153.6,6|0,1:0|0:0,0:0:0:0:
28,289,67133,2,0,B|71:250|71:250|49:100,1,153.6,6|0,1:0|0:0,0:0:0:0:
23,26,67358,2,0,L|102:39,1,76.8,6|0,1:0|0:0,0:0:0:0:
384,186,67508,53,0,1:0:0:0:
413,246,67583,1,0,1:0:0:0:
397,313,67658,1,0,1:0:0:0:
339,352,67733,1,0,1:0:0:0:
269,341,67808,1,0,1:0:0:0:
225,286,67883,1,0,1:0:0:0:
229,216,67958,54,0,P|192:139|58:181,1,230.4,2|0,1:0|0:0,0:0:0:0:
16,329,68258,86,0,L|108:314,1,86.3999973632813,2|0,0:1|0:0,0:0:0:0:
367,235,68558,22,0,B|308:252|308:252|244:217,1,115.199996484375,6|0,1:0|0:0,0:0:0:0:
135,61,68783,2,0,B|203:44|180:111|277:84,1,124.79999428711,6|0,1:0|0:0,0:0:0:0:
403,23,69008,1,6,1:0:0:0:
403,23,69308,54,0,P|406:66|414:100,1,67.1999979492188,6|0,1:0|0:0,0:0:0:0:
505,198,69458,2,0,L|334:223,1,134.399995898438,6|0,1:0|0:0,0:0:0:0:
372,217,69683,1,0,0:0:0:0:
372,217,69758,54,0,B|337:280|337:280|381:377,1,144.000005493164,6|0,1:0|0:0,0:0:0:0:
149,293,69983,2,0,B|184:232|184:232|147:146,1,153.6,6|0,1:0|0:0,0:0:0:0:
13,38,70208,54,0,B|46:37|46:37|73:53|73:53|122:52,1,96,6|0,1:0|0:0,0:0:0:0:
393,88,70358,6,0,B|335:94|289:140|289:140|261:83|196:49,1,230.4,6|0,1:0|0:0,0:0:0:0:
41,186,70658,1,0,1:0:0:0:
96,171,70733,1,0,0:0:0:0:
152,156,70808,22,0,P|160:205|170:260,1,76.8,2|0,0:1|0:0,0:0:0:0:
360,166,70958,2,0,P|313:148|261:129,1,76.8,0|0,1:0|0:0,0:0:0:0:
247,341,71108,2,0,P|285:309|327:273,1,76.8,2|0,0:1|0:0,0:0:0:0:
474,152,71258,21,0,1:0:0:0:
485,208,71333,1,0,0:0:0:0:
491,265,71408,2,0,L|399:251,1,76.8,2|0,0:1|0:0,0:0:0:0:
265,147,71558,21,0,1:0:0:0:
254,91,71633,1,0,0:0:0:0:
248,34,71708,2,0,B|293:48|314:80|314:80|341:52|411:49,1,153.6,2|0,0:1|1:0,0:0:0:0:
394,306,71933,2,0,B|421:211|358:242|388:139,1,153.6,2|0,0:1|0:0,0:0:0:0:
498,85,72158,2,0,P|505:140|493:170,1,76.8,2|0,1:0|0:0,0:0:0:0:
302,268,72308,21,0,1:0:0:0:
242,286,72383,1,0,1:0:0:0:
184,261,72458,1,0,1:0:0:0:
157,204,72533,1,0,1:0:0:0:
174,144,72608,1,0,1:0:0:0:
226,109,72683,1,0,1:0:0:0:
288,117,72758,22,0,P|278:66|286:16,1,76.8,6|0,1:0|0:0,0:0:0:0:
87,13,72908,2,0,P|87:51|77:88,1,76.8
179,211,73058,2,0,B|210:117|154:144|194:37,1,153.6,2|0,1:0|0:0,0:0:0:0:
193,46,73283,1,0,0:0:0:0:
200,32,73358,22,0,P|235:40|281:30,2,76.8,2|0|0,1:0|0:0|0:0,0:0:0:0:
100,170,73583,2,0,P|62:162|25:170,2,76.8,2|0|0,0:1|1:0|0:0,0:0:0:0:
244,277,73808,2,0,P|269:218|270:173,1,76.8,2|0,0:1|0:0,0:0:0:0:
368,23,73958,21,0,1:0:0:0:
370,80,74033,1,0,0:0:0:0:
398,129,74108,2,0,L|495:123,1,76.8,2|0,0:1|0:0,0:0:0:0:
512,270,74258,2,0,L|435:274,1,76.8,2|0,1:0|0:0,0:0:0:0:
391,143,74408,2,0,L|488:137,1,76.8,0|0,0:1|0:0,0:0:0:0:
303,359,74558,22,0,B|336:312|336:312|313:191,1,153.6,2|0,1:0|0:0,0:0:0:0:
291,129,74783,1,2,0:1:0:0:
291,129,74858,2,0,P|286:180|272:246,1,76.8,0|0,1:0|0:0,0:0:0:0:
60,308,75008,37,0,0:0:0:0:
45,252,75083,1,0,0:0:0:0:
41,194,75158,2,0,P|97:212|134:216,1,76.8,2|0,1:0|0:0,0:0:0:0:
247,43,75308,2,0,P|209:50|173:62,1,76.8,0|0,1:0|0:0,0:0:0:0:
228,308,75458,53,0,1:0:0:0:
238,261,75533,1,0,0:0:0:0:
245,213,75608,2,0,L|240:162,2,38.4,2|0|0,1:0|0:0|0:0,0:0:0:0:
505,270,75758,54,0,P|449:287|412:291,1,76.8,0|0,1:0|0:0,0:0:0:0:
299,118,75908,2,0,P|336:125|372:137,1,76.8,2|0,1:0|0:0,0:0:0:0:
476,179,76058,53,0,1:0:0:0:
466,132,76133,1,0,0:0:0:0:
459,84,76208,2,0,L|464:33,2,38.4,0|0|0,1:0|0:0|0:0,0:0:0:0:
368,228,76358,54,0,B|312:255|264:241|175:120|119:139|88:187|84:274|157:301|239:243|245:172|245:172|274:111|336:13|380:66|416:113|411:192|281:155|253:125|253:125|195:84|138:99,1,921.6,4|0,1:0|0:0,0:0:0:0:
83,48,77333,1,2,0:0:0:0:
83,48,77408,2,0,P|65:84|60:130,1,76.8,2|2,0:0|0:0,0:0:0:0:
62,339,77558,70,0,P|64:265|40:194,1,134.399995898438,6|0,1:0|0:0,0:0:0:0:
46,207,77783,1,2,0:1:0:0:
46,207,77858,2,0,P|88:218|121:223,1,67.1999979492188,0|0,1:0|0:0,0:0:0:0:
222,325,78008,2,0,P|188:330|156:339,1,67.1999979492188,2|0,0:1|0:0,0:0:0:0:
254,176,78158,1,0,1:0:0:0:
254,176,78233,2,0,P|188:211|139:267,1,134.399995898438,2|0,0:1|0:0,0:0:0:0:
18,91,78458,2,0,P|81:129|154:144,1,134.399995898438,2|0,1:0|0:0,0:0:0:0:
350,100,78758,22,0,B|378:158|378:158|355:247,1,134.399995898438,2|0,1:0|0:0,0:0:0:0:
360,227,78983,1,2,0:1:0:0:
360,225,79058,2,0,L|445:218,1,67.1999979492188,0|0,1:0|0:0,0:0:0:0:
512,122,79208,2,0,L|445:116,1,67.1999979492188,2|0,0:1|0:0,0:0:0:0:
179,250,79358,1,0,1:0:0:0:
179,250,79433,2,0,B|215:196|215:196|303:172,1,134.399995898438,2|0,0:1|0:0,0:0:0:0:
395,324,79658,2,0,B|330:319|330:319|265:254,1,134.399995898438,2|0,1:0|0:0,0:0:0:0:
202,27,79958,22,0,L|179:170,1,134.399995898438,2|0,1:0|0:0,0:0:0:0:
180,159,80183,1,2,0:1:0:0:
180,159,80258,2,0,P|128:147|102:146,1,67.1999979492188,0|0,1:0|0:0,0:0:0:0:
38,62,80408,2,0,P|71:57|103:48,1,67.1999979492188,2|0,0:1|0:0,0:0:0:0:
286,2,80558,1,0,1:0:0:0:
286,2,80633,2,0,L|309:145,1,134.399995898438,2|0,0:1|0:0,0:0:0:0:
384,215,80858,21,2,1:0:0:0:
400,201,80933,2,0,P|403:167|413:122,1,67.1999979492188
342,345,81083,1,2,1:0:0:0:
357,338,81158,2,0,P|405:318|433:315,1,67.1999979492188
128,215,81308,21,2,1:0:0:0:
112,201,81383,2,0,P|108:167|99:122,1,67.1999979492188
170,345,81533,1,2,1:0:0:0:
155,338,81608,2,0,P|107:318|79:315,1,67.1999979492188
318,166,81758,21,2,1:0:0:0:
334,158,81833,2,0,L|413:113,1,67.1999979492188
194,166,81983,1,2,1:0:0:0:
178,158,82058,2,0,L|99:113,1,67.1999979492188
256,266,82208,2,0,L|255:357,1,67.1999979492188,2|0,1:0|0:0,0:0:0:0:
476,177,82358,22,0,P|386:143|318:168,1,134.399995898438,6|0,1:0|0:0,0:0:0:0:
351,149,82583,1,2,0:1:0:0:
351,149,82658,2,0,P|362:94|361:65,1,67.1999979492188,0|0,1:0|0:0,0:0:0:0:
149,83,82808,2,0,P|152:117|160:149,1,67.1999979492188,2|0,0:1|0:0,0:0:0:0:
256,176,82958,1,0,1:0:0:0:
256,176,83033,2,0,B|286:89|227:126|264:7,1,134.399995898438,2|0,0:1|0:0,0:0:0:0:
35,177,83258,2,0,P|94:145|160:149,1,134.399995898438,2|0,1:0|0:0,0:0:0:0:
398,247,83558,102,0,L|386:326,1,67.1999979492188,2|0,1:0|0:0,0:0:0:0:
124,313,83708,1,0,1:0:0:0:
124,313,83783,1,0,1:0:0:0:
124,313,83858,2,0,L|114:247,1,67.1999979492188,2|0,1:0|0:0,0:0:0:0:
418,64,84008,53,0,1:0:0:0:
409,113,84083,1,0,1:0:0:0:
401,163,84158,1,2,1:0:0:0:
111,163,84308,1,0,1:0:0:0:
103,113,84383,1,0,1:0:0:0:
94,64,84458,1,2,1:0:0:0:
256,272,84608,53,0,1:0:0:0:
256,80,84758,1,4,1:0:0:0:
0,69,89558,117,0,1:0:0:0:
158,290,89708,1,0,1:0:0:0:
199,34,89858,1,0,1:0:0:0:
512,134,90008,53,0,1:0:0:0:
512,134,90083,1,0,1:0:0:0:
512,134,90158,1,0,1:0:0:0:
354,355,90308,1,0,1:0:0:0:
313,99,90458,1,0,1:0:0:0:
69,206,90608,53,0,1:0:0:0:
69,206,90683,1,0,1:0:0:0:
69,206,90758,1,0,1:0:0:0:
348,261,90908,1,0,1:0:0:0:
99,384,91058,1,0,1:0:0:0:
434,48,91208,53,0,1:0:0:0:
434,48,91283,1,0,1:0:0:0:
434,48,91358,1,0,1:0:0:0:
159,165,91508,1,0,1:0:0:0:
440,272,91658,54,0,P|436:230|437:189,1,62.3999971435548,0|0,1:0|0:0,0:0:0:0:
261,232,91808,2,0,P|260:263|256:294,1,62.3999971435548,0|0,1:0|0:0,0:0:0:0:
354,355,91958,53,0,1:0:0:0:
351,308,92033,1,0,1:0:0:0:
348,261,92108,2,0,L|353:222,2,31.1999985717774,0|0|0,1:0|0:0|0:0,0:0:0:0:
158,290,92258,53,0,1:0:0:0:
160,243,92333,1,0,1:0:0:0:
163,196,92408,2,0,L|158:156,2,31.1999985717774,0|0|0,1:0|0:0|0:0,0:0:0:0:
512,134,92558,53,0,1:0:0:0:
466,145,92633,1,0,1:0:0:0:
420,157,92708,2,0,L|422:203,2,31.1999985717774,0|0|0,1:0|0:0|0:0,0:0:0:0:
96,36,92858,53,0,1:0:0:0:
142,47,92933,1,0,1:0:0:0:
188,59,93008,2,0,L|185:105,2,31.1999985717774,0|0|0,1:0|0:0|0:0,0:0:0:0:
363,149,93158,53,4,1:0:0:0:
350,88,93233,1,0,1:0:0:0:
303,49,93308,1,0,1:0:0:0:
242,48,93383,1,0,1:0:0:0:
194,86,93458,1,0,1:0:0:0:
180,145,93533,1,0,1:0:0:0:
207,201,93608,53,0,1:0:0:0:
242,234,93683,1,0,1:0:0:0:
247,283,93758,1,0,1:0:0:0:
219,323,93833,1,0,1:0:0:0:
172,335,93908,1,0,1:0:0:0:
128,314,93983,53,0,1:0:0:0:
101,288,94058,1,0,1:0:0:0:
65,280,94133,1,0,1:0:0:0:
30,291,94208,1,0,1:0:0:0:
6,319,94283,1,0,1:0:0:0:
0,356,94358,53,4,1:0:0:0:
256,192,94433,12,0,95033,0:0:0:0:
407,206,95108,69,0,1:0:0:0:
407,206,95183,1,0,1:0:0:0:
407,206,95258,2,0,P|397:246|389:287,1,62.3999971435548,2|0,1:0|0:0,0:0:0:0:
371,358,95408,2,0,P|381:318|389:277,1,62.3999971435548,2|0,1:0|0:0,0:0:0:0:
281,152,95558,22,0,P|180:117|150:215,1,172.799994726563,6|0,1:0|0:0,0:0:0:0:
102,265,95783,1,0,0:0:0:0:
97,288,95858,2,0,P|75:216|49:178,1,86.3999973632813,2|0,1:0|0:0,0:0:0:0:
320,220,96008,2,0,P|342:148|368:110,1,86.3999973632813,2|0,0:1|0:0,0:0:0:0:
499,47,96158,21,0,1:0:0:0:
434,48,96233,1,2,0:1:0:0:
370,36,96308,2,0,P|313:24|250:23,1,86.3999973632813
1,94,96458,22,0,P|44:90|86:81,1,86.3999973632813,2|0,1:0|0:0,0:0:0:0:
247,153,96608,2,0,P|203:156|161:165,1,86.3999973632813,2|0,0:1|0:0,0:0:0:0:
61,355,96758,22,0,B|94:265|27:274|68:165,1,172.799994726563,2|0,1:0|0:0,0:0:0:0:
69,170,96983,1,0,0:0:0:0:
77,154,97058,2,0,P|137:144|181:168,1,86.3999973632813,2|0,1:0|0:0,0:0:0:0:
291,335,97208,2,0,P|249:344|208:333,1,86.3999973632813,2|0,0:1|0:0,0:0:0:0:
149,244,97358,21,0,1:0:0:0:
213,238,97433,1,0,0:0:0:0:
278,232,97508,2,0,L|389:226,1,86.3999973632813,2|0,0:1|0:0,0:0:0:0:
492,87,97658,21,0,1:0:0:0:
512,99,97733,2,0,B|448:92|448:92|411:114|411:114|346:106,1,172.799994726563,2|0,0:1|0:0,0:0:0:0:
259,37,97958,22,0,P|264:86|268:151,1,86.3999973632813,0|0,1:0|0:0,0:0:0:0:
149,276,98108,2,0,P|154:207|161:139,1,124.79999428711,2|0,0:1|0:0,0:0:0:0:
120,66,98258,21,0,1:0:0:0:
141,56,98333,2,0,B|252:39|207:141|362:102,1,220.800004211426,2|0,0:1|0:0,0:0:0:0:
512,215,98558,21,0,1:0:0:0:
448,201,98633,1,2,0:1:0:0:
384,204,98708,2,0,P|320:215|281:234,1,86.3999973632813
124,318,98858,22,0,P|118:249|107:201,1,86.3999973632813,2|0,1:0|0:0,0:0:0:0:
362,290,99008,2,0,P|355:332|352:375,1,86.3999973632813,2|0,0:1|0:0,0:0:0:0:
237,299,99158,22,0,B|241:258|241:258|236:229|236:229|255:197|255:197|250:171|250:171|254:124,1,172.799994726563,2|0,1:0|0:0,0:0:0:0:
255,115,99383,1,0,0:0:0:0:
257,97,99458,2,0,P|202:82|143:99,1,86.3999973632813,2|0,1:0|0:0,0:0:0:0:
358,181,99608,2,0,P|400:183|441:169,1,86.3999973632813,2|0,0:1|0:0,0:0:0:0:
152,262,99758,22,0,P|68:211|-22:244,1,172.799994726563,2|0,1:0|0:0,0:0:0:0:
326,332,99983,1,0,0:0:0:0:
319,352,100058,2,0,P|323:299|332:249,1,86.3999973632813,10|0,1:0|0:0,0:0:0:0:
154,69,100208,2,0,P|160:111|163:154,1,86.3999973632813,2|0,1:0|0:0,0:0:0:0:
91,328,100358,22,0,B|138:339|169:362|169:362|189:332|255:287,1,172.799994726563,6|0,1:0|0:0,0:0:0:0:
261,202,100583,1,0,0:0:0:0:
289,206,100658,2,0,P|354:212|406:201,1,86.3999973632813,2|0,1:0|0:0,0:0:0:0:
477,23,100808,2,0,P|433:19|391:26,1,86.3999973632813,2|0,0:1|0:0,0:0:0:0:
193,90,100958,21,0,1:0:0:0:
221,93,101033,2,0,L|329:109,2,86.3999973632813,2|0|0,0:1|0:0|0:0,0:0:0:0:
111,35,101258,22,0,B|93:72|93:72|102:155,1,86.3999973632813,2|0,1:0|0:0,0:0:0:0:
164,299,101408,2,0,B|182:262|182:262|173:179,1,86.3999973632813,2|0,0:1|0:0,0:0:0:0:
0,197,101558,22,0,L|199:235,1,172.799994726563,2|0,1:0|0:0,0:0:0:0:
381,187,101783,1,0,0:0:0:0:
364,185,101858,2,0,P|323:178|253:205,1,86.3999973632813,2|0,1:0|0:0,0:0:0:0:
239,350,102008,2,0,P|280:359|323:352,1,86.3999973632813,2|0,0:1|0:0,0:0:0:0:
459,116,102158,21,0,1:0:0:0:
469,146,102233,2,0,B|502:236|435:227|476:336,1,172.799994726563,2|0,0:1|0:0,0:0:0:0:
229,257,102458,1,0,1:0:0:0:
250,208,102533,1,0,1:0:0:0:
294,177,102608,1,0,1:0:0:0:
347,171,102683,1,0,1:0:0:0:
395,193,102758,6,0,P|382:141|385:93,1,86.3999973632813,6|0,1:0|0:0,0:0:0:0:
477,53,102908,1,0,1:0:0:0:
440,19,102983,1,0,1:0:0:0:
392,4,103058,1,0,1:0:0:0:
342,11,103133,1,0,1:0:0:0:
301,39,103208,1,0,1:0:0:0:
275,82,103283,1,0,1:0:0:0:
270,131,103358,1,0,1:0:0:0:
258,179,103433,1,0,1:0:0:0:
237,224,103508,1,0,1:0:0:0:
198,255,103583,1,0,1:0:0:0:
149,266,103658,1,0,1:0:0:0:
100,256,103733,1,0,1:0:0:0:
60,225,103808,54,0,P|71:171|76:121,2,86.3999973632813,2|0|0,1:0|0:0|0:0,0:0:0:0:
327,362,104033,2,0,P|316:308|311:258,1,86.3999973632813,2|0,1:0|0:0,0:0:0:0:
432,156,104183,54,0,L|315:176,1,86.3999973632813,2|0,1:0|0:0,0:0:0:0:
228,330,104333,1,0,0:0:0:0:
198,327,104408,2,0,L|81:307,1,86.3999973632813,2|0,1:0|0:0,0:0:0:0:
16,80,104558,54,0,B|52:57|52:57|106:65,1,86.3999973632813,2|0,1:0|0:0,0:0:0:0:
127,211,104708,2,0,B|91:234|91:234|37:226,1,86.3999973632813,2|0,1:0|0:0,0:0:0:0:
173,130,104858,53,0,1:0:0:0:
228,121,104933,1,0,1:0:0:0:
284,112,105008,1,0,1:0:0:0:
340,104,105083,1,0,1:0:0:0:
395,95,105158,70,0,B|370:84|338:65|338:65|385:225,1,172.799994726563,6|0,1:0|0:0,0:0:0:0:
418,252,105383,1,0,0:0:0:0:
418,252,105458,2,0,B|379:273|379:273|319:266,1,86.3999973632813,10|0,0:1|0:0,0:0:0:0:
250,198,105608,2,0,P|243:273|234:310,1,86.3999973632813,2|0,0:1|0:0,0:0:0:0:
130,129,105758,21,0,1:0:0:0:
194,120,105833,1,2,0:1:0:0:
258,111,105908,2,0,B|299:94|299:94|357:107,1,86.3999973632813
507,151,106058,2,0,P|500:108|497:65,1,86.3999973632813,10|0,0:1|0:0,0:0:0:0:
409,0,106208,2,0,L|418:106,1,86.3999973632813,2|0,0:1|0:0,0:0:0:0:
357,279,106358,6,0,B|261:261|281:344|166:309,1,192,2|0,1:0|0:0,0:0:0:0:
130,129,106583,54,0,B|70:97|70:97|118:267,1,192,2|0,1:0|0:0,0:0:0:0:
339,103,106808,54,0,B|399:71|399:71|351:241,1,192,2|0,1:0|0:0,0:0:0:0:
100,296,107033,54,0,P|33:257|110:221,1,192,2|0,1:0|0:0,0:0:0:0:
256,349,107258,53,0,1:0:0:0:
259,301,107333,1,0,1:0:0:0:
262,253,107408,2,0,P|254:188|250:141,1,96,0|0,1:0|0:0,0:0:0:0:
78,47,107558,70,0,B|118:50|157:80|157:80|186:45|244:28,1,172.799994726563,2|0,1:0|0:0,0:0:0:0:
386,91,107783,1,0,0:0:0:0:
409,96,107858,2,0,P|358:93|300:86,1,86.3999973632813,10|0,0:1|0:0,0:0:0:0:
104,167,108008,1,0,0:0:0:0:
81,172,108083,2,0,P|132:169|190:162,1,86.3999973632813,2|0,0:1|1:0,0:0:0:0:
375,202,108233,21,0,0:0:0:0:
370,182,108308,2,0,B|352:220|352:220|366:308,1,86.3999973632813,2|0,0:1|0:0,0:0:0:0:
512,300,108458,2,0,B|488:265|488:265|404:233,1,86.3999973632813,10|0,0:1|0:0,0:0:0:0:
338,363,108608,2,0,B|379:359|379:359|449:303,1,86.3999973632813,2|0,0:1|0:0,0:0:0:0:
267,133,108758,22,0,B|294:225|236:201|270:318,1,172.799994726563,2|0,1:0|0:0,0:0:0:0:
149,361,108983,1,0,0:0:0:0:
147,377,109058,2,0,P|159:305|161:270,1,86.3999973632813,10|0,0:1|0:0,0:0:0:0:
177,89,109208,2,0,P|181:131|190:174,1,86.3999973632813,2|0,0:1|0:0,0:0:0:0:
434,204,109358,22,0,B|371:217|371:217|347:246|347:246|269:260,1,172.799994726563,2|0,1:0|1:0,0:0:0:0:
101,176,109583,1,0,1:0:0:0:
80,180,109658,2,0,L|183:165,1,86.3999973632813,2|0,1:0|1:0,0:0:0:0:
283,273,109808,6,0,L|159:290,1,124.79999428711,2|2,1:0|1:0,0:0:0:0:
54,64,109958,54,0,B|193:13|193:13|146:94,1,220.800004211426,6|0,1:0|0:0,0:0:0:0:
411,134,110183,2,0,B|272:84|272:84|318:161,1,220.800004211426,2|0,1:0|0:0,0:0:0:0:
176,260,110408,2,0,B|204:201|162:211|196:140,1,110.400002105713,2|0,1:0|0:0,0:0:0:0:
380,62,110558,53,0,0:0:0:0:
403,56,110633,2,0,P|493:137|395:213,1,220.800004211426,2|0,1:0|0:0,0:0:0:0:
268,249,110858,2,0,P|323:245|396:270,1,110.400002105713,2|0,1:0|0:0,0:0:0:0:
512,270,111008,2,0,P|458:284|404:280,1,110.400002105713,2|0,0:1|0:0,0:0:0:0:
117,164,111158,54,0,B|87:128|87:128|200:84|200:84|196:138,1,220.800004211426,6|0,1:0|0:0,0:0:0:0:
331,300,111383,2,0,B|361:336|361:336|248:380|248:380|251:327,1,220.800004211426,2|0,1:0|0:0,0:0:0:0:
310,147,111608,2,0,B|342:141|360:131|360:131|374:148|419:163,1,110.400002105713,2|0,1:0|0:0,0:0:0:0:
206,251,111758,53,0,0:0:0:0:
177,248,111833,2,0,B|134:237|91:194|91:194|58:249|-24:273,1,220.800004211426,2|0,1:0|0:0,0:0:0:0:
84,113,112058,2,0,L|73:-12,1,110.400002105713,2|0,1:0|0:0,0:0:0:0:
310,51,112208,53,2,1:0:0:0:
305,105,112283,1,0,1:0:0:0:
300,160,112358,2,0,B|413:137|376:232|515:191,1,220.800004211426,6|0,1:0|0:0,0:0:0:0:
227,359,112583,2,0,B|218:295|202:206|202:206|232:236|265:250,1,220.800004211426,2|0,1:0|0:0,0:0:0:0:
436,338,112808,2,0,P|439:282|447:227,1,110.400002105713,2|0,1:0|0:0,0:0:0:0:
493,71,112958,53,0,0:0:0:0:
493,71,113033,2,0,P|410:120|312:45,1,220.800004211426,6|0,1:0|0:0,0:0:0:0:
58,246,113258,2,0,P|153:255|211:145,1,220.800004211426,6|0,1:0|0:0,0:0:0:0:
454,246,113483,54,0,P|358:255|300:145,1,220.800004211426,6|0,1:0|0:0,0:0:0:0:
19,71,113708,2,0,P|102:120|200:45,1,220.800004211426,6|0,1:0|0:0,0:0:0:0:
252,361,113933,54,0,P|238:292|267:360,1,220.800004211426,6|0,1:0|0:0,0:0:0:0:
195,57,114158,53,0,1:0:0:0:
255,36,114233,1,0,1:0:0:0:
316,57,114308,1,0,1:0:0:0:
347,113,114383,1,0,1:0:0:0:
337,176,114458,1,0,1:0:0:0:
287,218,114533,1,0,1:0:0:0:
223,217,114608,1,0,1:0:0:0:
173,176,114683,1,0,1:0:0:0:
163,112,114758,1,4,1:0:0:0:
160,143,115658,86,0,L|163:112,8,31.1999985717774
214,36,116183,1,0,0:0:0:0:
223,56,116258,2,0,B|170:27|170:27|88:59,1,124.79999428711
43,199,116558,86,0,B|120:182|92:258|209:223,1,144.000005493164,4|0,1:0|0:0,0:0:0:0:
388,166,116783,2,0,P|314:159|221:135,1,144.000005493164,4|0,1:0|0:0,0:0:0:0:
257,323,117008,2,0,L|265:229,1,72.0000027465821,4|0,1:0|0:0,0:0:0:0:
321,54,117158,54,0,B|345:32|370:14|370:14|389:169|389:169|356:151|318:136,1,288.000010986329,4|0,1:0|0:0,0:0:0:0:
327,140,118058,86,0,P|332:173|343:256,1,62.3999971435548
466,294,118208,2,0,P|480:213|497:160,1,124.79999428711
418,108,118508,2,0,L|411:161,2,31.1999985717774
248,187,118658,2,0,B|231:148|231:148|240:108,2,83.1999961914064
466,294,118958,86,0,B|415:290|377:258|377:258|349:306|243:331,1,192.000007324219,6|0,1:0|0:0,0:0:0:0:
115,293,119258,2,0,P|141:251|144:345,1,259.199992089844,6|0,1:0|0:0,0:0:0:0:
43,199,119558,53,4,1:0:0:0:
