osu file format v14

[General]
AudioFilename: Ultimate Ascension.mp3
AudioLeadIn: 0
PreviewTime: 58320
Countdown: 0
SampleSet: Soft
StackLeniency: 0.7
Mode: 3
LetterboxInBreaks: 0
SpecialStyle: 0
WidescreenStoryboard: 0

[Editor]
DistanceSpacing: 0.8
BeatDivisor: 8
GridSize: 32
TimelineZoom: 2

[Metadata]
Title:Ultimate Ascension
TitleUnicode:Ultimate Ascension
Artist:Camellia
ArtistUnicode:かめりあ
Creator:Fresh Chicken
Version:NOVICE
Source:SOUND VOLTEX III GRAVITY WARS
Tags:東方Project Critical_Star SDVX アルティメットトゥルース Ultimate Truth 東方妖々夢 Touhou Youyoumu Remix Contest
BeatmapID:1018071
BeatmapSetID:476565

[Difficulty]
HPDrainRate:7
CircleSize:4
OverallDifficulty:7
ApproachRate:5
SliderMultiplier:1.4
SliderTickRate:1

[Events]
//Background and Video events
0,0,"havv.png",0,0
//Break Periods
//Storyboard Layer 0 (Background)
//Storyboard Layer 1 (Fail)
//Storyboard Layer 2 (Pass)
//Storyboard Layer 3 (Foreground)
//Storyboard Sound Samples
Sample,9833,0,"Hi Im Kick.wav",30
Sample,9983,0,"Hi Im Kick.wav",30
Sample,10358,0,"Hi Im Kick.wav",50
Sample,15158,0,"Hello I'm Crsh.wav",30
Sample,15308,0,"Hi Im Kick.wav",50
Sample,15683,0,"Hi Im Kick.wav",30
Sample,15758,0,"Hi Im Kick.wav",30
Sample,15908,0,"Hi Im Kick.wav",30
Sample,16283,0,"Hi Im Kick.wav",30
Sample,16358,0,"Hello I'm Crsh.wav",30
Sample,16508,0,"Hi Im Kick.wav",30
Sample,16883,0,"Hi Im Kick.wav",30
Sample,16958,0,"Hi Im Kick.wav",30
Sample,17108,0,"Hi Im Kick.wav",30
Sample,25583,0,"Hi Im Kick.wav",30
Sample,25658,0,"Hi Im Kick.wav",30
Sample,35258,0,"Hi I'm Snare.wav",30
Sample,35333,0,"Hi Im Kick.wav",30
Sample,38745,0,"Hi Im Kick.wav",30
Sample,38783,0,"Hi Im Kick.wav",30
Sample,38820,0,"Hi Im Kick.wav",30
Sample,44933,0,"Hi I'm Snare.wav",30
Sample,45008,0,"Hi I'm Snare.wav",30
Sample,45083,0,"Hi I'm Snare.wav",30
Sample,45683,0,"Hi Im Kick.wav",30
Sample,46883,0,"Hi Im Kick.wav",30
Sample,50108,0,"Hi Im Kick.wav",30
Sample,50408,0,"Hi Im Kick.wav",30
Sample,50708,0,"Hi Im Kick.wav",30
Sample,51008,0,"Hi Im Kick.wav",30
Sample,51308,0,"Hi Im Kick.wav",30
Sample,51608,0,"Hi Im Kick.wav",30
Sample,52433,0,"Hi Im Kick.wav",30
Sample,52583,0,"Hi Im Kick.wav",30
Sample,52733,0,"Hi Im Kick.wav",30
Sample,52883,0,"Hi Im Kick.wav",30
Sample,52958,0,"Hi Im Kick.wav",30
Sample,53033,0,"Hi Im Kick.wav",30
Sample,53183,0,"Hi Im Kick.wav",30
Sample,53333,0,"Hi Im Kick.wav",30
Sample,53483,0,"Hi Im Kick.wav",30
Sample,53558,0,"Hello I'm Crsh.wav",30
Sample,53633,0,"Hi Im Kick.wav",30
Sample,53783,0,"Hi Im Kick.wav",30
Sample,53933,0,"Hi Im Kick.wav",30
Sample,54083,0,"Hi Im Kick.wav",30
Sample,54158,0,"Hi Im Kick.wav",30
Sample,54233,0,"Hi Im Kick.wav",30
Sample,54383,0,"Hi Im Kick.wav",30
Sample,54533,0,"Hi Im Kick.wav",30
Sample,54683,0,"Hi Im Kick.wav",30
Sample,59258,0,"Hi Im Kick.wav",30
Sample,60458,0,"Hi Im Kick.wav",30
Sample,64058,0,"Hi Im Kick.wav",30
Sample,65258,0,"Hi Im Kick.wav",30
Sample,67583,0,"Hi Im Kick.wav",30
Sample,67733,0,"Hi Im Kick.wav",30
Sample,67808,0,"Hi Im Kick.wav",30
Sample,67883,0,"Hi Im Kick.wav",30
Sample,73658,0,"Hi Im Kick.wav",30
Sample,74858,0,"Hi Im Kick.wav",30
Sample,83783,0,"Hi Im Kick.wav",30
Sample,84083,0,"Hi Im Kick.wav",30
Sample,89708,0,"Hi Im Kick.wav",30
Sample,90308,0,"Hi Im Kick.wav",30
Sample,90908,0,"Hi Im Kick.wav",30
Sample,91508,0,"Hi Im Kick.wav",30
Sample,92033,0,"Hi Im Kick.wav",30
Sample,92333,0,"Hi Im Kick.wav",30
Sample,104933,0,"Hi Im Kick.wav",30
Sample,105008,0,"Hi Im Kick.wav",30
Sample,105083,0,"Hi Im Kick.wav",30
Sample,109583,0,"Hi Im Kick.wav",30
Sample,109658,0,"Hi I'm Snare.wav",30
Sample,109733,0,"Hi Im Kick.wav",30
Sample,109808,0,"Hi Im Kick.wav",30
Sample,119558,0,"Hi Im Kick.wav",30

[TimingPoints]
758,300,4,2,0,30,1,0
58358,-100,4,2,0,30,0,1
67958,-100,4,2,0,30,0,0
70358,-100,4,2,0,30,0,1
76958,-100,4,2,0,30,0,0
77558,-100,4,2,0,30,0,1
84758,-100,4,2,0,30,0,0

[HitObjects]
64,192,758,5,0,0:0:0:50:Hi Im Kick.wav
448,192,758,1,0,0:0:0:30:Hello I'm Crsh.wav
192,192,1058,1,0,0:0:0:0:
320,192,1358,1,0,0:0:0:0:
448,192,1658,1,0,0:0:0:0:
192,192,1958,1,0,0:0:0:0:
64,192,2258,1,0,0:0:0:0:
448,192,2558,1,0,0:0:0:50:Hi Im Kick.wav
320,192,2558,1,0,0:0:0:0:
192,192,2783,1,0,0:0:0:50:Hi Im Kick.wav
64,192,2783,1,0,0:0:0:0:
320,192,3008,1,0,0:0:0:50:Hi Im Kick.wav
448,192,3008,1,0,0:0:0:0:
64,192,3158,1,0,0:0:0:50:Hi Im Kick.wav
192,192,3158,1,0,0:0:0:0:
320,192,3458,1,0,0:0:0:0:
64,192,3758,1,0,0:0:0:0:
192,192,4058,1,0,0:0:0:0:
448,192,4358,1,0,0:0:0:0:
64,192,4658,1,0,0:0:0:0:
448,192,4958,1,0,0:0:0:50:Hi Im Kick.wav
320,192,4958,128,0,5258:0:0:0:0:
64,192,5258,1,0,0:0:0:50:Hi Im Kick.wav
192,192,5258,128,0,5558:0:0:0:0:
320,192,5558,1,0,0:0:0:50:Hi Im Kick.wav
448,192,5558,1,0,0:0:0:0:
64,192,5858,1,0,0:0:0:0:
448,192,6158,1,0,0:0:0:0:
192,192,6458,1,0,0:0:0:0:
320,192,6758,1,0,0:0:0:0:
64,192,7058,1,0,0:0:0:0:
320,192,7358,1,0,0:0:0:50:Hi Im Kick.wav
448,192,7358,1,0,0:0:0:0:
192,192,7583,1,0,0:0:0:50:Hi Im Kick.wav
64,192,7583,1,0,0:0:0:0:
320,192,7808,1,0,0:0:0:50:Hi Im Kick.wav
448,192,7808,1,0,0:0:0:0:
192,192,7958,1,0,0:0:0:50:Hi Im Kick.wav
64,192,7958,1,0,0:0:0:0:
448,192,8258,1,0,0:0:0:0:
64,192,8558,1,0,0:0:0:0:
320,192,8858,1,0,0:0:0:0:
192,192,9158,1,0,0:0:0:0:
448,192,9458,1,0,0:0:0:0:
64,192,9608,1,0,0:0:0:0:
320,192,9758,1,0,0:0:0:30:Hi Im Kick.wav
192,192,9908,1,0,0:0:0:30:Hi Im Kick.wav
320,192,10058,128,0,10358:0:0:0:30:Hi Im Kick.wav
64,192,10358,1,0,0:0:0:30:Hello I'm Crsh.wav
448,192,10358,1,0,0:0:0:30:Hi Im Kick.wav
64,192,10658,1,0,0:0:0:30:Hi Im Kick.wav
320,192,10958,1,0,0:0:0:30:Hi Im Kick.wav
320,192,11258,1,0,0:0:0:30:Hi Im Kick.wav
192,192,11558,1,0,0:0:0:30:Hi Im Kick.wav
192,192,11858,1,0,0:0:0:30:Hi Im Kick.wav
448,192,12158,1,0,0:0:0:30:Hi Im Kick.wav
320,192,12758,1,0,0:0:0:30:Hi Im Kick.wav
320,192,13058,1,0,0:0:0:30:Hi Im Kick.wav
192,192,13358,1,0,0:0:0:30:Hi Im Kick.wav
192,192,13658,1,0,0:0:0:30:Hi Im Kick.wav
448,192,13958,1,0,0:0:0:30:Hi Im Kick.wav
448,192,14258,1,0,0:0:0:30:Hi Im Kick.wav
64,192,14558,1,0,0:0:0:30:Hi Im Kick.wav
320,192,14858,1,0,0:0:0:0:
64,192,15158,1,0,0:0:0:30:Hi Im Kick.wav
192,192,15458,1,0,0:0:0:30:Hi Im Kick.wav
320,192,15608,1,0,0:0:0:30:Hi Im Kick.wav
448,192,15758,1,0,0:0:0:30:Hello I'm Crsh.wav
320,192,16058,1,0,0:0:0:30:Hi Im Kick.wav
192,192,16208,1,0,0:0:0:30:Hi Im Kick.wav
64,192,16358,1,0,0:0:0:30:Hi Im Kick.wav
448,192,16658,1,0,0:0:0:30:Hi Im Kick.wav
192,192,16808,1,0,0:0:0:30:Hi Im Kick.wav
320,192,16958,1,0,0:0:0:30:Hello I'm Crsh.wav
64,192,17258,1,0,0:0:0:30:Hi Im Kick.wav
320,192,17408,1,0,0:0:0:30:Hi Im Kick.wav
64,192,17558,1,0,0:0:0:30:Hi Im Kick.wav
192,192,17708,1,0,0:0:0:0:
448,192,17858,1,0,0:0:0:30:Hi Im Kick.wav
320,192,18008,1,0,0:0:0:0:
64,192,18158,1,0,0:0:0:0:
192,192,18308,1,0,0:0:0:0:
448,192,18458,1,0,0:0:0:0:
320,192,18608,1,0,0:0:0:0:
64,192,18758,1,0,0:0:0:0:
192,192,18908,1,0,0:0:0:0:
320,192,19058,1,0,0:0:0:0:
448,192,19208,1,0,0:0:0:0:
64,192,19358,1,0,0:0:0:0:
192,192,19508,1,0,0:0:0:0:
320,192,19658,1,0,0:0:0:0:
448,192,19808,1,0,0:0:0:0:
192,192,19958,1,0,0:0:0:30:Hello I'm Crsh.wav
64,192,19958,1,0,0:0:0:0:
448,192,21158,1,0,0:0:0:30:Hi Im Kick.wav
64,192,21158,128,0,22358:0:0:0:0:
448,192,21458,1,0,0:0:0:30:Hi Im Kick.wav
320,192,21758,1,0,0:0:0:30:Hi Im Kick.wav
320,192,22058,1,0,0:0:0:30:Hi Im Kick.wav
448,192,22358,128,0,23558:0:0:0:30:Hi Im Kick.wav
192,192,22358,1,0,0:0:0:0:
192,192,22658,1,0,0:0:0:30:Hi Im Kick.wav
64,192,22958,1,0,0:0:0:30:Hi Im Kick.wav
64,192,23258,1,0,0:0:0:30:Hi Im Kick.wav
192,192,23558,128,0,24758:0:0:0:30:Hi Im Kick.wav
320,192,23558,1,0,0:0:0:0:
320,192,23858,1,0,0:0:0:30:Hi Im Kick.wav
448,192,24158,1,0,0:0:0:30:Hi Im Kick.wav
448,192,24458,1,0,0:0:0:30:Hi Im Kick.wav
320,192,24758,128,0,25958:0:0:0:30:Hi Im Kick.wav
64,192,24758,1,0,0:0:0:0:
64,192,25058,1,0,0:0:0:30:Hi Im Kick.wav
192,192,25358,1,0,0:0:0:30:Hi Im Kick.wav
192,192,25658,1,0,0:0:0:40:Hi I'm Snare.wav
64,192,25808,1,0,0:0:0:30:Hi Im Kick.wav
448,192,25958,128,0,26258:0:0:0:30:Hi Im Kick.wav
192,192,26258,128,0,26558:0:0:0:30:Hi Im Kick.wav
64,192,26558,128,0,26858:0:0:0:30:Hi Im Kick.wav
320,192,26858,128,0,27158:0:0:0:30:Hi Im Kick.wav
64,192,27158,128,0,27458:0:0:0:30:Hi Im Kick.wav
192,192,27458,128,0,27758:0:0:0:30:Hi Im Kick.wav
320,192,27758,128,0,28058:0:0:0:30:Hi Im Kick.wav
448,192,28058,128,0,28358:0:0:0:30:Hi Im Kick.wav
64,192,28208,1,0,0:0:0:0:
192,192,28358,1,0,0:0:0:30:Hi Im Kick.wav
192,192,28508,1,0,0:0:0:30:Hi Im Kick.wav
320,192,28733,1,0,0:0:0:30:Hi Im Kick.wav
64,192,28958,1,0,0:0:0:30:Hi Im Kick.wav
448,192,29183,1,0,0:0:0:30:Hi Im Kick.wav
192,192,29333,1,0,0:0:0:30:Hi Im Kick.wav
320,192,29408,1,0,0:0:0:30:Hi Im Kick.wav
192,192,29558,128,0,30158:0:0:0:30:Hi Im Kick.wav
320,192,30158,128,0,30608:0:0:0:0:
192,192,30758,1,0,0:0:0:30:Hello I'm Crsh.wav
64,192,30758,128,0,31058:0:0:0:0:
320,192,31058,1,0,0:0:0:30:Hi Im Kick.wav
448,192,31208,1,0,0:0:0:0:
64,192,31358,1,0,0:0:0:30:Hi Im Kick.wav
192,192,31508,1,0,0:0:0:0:
448,192,31658,1,0,0:0:0:30:Hi Im Kick.wav
320,192,31808,1,0,0:0:0:0:
192,192,31958,1,0,0:0:0:30:Hi Im Kick.wav
448,192,32108,1,0,0:0:0:0:
64,192,32258,1,0,0:0:0:30:Hi Im Kick.wav
320,192,32408,1,0,0:0:0:0:
192,192,32558,1,0,0:0:0:30:Hi Im Kick.wav
64,192,32708,1,0,0:0:0:0:
448,192,32858,1,0,0:0:0:30:Hi Im Kick.wav
320,192,33008,1,0,0:0:0:0:
448,192,33158,128,0,33458:0:0:0:30:Hi Im Kick.wav
64,192,33458,1,0,0:0:0:30:Hi Im Kick.wav
320,192,33608,1,0,0:0:0:0:
192,192,33758,1,0,0:0:0:30:Hi Im Kick.wav
448,192,33908,1,0,0:0:0:0:
320,192,34058,1,0,0:0:0:30:Hi Im Kick.wav
192,192,34208,1,0,0:0:0:0:
64,192,34358,1,0,0:0:0:30:Hi Im Kick.wav
448,192,34508,1,0,0:0:0:0:
192,192,34658,1,0,0:0:0:30:Hi Im Kick.wav
320,192,34808,1,0,0:0:0:0:
64,192,34958,1,0,0:0:0:30:Hi Im Kick.wav
448,192,35183,1,0,0:0:0:30:Hi Im Kick.wav
64,192,35408,1,0,0:0:0:30:Hi Im Kick.wav
448,192,35558,128,0,35858:0:0:0:30:Hi Im Kick.wav
64,192,35858,1,0,0:0:0:30:Hi Im Kick.wav
320,192,36008,1,0,0:0:0:0:
192,192,36158,1,0,0:0:0:30:Hi Im Kick.wav
448,192,36308,1,0,0:0:0:0:
320,192,36458,1,0,0:0:0:30:Hi Im Kick.wav
64,192,36608,1,0,0:0:0:0:
192,192,36758,1,0,0:0:0:30:Hi Im Kick.wav
192,192,36908,1,0,0:0:0:30:Hi Im Kick.wav
320,192,37058,1,0,0:0:0:30:Hi Im Kick.wav
320,192,37208,1,0,0:0:0:30:Hi Im Kick.wav
192,192,37358,128,0,37658:0:0:0:0:
320,192,37658,128,0,37958:0:0:0:0:
192,192,37958,1,0,0:0:0:30:Hi Im Kick.wav
64,192,37958,1,0,0:0:0:0:
192,192,38258,1,0,0:0:0:30:Hi Im Kick.wav
64,192,38258,1,0,0:0:0:0:
448,192,38558,1,0,0:0:0:30:Hi Im Kick.wav
320,192,38558,1,0,0:0:0:0:
64,192,38708,128,0,38858:0:0:0:30:Hi Im Kick.wav
320,192,38858,1,0,0:0:0:30:Hi Im Kick.wav
448,192,38858,1,0,0:0:0:0:
192,192,39158,1,0,0:0:0:30:Hi Im Kick.wav
64,192,39158,1,0,0:0:0:0:
64,192,39383,1,0,0:0:0:30:Hi Im Kick.wav
448,192,39383,1,0,0:0:0:0:
320,192,39608,1,0,0:0:0:30:Hi Im Kick.wav
448,192,39608,1,0,0:0:0:0:
192,192,39833,1,0,0:0:0:30:Hi Im Kick.wav
64,192,39833,1,0,0:0:0:0:
64,192,40058,1,0,0:0:0:30:Hi Im Kick.wav
448,192,40058,1,0,0:0:0:0:
448,192,40358,1,0,0:0:0:30:Hi Im Kick.wav
320,192,40358,128,0,40658:0:0:0:0:
64,192,40658,1,0,0:0:0:30:Hi I'm Snare.wav
448,192,40658,1,0,0:0:0:0:
192,192,40883,1,0,0:0:0:30:Hi Im Kick.wav
64,192,41108,1,0,0:0:0:30:Hi Im Kick.wav
192,192,41258,1,0,0:0:0:30:Hi I'm Snare.wav
448,192,41258,1,0,0:0:0:0:
320,192,41558,1,0,0:0:0:30:Hi Im Kick.wav
192,192,41858,1,0,0:0:0:30:Hi I'm Snare.wav
64,192,41858,1,0,0:0:0:0:
448,192,42083,1,0,0:0:0:30:Hi Im Kick.wav
64,192,42308,1,0,0:0:0:30:Hi Im Kick.wav
320,192,42383,1,0,0:0:0:30:Hi I'm Snare.wav
448,192,42383,1,0,0:0:0:0:
192,192,42608,1,0,0:0:0:30:Hi I'm Snare.wav
64,192,42608,1,0,0:0:0:0:
320,192,42758,1,0,0:0:0:30:Hi Im Kick.wav
64,192,43058,1,0,0:0:0:30:Hi I'm Snare.wav
448,192,43058,1,0,0:0:0:0:
192,192,43283,1,0,0:0:0:30:Hi Im Kick.wav
64,192,43508,1,0,0:0:0:30:Hi Im Kick.wav
320,192,43658,1,0,0:0:0:30:Hi I'm Snare.wav
448,192,43658,1,0,0:0:0:0:
192,192,43958,1,0,0:0:0:30:Hi Im Kick.wav
64,192,44258,1,0,0:0:0:30:Hi I'm Snare.wav
448,192,44258,1,0,0:0:0:0:
320,192,44483,1,0,0:0:0:30:Hi Im Kick.wav
64,192,44558,128,0,44708:0:0:0:0:
448,192,44708,1,0,0:0:0:30:Hi Im Kick.wav
320,192,44858,128,0,45158:0:0:0:30:Hi I'm Snare.wav
192,192,44858,128,0,45158:0:0:0:0:
448,192,45158,1,0,0:0:0:30:Hi Im Kick.wav
64,192,45158,128,0,45758:0:0:0:30:Hello I'm Crsh.wav
448,192,45758,1,0,0:0:0:30:Hi I'm Snare.wav
320,192,45908,1,0,0:0:0:0:
448,192,46058,1,0,0:0:0:0:
320,192,46208,1,0,0:0:0:0:
448,192,46358,1,0,0:0:0:30:Hi Im Kick.wav
64,192,46358,1,0,0:0:0:0:
192,192,46508,1,0,0:0:0:0:
64,192,46658,1,0,0:0:0:0:
320,192,46808,1,0,0:0:0:30:Hi Im Kick.wav
448,192,46958,1,0,0:0:0:30:Hi I'm Snare.wav
64,192,46958,1,0,0:0:0:0:
192,192,47108,1,0,0:0:0:0:
320,192,47258,1,0,0:0:0:0:
448,192,47408,1,0,0:0:0:0:
64,192,47558,1,0,0:0:0:30:Hello I'm Crsh.wav
64,192,47858,1,0,0:0:0:0:
192,192,48158,1,0,0:0:0:0:
192,192,48458,1,0,0:0:0:0:
320,192,48758,1,0,0:0:0:0:
320,192,49058,1,0,0:0:0:0:
448,192,49358,1,0,0:0:0:30:Hi I'm Snare.wav
320,192,49358,1,0,0:0:0:30:Hi Im Kick.wav
192,192,49583,1,0,0:0:0:30:Hi Im Kick.wav
64,192,49583,1,0,0:0:0:30:Hi I'm Snare.wav
320,192,49808,1,0,0:0:0:30:Hi I'm Snare.wav
448,192,49808,1,0,0:0:0:0:
192,192,49958,1,0,0:0:0:20:Hello I'm Crsh.wav
64,192,49958,1,0,0:0:0:30:Hi Im Kick.wav
192,192,50258,1,0,0:0:0:30:Hi Im Kick.wav
320,192,50558,1,0,0:0:0:30:Hi Im Kick.wav
320,192,50858,1,0,0:0:0:30:Hi Im Kick.wav
448,192,51158,1,0,0:0:0:30:Hi Im Kick.wav
448,192,51458,1,0,0:0:0:30:Hi Im Kick.wav
448,192,51758,1,0,0:0:0:30:Hi Im Kick.wav
192,192,51758,1,0,0:0:0:30:Hi I'm Snare.wav
320,192,51983,1,0,0:0:0:30:Hi Im Kick.wav
64,192,51983,1,0,0:0:0:30:Hi I'm Snare.wav
192,192,52208,1,0,0:0:0:30:Hi I'm Snare.wav
448,192,52208,1,0,0:0:0:0:
320,192,52358,1,0,0:0:0:30:Hello I'm Crsh.wav
64,192,52358,1,0,0:0:0:30:Hi Im Kick.wav
192,192,52508,1,0,0:0:0:30:Hi Im Kick.wav
320,192,52658,1,0,0:0:0:30:Hi Im Kick.wav
448,192,52808,1,0,0:0:0:30:Hi Im Kick.wav
64,192,52958,1,0,0:0:0:30:Hello I'm Crsh.wav
192,192,53108,1,0,0:0:0:30:Hi Im Kick.wav
320,192,53258,1,0,0:0:0:30:Hi Im Kick.wav
448,192,53408,1,0,0:0:0:30:Hi Im Kick.wav
64,192,53558,1,0,0:0:0:30:Hi Im Kick.wav
320,192,53708,1,0,0:0:0:30:Hi Im Kick.wav
192,192,53858,1,0,0:0:0:30:Hi Im Kick.wav
448,192,54008,1,0,0:0:0:30:Hi Im Kick.wav
320,192,54158,1,0,0:0:0:30:Hello I'm Crsh.wav
64,192,54308,1,0,0:0:0:30:Hi Im Kick.wav
448,192,54458,1,0,0:0:0:30:Hi Im Kick.wav
192,192,54608,1,0,0:0:0:30:Hi Im Kick.wav
448,192,54758,1,0,0:0:0:0:
448,192,54908,1,0,0:0:0:0:
192,192,55058,1,0,0:0:0:0:
192,192,55208,1,0,0:0:0:0:
320,192,55358,1,0,0:0:0:0:
320,192,55508,1,0,0:0:0:0:
64,192,55658,1,0,0:0:0:0:
64,192,55808,1,0,0:0:0:0:
320,192,55958,1,0,0:0:0:0:
192,192,56108,1,0,0:0:0:0:
320,192,56258,1,0,0:0:0:0:
192,192,56408,1,0,0:0:0:0:
320,192,56558,1,0,0:0:0:0:
192,192,56708,1,0,0:0:0:0:
320,192,56858,1,0,0:0:0:0:
192,192,57008,1,0,0:0:0:0:
64,192,57158,1,0,0:0:0:30:Hi Im Kick.wav
448,192,57158,1,0,0:0:0:0:
64,192,58358,1,0,0:0:0:30:Hi Im Kick.wav
448,192,58358,1,0,0:0:0:30:Hello I'm Crsh.wav
192,192,58508,1,0,0:0:0:0:
320,192,58658,1,0,0:0:0:30:Hi Im Kick.wav
64,192,58808,1,0,0:0:0:0:
448,192,58958,1,0,0:0:0:30:Hi Im Kick.wav
320,192,59183,1,0,0:0:0:0:
192,192,59408,1,0,0:0:0:0:
64,192,59558,1,0,0:0:0:30:Hi Im Kick.wav
448,192,59558,1,0,0:0:0:0:
192,192,59708,1,0,0:0:0:0:
320,192,59858,1,0,0:0:0:30:Hi Im Kick.wav
448,192,60008,1,0,0:0:0:0:
64,192,60158,1,0,0:0:0:30:Hi Im Kick.wav
192,192,60383,1,0,0:0:0:0:
320,192,60608,1,0,0:0:0:0:
192,192,60758,1,0,0:0:0:30:Hi Im Kick.wav
448,192,60758,1,0,0:0:0:0:
64,192,60908,1,0,0:0:0:0:
448,192,61058,1,0,0:0:0:30:Hi Im Kick.wav
192,192,61208,1,0,0:0:0:0:
64,192,61358,1,0,0:0:0:30:Hi Im Kick.wav
448,192,61508,1,0,0:0:0:0:
320,192,61658,1,0,0:0:0:30:Hi Im Kick.wav
64,192,61808,1,0,0:0:0:0:
448,192,61958,1,0,0:0:0:30:Hi Im Kick.wav
192,192,61958,1,0,0:0:0:0:
320,192,62108,1,0,0:0:0:0:
64,192,62258,1,0,0:0:0:30:Hi Im Kick.wav
448,192,62333,1,0,0:0:0:0:
192,192,62558,1,0,0:0:0:30:Hi Im Kick.wav
320,192,62708,1,0,0:0:0:0:
64,192,62858,1,0,0:0:0:30:Hi Im Kick.wav
448,192,63008,1,0,0:0:0:0:
320,192,63158,1,0,0:0:0:30:Hi Im Kick.wav
64,192,63158,1,0,0:0:0:0:
192,192,63308,1,0,0:0:0:0:
448,192,63458,1,0,0:0:0:30:Hi Im Kick.wav
64,192,63608,1,0,0:0:0:0:
192,192,63758,1,0,0:0:0:30:Hi Im Kick.wav
320,192,63983,1,0,0:0:0:0:
448,192,64208,1,0,0:0:0:0:
64,192,64358,1,0,0:0:0:30:Hi Im Kick.wav
192,192,64358,1,0,0:0:0:0:
320,192,64508,1,0,0:0:0:0:
64,192,64658,1,0,0:0:0:30:Hi Im Kick.wav
448,192,64808,1,0,0:0:0:0:
64,192,64958,1,0,0:0:0:30:Hi Im Kick.wav
192,192,65183,1,0,0:0:0:0:
320,192,65408,128,0,65558:0:0:0:0:
448,192,65558,1,0,0:0:0:30:Hi Im Kick.wav
64,192,65558,1,0,0:0:0:0:
192,192,65708,1,0,0:0:0:0:
64,192,65858,1,0,0:0:0:30:Hi Im Kick.wav
448,192,66008,1,0,0:0:0:0:
320,192,66158,1,0,0:0:0:30:Hi Im Kick.wav
64,192,66308,1,0,0:0:0:0:
192,192,66458,1,0,0:0:0:30:Hi Im Kick.wav
448,192,66608,1,0,0:0:0:0:
320,192,66758,1,0,0:0:0:30:Hi Im Kick.wav
192,192,66908,1,0,0:0:0:30:Hi Im Kick.wav
64,192,66908,1,0,0:0:0:0:
320,192,67133,1,0,0:0:0:30:Hi Im Kick.wav
448,192,67133,1,0,0:0:0:0:
192,192,67358,1,0,0:0:0:30:Hi Im Kick.wav
64,192,67358,1,0,0:0:0:0:
448,192,67508,128,0,67658:0:0:0:30:Hi Im Kick.wav
320,192,67658,128,0,67958:0:0:0:30:Hi Im Kick.wav
192,192,67958,1,0,0:0:0:30:Hi Im Kick.wav
64,192,67958,1,0,0:0:0:30:Hello I'm Crsh.wav
448,192,68258,128,0,68408:0:0:0:0:
192,192,68558,1,0,0:0:0:30:Hi Im Kick.wav
64,192,68558,1,0,0:0:0:30:Hello I'm Crsh.wav
192,192,68783,1,0,0:0:0:30:Hello I'm Crsh.wav
320,192,68783,1,0,0:0:0:30:Hi Im Kick.wav
320,192,69008,1,0,0:0:0:30:Hello I'm Crsh.wav
448,192,69008,1,0,0:0:0:30:Hi Im Kick.wav
448,192,69308,1,0,0:0:0:30:Hi Im Kick.wav
320,192,69308,1,0,0:0:0:30:Hello I'm Crsh.wav
192,192,69458,1,0,0:0:0:30:Hi Im Kick.wav
64,192,69458,1,0,0:0:0:30:Hello I'm Crsh.wav
320,192,69758,1,0,0:0:0:30:Hi Im Kick.wav
448,192,69758,1,0,0:0:0:30:Hello I'm Crsh.wav
192,192,69983,1,0,0:0:0:30:Hi Im Kick.wav
64,192,69983,1,0,0:0:0:30:Hello I'm Crsh.wav
448,192,70358,1,0,0:0:0:30:Hi Im Kick.wav
64,192,70358,1,0,0:0:0:0:
192,192,70508,1,0,0:0:0:0:
448,192,70658,1,0,0:0:0:30:Hi Im Kick.wav
64,192,70808,1,0,0:0:0:0:
192,192,70958,1,0,0:0:0:30:Hi Im Kick.wav
448,192,71108,1,0,0:0:0:0:
320,192,71258,1,0,0:0:0:30:Hi Im Kick.wav
64,192,71408,1,0,0:0:0:0:
320,192,71558,1,0,0:0:0:30:Hi Im Kick.wav
192,192,71558,1,0,0:0:0:0:
448,192,71708,1,0,0:0:0:0:
192,192,71858,1,0,0:0:0:30:Hi Im Kick.wav
320,192,72008,1,0,0:0:0:0:
64,192,72158,1,0,0:0:0:30:Hi Im Kick.wav
192,192,72308,1,0,0:0:0:0:
448,192,72458,1,0,0:0:0:30:Hi Im Kick.wav
320,192,72608,1,0,0:0:0:0:
64,192,72758,1,0,0:0:0:30:Hi Im Kick.wav
448,192,72758,1,0,0:0:0:0:
192,192,72908,1,0,0:0:0:0:
448,192,73058,1,0,0:0:0:30:Hi Im Kick.wav
320,192,73208,1,0,0:0:0:0:
64,192,73358,1,0,0:0:0:30:Hi Im Kick.wav
320,192,73583,1,0,0:0:0:0:
448,192,73808,1,0,0:0:0:0:
64,192,73958,1,0,0:0:0:30:Hi Im Kick.wav
192,192,73958,1,0,0:0:0:0:
320,192,74108,1,0,0:0:0:0:
64,192,74258,1,0,0:0:0:30:Hi Im Kick.wav
448,192,74408,1,0,0:0:0:0:
320,192,74558,1,0,0:0:0:30:Hi Im Kick.wav
192,192,74783,1,0,0:0:0:0:
64,192,75008,128,0,75158:0:0:0:0:
320,192,75158,1,0,0:0:0:30:Hi Im Kick.wav
448,192,75158,1,0,0:0:0:0:
192,192,75308,1,0,0:0:0:30:Hi Im Kick.wav
192,192,75458,1,0,0:0:0:30:Hi Im Kick.wav
448,192,75608,128,0,75758:0:0:0:0:
64,192,75758,1,0,0:0:0:30:Hi Im Kick.wav
64,192,75908,1,0,0:0:0:30:Hi Im Kick.wav
448,192,76058,1,0,0:0:0:30:Hi Im Kick.wav
64,192,76208,128,0,76358:0:0:0:0:
320,192,76358,1,0,0:0:0:30:Hi Im Kick.wav
192,192,76358,128,0,77558:0:0:0:30:Hello I'm Crsh.wav
320,192,76958,128,0,77558:0:0:0:0:
64,192,77558,1,0,0:0:0:30:Hello I'm Crsh.wav
448,192,77558,1,0,0:0:0:30:Hi Im Kick.wav
192,192,77783,1,0,0:0:0:0:
448,192,77858,1,0,0:0:0:30:Hi Im Kick.wav
64,192,78008,1,0,0:0:0:0:
448,192,78158,1,0,0:0:0:30:Hi Im Kick.wav
192,192,78233,1,0,0:0:0:0:
64,192,78458,1,0,0:0:0:30:Hi Im Kick.wav
320,192,78458,1,0,0:0:0:0:
448,192,78758,1,0,0:0:0:30:Hi Im Kick.wav
64,192,78758,1,0,0:0:0:0:
320,192,78983,1,0,0:0:0:0:
64,192,79058,1,0,0:0:0:30:Hi Im Kick.wav
448,192,79208,1,0,0:0:0:0:
64,192,79358,1,0,0:0:0:30:Hi Im Kick.wav
320,192,79433,1,0,0:0:0:0:
448,192,79658,1,0,0:0:0:30:Hi Im Kick.wav
192,192,79658,1,0,0:0:0:0:
320,192,79958,1,0,0:0:0:30:Hi Im Kick.wav
64,192,79958,1,0,0:0:0:0:
448,192,80183,1,0,0:0:0:0:
192,192,80258,1,0,0:0:0:30:Hi Im Kick.wav
64,192,80408,1,0,0:0:0:0:
448,192,80558,1,0,0:0:0:30:Hi Im Kick.wav
320,192,80633,1,0,0:0:0:0:
64,192,80858,1,0,0:0:0:30:Hi Im Kick.wav
192,192,80858,1,0,0:0:0:0:
320,192,81083,1,0,0:0:0:30:Hi Im Kick.wav
320,192,81308,1,0,0:0:0:30:Hi Im Kick.wav
192,192,81533,1,0,0:0:0:30:Hi Im Kick.wav
192,192,81758,1,0,0:0:0:30:Hi Im Kick.wav
320,192,81983,1,0,0:0:0:30:Hi Im Kick.wav
320,192,82208,1,0,0:0:0:30:Hi Im Kick.wav
192,192,82358,1,0,0:0:0:30:Hi Im Kick.wav
64,192,82358,1,0,0:0:0:0:
320,192,82583,1,0,0:0:0:0:
64,192,82658,1,0,0:0:0:30:Hi Im Kick.wav
448,192,82808,1,0,0:0:0:0:
192,192,82958,1,0,0:0:0:30:Hi Im Kick.wav
320,192,83033,1,0,0:0:0:0:
192,192,83258,1,0,0:0:0:30:Hi Im Kick.wav
64,192,83258,1,0,0:0:0:0:
320,192,83558,1,0,0:0:0:30:Hi Im Kick.wav
64,192,83708,128,0,83858:0:0:0:30:Hi Im Kick.wav
192,192,83858,1,0,0:0:0:30:Hi Im Kick.wav
448,192,84008,128,0,84158:0:0:0:30:Hi Im Kick.wav
320,192,84158,1,0,0:0:0:30:Hi Im Kick.wav
192,192,84383,1,0,0:0:0:30:Hi Im Kick.wav
320,192,84458,1,0,0:0:0:30:Hi Im Kick.wav
64,192,84608,1,0,0:0:0:30:Hi Im Kick.wav
320,192,84758,1,0,0:0:0:30:Hello I'm Crsh.wav
448,192,84758,1,0,0:0:0:30:Hi Im Kick.wav
192,192,85058,1,0,0:0:0:0:
64,192,85358,1,0,0:0:0:0:
448,192,85658,1,0,0:0:0:0:
320,192,85958,1,0,0:0:0:0:
192,192,86258,1,0,0:0:0:0:
64,192,86558,1,0,0:0:0:0:
448,192,86858,1,0,0:0:0:0:
192,192,87158,1,0,0:0:0:0:
64,192,87458,1,0,0:0:0:0:
320,192,87758,1,0,0:0:0:0:
448,192,88058,1,0,0:0:0:0:
64,192,88358,1,0,0:0:0:0:
192,192,88658,1,0,0:0:0:0:
448,192,88958,1,0,0:0:0:0:
320,192,89258,1,0,0:0:0:0:
64,192,89558,1,0,0:0:0:30:Hi Im Kick.wav
320,192,89858,1,0,0:0:0:30:Hi Im Kick.wav
192,192,90008,1,0,0:0:0:30:Hi Im Kick.wav
64,192,90158,1,0,0:0:0:30:Hi Im Kick.wav
192,192,90458,1,0,0:0:0:30:Hi Im Kick.wav
320,192,90608,1,0,0:0:0:30:Hi Im Kick.wav
448,192,90758,1,0,0:0:0:30:Hi Im Kick.wav
64,192,91058,1,0,0:0:0:30:Hi Im Kick.wav
320,192,91208,1,0,0:0:0:30:Hi Im Kick.wav
192,192,91358,1,0,0:0:0:30:Hi Im Kick.wav
448,192,91658,1,0,0:0:0:30:Hi Im Kick.wav
192,192,91808,1,0,0:0:0:30:Hi Im Kick.wav
448,192,91958,1,0,0:0:0:30:Hi Im Kick.wav
320,192,92108,1,0,0:0:0:0:
64,192,92258,1,0,0:0:0:30:Hi Im Kick.wav
192,192,92408,1,0,0:0:0:0:
448,192,92558,1,0,0:0:0:0:
320,192,92708,1,0,0:0:0:0:
64,192,92858,1,0,0:0:0:0:
192,192,93008,1,0,0:0:0:0:
448,192,93158,1,0,0:0:0:0:
320,192,93308,1,0,0:0:0:0:
192,192,93458,1,0,0:0:0:0:
64,192,93608,1,0,0:0:0:0:
448,192,93758,1,0,0:0:0:0:
320,192,93908,1,0,0:0:0:0:
192,192,94058,1,0,0:0:0:0:
64,192,94208,1,0,0:0:0:0:
448,192,94358,1,0,0:0:0:30:Hi Im Kick.wav
320,192,94358,1,0,0:0:0:0:
192,192,95558,1,0,0:0:0:30:Hi Im Kick.wav
448,192,95558,1,0,0:0:0:30:Hello I'm Crsh.wav
64,192,95708,1,0,0:0:0:0:
320,192,95858,1,0,0:0:0:30:Hi Im Kick.wav
192,192,96008,1,0,0:0:0:0:
448,192,96158,1,0,0:0:0:30:Hi Im Kick.wav
320,192,96308,1,0,0:0:0:0:
192,192,96458,1,0,0:0:0:30:Hi Im Kick.wav
64,192,96608,1,0,0:0:0:0:
320,192,96758,1,0,0:0:0:30:Hi Im Kick.wav
448,192,96908,1,0,0:0:0:0:
192,192,97058,1,0,0:0:0:30:Hi Im Kick.wav
320,192,97208,1,0,0:0:0:0:
64,192,97358,1,0,0:0:0:30:Hi Im Kick.wav
192,192,97508,1,0,0:0:0:0:
448,192,97658,1,0,0:0:0:30:Hi Im Kick.wav
320,192,97808,1,0,0:0:0:0:
64,192,97958,1,0,0:0:0:30:Hi Im Kick.wav
448,192,98108,1,0,0:0:0:0:
192,192,98258,1,0,0:0:0:30:Hi Im Kick.wav
320,192,98408,1,0,0:0:0:0:
192,192,98558,1,0,0:0:0:30:Hi Im Kick.wav
64,192,98708,1,0,0:0:0:0:
448,192,98858,1,0,0:0:0:30:Hi Im Kick.wav
320,192,99008,1,0,0:0:0:0:
64,192,99158,1,0,0:0:0:30:Hi Im Kick.wav
448,192,99308,1,0,0:0:0:0:
192,192,99458,1,0,0:0:0:30:Hi Im Kick.wav
320,192,99608,1,0,0:0:0:0:
64,192,99758,1,0,0:0:0:30:Hi Im Kick.wav
192,192,99983,1,0,0:0:0:30:Hi Im Kick.wav
320,192,100208,1,0,0:0:0:30:Hi Im Kick.wav
448,192,100358,1,0,0:0:0:30:Hi Im Kick.wav
192,192,100358,1,0,0:0:0:0:
64,192,100508,1,0,0:0:0:0:
320,192,100658,1,0,0:0:0:30:Hi Im Kick.wav
192,192,100808,1,0,0:0:0:0:
448,192,100958,1,0,0:0:0:30:Hi Im Kick.wav
320,192,101108,1,0,0:0:0:0:
192,192,101258,1,0,0:0:0:30:Hi Im Kick.wav
64,192,101408,1,0,0:0:0:0:
320,192,101558,1,0,0:0:0:30:Hi Im Kick.wav
448,192,101708,1,0,0:0:0:0:
192,192,101858,1,0,0:0:0:30:Hi Im Kick.wav
320,192,102008,1,0,0:0:0:0:
64,192,102158,1,0,0:0:0:30:Hi Im Kick.wav
192,192,102308,1,0,0:0:0:0:
320,192,102458,1,0,0:0:0:30:Hi Im Kick.wav
448,192,102608,1,0,0:0:0:0:
192,192,102758,1,0,0:0:0:30:Hello I'm Crsh.wav
64,192,102758,1,0,0:0:0:30:Hi Im Kick.wav
448,192,102908,1,0,0:0:0:0:
320,192,103058,1,0,0:0:0:0:
192,192,103208,1,0,0:0:0:0:
64,192,103358,128,0,103808:0:0:0:0:
320,192,103808,1,0,0:0:0:30:Hello I'm Crsh.wav
448,192,103808,1,0,0:0:0:30:Hi Im Kick.wav
192,192,104033,1,0,0:0:0:30:Hello I'm Crsh.wav
64,192,104033,1,0,0:0:0:30:Hi Im Kick.wav
320,192,104183,1,0,0:0:0:30:Hi Im Kick.wav
448,192,104183,1,0,0:0:0:30:Hello I'm Crsh.wav
192,192,104408,1,0,0:0:0:30:Hi Im Kick.wav
64,192,104408,1,0,0:0:0:30:Hello I'm Crsh.wav
320,192,104558,1,0,0:0:0:30:Hi Im Kick.wav
448,192,104558,1,0,0:0:0:30:Hello I'm Crsh.wav
192,192,104708,1,0,0:0:0:30:Hi Im Kick.wav
64,192,104708,1,0,0:0:0:0:
320,192,104858,128,0,105158:0:0:0:30:Hi Im Kick.wav
192,192,105158,1,0,0:0:0:30:Hi Im Kick.wav
320,192,105308,1,0,0:0:0:0:
448,192,105458,1,0,0:0:0:30:Hi I'm Snare.wav
64,192,105458,1,0,0:0:0:0:
192,192,105608,1,0,0:0:0:0:
320,192,105758,1,0,0:0:0:30:Hi Im Kick.wav
64,192,105908,1,0,0:0:0:0:
448,192,106058,1,0,0:0:0:30:Hi I'm Snare.wav
192,192,106058,1,0,0:0:0:0:
64,192,106208,1,0,0:0:0:0:
320,192,106358,1,0,0:0:0:30:Hi Im Kick.wav
320,192,106583,1,0,0:0:0:30:Hi Im Kick.wav
192,192,106808,1,0,0:0:0:30:Hi Im Kick.wav
192,192,107033,1,0,0:0:0:30:Hi Im Kick.wav
320,192,107258,128,0,107558:0:0:0:0:
64,192,107558,1,0,0:0:0:30:Hi Im Kick.wav
448,192,107558,1,0,0:0:0:0:
192,192,107708,1,0,0:0:0:0:
320,192,107858,1,0,0:0:0:30:Hi I'm Snare.wav
64,192,107858,1,0,0:0:0:0:
448,192,108008,1,0,0:0:0:0:
192,192,108158,1,0,0:0:0:30:Hi Im Kick.wav
64,192,108308,1,0,0:0:0:0:
448,192,108458,1,0,0:0:0:30:Hi I'm Snare.wav
320,192,108458,1,0,0:0:0:0:
192,192,108608,1,0,0:0:0:0:
64,192,108758,1,0,0:0:0:30:Hi Im Kick.wav
320,192,108908,1,0,0:0:0:0:
192,192,109058,1,0,0:0:0:30:Hi I'm Snare.wav
448,192,109058,1,0,0:0:0:0:
64,192,109208,1,0,0:0:0:0:
320,192,109358,1,0,0:0:0:30:Hi Im Kick.wav
64,192,109508,128,0,109808:0:0:0:30:Hi Im Kick.wav
448,192,109958,1,0,0:0:0:30:Hi Im Kick.wav
320,192,109958,1,0,0:0:0:30:Hello I'm Crsh.wav
320,192,110183,1,0,0:0:0:30:Hi Im Kick.wav
192,192,110183,1,0,0:0:0:30:Hello I'm Crsh.wav
448,192,110408,1,0,0:0:0:30:Hi Im Kick.wav
64,192,110408,1,0,0:0:0:30:Hello I'm Crsh.wav
192,192,110633,1,0,0:0:0:30:Hello I'm Crsh.wav
64,192,110633,1,0,0:0:0:30:Hi Im Kick.wav
192,192,110858,1,0,0:0:0:30:Hello I'm Crsh.wav
320,192,110858,1,0,0:0:0:30:Hi Im Kick.wav
448,192,111158,1,0,0:0:0:30:Hello I'm Crsh.wav
320,192,111158,1,0,0:0:0:30:Hi Im Kick.wav
64,192,111383,1,0,0:0:0:30:Hi Im Kick.wav
192,192,111383,1,0,0:0:0:30:Hello I'm Crsh.wav
64,192,111608,1,0,0:0:0:30:Hi Im Kick.wav
448,192,111608,1,0,0:0:0:30:Hello I'm Crsh.wav
320,192,111833,1,0,0:0:0:30:Hello I'm Crsh.wav
448,192,111833,1,0,0:0:0:30:Hi Im Kick.wav
64,192,112058,1,0,0:0:0:30:Hi Im Kick.wav
192,192,112058,1,0,0:0:0:30:Hello I'm Crsh.wav
448,192,112358,1,0,0:0:0:30:Hello I'm Crsh.wav
320,192,112358,1,0,0:0:0:30:Hi Im Kick.wav
448,192,112583,1,0,0:0:0:30:Hi Im Kick.wav
320,192,112583,1,0,0:0:0:30:Hello I'm Crsh.wav
192,192,112808,1,0,0:0:0:30:Hello I'm Crsh.wav
64,192,112808,1,0,0:0:0:30:Hi Im Kick.wav
192,192,113033,1,0,0:0:0:30:Hello I'm Crsh.wav
64,192,113033,1,0,0:0:0:30:Hi Im Kick.wav
448,192,113258,1,0,0:0:0:30:Hi Im Kick.wav
64,192,113258,1,0,0:0:0:30:Hello I'm Crsh.wav
64,192,113483,1,0,0:0:0:30:Hello I'm Crsh.wav
448,192,113483,1,0,0:0:0:30:Hi Im Kick.wav
192,192,113708,1,0,0:0:0:30:Hello I'm Crsh.wav
448,192,113708,1,0,0:0:0:30:Hi Im Kick.wav
448,192,113933,1,0,0:0:0:30:Hi Im Kick.wav
192,192,113933,1,0,0:0:0:30:Hello I'm Crsh.wav
320,192,114158,1,0,0:0:0:30:Hello I'm Crsh.wav
64,192,114158,128,0,114758:0:0:0:30:Hi Im Kick.wav
192,192,114758,1,0,0:0:0:30:Hello I'm Crsh.wav
448,192,114758,1,0,0:0:0:30:Hi Im Kick.wav
320,192,115058,1,0,0:0:0:0:
64,192,115358,1,0,0:0:0:0:
192,192,115658,1,0,0:0:0:0:
448,192,115958,1,0,0:0:0:0:
320,192,116258,1,0,0:0:0:0:
192,192,116558,1,0,0:0:0:30:Hello I'm Crsh.wav
64,192,116558,1,0,0:0:0:30:Hi Im Kick.wav
320,192,116783,1,0,0:0:0:30:Hello I'm Crsh.wav
448,192,116783,1,0,0:0:0:30:Hi Im Kick.wav
192,192,117008,1,0,0:0:0:30:Hi Im Kick.wav
64,192,117008,1,0,0:0:0:30:Hello I'm Crsh.wav
320,192,117158,1,0,0:0:0:30:Hi Im Kick.wav
448,192,117158,1,0,0:0:0:30:Hello I'm Crsh.wav
192,192,117458,1,0,0:0:0:0:
64,192,117758,1,0,0:0:0:0:
448,192,118058,1,0,0:0:0:0:
192,192,118358,1,0,0:0:0:0:
320,192,118658,1,0,0:0:0:0:
192,192,118958,1,0,0:0:0:30:Hi Im Kick.wav
64,192,118958,128,0,119258:0:0:0:0:
448,192,119258,1,0,0:0:0:30:Hi Im Kick.wav
320,192,119258,128,0,119558:0:0:0:0:
192,192,119558,128,0,119858:0:0:0:30:Hello I'm Crsh.wav
64,192,119558,128,0,119858:0:0:0:30:Hi I'm Snare.wav
