osu file format v14

[General]
AudioFilename: audio.mp3
AudioLeadIn: 0
PreviewTime: 58211
Countdown: 0
SampleSet: Normal
StackLeniency: 0.7
Mode: 2
LetterboxInBreaks: 0
WidescreenStoryboard: 0

[Editor]
DistanceSpacing: 0.8
BeatDivisor: 4
GridSize: 16
TimelineZoom: 1.3

[Metadata]
Title:Ultimate Ascension
TitleUnicode:Ultimate Ascension
Artist:Camellia
ArtistUnicode:かめりあ
Creator:Deif
Version:Platter
Source:SOUND VOLTEX III GRAVITY WARS
Tags:東方Project SDVX アルティメットトゥルース Truth 東方妖々夢 Touhou Youyoumu Remix Contest 魂魄 妖夢 Youmu Konpaku Perfect Cherry Blossom Tenshichan
BeatmapID:1108741
BeatmapSetID:520301

[Difficulty]
HPDrainRate:5
CircleSize:3.5
OverallDifficulty:8.2
ApproachRate:8.2
SliderMultiplier:1.5
SliderTickRate:1

[Events]
//Background and Video events
0,0,"BG.jpg",0,0
//Break Periods
//Storyboard Layer 0 (Background)
//Storyboard Layer 1 (Fail)
//Storyboard Layer 2 (Pass)
//Storyboard Layer 3 (Foreground)
//Storyboard Sound Samples

[TimingPoints]
761,300,4,1,0,30,1,0
2561,-100,4,1,0,60,0,0
3161,-100,4,1,0,30,0,0
4961,-100,4,1,0,60,0,0
5561,-100,4,1,0,30,0,0
7361,-100,4,1,0,60,0,0
7961,-100,4,1,0,30,0,0
9461,-100,4,1,0,35,0,0
9761,-100,4,1,0,40,0,0
10061,-100,4,1,0,50,0,0
10361,-100,4,1,0,40,0,0
15161,-100,4,1,0,42,0,0
15761,-100,4,1,0,44,0,0
16361,-100,4,1,0,46,0,0
16961,-100,4,1,0,48,0,0
17561,-100,4,1,0,50,0,0
19361,-100,4,1,0,55,0,0
19961,-100,4,1,0,60,0,0
20111,-100,4,1,0,15,0,0
21161,-100,4,3,0,40,0,0
29561,-100,4,1,0,50,0,0
30179,-100,4,1,0,25,0,0
30761,-100,4,1,0,50,0,0
46961,-100,4,1,0,45,0,0
47261,-100,4,1,0,40,0,0
47561,-100,4,1,0,35,0,0
49361,-100,4,1,0,45,0,0
49961,-100,4,1,0,40,0,0
51761,-100,4,1,0,50,0,0
52361,-100,4,1,0,45,0,0
53561,-100,4,1,0,50,0,0
58361,-100,4,1,0,60,0,1
67961,-100,4,1,0,60,0,0
68261,-100,4,1,0,50,0,0
70361,-100,4,1,0,60,0,1
77561,-100,4,2,0,60,0,0
81011,-100,4,3,0,60,0,0
82361,-100,4,2,0,60,0,0
83561,-100,4,3,0,60,0,0
84761,-100,4,1,0,40,0,0
89261,-100,4,1,0,50,0,0
89561,-100,4,1,0,42,0,0
90011,-100,4,1,0,50,0,0
90161,-100,4,1,0,44,0,0
90611,-100,4,1,0,50,0,0
90761,-100,4,1,0,46,0,0
91211,-100,4,1,0,50,0,0
91361,-100,4,1,0,48,0,0
91961,-100,4,1,0,50,0,0
94511,-100,4,1,0,15,0,0
95561,-100,4,1,0,50,0,0
114761,-100,4,1,0,30,0,0
116561,-100,4,1,0,60,0,0
117161,-100,4,1,0,30,0,0
118961,-100,4,1,0,60,0,0
119561,-100,4,1,0,30,0,0

[Colours]
Combo1 : 0,213,0
Combo2 : 255,128,192
Combo3 : 0,255,255
Combo4 : 128,128,128

[HitObjects]
160,192,761,6,0,L|144:112,1,75,4|2,0:0|1:3,0:0:0:0:
240,176,1061,2,0,L|240:96,1,75,0|2,2:0|1:3,0:0:0:0:
334,119,1361,2,0,L|352:192,2,75,0|2|0,0:0|1:3|0:0,0:0:0:0:
240,192,1811,1,2,1:3:0:0:
144,112,1961,6,0,L|64:192,2,112.5,0|0|2,0:0|0:0|1:3,0:0:0:0:
368,112,2561,2,0,P|368:160|336:224,1,112.5,4|4,1:3|1:3,0:0:0:0:
144,112,3011,1,4,1:3:0:0:
368,112,3161,6,0,L|448:112,1,75,4|2,0:0|1:3,0:0:0:0:
347,192,3461,2,0,L|272:192,1,75,0|2,2:0|1:3,0:0:0:0:
176,112,3761,2,0,L|96:112,2,75,0|2|0,0:0|1:3|0:0,0:0:0:0:
272,192,4211,1,2,1:3:0:0:
368,192,4361,6,0,L|448:192,1,75,0|2,0:0|1:3,0:0:0:0:
352,128,4661,1,0,0:0:0:0:
304,128,4773,1,0,0:0:0:0:
288,64,4886,1,0,0:0:0:0:
352,320,4961,1,4,1:3:0:0:
336,256,5073,1,2,1:3:0:0:
288,256,5186,1,2,1:3:0:0:
192,256,5261,2,0,P|160:240|128:208,1,75,4|0,1:3|0:0,0:0:0:0:
352,192,5561,6,0,L|368:272,1,75,4|2,0:0|1:3,0:0:0:0:
272,208,5861,2,0,L|272:288,1,75,0|2,2:0|1:3,0:0:0:0:
178,265,6161,2,0,L|160:192,2,75,0|2|0,0:0|1:3|0:0,0:0:0:0:
272,192,6611,1,2,1:3:0:0:
368,272,6761,6,0,L|448:192,2,112.5,0|0|2,0:0|0:0|1:3,0:0:0:0:
144,272,7361,2,0,P|144:224|176:160,1,112.5,4|4,1:3|1:3,0:0:0:0:
368,272,7811,1,4,1:3:0:0:
144,272,7961,6,0,L|64:272,1,75,4|2,0:0|1:3,0:0:0:0:
165,192,8261,2,0,L|240:192,1,75,0|2,2:0|1:3,0:0:0:0:
336,272,8561,2,0,L|416:272,2,75,0|2|0,0:0|1:3|0:0,0:0:0:0:
240,192,9011,1,0,1:3:0:0:
144,192,9161,6,0,L|64:192,1,75,0|2,0:0|1:3,0:0:0:0:
181,112,9461,2,0,L|256:112,1,75,0|2,0:0|1:3,0:0:0:0:
144,64,9761,1,0,0:0:0:0:
64,112,9911,1,2,1:3:0:0:
32,192,10061,1,4,1:3:0:0:
400,192,10361,6,0,P|432:240|400:320,1,150,4|0,0:0|0:0,0:0:0:0:
304,352,10811,1,2,1:3:0:0:
400,192,10961,2,0,L|272:192,2,112.5,8|10|8,1:3|1:3|1:3,0:0:0:0:
304,192,11561,6,0,P|224:176|176:128,1,150,8|0,1:3|0:0,0:0:0:0:
272,64,12011,1,2,1:3:0:0:
384,192,12161,1,8,1:3:0:0:
272,320,12311,1,8,1:3:0:0:
384,192,12461,1,8,1:3:0:0:
112,192,12761,6,0,P|80:144|112:64,1,150,8|0,1:3|0:0,0:0:0:0:
208,32,13211,1,2,1:2:0:0:
112,192,13361,2,0,L|240:192,2,112.5,8|8|8,1:3|1:3|1:3,0:0:0:0:
208,192,13961,6,0,P|288:208|336:256,1,150,8|0,1:3|0:0,0:0:0:0:
240,320,14411,1,2,1:3:0:0:
128,192,14561,1,8,1:3:0:0:
240,64,14711,1,8,1:3:0:0:
384,64,14861,1,2,0:0:0:0:
128,192,15161,5,12,1:3:0:0:
224,192,15311,1,2,1:3:0:0:
288,192,15461,1,0,0:0:0:0:
224,192,15611,1,0,0:0:0:0:
352,112,15761,1,12,1:3:0:0:
256,112,15911,1,2,1:3:0:0:
192,112,16061,1,0,0:0:0:0:
256,112,16211,1,0,0:0:0:0:
112,192,16361,5,12,1:3:0:0:
80,128,16511,1,2,1:3:0:0:
128,64,16661,1,0,0:0:0:0:
224,192,16811,1,0,0:0:0:0:
368,272,16961,1,12,1:3:0:0:
400,208,17111,1,2,1:3:0:0:
352,144,17261,1,12,1:3:0:0:
256,272,17411,1,2,1:3:0:0:
128,192,17561,6,0,L|64:144,3,75,8|8|8|8,0:0|2:0|0:0|2:0,0:0:0:0:
208,144,18161,2,0,L|144:96,3,75,8|8|8|8,0:0|2:0|0:0|2:0,0:0:0:0:
288,112,18761,5,0,0:0:0:0:
324,119,18836,1,0,0:0:0:0:
355,139,18911,1,0,0:0:0:0:
376,170,18986,1,0,0:0:0:0:
383,207,19061,1,0,0:0:0:0:
377,243,19136,1,0,0:0:0:0:
356,275,19211,1,0,0:0:0:0:
325,296,19286,1,0,0:0:0:0:
288,304,19361,5,0,0:0:0:0:
233,293,19436,1,0,0:0:0:0:
186,262,19511,1,0,0:0:0:0:
155,215,19586,1,0,0:0:0:0:
144,161,19661,1,0,0:0:0:0:
154,106,19736,1,0,0:0:0:0:
185,59,19811,1,0,0:0:0:0:
231,27,19886,1,0,0:0:0:0:
324,119,19961,5,4,0:0:0:0:
256,192,20111,12,0,21011,2:0:0:0:
200,192,21161,6,0,P|184:144|200:48,1,150,8|8,1:3|0:0,0:0:0:0:
304,48,21611,1,0,2:0:0:0:
200,192,21761,2,0,L|112:192,2,75,8|0|8,1:3|0:0|1:3,0:0:0:0:
312,336,22211,1,0,2:0:0:0:
200,192,22361,6,0,P|184:240|200:336,1,150,8|8,1:3|1:3,0:0:0:0:
304,336,22811,1,0,2:0:0:0:
200,192,22961,2,0,L|144:192,1,50,8|0,1:3|1:0,0:0:0:0:
96,128,23161,1,0,1:0:0:0:
168,80,23261,2,0,L|192:160,1,75,8|0,1:3|1:0,0:0:0:0:
248,192,23486,1,0,1:0:0:0:
312,192,23561,6,0,P|328:240|312:336,1,150,8|8,1:3|1:3,0:0:0:0:
208,336,24011,1,0,2:0:0:0:
312,192,24161,2,0,L|400:192,2,75,8|0|8,1:3|0:0|1:3,0:0:0:0:
200,48,24611,1,0,2:0:0:0:
312,192,24761,6,0,P|328:144|312:48,1,150,8|8,1:3|1:3,0:0:0:0:
208,48,25211,1,0,0:0:0:0:
320,192,25361,1,8,1:3:0:0:
368,192,25436,1,0,1:0:0:0:
416,192,25511,2,0,P|448:224|448:256,1,75,0|0,2:0|1:0,0:0:0:0:
400,256,25736,1,0,0:0:0:0:
352,256,25811,1,8,1:3:0:0:
192,304,25961,6,0,P|192:240|256:192,1,150,8|8,1:3|1:3,0:0:0:0:
352,192,26411,1,0,2:0:0:0:
256,191,26561,2,0,L|176:191,2,75,8|0|8,1:3|0:0|1:3,0:0:0:0:
368,80,27011,1,0,2:0:0:0:
256,192,27161,6,0,P|196:152|192:80,1,150,8|8,1:3|1:3,0:0:0:0:
288,192,27611,1,0,2:0:0:0:
192,304,27761,2,0,L|208:224,1,75,8|0,0:0|2:0,0:0:0:0:
320,304,28061,2,0,L|304:224,1,75,0|8,0:0|0:0,0:0:0:0:
208,192,28361,5,8,0:0:0:0:
339,109,28511,2,0,P|348:161|304:192,1,112.5,8|0,0:0|0:0,0:0:0:0:
256,160,28811,1,8,0:0:0:0:
112,48,28961,2,0,P|103:100|147:131,1,112.5,8|8,0:0|0:0,0:0:0:0:
196,96,29261,2,0,L|236:96,2,37.5,0|0|8,0:0|0:0|0:0,0:0:0:0:
48,192,29561,6,0,L|64:272,1,75,8|0,1:3|0:0,0:0:0:0:
160,192,29861,2,0,L|176:272,1,75,0|0,0:0|0:0,0:0:0:0:
336,192,30161,1,6,1:3:0:0:
372,184,30236,1,0,0:0:0:0:
403,165,30311,1,0,0:0:0:0:
426,135,30386,1,0,0:0:0:0:
435,99,30461,1,0,0:0:0:0:
431,62,30536,1,0,0:0:0:0:
414,28,30611,1,0,2:0:0:0:
176,48,30761,6,0,P|112:64|80:144,1,150,4|4,0:0|3:0,0:0:0:0:
176,192,31211,1,2,0:0:0:0:
64,192,31361,2,0,L|48:272,1,75,4|2,3:0|0:0,0:0:0:0:
160,192,31661,2,0,L|176:272,1,75,4|2,3:0|0:0,0:0:0:0:
336,192,31961,6,0,P|384:144|336:96,1,150,4|4,3:0|3:0,0:0:0:0:
240,80,32411,1,2,0:0:0:0:
336,64,32561,2,0,L|416:64,1,75,4|2,3:0|0:0,0:0:0:0:
352,32,32786,1,0,0:0:0:0:
293,64,32861,2,0,L|368:64,1,75,4|2,0:0|0:0,0:0:0:0:
224,192,33161,6,0,P|160:176|128:96,1,150,4|4,3:0|3:0,0:0:0:0:
224,64,33611,1,2,0:0:0:0:
336,96,33761,2,0,L|320:176,1,75,4|2,3:0|0:0,0:0:0:0:
208,192,34061,2,0,L|240:272,1,75,4|2,3:0|0:0,0:0:0:0:
80,288,34361,6,0,P|64:224|112:160,1,150,4|4,3:0|3:0,0:0:0:0:
208,160,34811,1,2,0:0:0:0:
32,128,34961,2,0,L|144:80,1,112.5,4|0,3:0|0:0,0:0:0:0:
176,64,35261,1,4,3:0:0:0:
136,112,35336,1,0,2:0:0:0:
96,160,35411,1,2,0:0:0:0:
336,336,35561,6,0,P|400:320|432:240,1,150,4|4,0:0|3:0,0:0:0:0:
336,192,36011,1,2,0:0:0:0:
448,192,36161,2,0,L|464:112,1,75,4|2,3:0|0:0,0:0:0:0:
336,192,36461,2,0,L|320:112,1,75,4|2,3:0|0:0,0:0:0:0:
176,192,36761,6,0,L|96:192,1,75,4|4,3:0|3:0,0:0:0:0:
197,149,37061,2,0,L|144:96,1,75,4|4,3:0|3:0,0:0:0:0:
240,80,37361,1,0,0:0:0:0:
288,80,37436,1,0,0:0:0:0:
240,80,37511,1,0,0:0:0:0:
80,208,37661,2,0,L|128:272,1,75,2|0,0:0|0:0,0:0:0:0:
384,192,37961,6,0,L|384:272,1,75,4|0,0:0|0:0,0:0:0:0:
336,288,38186,1,0,0:0:0:0:
288,192,38261,2,0,L|288:112,1,75,8|0,3:0|0:0,0:0:0:0:
336,96,38486,1,0,0:0:0:0:
384,192,38561,2,0,L|384:272,1,75,8|0,3:0|0:0,0:0:0:0:
336,288,38786,1,0,0:0:0:0:
288,288,38861,2,0,L|208:288,1,75,8|0,3:0|0:0,0:0:0:0:
64,192,39161,5,8,0:0:0:0:
224,112,39386,1,8,0:0:0:0:
64,48,39611,1,8,0:0:0:0:
208,112,39836,1,8,0:0:0:0:
64,192,40061,2,0,L|64:272,1,75,8|8,0:0|2:0,0:0:0:0:
336,336,40361,6,0,P|400:320|432:240,1,150,4|4,0:0|3:0,0:0:0:0:
336,192,40811,1,2,0:0:0:0:
448,192,40961,2,0,L|464:112,1,75,4|2,3:0|0:0,0:0:0:0:
352,192,41261,2,0,L|336:112,1,75,4|2,3:0|0:0,0:0:0:0:
176,192,41561,6,0,P|128:240|176:288,1,150,4|4,3:0|3:0,0:0:0:0:
272,304,42011,1,2,0:0:0:0:
176,320,42161,2,0,L|96:320,1,75,4|2,3:0|0:0,0:0:0:0:
160,352,42386,1,0,0:0:0:0:
219,320,42461,2,0,L|144:320,1,75,0|2,0:0|0:0,0:0:0:0:
304,160,42761,6,0,P|352:208|384:288,1,150,4|4,3:0|3:0,0:0:0:0:
288,320,43211,1,2,0:0:0:0:
176,288,43361,2,0,L|192:208,1,75,4|2,3:0|0:0,0:0:0:0:
304,192,43661,2,0,L|272:112,1,75,4|2,3:0|0:0,0:0:0:0:
432,96,43961,6,0,P|480:145|432:192,1,150,4|4,3:0|3:0,0:0:0:0:
384,192,44336,1,0,0:0:0:0:
336,192,44411,1,2,0:0:0:0:
184,191,44561,2,0,P|204:260|272:288,1,150,4|4,3:0|3:0,0:0:0:0:
320,288,44936,1,0,2:0:0:0:
368,288,45011,1,4,1:3:0:0:
96,192,45161,6,0,P|112:96|256:32,1,262.5,4|0,0:0|2:0,0:0:0:0:
304,48,45761,2,0,L|224:48,1,75,2|2,0:0|0:0,0:0:0:0:
120,192,46061,2,0,L|200:192,1,75,2|2,0:0|0:0,0:0:0:0:
288,192,46361,5,4,1:3:0:0:
128,192,46511,2,0,L|48:192,1,75,2|2,0:0|0:0,0:0:0:0:
176,336,46811,1,2,0:0:0:0:
416,192,46961,2,0,L|448:112,3,75,4|4|4|4,3:0|3:0|3:0|3:0,0:0:0:0:
192,192,47561,6,0,P|144:160|144:64,1,150,4|4,0:0|1:3,0:0:0:0:
320,192,48161,2,0,P|368:160|368:64,1,150,4|4,1:3|1:3,0:0:0:0:
192,192,48761,6,0,P|134:188|86:105,1,150,4|8,1:3|1:3,0:0:0:0:
336,80,49361,1,8,0:0:0:0:
184,80,49586,1,8,0:0:0:0:
336,80,49811,1,8,0:0:0:0:
85,116,49961,6,0,P|80:192|136:232,1,150,4|4,0:0|1:3,0:0:0:0:
232,192,50411,1,0,2:0:0:0:
134,152,50561,2,0,P|77:196|85:268,1,150,4|4,1:3|1:3,2:2:0:0:
184,304,51011,1,0,2:0:0:0:
280,272,51161,6,0,L|296:192,1,75,4|8,1:3|1:3,0:0:0:0:
392,192,51461,2,0,L|376:112,1,75,8|0,1:3|0:0,0:0:0:0:
176,80,51761,1,8,0:0:0:0:
328,80,51986,1,8,0:0:0:0:
176,80,52211,1,8,0:0:0:0:
432,80,52361,6,0,L|416:160,1,75,4|0,0:0|0:0,0:0:0:0:
320,272,52661,2,0,L|336:192,1,75,8|0,1:3|0:0,0:0:0:0:
432,80,52961,2,0,L|320:80,2,112.5,12|12|12,1:3|1:3|1:3,0:0:0:0:
336,272,53561,6,0,L|320:192,1,75,4|0,1:3|0:0,0:0:0:0:
216,272,53861,2,0,L|232:192,1,75,4|0,1:3|0:0,0:0:0:0:
80,80,54161,2,0,L|192:80,2,112.5,12|12|12,1:3|1:3|1:3,0:0:0:0:
176,192,54761,5,12,1:3:0:0:
48,192,54986,1,12,1:3:0:0:
176,192,55211,1,12,1:3:0:0:
336,192,55361,1,12,1:3:0:0:
464,192,55586,1,12,1:3:0:0:
336,192,55811,1,12,1:3:0:0:
176,192,55961,6,0,L|96:192,1,75,4|4,1:3|1:3,0:0:0:0:
336,192,56261,2,0,L|416:192,1,75,4|4,1:3|1:3,0:0:0:0:
192,128,56561,1,4,1:3:0:0:
189,91,56636,1,0,0:0:0:0:
205,58,56711,1,4,1:3:0:0:
237,38,56786,1,0,0:0:0:0:
274,38,56861,1,4,1:3:0:0:
305,57,56936,1,0,0:0:0:0:
322,90,57011,1,4,1:3:0:0:
320,127,57086,1,0,0:0:0:0:
224,192,57161,5,4,0:0:0:0:
256,192,57311,12,0,58211,2:0:0:0:
160,192,58361,6,0,L|208:128,1,75,2|0,0:0|0:0,0:0:0:0:
256,80,58586,1,0,0:0:0:0:
307,132,58661,2,0,L|352:192,1,75,2|0,0:0|0:0,0:0:0:0:
200,256,58961,2,2,L|312:256,2,112.5,2|2|2,0:0|0:0|0:0,0:0:0:0:
96,192,59561,6,0,L|48:192,1,37.5,0|0,0:0|2:0,0:0:0:0:
96,192,59711,2,0,L|176:192,2,75,2|2|0,0:0|0:0|0:0,0:0:0:0:
248,128,60161,2,0,L|360:128,2,112.5,2|2|2,0:0|0:0|0:0,0:0:0:0:
128,128,60761,6,0,P|112:96|128:64,1,75,2|0,0:0|0:0,0:0:0:0:
240,192,61061,1,2,0:0:0:0:
200,224,61136,1,2,0:0:0:0:
144,224,61211,2,0,L|64:224,1,75,2|0,0:0|0:0,0:0:0:0:
176,192,61511,2,0,L|128:128,1,75,2|0,0:0|0:0,0:0:0:0:
368,128,61811,1,2,0:0:0:0:
480,160,61961,5,0,0:0:0:0:
384,192,62111,2,0,L|277:234,2,112.5,2|2|2,0:0|0:0|0:0,0:0:0:0:
288,160,62711,1,0,1:0:0:0:
240,160,62786,1,0,0:0:0:0:
192,160,62861,2,0,P|176:128|192:96,1,75,0|0,0:0|0:0,0:0:0:0:
352,192,63161,6,0,L|304:256,1,75,2|0,0:0|0:0,0:0:0:0:
256,304,63386,1,0,0:0:0:0:
205,252,63461,2,0,L|160:192,1,75,2|0,0:0|0:0,0:0:0:0:
312,128,63761,2,0,L|200:128,2,112.5,2|2|2,0:0|0:0|0:0,0:0:0:0:
416,192,64361,6,0,L|464:192,1,37.5,0|0,0:0|2:0,0:0:0:0:
416,192,64511,2,0,L|336:192,2,75,2|2|0,0:0|0:0|0:0,0:0:0:0:
264,256,64961,2,0,L|152:256,2,112.5,2|2|2,0:0|0:0|0:0,0:0:0:0:
320,256,65486,1,2,0:0:0:0:
384,256,65561,6,0,P|400:288|384:320,1,75,0|0,0:0|0:0,0:0:0:0:
256,192,65861,1,0,0:0:0:0:
400,160,66011,2,0,L|384:240,1,75,2|0,0:0|0:0,0:0:0:0:
240,160,66311,2,0,L|224:240,1,75,2|0,0:0|0:0,0:0:0:0:
80,160,66611,1,2,0:0:0:0:
160,64,66761,5,0,0:0:0:0:
384,64,66911,2,0,L|496:64,2,112.5,2|2|2,1:0|1:0|1:0,1:1:0:0:
256,64,67511,2,0,L|208:64,1,37.5,0|0,2:0|0:0,0:0:0:0:
288,128,67661,1,2,0:0:0:0:
321,142,67736,1,0,0:0:0:0:
335,175,67811,1,2,0:0:0:0:
322,209,67886,1,0,0:0:0:0:
288,223,67961,5,4,0:0:0:0:
96,224,68261,1,4,2:0:0:0:
352,192,68561,1,4,0:0:0:0:
160,192,68786,1,4,2:0:0:0:
352,192,69011,1,4,0:0:0:0:
192,160,69311,5,4,0:0:0:0:
320,160,69461,1,4,0:0:0:0:
128,112,69761,1,4,0:0:0:0:
304,192,69986,1,4,0:0:0:0:
128,256,70211,1,0,2:0:0:0:
384,256,70361,6,0,P|400:288|384:320,1,75,2|0,0:0|0:0,0:0:0:0:
272,192,70661,1,2,0:0:0:0:
312,160,70736,1,2,0:0:0:0:
368,160,70811,2,0,L|448:160,1,75,2|0,0:0|0:0,0:0:0:0:
336,192,71111,2,0,L|384:256,1,75,2|0,0:0|0:0,0:0:0:0:
144,256,71411,1,2,0:0:0:0:
32,224,71561,5,0,0:0:0:0:
128,192,71711,2,0,L|235:150,2,112.5,2|2|2,0:0|0:0|0:0,0:0:0:0:
224,224,72311,1,0,1:0:0:0:
272,224,72386,1,0,0:0:0:0:
320,224,72461,2,0,P|336:256|320:288,1,75,0|0,0:0|0:0,0:0:0:0:
160,192,72761,6,0,L|208:128,1,75,2|0,0:0|0:0,0:0:0:0:
256,80,72986,1,0,0:0:0:0:
307,132,73061,2,0,L|352:192,1,75,2|0,0:0|0:0,0:0:0:0:
200,256,73361,2,0,L|312:256,2,112.5,2|2|2,0:0|0:0|0:0,0:0:0:0:
96,192,73961,6,0,L|48:192,1,37.5,0|0,0:0|2:0,0:0:0:0:
96,192,74111,2,0,L|176:192,2,75,2|2|0,0:0|0:0|0:0,0:0:0:0:
248,128,74561,2,0,L|360:128,2,112.5,2|2|2,0:0|0:0|0:0,0:0:0:0:
192,128,75086,1,2,0:0:0:0:
128,128,75161,6,0,P|112:96|128:64,1,75,2|0,0:0|0:0,0:0:0:0:
256,192,75461,1,0,0:0:0:0:
112,224,75611,2,0,L|128:144,1,75,2|0,0:0|0:0,0:0:0:0:
272,224,75911,2,0,L|288:144,1,75,2|0,0:0|0:0,0:0:0:0:
432,224,76211,1,2,0:0:0:0:
352,320,76361,5,0,0:0:0:0:
128,320,76511,2,0,L|16:320,2,112.5,2|2|2,0:0|0:0|0:0,0:0:0:0:
256,320,77111,2,0,L|304:320,1,37.5,0|0,0:0|0:0,0:0:0:0:
224,256,77261,1,2,0:0:0:0:
190,241,77336,1,0,0:0:0:0:
176,208,77411,1,2,0:0:0:0:
189,174,77486,1,0,2:0:0:0:
223,160,77561,5,4,0:0:0:0:
352,128,77786,1,8,0:0:0:0:
256,112,78011,1,8,0:0:0:0:
384,80,78236,1,8,0:0:0:0:
192,64,78461,2,0,L|192:16,1,37.5,10|0,0:0|0:0,0:0:0:0:
48,240,78761,5,8,0:0:0:0:
176,208,78986,1,8,0:0:0:0:
80,192,79211,1,8,0:0:0:0:
208,160,79436,1,8,0:0:0:0:
16,144,79661,2,0,L|16:96,1,37.5,10|0,0:0|0:0,0:0:0:0:
160,192,79961,5,8,0:0:0:0:
288,160,80186,1,8,0:0:0:0:
192,144,80411,1,8,0:0:0:0:
320,112,80636,1,8,0:0:0:0:
128,96,80861,2,0,L|128:48,1,37.5,10|0,0:0|0:0,0:0:0:0:
256,64,81086,6,0,L|256:16,1,37.5,8|0,0:2|2:0,0:0:0:0:
144,144,81311,2,0,L|144:96,1,37.5,8|0,0:2|2:0,0:0:0:0:
240,128,81536,2,0,L|240:80,1,37.5,8|0,0:2|2:0,0:0:0:0:
384,106,81761,2,0,L|384:144,1,37.5,10|0,0:2|2:0,0:0:0:0:
256,26,81986,2,0,L|256:64,1,37.5,10|0,0:2|2:0,0:0:0:0:
352,90,82211,1,8,0:2:0:0:
256,192,82361,5,8,0:0:0:0:
128,224,82586,1,8,0:0:0:0:
224,240,82811,1,8,0:0:0:0:
96,272,83036,1,8,0:0:0:0:
287,288,83261,2,0,L|287:336,1,37.5,10|0,0:0|0:0,0:0:0:0:
432,192,83561,6,0,L|384:128,1,75,4|4,0:0|0:0,0:0:0:0:
336,64,83786,1,0,0:0:0:0:
280,192,83861,2,0,L|328:256,1,75,8|4,0:0|0:0,0:0:0:0:
376,320,84086,1,0,0:0:0:0:
432,192,84161,2,0,P|368:128|352:128,1,112.5,8|0,0:0|0:0,0:0:0:0:
288,128,84461,2,0,L|368:128,1,75,8|4,0:0|0:0,0:0:0:0:
112,192,84761,6,0,P|80:144|112:64,1,150,4|0,0:0|0:0,0:0:0:0:
208,32,85211,1,2,1:3:0:0:
112,192,85361,2,0,L|240:192,2,112.5,8|10|8,1:3|1:3|1:3,0:0:0:0:
208,192,85961,6,0,P|288:208|336:256,1,150,8|0,1:3|0:0,0:0:0:0:
240,320,86411,1,2,1:3:0:0:
128,192,86561,1,8,1:3:0:0:
240,64,86711,1,8,1:3:0:0:
128,192,86861,1,8,1:3:0:0:
400,192,87161,6,0,P|432:240|400:320,1,150,8|0,1:3|0:0,0:0:0:0:
304,352,87611,1,2,1:2:0:0:
400,192,87761,2,0,L|272:192,2,112.5,8|8|8,1:3|1:3|1:3,0:0:0:0:
304,192,88361,6,0,P|224:176|176:128,1,150,8|0,1:3|0:0,0:0:0:0:
272,64,88811,1,2,1:3:0:0:
384,192,88961,1,8,1:3:0:0:
272,320,89111,1,8,1:3:0:0:
128,320,89261,1,2,0:0:0:0:
384,192,89561,5,12,1:3:0:0:
288,192,89711,1,2,1:3:0:0:
224,192,89861,1,0,0:0:0:0:
288,192,90011,1,0,0:0:0:0:
160,272,90161,1,12,1:3:0:0:
256,272,90311,1,2,1:3:0:0:
320,272,90461,1,0,0:0:0:0:
256,272,90611,1,0,0:0:0:0:
400,192,90761,5,12,1:3:0:0:
432,256,90911,1,2,1:3:0:0:
384,320,91061,1,0,0:0:0:0:
288,192,91211,1,0,0:0:0:0:
160,112,91361,1,12,1:3:0:0:
112,176,91511,1,2,1:3:0:0:
144,240,91661,1,12,1:3:0:0:
256,112,91811,1,2,1:3:0:0:
384,192,91961,6,0,L|448:240,3,75,8|8|8|8,0:0|2:0|0:0|2:0,0:0:0:0:
304,240,92561,2,0,L|368:288,3,75,8|8|8|8,0:0|2:0|0:0|2:0,0:0:0:0:
224,272,93161,5,0,0:0:0:0:
188,265,93236,1,0,0:0:0:0:
157,245,93311,1,0,0:0:0:0:
136,214,93386,1,0,0:0:0:0:
129,177,93461,1,0,0:0:0:0:
135,141,93536,1,0,0:0:0:0:
156,109,93611,1,0,0:0:0:0:
187,88,93686,1,0,0:0:0:0:
224,80,93761,5,0,0:0:0:0:
279,91,93836,1,0,0:0:0:0:
326,122,93911,1,0,0:0:0:0:
357,169,93986,1,0,0:0:0:0:
368,223,94061,1,0,0:0:0:0:
358,278,94136,1,0,0:0:0:0:
327,325,94211,1,0,0:0:0:0:
281,357,94286,1,0,0:0:0:0:
188,265,94361,5,4,0:0:0:0:
256,192,94511,12,0,95411,0:0:0:0:
176,240,95561,6,0,P|128:192|160:144,1,112.5,4|0,0:0|0:0,0:0:0:0:
192,112,95861,2,0,L|112:112,1,75,8|0,0:3|0:0,0:0:0:0:
224,48,96161,2,0,L|304:48,1,75,8|0,0:3|0:0,0:0:0:0:
192,48,96461,1,8,0:3:0:0:
304,192,96611,1,0,0:0:0:0:
160,192,96761,6,0,P|208:128|240:128,1,112.5,8|0,0:3|0:0,0:0:0:0:
288,48,97061,2,0,L|224:96,1,75,8|0,0:3|0:0,0:0:0:0:
128,192,97361,2,0,L|208:192,1,75,8|0,0:3|0:0,0:0:0:0:
304,192,97661,2,0,P|336:192|368:224,1,75,8|0,0:3|0:0,0:0:0:0:
128,128,97961,6,0,L|53:128,1,75,8|0,0:3|0:0,0:0:0:0:
160,128,98261,1,8,0:3:0:0:
192,128,98336,1,0,0:0:0:0:
112,32,98486,1,0,0:0:0:0:
80,32,98561,2,0,P|96:80|112:96,1,75,8|0,0:3|0:0,0:0:0:0:
192,32,98861,1,8,0:3:0:0:
80,32,99011,1,0,0:0:0:0:
320,192,99161,6,0,L|432:192,2,112.5,12|8|8,0:3|0:3|0:3,0:0:0:0:
96,192,99761,2,0,P|96:144|144:96,1,112.5,12|8,0:3|0:3,0:0:0:0:
48,64,100136,1,12,0:3:0:0:
96,64,100211,1,8,0:3:0:0:
336,144,100361,6,0,P|368:192|352:240,1,112.5,8|0,0:3|0:0,0:0:0:0:
320,272,100661,2,0,L|400:272,1,75,8|0,0:3|0:0,0:0:0:0:
304,336,100961,1,8,0:3:0:0:
208,336,101111,1,0,0:0:0:0:
117,272,101261,2,0,L|192:272,1,75,8|0,0:3|0:0,0:0:0:0:
352,192,101561,6,0,P|304:256|272:256,1,112.5,8|0,0:3|0:0,0:0:0:0:
224,336,101861,2,0,L|288:288,1,75,8|0,0:3|0:0,0:0:0:0:
384,192,102161,2,0,L|304:192,1,75,8|0,0:3|0:0,0:0:0:0:
208,192,102461,2,0,P|176:192|144:160,1,75,8|0,0:3|0:0,0:0:0:0:
416,96,102761,6,0,P|448:96|480:128,1,75,4|0,3:1|3:0,0:0:0:0:
496,176,102986,1,0,3:0:0:0:
480,224,103061,1,8,3:0:0:0:
456,256,103136,1,0,3:0:0:0:
400,288,103211,2,0,L|288:288,2,112.5,12|12|8,3:0|3:0|3:0,3:3:0:0:
144,192,103811,6,0,P|128:144|128:80,1,112.5,4|4,3:1|3:1,3:3:0:0:
240,80,104186,1,4,3:1:0:0:
127,82,104336,1,4,3:1:0:0:
72,80,104411,2,0,L|24:80,2,37.5,8|0|12,3:0|3:0|3:0,3:3:0:0:
176,80,104711,2,0,L|224:80,1,37.5,0|8,3:0|3:0,3:3:0:0:
256,112,104861,2,0,L|218:112,1,37.5,8|12,3:0|3:0,3:3:0:0:
176,80,105011,1,8,3:0:0:0:
416,144,105161,6,0,P|464:192|432:240,1,112.5,4|0,0:0|0:0,0:0:0:0:
400,272,105461,2,0,L|480:272,1,75,8|0,0:3|0:0,0:0:0:0:
368,336,105761,2,0,L|288:336,1,75,8|0,0:3|0:0,0:0:0:0:
400,336,106061,1,8,0:3:0:0:
288,192,106211,1,0,0:0:0:0:
128,192,106361,6,0,L|48:272,4,112.5,8|8|8|8|8,0:3|0:3|0:3|0:3|0:3,0:0:0:0:
144,128,107411,1,0,3:0:0:0:
384,256,107561,6,0,L|459:256,1,75,8|0,0:3|0:0,0:0:0:0:
352,256,107861,1,8,0:3:0:0:
320,256,107936,1,0,0:0:0:0:
400,352,108086,1,0,0:0:0:0:
432,352,108161,2,0,P|416:304|400:288,1,75,8|0,0:3|0:0,0:0:0:0:
320,352,108461,1,8,0:3:0:0:
432,352,108611,1,0,0:0:0:0:
192,192,108761,6,0,L|80:192,2,112.5,12|8|8,0:3|0:3|0:3,0:0:0:0:
416,192,109361,2,0,L|496:192,1,75,12|0,0:3|0:0,0:0:0:0:
432,224,109586,1,8,0:3:0:0:
376,224,109661,1,2,0:0:0:0:
352,176,109736,1,12,0:3:0:0:
408,176,109811,1,8,0:3:0:0:
176,240,109961,6,0,P|128:192|160:144,1,112.5,4|4,0:0|0:0,0:0:0:0:
336,240,110411,2,0,P|384:192|352:144,1,112.5,4|4,0:0|0:0,0:0:0:0:
176,240,110861,2,0,L|256:240,1,75,4|0,0:0|3:0,0:0:0:0:
288,240,111086,1,4,2:0:0:0:
336,240,111161,6,0,P|368:192|368:128,1,112.5,0|4,0:0|0:0,0:0:0:0:
176,240,111611,2,0,P|144:192|144:128,1,112.5,4|4,0:0|0:0,0:0:0:0:
336,240,112061,2,0,L|416:240,1,75,4|4,0:0|2:0,0:0:0:0:
368,192,112286,1,0,0:0:0:0:
320,192,112361,6,0,P|368:144|384:96,1,112.5,4|4,0:0|0:0,0:0:0:0:
192,192,112811,2,0,P|144:144|128:96,1,112.5,4|4,0:0|0:0,0:0:0:0:
336,192,113261,2,0,P|384:144|400:96,1,112.5,4|4,0:0|0:0,0:0:0:0:
176,192,113711,2,0,P|128:144|112:96,1,112.5,4|4,0:0|0:0,0:0:0:0:
448,64,114161,5,2,0:0:0:0:
450,101,114236,1,0,0:0:0:0:
437,136,114311,1,2,0:0:0:0:
288,192,114461,1,2,0:0:0:0:
250,194,114536,1,0,0:0:0:0:
215,181,114611,1,2,0:0:0:0:
352,192,114761,6,0,L|368:272,1,75,6|2,0:0|1:3,0:0:0:0:
272,208,115061,2,0,L|272:288,1,75,0|2,2:0|1:3,0:0:0:0:
178,265,115361,2,0,L|160:192,2,75,0|2|0,0:0|1:3|0:0,0:0:0:0:
272,192,115811,1,2,1:3:0:0:
368,272,115961,6,0,L|448:192,2,112.5,0|0|2,0:0|0:0|1:3,0:0:0:0:
144,272,116561,2,0,P|144:224|176:160,1,112.5,4|4,1:3|1:3,0:0:0:0:
368,272,117011,1,4,1:3:0:0:
144,272,117161,6,0,L|64:272,1,75,4|2,0:0|1:3,0:0:0:0:
165,192,117461,2,0,L|240:192,1,75,0|2,2:0|1:3,0:0:0:0:
336,272,117761,2,0,L|416:272,2,75,0|2|0,0:0|1:3|0:0,0:0:0:0:
240,192,118211,1,2,1:3:0:0:
144,192,118361,6,0,L|64:192,1,75,0|2,0:0|1:3,0:0:0:0:
160,256,118661,1,0,0:0:0:0:
208,256,118773,1,0,0:0:0:0:
224,320,118886,1,0,0:0:0:0:
160,64,118961,1,4,1:3:0:0:
176,128,119073,1,2,1:3:0:0:
224,128,119186,1,2,1:3:0:0:
320,128,119261,2,0,P|352:144|384:176,1,75,4|0,1:3|0:0,0:0:0:0:
160,192,119561,6,0,P|144:160|208:80,1,150,4|0,0:0|2:0,0:0:0:0:
