osu file format v14

[General]
AudioFilename: audio.mp3
AudioLeadIn: 0
PreviewTime: -1
Countdown: 0
SampleSet: Soft
StackLeniency: 0.4
Mode: 0
LetterboxInBreaks: 0
WidescreenStoryboard: 0

[Editor]
DistanceSpacing: 0.9
BeatDivisor: 4
GridSize: 8
TimelineZoom: 1

[Metadata]
Title:Ultimate Ascension
TitleUnicode:Ultimate Ascension
Artist:Camellia
ArtistUnicode:Camellia
Creator:[TS]Battquif
Version:Extra
Source:
Tags:
BeatmapID:1628114
BeatmapSetID:774663

[Difficulty]
HPDrainRate:7
CircleSize:4.2
OverallDifficulty:9
ApproachRate:9.4
SliderMultiplier:2
SliderTickRate:1

[Events]
//Background and Video events
//Break Periods
//Storyboard Layer 0 (Background)
//Storyboard Layer 1 (Fail)
//Storyboard Layer 2 (Pass)
//Storyboard Layer 3 (Foreground)
//Storyboard Sound Samples

[TimingPoints]
815,300,4,2,0,60,1,0
815,-66.6666666666667,4,2,0,60,0,0
1715,-100,4,2,0,60,0,0
2615,-50,4,2,0,60,0,0
3215,-66.6666666666667,4,2,0,60,0,0
4115,-100,4,2,0,60,0,0
5015,-74.9625187406297,4,2,0,60,0,0
5315,-50,4,2,0,60,0,0
5615,-66.6666666666667,4,2,0,60,0,0
6515,-100,4,2,0,60,0,0
7415,-50,4,2,0,60,0,0
7640,-33.3333333333333,4,2,0,60,0,0
8015,-66.6666666666667,4,2,0,60,0,0
8915,-100,4,2,0,60,0,0
10115,-200,4,2,0,60,0,0

[Colours]
Combo1 : 128,0,0
Combo2 : 64,0,64

[HitObjects]
427,63,815,6,0,B|375:63|375:63|323:83|323:83|258:84,1,150.000005722046
190,84,1115,1,0,0:0:0:0:
232,163,1265,1,0,0:0:0:0:
209,250,1415,1,0,0:0:0:0:
135,302,1565,1,0,0:0:0:0:
236,246,1715,2,0,P|287:245|339:263,1,100
390,329,2015,5,0,0:0:0:0:
417,243,2165,1,0,0:0:0:0:
444,157,2315,1,0,0:0:0:0:
471,71,2465,1,0,0:0:0:0:
316,144,2615,6,0,P|247:102|318:110,1,200
284,211,2840,6,0,P|204:163|227:59,1,200
253,41,3065,5,0,0:0:0:0:
113,335,3215,6,0,B|113:283|113:283|93:231|93:231|92:166,1,150.000005722046
92,98,3515,1,0,0:0:0:0:
173,142,3665,1,0,0:0:0:0:
87,106,3815,1,0,0:0:0:0:
174,145,3965,1,0,0:0:0:0:
260,109,4115,2,0,P|312:118|356:151,1,100
371,232,4415,5,0,0:0:0:0:
512,112,4565,2,0,P|478:152|427:174,1,100
350,144,4815,5,0,0:0:0:0:
307,201,4915,5,0,0:0:0:0:
263,257,5015,6,0,B|357:238|357:238|371:230|371:230|474:206,1,200.100005221115
386,366,5315,6,0,L|69:289,1,300
410,273,5615,6,0,B|359:260|359:260|304:267|304:267|240:252,1,150.000005722046
176,232,5915,1,0,0:0:0:0:
251,182,6065,1,0,0:0:0:0:
160,224,6215,1,0,0:0:0:0:
219,155,6365,1,0,0:0:0:0:
80,196,6515,2,0,P|64:146|76:98,1,100
145,42,6815,5,0,0:0:0:0:
314,149,6965,2,0,P|264:165|216:153,1,100
142,31,7265,1,0,0:0:0:0:
365,209,7415,6,0,P|265:241|169:217,1,200
417,269,7640,6,0,P|267:317|123:281,1,300.000011444092
269,165,7865,5,0,0:0:0:0:
495,304,8015,6,0,B|495:252|495:252|475:200|475:200|474:135,1,150.000005722046
474,67,8315,1,0,0:0:0:0:
397,113,8465,1,0,0:0:0:0:
307,100,8615,1,0,0:0:0:0:
242,37,8765,1,0,0:0:0:0:
315,118,8915,2,0,P|321:168|306:214,1,100
231,264,9215,5,0,0:0:0:0:
377,274,9365,2,0,L|389:252,2,25
300,328,9515,5,0,0:0:0:0:
261,348,9590,1,0,0:0:0:0:
243,370,9665,5,0,0:0:0:0:
196,346,9740,1,0,0:0:0:0:
176,312,9815,5,0,0:0:0:0:
110,345,9890,1,0,0:0:0:0:
69,384,9965,5,0,0:0:0:0:
41,284,10040,1,0,0:0:0:0:
69,184,10115,6,0,P|79:144|68:110,1,75
