osu file format v14

[General]
AudioFilename: audio.mp3
AudioLeadIn: 0
PreviewTime: 312105
Countdown: 0
SampleSet: Soft
StackLeniency: 0.7
Mode: 2
LetterboxInBreaks: 0
WidescreenStoryboard: 0

[Editor]
Bookmarks: 45500,53718,83196,85283,124022,268106,422550,424024
DistanceSpacing: 1
BeatDivisor: 4
GridSize: 16
TimelineZoom: 3.799999

[Metadata]
Title:TremENDouS
TitleUnicode:TremENDouS
Artist:Camellia
ArtistUnicode:かめりあ
Creator:Bunnrei
Version:ResplENDencE
Source:Expert Global Taiko Showdown 2021
Tags:EGTS2021 cametek kamelcamellia custom tiebreaker grand finals electronic instrumental full flavor osu!mania 4k world cup 2022 mwc22 mwc finals flavour speedcore artcore dnb d'n'b drum n bass drumstep かめるかめりあ かめてく 大箭将也 大箭マサヤ masaya oya GTS Sound Team grandfinals tb tiebreaker osu!catch international cup ocic2022 chara ster osu_gangster -plus- _KcuD
BeatmapID:3549142
BeatmapSetID:1736560

[Difficulty]
HPDrainRate:2
CircleSize:4.2
OverallDifficulty:10
ApproachRate:10
SliderMultiplier:2
SliderTickRate:2

[Events]
//Background and Video events
0,0,"bg.jpg",0,0
//Break Periods
2,60439,62905
2,120961,122383
2,137048,139206
2,199780,205759
2,275825,279015
2,392539,393574
//Storyboard Layer 0 (Background)
//Storyboard Layer 1 (Fail)
//Storyboard Layer 2 (Pass)
//Storyboard Layer 3 (Foreground)
//Storyboard Layer 4 (Overlay)
//Storyboard Sound Samples

[TimingPoints]
3184,400,4,2,1,50,1,0
28784,375,4,2,1,50,1,0
30284,342.857142857143,4,2,1,60,1,0
31655,324.324324324324,4,2,1,70,1,0
32953,300,4,2,1,80,1,0
34153,260.869565217391,4,2,1,80,1,0
38326,-100,4,2,1,90,0,0
38718,-40,4,2,1,90,0,0
39500,-100,4,2,1,90,0,0
40805,-40,4,2,1,90,0,0
42109,-100,4,2,1,90,0,0
42892,-40,4,2,1,90,0,0
43674,-100,4,2,1,90,0,0
44979,-40,4,2,1,90,0,0
45892,-83.3333333333333,4,2,1,90,0,0
46413,-40,4,2,1,90,0,0
46674,-100,4,2,1,90,0,0
47066,-40,4,2,1,90,0,0
47848,-100,4,2,1,90,0,0
49152,-40,4,2,1,90,0,0
50457,-100,4,2,1,90,0,0
51239,-40,4,2,1,90,0,0
52022,-100,4,2,1,90,0,0
53326,-40,4,2,1,90,0,0
53848,-125,4,2,1,90,0,0
63370,-125,4,2,1,90,0,0
64152,-100,4,2,1,90,0,0
66239,-40,4,2,1,90,0,0
66500,-100,4,2,1,90,0,0
68326,-40,4,2,1,90,0,0
68587,-100,4,2,1,90,0,0
71979,-100,4,2,1,80,0,0
72761,-38.4615384615385,4,2,1,90,0,0
74326,-41.6666666666667,4,2,1,90,0,0
74848,-100,4,2,1,90,0,0
78631,-40,4,2,1,90,0,0
79022,-100,4,2,1,90,0,0
85544,-100,4,2,1,90,0,0
86979,-40,4,2,1,90,0,0
87370,-100,4,2,1,90,0,0
91544,-100,4,2,1,80,0,0
98848,-38.4615384615385,4,2,1,80,0,0
99892,-100,4,2,1,90,0,0
116718,-100,4,2,1,65,0,0
122848,-100,4,2,1,80,0,0
126761,-40,4,2,1,90,0,0
127022,279.06976744186,4,2,1,90,1,0
127022,-93.4579439252336,4,2,1,90,0,0
128975,-37.3831775700935,4,2,1,90,0,0
129255,300,4,2,1,90,1,0
129255,-86.9565217391304,4,2,1,90,0,0
131655,315.789473684211,4,2,1,90,1,0
131655,-82.6446280991736,4,2,1,90,0,0
133233,-82.6446280991736,4,2,1,80,0,0
134181,333.333333333333,4,2,1,60,1,0
136848,352.941176470588,4,2,1,60,1,0
139671,363.636363636364,4,2,1,80,1,0
139671,-73.6607142860267,4,2,1,80,0,0
142580,375,4,2,1,80,1,0
142767,-71.4285714285714,4,2,1,80,0,0
144080,-28.5714285714286,4,2,1,90,0,0
145205,-71.4285714285714,4,2,1,90,0,0
145580,-71.4285714285714,4,2,1,90,0,1
156080,-71.4285714285714,4,2,1,90,0,0
157580,-71.4285714285714,4,2,1,90,0,1
162267,-22.3214285714286,4,2,1,90,0,1
163673,-71.4285714285714,4,2,1,90,0,1
168080,-71.4285714285714,4,2,1,90,0,0
169205,-25,4,2,1,90,0,0
169580,-71.4285714285714,4,2,1,90,0,0
193673,-71.4285714285714,4,2,1,65,0,0
199580,400,4,2,1,65,1,0
202780,428.571428571429,4,2,1,65,1,0
206209,444.444444444444,4,2,1,80,1,0
206986,-56.25,4,2,1,80,0,0
212875,-28.0898876404494,4,2,1,80,0,0
213431,-56.25,4,2,1,80,0,0
216875,-28.0898876404494,4,2,1,80,0,0
217320,-56.25,4,2,1,80,0,0
223986,-28.0898876404494,4,2,1,80,0,0
224431,-56.25,4,2,1,80,0,0
226431,-45.4545454545455,4,2,1,80,0,0
227542,-56.25,4,2,1,80,0,0
239987,461.538461538462,4,2,1,80,1,8
239987,-50,4,2,1,80,0,8
240217,-22.7272727272727,4,2,1,80,0,8
241140,-50,4,2,1,80,0,8
241833,500,4,2,1,80,1,0
241833,-47.6190476190476,4,2,1,80,0,0
243333,-23.8095238095238,4,2,1,80,0,0
245833,-47.6190476190476,4,2,1,80,0,0
251333,-23.8095238095238,4,2,1,80,0,0
252864,-47.6190476190476,4,2,1,80,0,0
256833,-21.7391304347826,4,2,1,80,0,0
257333,-47.6190476190476,4,2,1,80,0,0
257833,461.538461538462,4,2,1,90,1,9
257833,-33.3333333333333,4,2,1,90,0,9
259679,428.571428571429,4,2,1,90,1,0
259679,-60.9756097560976,4,2,1,90,0,0
261393,400,4,2,1,90,1,1
261393,-33.3333333333333,4,2,1,90,0,1
262993,375,4,2,1,90,1,0
262993,-69.4444444444444,4,2,1,90,0,0
264493,352.941176470588,4,2,1,90,1,1
264493,-33.3333333333333,4,2,1,90,0,1
265905,333.333333333333,4,2,1,90,1,0
265905,-78.125,4,2,1,90,0,0
267238,315.789473684211,4,2,1,90,1,1
267316,-82.6446280991736,4,2,1,90,0,1
268502,292.682926829268,4,2,1,90,1,1
268575,-89.2857142857143,4,2,1,90,0,1
269672,272.727272727273,4,2,1,90,1,1
269672,-95.2380952380952,4,2,1,90,0,1
270763,255.31914893617,4,2,1,90,1,1
270763,-102.040816326531,4,2,1,90,0,1
271785,240,4,2,1,60,1,0
279465,-208.333333333333,4,2,1,60,0,0
287145,-104.166666666667,4,2,1,80,0,0
302505,-104.166666666667,4,2,1,90,0,0
304185,-41.6666666666667,4,2,1,90,0,0
304425,-104.166666666667,4,2,1,90,0,0
306105,-41.6666666666667,4,2,1,90,0,0
306345,-104.166666666667,4,2,1,90,0,0
310185,-208.333333333333,4,2,1,80,0,0
311145,-104.166666666667,4,2,1,90,0,0
312105,-40,4,2,1,90,0,0
313545,-104.166666666667,4,2,1,90,0,0
314025,-104.166666666667,4,2,1,90,0,1
329385,-104.166666666667,4,2,1,90,0,0
333225,-104.166666666667,4,2,1,90,0,1
343785,-104.166666666667,4,2,1,90,0,0
360465,-41.6666666666667,4,2,1,90,0,0
361185,-104.166666666667,4,2,1,90,0,0
362385,-41.6666666666667,4,2,1,90,0,0
363585,-104.166666666667,4,2,1,90,0,0
364305,-41.6666666666667,4,2,1,90,0,0
365025,-104.166666666667,4,2,1,90,0,0
366225,-41.6666666666667,4,2,1,90,0,0
367065,-100,4,2,1,90,0,0
367545,-41.6666666666667,4,2,1,90,0,0
367785,-104.166666666667,4,2,1,90,0,0
378345,-104.166666666667,4,2,1,90,0,0
380265,230.769230769231,4,2,1,90,1,0
380265,-104.166666666667,4,2,1,90,0,0
382111,222.222222222222,4,2,1,90,1,0
382111,-104.166666666667,4,2,1,90,0,0
383888,214.285714285714,4,2,1,90,1,0
383888,-107.52688172043,4,2,1,90,0,0
385603,210.526315789474,4,2,1,90,1,0
385603,-109.89010989011,4,2,1,90,0,0
387076,-43.956043956044,4,2,1,90,0,0
387287,-109.89010989011,4,2,1,90,0,0
388760,-43.956043956044,4,2,1,90,0,0
389076,-109.89010989011,4,2,1,90,0,0
394024,-43.956043956044,4,2,1,90,0,0
395708,-43.956043956044,4,2,1,90,0,1
395813,-109.89010989011,4,2,1,90,0,1
405760,-109.89010989011,4,2,1,90,0,0
405813,-109.89010989011,4,2,1,90,0,1
406445,-109.89010989011,4,2,1,90,0,0
406655,-109.89010989011,4,2,1,90,0,1
407287,-109.89010989011,4,2,1,90,0,0
407497,-109.89010989011,4,2,1,90,0,1
408339,-109.89010989011,4,2,1,90,0,0
409181,-109.89010989011,4,2,1,90,0,1
422655,-109.89010989011,4,2,1,90,0,0
424129,-43.956043956044,4,2,1,90,0,0
424339,-109.89010989011,4,2,1,90,0,0
425813,-43.956043956044,4,2,1,90,0,0
426024,-109.89010989011,4,2,1,90,0,0
429392,-38.4615384615385,4,2,1,90,0,0
430655,-33.3333333333333,4,2,1,90,0,0
430866,-133.333333333333,4,2,1,90,0,0
431287,-41.49377593361,4,2,1,90,0,1
434445,-41.49377593361,4,2,1,80,0,1
435287,-41.49377593361,4,2,1,70,0,1
436129,-41.49377593361,4,2,1,60,0,1
436971,-41.49377593361,4,2,1,50,0,0

[Colours]
Combo1 : 0,128,255
Combo2 : 0,0,255
Combo3 : 128,128,255
Combo4 : 0,255,255

[HitObjects]
256,320,28784,6,0,P|189:260|254:198,1,200,0|0,2:0|2:0,2:0:0:0:
358,199,29346,1,0,2:0:0:0:
188,88,29534,2,0,L|401:79,1,200,0|0,2:0|2:0,2:0:0:0:
399,172,30096,1,0,2:0:0:0:
223,214,30284,6,0,L|10:205,1,200,0|0,2:0|2:0,2:0:0:0:
12,298,30798,1,0,2:0:0:0:
172,265,30969,2,0,P|239:205|174:143,1,200,0|0,2:0|2:0,2:0:0:0:
69,143,31484,2,0,L|146:134,1,50,0|0,2:0|2:0,2:0:0:0:
289,214,31655,6,0,L|502:205,1,200,0|0,2:0|2:0,2:0:0:0:
500,298,32141,1,0,2:0:0:0:
350,122,32303,2,0,L|137:113,1,200,0|0,2:0|2:0,2:0:0:0:
139,206,32790,1,0,2:0:0:0:
297,350,32953,6,0,P|364:290|299:228,1,200,0|0,2:0|2:0,2:0:0:0:
195,229,33403,1,0,2:0:0:0:
50,151,33553,2,0,L|282:136,1,200,0|0,2:0|2:0,2:0:0:0:
145,77,34003,1,0,2:0:0:0:
375,323,34153,6,0,L|500:322,1,100,2|0,3:2|2:0,2:0:0:0:
365,359,34413,2,0,L|353:234,1,100,0|0,3:0|2:0,2:0:0:0:
245,125,34674,2,0,L|120:124,1,100,0|0,3:0|2:0,2:0:0:0:
255,161,34935,2,0,L|267:36,1,100,0|0,3:0|2:0,2:0:0:0:
153,356,35196,6,0,L|141:231,1,100,2|0,3:2|2:0,2:0:0:0:
33,265,35457,2,0,L|21:140,1,100,0|0,3:0|2:0,2:0:0:0:
134,193,35718,2,0,L|146:68,1,100,0|0,3:0|2:0,2:0:0:0:
254,102,35979,2,0,L|266:-23,1,100,0|0,3:0|2:0,2:0:0:0:
64,351,36239,6,0,L|52:226,1,100,2|0,3:2|2:0,2:0:0:0:
175,197,36500,2,0,L|47:197,1,100,0|0,3:0|2:0,2:0:0:0:
276,348,36761,2,0,L|288:223,1,100,0|0,3:0|2:0,2:0:0:0:
75,197,37022,2,0,L|175:197,1,100,0|0,3:0|2:0,2:0:0:0:
455,131,37283,5,2,1:2:0:0:
256,96,37413,1,2,1:2:0:0:
455,131,37544,2,0,L|390:131,1,50,2|0,1:2|2:0,2:0:0:0:
230,121,37674,2,0,L|182:121,2,25,2|0|0,1:2|2:0|2:0,2:0:0:0:
342,130,37772,1,0,2:0:0:0:
455,131,37805,5,2,1:2:0:0:
181,267,37935,2,0,L|116:267,1,50,0|0,2:0|2:0,2:0:0:0:
306,64,38066,2,0,L|256:64,1,50,0|0,2:0|2:0,2:0:0:0:
201,81,38196,2,0,L|251:81,1,50,0|0,2:0|2:0,2:0:0:0:
424,288,38326,6,0,L|304:288,1,100,2|0,3:1|2:0,2:0:0:0:
156,160,38522,2,0,L|256:160,1,100,0|0,3:0|2:0,2:0:0:0:
417,55,38718,2,0,B|171:9|171:9|153:75|153:75|138:21|138:21|129:83|129:83|112:150|112:150|109:91|109:91|100:153|100:153|97:93|97:93|94:155|94:155|90:217|90:217|94:149|94:149|96:207|96:207|101:274|101:274|110:216|110:216|118:278|118:278|126:337|126:337|141:274|141:274|154:339|154:339|178:283,1,1375,8|0,3:2|2:0,2:0:0:0:
385,229,39500,6,0,L|505:229,1,100,2|0,3:1|2:0,2:0:0:0:
308,344,39696,2,0,L|428:344,1,100,0|0,3:0|2:0,2:0:0:0:
231,77,39892,6,0,L|111:77,1,100,2|0,3:1|2:0,2:0:0:0:
308,192,40087,2,0,L|188:192,1,100,0|0,3:0|2:0,2:0:0:0:
32,200,40283,1,0,3:0:0:0:
162,216,40348,1,0,1:0:0:0:
292,232,40413,6,0,L|183:242,1,100,2|0,3:1|2:0,2:0:0:0:
16,337,40609,2,0,L|125:347,1,100,2|0,3:1|2:0,2:0:0:0:
366,344,40805,2,0,B|117:346|117:346|115:283|115:283|113:348|113:348|117:282|117:282|123:224|123:224|124:290|124:290|133:233|133:233|143:172|143:172|150:234|150:234|163:173|163:173|178:112|178:112|188:176|188:176|204:118|204:118|219:181|219:181|237:122|237:122|253:182|253:182|271:122|271:122|288:182|288:182|307:123|307:123|330:62|330:62|345:123|345:123|327:65|327:65|307:125|307:125|291:66|291:66|269:125|269:125|252:64|252:64|231:124|231:124|215:65|215:65|195:122|195:122|178:62|178:62|156:125|156:125|137:62|137:62|117:121|117:121|101:64|101:64|81:123,1,2375,8|0,3:2|2:0,2:0:0:0:
331,237,42109,6,0,L|403:238,2,50,2|0|0,1:0|2:0|2:0,2:0:0:0:
144,144,42305,1,2,2:1:0:0:
274,144,42370,1,0,2:0:0:0:
404,144,42435,1,0,2:0:0:0:
219,64,42500,6,0,L|91:64,1,100,2|0,3:1|2:0,2:0:0:0:
296,175,42696,2,0,L|424:175,1,100,2|0,3:1|2:0,2:0:0:0:
175,84,42892,2,0,B|421:38|421:38|439:104|439:104|454:50|454:50|463:112|463:112|480:179|480:179|483:120|483:120|492:182|492:182|495:122|495:122|498:184|498:184|502:246|502:246|498:178|498:178|496:236|496:236|491:303|491:303|482:245|482:245|474:307|474:307|466:366|466:366|451:303|451:303|438:368|438:368|414:312,1,1375,8|0,3:2|2:0,2:0:0:0:
208,312,43674,6,0,L|64:312,1,100,2|0,3:1|2:0,2:0:0:0:
285,231,43870,2,0,L|429:231,1,100,0|0,3:0|2:0,2:0:0:0:
208,160,44066,2,0,L|352:160,1,100,2|0,3:1|2:0,2:0:0:0:
483,41,44261,2,0,L|339:41,1,100,0|0,3:0|2:0,2:0:0:0:
206,160,44457,1,0,1:0:0:0:
336,176,44522,1,0,1:0:0:0:
466,192,44587,6,0,L|357:202,1,100,2|0,3:1|2:0,2:0:0:0:
189,336,44783,2,0,L|298:346,1,100,2|0,3:1|2:0,2:0:0:0:
112,301,44979,2,0,B|361:297|361:297|385:237|385:237|398:296|398:296|412:234|412:234|426:173|426:173|427:236|427:236|430:174|430:174|428:110|428:110|422:171|422:171|413:110|413:110|397:50|397:50|377:109|377:109|360:45,1,1000,2|2,3:1|3:1,2:0:0:0:
224,62,45566,1,0,2:0:0:0:
89,55,45631,6,0,B|338:54|338:54|389:177,1,375,0|0,2:0|2:0,2:0:0:0:
189,336,45892,6,0,P|125:291|188:247,1,180,2|0,3:1|2:0,2:0:0:0:
383,186,46152,6,0,P|446:141|383:97,1,180,2|0,3:1|2:0,2:0:0:0:
198,164,46413,6,0,B|447:163|447:163|393:282,1,375,2|0,3:1|2:0,2:0:0:0:
216,329,46674,6,0,L|96:329,1,100,2|0,3:1|2:0,2:0:0:0:
293,217,46870,2,0,L|173:217,1,100,2|0,3:1|2:0,2:0:0:0:
16,96,47066,2,0,B|262:50|262:50|280:116|280:116|295:62|295:62|304:124|304:124|321:191|321:191|324:132|324:132|333:194|333:194|336:134|336:134|339:196|339:196|343:258|343:258|339:190|339:190|337:248|337:248|332:315|332:315|323:257|323:257|315:319|315:319|307:378|307:378|292:315|292:315|279:380|279:380|255:324,1,1375,8|0,3:2|2:0,2:0:0:0:
82,163,47848,6,0,L|202:163,1,100,2|0,3:1|2:0,2:0:0:0:
5,278,48044,2,0,L|125:278,1,100,0|0,3:0|2:0,2:0:0:0:
280,245,48239,2,0,L|160:245,1,100,2|0,3:1|2:0,2:0:0:0:
357,360,48435,2,0,L|237:360,1,100,2|0,3:1|2:0,2:0:0:0:
80,139,48631,1,0,1:0:0:0:
210,155,48696,1,0,1:0:0:0:
340,171,48761,6,0,L|231:181,1,100,2|0,3:1|2:0,2:0:0:0:
418,318,48957,2,0,L|318:327,1,100,2|0,3:1|2:0,2:0:0:0:
144,338,49152,2,0,B|393:340|393:340|395:277|395:277|397:342|397:342|393:276|393:276|387:218|387:218|386:284|386:284|377:227|377:227|367:166|367:166|360:228|360:228|347:167|347:167|332:106|332:106|322:170|322:170|306:112|306:112|291:175|291:175|273:116|273:116|257:176|257:176|239:116|239:116|222:176|222:176|203:117|203:117|180:56|180:56|165:117|165:117|183:59|183:59|203:119|203:119|219:60|219:60|241:119|241:119|258:58|258:58|279:118|279:118|295:59|295:59|315:116|315:116|332:56|332:56|354:119|354:119|373:56|373:56|393:115|393:115|409:58|409:58|429:117,1,2375,8|0,3:2|2:0,2:0:0:0:
175,212,50457,6,0,L|104:216,2,50,2|0|0,1:0|2:0|2:0,2:0:0:0:
363,120,50652,1,2,2:1:0:0:
233,120,50718,1,0,2:0:0:0:
103,120,50783,1,0,2:0:0:0:
280,189,50848,6,0,L|389:199,1,100,2|0,3:1|2:0,2:0:0:0:
202,336,51044,2,0,L|302:345,1,100,2|0,3:1|2:0,2:0:0:0:
476,55,51239,2,0,B|230:9|230:9|212:75|212:75|197:21|197:21|188:83|188:83|171:150|171:150|168:91|168:91|159:153|159:153|156:93|156:93|153:155|153:155|149:217|149:217|153:149|153:149|155:207|155:207|160:274|160:274|169:216|169:216|177:278|177:278|185:337|185:337|200:274|200:274|213:339|213:339|237:283,1,1375,8|0,3:2|2:0,2:0:0:0:
413,268,52022,6,0,L|285:268,1,100,2|0,3:1|2:0,2:0:0:0:
136,352,52218,2,0,L|264:352,1,100,0|0,3:0|2:0,2:0:0:0:
61,160,52413,2,0,L|189:160,1,100,2|0,3:1|2:0,2:0:0:0:
338,52,52609,2,0,L|210:52,1,100,2|0,3:1|2:0,2:0:0:0:
61,224,52805,1,0,1:0:0:0:
191,240,52870,1,0,1:0:0:0:
321,256,52935,6,0,L|212:266,1,100,2|0,3:1|2:0,2:0:0:0:
399,358,53131,2,0,L|508:368,1,100,2|0,3:1|2:0,2:0:0:0:
321,256,53326,2,0,B|72:256|72:256|43:198|43:198|26:259|26:259|16:200|16:200|12:138|12:138|16:202|16:202|26:142|26:142|49:81|49:81|73:156,1,750,8|2,3:2|1:0,2:0:0:0:
256,112,53783,1,2,1:0:0:0:
458,18,53848,6,0,B|421:38|358:61|336:77|256:96|160:85|76:121|72:194|65:320|107:345|185:370|256:382|256:382|326:370|404:345|446:320|439:194|435:121|351:85|256:96|175:77|153:61|90:38|54:19,1,1360,4|2,1:0|1:2,2:0:0:0:
256,192,56196,12,8,60239,2:0:0:0:
112,192,63370,5,8,3:1:0:0:
400,192,63500,1,8,3:1:0:0:
131,33,63631,1,0,3:0:0:0:
256,64,63761,1,0,3:0:0:0:
381,33,63892,1,0,3:0:0:0:
112,192,64022,1,8,3:1:0:0:
311,156,64152,2,0,L|223:156,1,50,0|0,1:0|2:0,2:0:0:0:
201,156,64283,2,0,L|289:156,1,50,0|0,2:0|2:0,2:0:0:0:
426,342,64413,6,0,L|514:342,1,50,2|0,3:1|2:0,2:0:0:0:
299,352,64544,1,2,3:1:0:0:
269,302,64609,1,0,2:0:0:0:
291,248,64674,1,0,2:0:0:0:
347,234,64739,1,0,2:0:0:0:
170,221,64805,6,0,L|82:221,1,50,0|0,3:0|2:0,2:0:0:0:
175,256,64935,2,0,L|87:256,1,50,0|0,2:0|2:0,2:0:0:0:
302,141,65066,2,0,L|308:71,1,50,0|0,3:0|2:0,2:0:0:0:
239,261,65196,2,0,L|245:191,1,50,0|0,2:0|2:0,2:0:0:0:
418,330,65326,1,2,3:1:0:0:
266,343,65392,1,0,2:0:0:0:
114,356,65457,6,0,L|170:351,1,50,2|0,3:1|2:0,2:0:0:0:
338,176,65587,1,0,3:0:0:0:
288,173,65652,1,0,2:0:0:0:
238,170,65718,1,0,2:0:0:0:
188,167,65783,1,0,2:0:0:0:
365,284,65848,6,0,L|453:284,1,50,0|0,3:0|2:0,2:0:0:0:
360,319,65979,2,0,L|448:319,1,50,0|0,2:0|2:0,2:0:0:0:
233,233,66109,2,0,L|145:233,1,50,0|0,3:0|2:0,2:0:0:0:
358,76,66239,6,0,L|61:76,1,250,8|0,2:0|2:0,2:0:0:0:
244,192,66500,6,0,L|308:192,1,50,2|0,3:1|2:0,2:0:0:0:
117,333,66631,1,2,3:1:0:0:
87,283,66696,1,0,2:0:0:0:
109,229,66761,1,0,2:0:0:0:
165,215,66826,1,0,2:0:0:0:
342,66,66892,6,0,L|254:66,1,50,0|0,3:0|2:0,2:0:0:0:
347,101,67022,2,0,L|259:101,1,50,0|0,2:0|2:0,2:0:0:0:
472,227,67152,2,0,L|478:157,1,50,0|0,3:0|2:0,2:0:0:0:
409,347,67283,2,0,L|415:277,1,50,0|0,2:0|2:0,2:0:0:0:
236,287,67413,2,0,L|164:287,1,50,0|0,3:0|2:0,2:0:0:0:
368,237,67544,6,0,L|374:167,1,50,2|0,3:1|2:0,2:0:0:0:
198,190,67674,2,0,L|192:120,1,50,2|0,3:1|2:0,2:0:0:0:
16,271,67805,2,0,L|22:201,1,50,2|0,3:1|2:0,2:0:0:0:
195,140,67935,2,0,L|199:189,1,50,2|0,3:1|2:0,2:0:0:0:
376,184,68066,5,2,3:1:0:0:
426,167,68131,1,0,2:0:0:0:
426,167,68196,1,2,3:1:0:0:
376,184,68261,1,0,2:0:0:0:
202,312,68326,2,0,L|482:312,1,250,8|0,2:0|2:0,2:0:0:0:
202,312,68587,6,0,L|130:312,1,50,2|0,3:1|2:0,2:0:0:0:
329,69,68718,1,2,3:1:0:0:
385,83,68783,1,0,2:0:0:0:
407,137,68848,1,0,2:0:0:0:
377,187,68913,1,0,2:0:0:0:
200,231,68979,6,0,L|112:231,1,50,0|0,3:0|2:0,2:0:0:0:
205,266,69109,2,0,L|117:266,1,50,0|0,2:0|2:0,2:0:0:0:
329,163,69239,2,0,L|335:93,1,50,0|0,3:0|2:0,2:0:0:0:
266,283,69370,2,0,L|272:213,1,50,0|0,2:0|2:0,2:0:0:0:
96,323,69500,1,0,3:0:0:0:
248,336,69566,1,0,2:0:0:0:
400,349,69631,6,0,L|344:344,1,50,2|0,3:1|2:0,2:0:0:0:
176,81,69761,1,2,3:1:0:0:
120,95,69826,1,0,2:0:0:0:
98,149,69892,1,0,2:0:0:0:
128,199,69957,1,0,2:0:0:0:
305,301,70022,6,0,L|393:301,1,50,2|0,3:1|2:0,2:0:0:0:
300,336,70152,2,0,L|388:336,1,50,0|0,2:0|2:0,2:0:0:0:
173,245,70283,6,0,L|247:245,1,50,2|0,3:1|2:0,2:0:0:0:
398,248,70413,1,2,1:0:0:0:
398,248,70544,1,2,1:0:0:0:
142,162,70674,6,0,L|100:157,1,25,0|0,1:0|2:0,2:0:0:0:
231,83,70739,2,0,L|256:81,1,25,0|0,1:0|2:0,2:0:0:0:
370,162,70805,2,0,L|412:157,1,25,0|0,1:0|2:0,2:0:0:0:
280,83,70870,2,0,L|256:81,1,25,0|0,1:0|2:0,2:0:0:0:
137,182,70935,6,0,L|95:177,1,25,0|0,1:0|2:0,2:0:0:0:
231,83,71000,2,0,L|256:81,1,25,0|0,1:0|2:0,2:0:0:0:
375,182,71066,2,0,L|417:177,1,25,0|0,1:0|2:0,2:0:0:0:
280,83,71131,2,0,L|256:81,1,25,0|0,1:0|2:0,2:0:0:0:
132,202,71196,6,0,L|90:197,1,25,0|0,1:0|2:0,2:0:0:0:
231,83,71261,2,0,L|256:81,1,25,0|0,1:0|2:0,2:0:0:0:
380,202,71326,2,0,L|422:197,1,25,0|0,1:0|2:0,2:0:0:0:
280,83,71392,2,0,L|256:81,1,25,0|0,1:0|2:0,2:0:0:0:
127,222,71457,6,0,L|85:217,1,25,0|0,1:0|2:0,2:0:0:0:
231,83,71522,2,0,L|256:81,1,25,0|0,1:0|2:0,2:0:0:0:
385,222,71587,2,0,L|427:217,1,25,0|0,1:0|2:0,2:0:0:0:
280,83,71652,2,0,L|256:81,1,25,0|0,1:0|2:0,2:0:0:0:
123,243,71718,6,0,L|293:236,1,150,8|0,1:2|2:0,2:0:0:0:
96,153,71979,2,0,L|90:83,3,50,0|0|2|2,2:0|2:0|2:0|2:0,2:0:0:0:
252,208,72239,6,0,L|258:138,3,50,2|2|2|2,2:0|2:0|2:0|2:0,2:0:0:0:
41,105,72500,2,0,L|126:101,1,50,2|2,2:0|2:0,2:0:0:0:
256,320,72631,2,0,L|171:316,1,50,2|2,2:0|2:0,2:0:0:0:
16,368,72761,6,0,B|256:268|256:268|275:6,1,519.999999999999,10|0,3:2|2:0,2:0:0:0:
496,368,73152,6,0,B|256:268|256:268|237:6,1,519.999999999999,8|0,3:2|2:0,2:0:0:0:
16,368,73544,6,0,B|256:268|256:268|149:24,1,519.999999999999,8|0,3:2|2:0,2:0:0:0:
496,368,73935,6,0,B|256:268|256:268|363:24,1,519.999999999999,8|0,3:2|2:0,2:0:0:0:
16,128,74326,6,0,L|514:127,1,480,8|8,3:2|3:2,2:0:0:0:
29,313,74848,6,0,L|157:313,1,100,2|0,3:2|2:0,2:0:0:0:
306,184,75044,2,0,L|206:184,1,100,2|0,3:2|2:0,2:0:0:0:
383,313,75239,2,0,L|483:313,1,100,8|0,3:1|2:0,2:0:0:0:
256,264,75500,2,0,L|256:296,2,25,8|0|0,2:0|2:0|2:0,2:0:0:0:
116,344,75631,2,0,L|16:344,1,100,0|0,2:0|2:0,2:0:0:0:
256,176,75892,5,0,1:0:0:0:
56,176,76022,1,0,1:0:0:0:
256,176,76152,2,0,L|376:176,1,100,0|0,1:0|2:0,2:0:0:0:
156,176,76413,1,0,1:0:0:0:
418,296,76544,2,0,L|418:224,1,50,0|0,1:0|1:0,2:0:0:0:
256,328,76674,2,0,L|256:256,1,50,0|0,1:0|2:0,2:0:0:0:
94,296,76805,2,0,L|94:224,1,50,0|0,1:0|2:0,2:0:0:0:
383,313,76935,6,0,L|483:313,1,100,2|0,3:2|2:0,2:0:0:0:
306,184,77131,2,0,L|206:184,1,100,2|0,3:2|2:0,2:0:0:0:
29,313,77326,2,0,L|129:313,1,100,8|0,3:1|2:0,2:0:0:0:
384,312,77587,2,0,L|432:312,2,25,8|0|0,2:0|2:0|2:0,2:0:0:0:
206,184,77718,2,0,L|306:184,1,100,0|0,2:0|2:0,2:0:0:0:
56,352,77979,6,0,L|56:224,1,100,0|2,2:0|1:0,2:0:0:0:
121,216,78174,1,0,2:0:0:0:
186,192,78239,1,0,2:0:0:0:
56,252,78370,1,2,1:0:0:0:
89,253,78402,1,0,2:0:0:0:
121,268,78435,1,0,2:0:0:0:
154,272,78468,1,0,2:0:0:0:
187,255,78500,1,0,2:0:0:0:
457,352,78631,6,0,B|208:346|208:346|346:118,1,500,8|0,3:1|2:0,2:0:0:0:
29,313,79022,6,0,L|157:313,1,100,2|0,3:2|2:0,2:0:0:0:
306,184,79218,2,0,L|206:184,1,100,2|0,3:2|2:0,2:0:0:0:
383,313,79413,2,0,L|483:313,1,100,8|0,3:1|2:0,2:0:0:0:
256,264,79674,2,0,L|216:264,2,25,8|0|0,2:0|2:0|2:0,2:0:0:0:
396,344,79805,2,0,L|496:344,1,100,0|0,2:0|2:0,2:0:0:0:
256,168,80066,5,0,1:0:0:0:
188,168,80131,1,0,1:0:0:0:
256,168,80196,1,0,1:0:0:0:
188,168,80261,1,2,1:0:0:0:
363,108,80326,2,0,L|475:108,2,100,0|0|0,2:0|2:0|2:0,2:0:0:0:
109,160,80718,6,0,L|69:160,2,25,0|0|0,1:0|2:0|1:0,2:0:0:0:
256,168,80848,5,0,1:0:0:0:
324,168,80913,1,0,1:0:0:0:
256,168,80979,1,0,1:0:0:0:
324,168,81044,1,0,1:0:0:0:
483,313,81109,6,0,L|355:313,1,100,2|0,3:2|2:0,2:0:0:0:
206,184,81305,2,0,L|306:184,1,100,2|0,3:2|2:0,2:0:0:0:
129,313,81500,2,0,L|29:313,1,100,8|0,3:1|2:0,2:0:0:0:
200,240,81718,1,0,2:0:0:0:
368,224,81805,1,0,2:0:0:0:
128,312,81892,2,0,L|216:312,2,66.6666666666667,2|0|0,2:0|2:0|2:0,2:0:0:0:
368,224,82152,6,0,P|433:165|365:110,1,200,2|0,2:0|2:0,2:0:0:0:
313,108,82479,1,0,2:0:0:0:
263,106,82544,1,0,2:0:0:0:
476,29,82674,2,0,L|350:24,1,100,2|0,2:0|2:0,2:0:0:0:
135,25,82935,2,0,L|36:29,1,100,0|0,2:0|2:0,2:0:0:0:
336,198,83196,6,0,L|436:198,1,100,2|0,3:2|2:0,2:0:0:0:
259,352,83392,2,0,L|159:352,1,100,2|0,3:2|2:0,2:0:0:0:
334,198,83587,2,0,L|234:198,1,100,8|0,3:1|2:0,2:0:0:0:
41,192,83848,2,0,L|16:192,2,25,8|0|0,2:0|2:0|2:0,2:0:0:0:
193,103,83979,2,0,L|93:103,1,100,0|0,2:0|2:0,2:0:0:0:
356,48,84239,5,0,1:0:0:0:
156,48,84370,2,0,L|256:48,1,100,0|2,1:0|1:0,2:0:0:0:
56,48,84631,1,0,1:0:0:0:
256,48,84761,2,0,L|156:48,1,100,0|2,1:0|1:0,2:0:0:0:
405,138,85022,2,0,L|415:58,1,50,0|0,1:0|1:0,2:0:0:0:
231,261,85152,2,0,L|303:261,1,50,0|0,1:0|1:0,2:0:0:0:
496,360,85544,6,0,L|396:360,1,100,2|0,3:2|2:0,2:0:0:0:
221,231,85739,2,0,L|321:231,1,100,2|0,3:2|2:0,2:0:0:0:
144,355,85935,2,0,P|83:333|160:263,1,200,8|0,3:2|1:0,2:0:0:0:
211,266,86261,1,0,1:0:0:0:
386,290,86326,6,0,L|386:162,1,100,2|0,1:0|1:0,2:0:0:0:
321,154,86522,1,0,1:0:0:0:
256,130,86587,1,2,1:0:0:0:
386,190,86718,1,0,1:0:0:0:
353,191,86750,1,0,2:0:0:0:
321,206,86783,1,0,1:0:0:0:
288,210,86816,1,0,2:0:0:0:
255,193,86848,1,2,1:0:0:0:
16,360,86979,6,0,B|265:354|265:354|127:126,1,500,8|0,3:1|2:0,2:0:0:0:
383,313,87370,6,0,L|483:313,1,100,2|0,3:2|2:0,2:0:0:0:
306,184,87566,2,0,L|206:184,1,100,2|0,3:2|2:0,2:0:0:0:
383,313,87761,1,8,3:2:0:0:
129,313,87892,5,0,1:0:0:0:
85,304,87944,1,0,2:0:0:0:
85,304,87996,1,0,2:0:0:0:
129,313,88048,1,0,2:0:0:0:
383,313,88152,1,2,1:0:0:0:
257,280,88283,1,2,1:0:0:0:
29,313,88413,6,0,L|129:313,1,100,2|0,3:2|2:0,2:0:0:0:
306,184,88609,2,0,L|206:184,1,100,2|0,3:2|2:0,2:0:0:0:
29,313,88805,1,10,3:2:0:0:
256,280,88935,5,0,2:0:0:0:
300,271,88987,1,0,2:0:0:0:
300,271,89039,1,0,2:0:0:0:
256,280,89092,1,0,2:0:0:0:
29,313,89196,1,2,1:0:0:0:
155,280,89326,1,2,1:0:0:0:
483,313,89457,6,0,L|355:313,1,100,2|0,3:2|2:0,2:0:0:0:
206,184,89652,2,0,L|306:184,1,100,2|0,3:2|2:0,2:0:0:0:
129,313,89848,2,0,L|29:313,1,100,10|0,3:2|2:0,2:0:0:0:
200,352,90066,1,0,2:0:0:0:
29,313,90152,1,0,2:0:0:0:
256,320,90239,2,0,L|376:312,2,66.6666666666667,2|0|0,2:0|2:0|2:0,2:0:0:0:
483,313,90500,6,0,L|489:243,1,50,2|0,2:0|2:0,2:0:0:0:
374,186,90696,2,0,L|370:236,1,50,0|0,2:0|2:0,2:0:0:0:
256,144,90892,1,0,2:0:0:0:
452,67,91022,2,0,L|320:61,1,100,0|0,2:0|2:0,2:0:0:0:
125,202,91283,2,0,L|317:194,1,150,0|0,2:0|2:0,2:0:0:0:
97,327,91544,5,0,3:0:0:0:
49,319,91609,1,0,2:0:0:0:
27,276,91674,1,0,1:0:0:0:
47,232,91739,1,0,1:0:0:0:
94,222,91805,1,0,1:0:0:0:
297,116,91935,1,2,3:1:0:0:
345,108,92000,1,0,2:0:0:0:
367,65,92066,1,0,1:0:0:0:
347,21,92131,1,0,1:0:0:0:
300,11,92196,1,0,1:0:0:0:
159,228,92326,6,0,L|153:158,1,50,2|0,3:2|2:0,2:0:0:0:
211,162,92457,1,0,2:0:0:0:
266,253,92522,2,0,L|272:183,1,50,0|2,2:0|3:2,2:0:0:0:
411,247,92718,2,0,L|417:177,1,50,0|0,2:0|2:0,2:0:0:0:
359,181,92848,1,2,3:2:0:0:
304,272,92913,2,0,L|298:202,1,50,0|0,2:0|2:0,2:0:0:0:
159,228,93109,6,0,L|153:158,1,50,2|0,3:2|2:0,2:0:0:0:
211,162,93239,1,0,2:0:0:0:
266,253,93305,2,0,L|272:183,1,50,0|2,2:0|3:2,2:0:0:0:
128,139,93500,1,0,2:0:0:0:
269,135,93631,5,0,3:0:0:0:
318,133,93696,1,0,2:0:0:0:
368,131,93761,1,0,1:0:0:0:
418,129,93826,1,0,1:0:0:0:
468,127,93892,1,0,1:0:0:0:
330,329,94022,1,2,3:1:0:0:
280,327,94087,1,0,2:0:0:0:
230,325,94152,1,0,1:0:0:0:
180,323,94218,1,0,1:0:0:0:
130,321,94283,1,0,1:0:0:0:
271,227,94413,6,0,L|277:157,1,50,2|0,3:2|2:0,2:0:0:0:
219,161,94544,1,0,2:0:0:0:
164,252,94609,2,0,L|158:182,1,50,0|2,2:0|3:2,2:0:0:0:
300,108,94805,1,0,2:0:0:0:
348,100,94870,1,0,2:0:0:0:
370,57,94935,1,2,3:2:0:0:
350,13,95000,1,0,2:0:0:0:
303,3,95066,1,0,2:0:0:0:
162,80,95196,6,0,L|106:80,1,50,2|0,3:2|2:0,2:0:0:0:
167,40,95326,1,0,2:0:0:0:
223,107,95392,2,0,L|167:107,1,50,0|0,2:0|3:0,2:0:0:0:
33,192,95587,1,0,2:0:0:0:
234,110,95718,5,2,3:1:0:0:
282,102,95783,1,0,2:0:0:0:
304,59,95848,1,0,1:0:0:0:
284,15,95913,1,0,1:0:0:0:
237,5,95979,1,0,1:0:0:0:
438,258,96109,1,2,3:1:0:0:
486,250,96174,1,0,2:0:0:0:
508,207,96239,1,0,1:0:0:0:
488,163,96305,1,0,1:0:0:0:
441,153,96370,1,0,1:0:0:0:
300,343,96500,6,0,L|294:273,1,50,2|0,3:2|2:0,2:0:0:0:
352,277,96631,1,0,2:0:0:0:
407,368,96696,2,0,L|413:298,1,50,0|2,2:0|3:2,2:0:0:0:
271,343,96892,2,0,L|265:273,1,50,0|0,2:0|2:0,2:0:0:0:
212,266,97022,1,2,3:2:0:0:
157,260,97087,2,0,L|151:190,1,50,0|0,2:0|2:0,2:0:0:0:
293,194,97283,6,0,L|299:124,1,50,2|0,3:2|2:0,2:0:0:0:
352,117,97413,1,0,2:0:0:0:
407,111,97479,2,0,L|413:41,1,50,0|2,2:0|3:2,2:0:0:0:
271,48,97674,1,0,2:0:0:0:
130,210,97805,5,0,3:0:0:0:
179,209,97870,1,0,2:0:0:0:
229,208,97935,1,0,1:0:0:0:
279,207,98000,1,0,1:0:0:0:
329,206,98066,1,0,1:0:0:0:
188,286,98196,2,0,L|132:286,1,50,2|0,3:1|2:0,2:0:0:0:
193,246,98326,1,0,1:0:0:0:
249,313,98392,2,0,L|193:313,1,50,0|0,1:0|1:0,2:0:0:0:
59,368,98587,5,0,3:0:0:0:
22,335,98652,1,0,2:0:0:0:
19,287,98718,1,0,2:0:0:0:
52,250,98783,1,0,2:0:0:0:
209,107,98848,2,0,B|364:315|364:315|382:249|382:249|408:190|408:190|429:131|429:131|456:72|456:72|472:137|472:135|472:135|487:200|487:200|497:138|497:138|501:204|501:204|498:272|498:272|497:210|497:210|485:278|485:278|472:337|472:335|472:335|337:107|337:107|470:326|470:326|152:315,1,1820,2|0,3:1|2:0,2:0:0:0:
475,333,99892,6,0,L|487:208,1,100,2|0,3:2|2:0,2:0:0:0:
360,198,100152,2,0,L|348:73,1,100,0|0,1:0|2:0,2:0:0:0:
225,98,100413,1,0,1:0:0:0:
350,98,100544,1,0,2:0:0:0:
475,92,100674,2,0,L|347:92,1,100,0|0,1:0|2:0,2:0:0:0:
124,152,100935,6,0,P|91:211|195:277,1,200,2|0,3:2|1:0,2:0:0:0:
304,197,101326,2,0,L|176:197,1,100,0|0,2:0|1:0,2:0:0:0:
78,317,101587,2,0,L|206:317,1,100,0|0,2:0|1:0,2:0:0:0:
52,211,101848,1,0,2:0:0:0:
303,338,101979,6,0,L|318:131,1,200,2|0,3:2|1:0,2:0:0:0:
192,86,102370,1,0,2:0:0:0:
67,52,102500,2,0,L|300:47,1,200,0|2,1:0|1:2,2:0:0:0:
140,177,102892,1,2,1:2:0:0:
389,343,103022,6,0,P|451:327|388:232,1,200,2|0,1:2|1:0,2:0:0:0:
286,202,103413,1,0,2:0:0:0:
160,252,103544,2,0,L|379:247,1,200,0|0,1:0|1:0,2:0:0:0:
368,147,103935,1,0,1:0:0:0:
117,369,104066,6,0,L|105:244,1,100,2|0,3:2|2:0,2:0:0:0:
257,181,104326,2,0,L|269:56,1,100,0|0,1:0|2:0,2:0:0:0:
141,81,104587,1,0,1:0:0:0:
266,81,104718,1,0,2:0:0:0:
391,75,104848,2,0,L|263:75,1,100,0|0,1:0|2:0,2:0:0:0:
40,320,105109,6,0,L|34:250,3,50,2|0|0|0,3:2|2:0|2:0|2:0,2:0:0:0:
188,139,105370,2,0,L|84:139,2,100,0|0|0,1:0|2:0|1:0,2:0:0:0:
314,200,105761,2,0,L|400:200,2,50,0|0|0,2:0|2:0|1:0,2:0:0:0:
188,139,106022,1,0,2:0:0:0:
437,96,106152,6,0,L|317:96,1,100,2|0,3:2|2:0,2:0:0:0:
211,216,106413,2,0,L|331:216,1,100,0|0,1:0|1:0,2:0:0:0:
75,96,106674,2,0,L|195:96,2,100,0|0|0,1:0|2:0|1:0,2:0:0:0:
201,160,107066,2,0,L|273:160,1,50,0|0,2:0|2:0,2:0:0:0:
84,355,107196,5,0,1:0:0:0:
39,334,107261,1,0,2:0:0:0:
16,291,107326,1,0,2:0:0:0:
24,242,107392,1,0,2:0:0:0:
60,209,107457,1,0,2:0:0:0:
109,204,107522,1,0,2:0:0:0:
284,124,107587,2,0,L|380:124,1,50,0|0,1:0|1:0,2:0:0:0:
159,204,107718,6,0,L|63:204,2,50,0|0|0,1:0|2:0|1:0,2:0:0:0:
334,124,107913,2,0,L|430:124,2,50,0|0|0,2:0|1:0|2:0,2:0:0:0:
152,32,108109,2,0,L|248:32,1,50,0|0,1:0|2:0,2:0:0:0:
384,124,108239,6,0,L|512:124,1,100,0|0,3:0|2:0,2:0:0:0:
358,310,108500,2,0,L|230:310,1,100,2|0,1:0|2:0,2:0:0:0:
496,120,108761,1,0,3:0:0:0:
370,72,108892,1,0,2:0:0:0:
245,208,109022,2,0,L|365:208,1,100,2|0,1:0|1:0,2:0:0:0:
94,374,109283,6,0,L|82:249,1,100,0|0,3:0|2:0,2:0:0:0:
210,200,109544,2,0,L|222:75,1,100,2|0,1:0|2:0,2:0:0:0:
16,120,109805,1,0,3:0:0:0:
142,72,109935,1,0,2:0:0:0:
16,120,110066,2,0,L|4:-5,1,100,2|0,1:0|1:0,2:0:0:0:
256,232,110326,6,0,L|156:232,1,100,0|0,3:0|2:0,2:0:0:0:
282,166,110587,2,0,L|382:166,1,100,2|0,1:0|2:0,2:0:0:0:
131,56,110848,2,0,L|231:56,1,100,0|0,3:0|2:0,2:0:0:0:
357,95,111109,2,0,L|257:95,1,100,2|0,1:0|2:0,2:0:0:0:
483,345,111370,6,0,L|495:220,1,100,0|0,3:0|2:0,2:0:0:0:
367,205,111631,2,0,L|495:205,1,100,2|0,1:0|2:0,2:0:0:0:
216,275,111892,2,0,L|204:150,1,100,2|2,1:2|2:0,2:0:0:0:
336,127,112152,2,0,L|324:2,1,100,2|2,1:2|2:0,2:0:0:0:
75,64,112413,6,0,L|203:64,1,100,0|0,3:0|2:0,2:0:0:0:
49,143,112674,2,0,L|177:143,1,100,2|0,1:0|2:0,2:0:0:0:
385,276,112935,1,0,3:0:0:0:
259,228,113066,1,0,2:0:0:0:
134,364,113196,2,0,L|254:364,1,100,2|0,1:0|2:0,2:0:0:0:
470,77,113457,6,0,L|342:77,1,100,0|0,3:0|2:0,2:0:0:0:
496,156,113718,2,0,L|368:156,1,100,2|0,1:0|2:0,2:0:0:0:
145,306,113979,1,0,3:0:0:0:
271,258,114109,1,0,2:0:0:0:
145,306,114239,2,0,L|133:181,1,100,2|0,1:0|2:0,2:0:0:0:
367,306,114500,6,0,L|379:181,1,100,0|0,3:0|2:0,2:0:0:0:
256,144,114761,2,0,L|376:144,1,100,2|0,1:0|2:0,2:0:0:0:
116,88,115022,2,0,L|16:88,1,100,0|0,3:0|2:0,2:0:0:0:
142,305,115283,2,0,L|154:180,1,100,2|0,1:0|2:0,2:0:0:0:
403,104,115544,6,0,L|283:104,2,100,0|0|2,3:0|2:0|1:0,2:0:0:0:
148,183,115935,2,0,L|142:113,1,50,0|0,2:0|2:0,2:0:0:0:
304,64,116066,1,2,1:2:0:0:
429,250,116196,2,0,L|435:180,1,50,2|0,1:2|2:0,2:0:0:0:
271,131,116326,2,0,L|184:128,1,50,2|0,1:2|2:0,2:0:0:0:
398,22,116457,2,0,L|326:22,1,50,2|0,1:2|2:0,2:0:0:0:
173,22,116587,5,10,1:2:0:0:
256,192,116718,12,0,120761,2:0:0:0:
257,192,122848,6,0,P|186:240|257:288,1,200,0|0,2:0|2:0,2:0:0:0:
130,142,123239,2,0,P|59:190|130:238,1,200,0|0,2:0|2:0,2:0:0:0:
256,240,123631,1,0,2:0:0:0:
129,238,123761,1,0,2:0:0:0:
400,192,123892,5,2,1:2:0:0:
112,192,124022,1,2,1:2:0:0:
381,33,124152,1,2,1:2:0:0:
256,64,124283,1,2,1:2:0:0:
131,33,124413,1,2,1:2:0:0:
400,192,124544,1,8,1:0:0:0:
201,156,124674,2,0,L|289:156,1,50,0|0,2:0|2:0,2:0:0:0:
311,156,124805,2,0,L|223:156,1,50,0|0,2:0|2:0,2:0:0:0:
86,288,124935,6,0,L|-2:288,1,50,2|0,3:1|2:0,2:0:0:0:
213,209,125066,1,2,3:1:0:0:
163,209,125131,1,0,2:0:0:0:
113,209,125196,1,0,2:0:0:0:
63,209,125261,1,0,2:0:0:0:
238,334,125326,6,0,L|326:334,1,50,0|0,3:0|2:0,2:0:0:0:
232,334,125457,2,0,L|320:334,1,50,0|0,2:0|2:0,2:0:0:0:
107,314,125587,2,0,L|101:244,1,50,0|0,3:0|2:0,2:0:0:0:
171,218,125718,2,0,L|165:148,1,50,0|0,2:0|2:0,2:0:0:0:
16,96,125848,1,0,1:0:0:0:
168,109,125913,1,0,1:0:0:0:
320,122,125979,6,0,L|264:117,1,50,2|0,3:1|2:0,2:0:0:0:
96,339,126109,1,2,3:1:0:0:
66,289,126174,1,0,2:0:0:0:
88,235,126239,1,0,2:0:0:0:
144,221,126305,1,0,2:0:0:0:
321,308,126370,6,0,L|409:308,1,50,0|0,3:1|2:0,2:0:0:0:
315,308,126500,2,0,L|403:308,1,50,0|0,2:0|2:0,2:0:0:0:
190,156,126631,2,0,L|278:156,1,50,0|0,3:0|2:0,2:0:0:0:
414,238,126761,2,0,L|126:238,1,250,8|0,2:0|2:0,2:0:0:0:
300,125,127022,6,0,L|391:124,1,53.5,2|0,3:1|2:0,2:0:0:0:
165,265,127161,1,2,3:1:0:0:
125,218,127231,1,0,2:0:0:0:
147,161,127301,1,0,2:0:0:0:
207,153,127370,1,0,2:0:0:0:
395,30,127440,6,0,L|304:29,1,53.5,0|0,3:0|2:0,2:0:0:0:
402,30,127580,2,0,L|311:29,1,53.5,0|0,2:0|2:0,2:0:0:0:
160,340,127719,2,0,L|167:267,1,53.5,0|0,3:0|2:0,2:0:0:0:
92,275,127859,2,0,L|99:202,1,53.5,0|0,2:0|2:0,2:0:0:0:
285,147,127998,2,0,L|191:145,1,53.5,0|0,3:0|2:0,2:0:0:0:
41,330,128138,6,0,L|34:257,1,53.5,2|0,3:1|2:0,2:0:0:0:
224,297,128277,2,0,L|231:224,1,53.5,2|0,3:1|2:0,2:0:0:0:
420,275,128417,2,0,L|427:202,1,53.5,2|0,3:1|2:0,2:0:0:0:
237,242,128556,2,0,L|230:169,1,53.5,2|0,3:1|2:0,2:0:0:0:
415,151,128696,5,2,3:1:0:0:
469,159,128766,1,0,2:0:0:0:
469,159,128835,1,0,2:0:0:0:
415,151,128905,1,0,2:0:0:0:
227,206,128975,2,0,L|503:205,1,267.5,8|0,2:0|2:0,2:0:0:0:
208,256,129255,6,0,L|128:256,1,57.5,2|0,3:1|2:0,2:0:0:0:
355,120,129405,1,2,3:1:0:0:
297,120,129480,1,0,2:0:0:0:
240,120,129555,1,0,2:0:0:0:
182,120,129630,1,0,2:0:0:0:
384,359,129705,6,0,L|464:359,1,57.5,0|0,3:0|2:0,2:0:0:0:
377,359,129855,2,0,L|457:359,1,57.5,0|0,2:0|2:0,2:0:0:0:
230,358,130005,2,0,L|222:283,1,57.5,0|0,3:0|2:0,2:0:0:0:
303,263,130155,2,0,L|295:188,1,57.5,0|0,2:0|2:0,2:0:0:0:
95,173,130305,1,0,3:0:0:0:
267,160,130380,1,0,2:0:0:0:
439,147,130455,6,0,L|356:141,1,57.5,2|0,3:1|2:0,2:0:0:0:
178,112,130605,1,2,3:1:0:0:
235,110,130680,1,0,2:0:0:0:
292,108,130755,1,0,2:0:0:0:
350,106,130830,1,0,2:0:0:0:
149,339,130905,6,0,L|66:333,1,57.5,0|0,3:0|2:0,2:0:0:0:
156,339,131055,2,0,L|73:333,1,57.5,0|0,2:0|2:0,2:0:0:0:
300,269,131205,2,0,L|383:263,1,57.5,0|0,3:0|2:0,2:0:0:0:
146,226,131355,1,2,3:1:0:0:
146,226,131505,1,2,3:1:0:0:
400,136,131655,6,0,L|448:128,1,30.25,2|0,3:2|2:0,2:0:0:0:
286,88,131733,2,0,L|256:88,1,30.25,2|0,3:2|2:0,2:0:0:0:
112,136,131812,2,0,L|64:128,1,30.25,2|0,3:2|2:0,2:0:0:0:
225,88,131891,2,0,L|256:88,1,30.25,2|0,3:2|2:0,2:0:0:0:
407,152,131970,6,0,L|455:144,1,30.25,2|0,3:2|2:0,2:0:0:0:
286,88,132049,2,0,L|256:88,1,30.25,2|0,3:2|2:0,2:0:0:0:
105,152,132128,2,0,L|57:144,1,30.25,2|0,3:2|2:0,2:0:0:0:
225,88,132207,2,0,L|256:88,1,30.25,2|0,3:2|2:0,2:0:0:0:
414,168,132286,6,0,L|462:160,1,30.25,2|0,3:2|2:0,2:0:0:0:
286,88,132365,2,0,L|256:88,1,30.25,2|0,3:2|2:0,2:0:0:0:
98,168,132444,2,0,L|50:160,1,30.25,2|0,3:2|2:0,2:0:0:0:
225,88,132523,2,0,L|256:88,1,30.25,2|0,3:2|2:0,2:0:0:0:
421,184,132602,6,0,L|469:176,1,30.25,2|0,3:2|2:0,2:0:0:0:
286,88,132681,2,0,L|256:88,1,30.25,2|0,3:2|2:0,2:0:0:0:
91,184,132760,2,0,L|43:176,1,30.25,2|0,3:2|2:0,2:0:0:0:
225,88,132839,2,0,L|256:88,1,30.25,2|0,3:2|2:0,2:0:0:0:
428,200,132918,6,0,L|232:186,1,181.5,8|0,3:2|2:0,2:0:0:0:
459,370,133233,2,0,L|469:291,3,60.5,2|2|2|2,2:0|2:0|2:0|2:0,2:0:0:0:
292,217,133549,6,0,L|348:174,3,60.5,2|2|2|2,2:0|2:0|2:0|2:0,2:0:0:0:
165,72,133865,2,0,L|245:72,3,60.5,2|2|2|2,2:0|2:0|2:0|2:0,2:0:0:0:
16,192,134181,5,8,1:2:0:0:
256,192,134264,12,2,136848,2:0:0:0:
72,336,139671,6,0,L|63:221,1,67.8787878785,2|0,2:0|2:0,2:0:0:0:
162,207,139852,2,0,L|171:92,1,67.8787878785,0|0,2:0|2:0,2:0:0:0:
264,141,140034,2,0,L|273:26,1,67.8787878785,2|0,2:0|2:0,2:0:0:0:
366,61,140216,1,0,2:0:0:0:
269,73,140307,2,0,L|220:72,1,33.93939393925,0|0,2:0|2:0,2:0:0:0:
373,111,140398,6,0,L|485:111,1,67.8787878785,2|0,2:0|2:0,2:0:0:0:
345,270,140580,2,0,L|336:155,1,67.8787878785,0|0,2:0|2:0,2:0:0:0:
244,188,140761,2,0,L|156:188,2,67.8787878785,2|0|0,2:0|2:0|2:0,2:0:0:0:
340,44,141034,2,0,L|389:43,1,33.93939393925,0|0,2:0|2:0,2:0:0:0:
200,288,141125,6,0,L|88:288,1,67.8787878785,2|0,2:0|2:0,2:0:0:0:
222,350,141307,2,0,L|334:350,1,67.8787878785,0|0,2:0|2:0,2:0:0:0:
380,288,141489,2,0,L|268:288,2,67.8787878785,2|0|0,2:0|2:0|2:0,2:0:0:0:
468,204,141761,2,0,L|419:203,1,33.93939393925,0|0,2:0|2:0,2:0:0:0:
256,160,141852,6,0,L|144:160,1,67.8787878785,2|0,2:0|2:0,2:0:0:0:
278,97,142034,2,0,L|390:97,1,67.8787878785,0|0,2:0|2:0,2:0:0:0:
167,24,142216,2,0,L|279:24,1,67.8787878785,2|0,2:0|2:0,2:0:0:0:
139,105,142398,2,0,L|27:105,1,67.8787878785,0|0,2:0|2:0,2:0:0:0:
348,334,142580,5,2,1:0:0:0:
385,309,142626,1,0,2:0:0:0:
382,265,142673,1,0,2:0:0:0:
342,245,142720,1,0,2:0:0:0:
200,232,142767,2,0,L|144:232,1,35,2|0,1:0|2:0,2:0:0:0:
312,232,142861,2,0,L|368:232,1,35,0|0,2:0|2:0,2:0:0:0:
200,232,142955,6,0,L|144:232,1,35,2|0,1:0|2:0,2:0:0:0:
342,245,143048,1,0,2:0:0:0:
382,265,143095,1,0,2:0:0:0:
385,309,143142,1,2,1:0:0:0:
348,334,143189,1,0,2:0:0:0:
200,232,143236,2,0,L|144:232,1,35,0|0,2:0|2:0,2:0:0:0:
312,232,143330,5,2,2:0:0:0:
396,217,143423,1,2,2:0:0:0:
312,232,143517,1,2,2:0:0:0:
392,217,143611,1,2,2:0:0:0:
312,232,143705,1,2,2:0:0:0:
388,217,143798,1,2,2:0:0:0:
312,232,143892,1,2,2:0:0:0:
384,217,143986,1,2,2:0:0:0:
16,160,144080,6,0,L|391:144,1,350,2|0,3:1|2:0,2:0:0:0:
431,129,144361,6,0,L|56:113,1,350,2|0,3:1|2:0,2:0:0:0:
146,214,144642,6,0,L|496:200,1,350,2|0,3:1|2:0,2:0:0:0:
431,129,144923,6,0,L|81:114,1,350,2|0,3:1|2:0,2:0:0:0:
390,32,145205,6,0,L|320:32,1,70,2|0,3:1|2:0,2:0:0:0:
86,32,145392,2,0,L|16:32,1,70,2|0,3:1|2:0,2:0:0:0:
288,328,145580,6,0,P|362:291|279:236,1,210,2|0,3:1|2:0,2:0:0:0:
114,248,145955,1,2,3:1:0:0:
288,232,146048,2,0,L|288:66,1,140,0|0,2:0|2:0,2:0:0:0:
466,104,146330,5,8,3:2:0:0:
288,232,146423,2,0,L|288:66,1,140,0|0,2:0|2:0,2:0:0:0:
114,248,146705,1,2,3:1:0:0:
288,92,146798,1,0,2:0:0:0:
212,90,146892,1,0,2:0:0:0:
288,92,146986,1,0,2:0:0:0:
38,246,147080,5,2,3:1:0:0:
212,90,147173,1,0,2:0:0:0:
136,88,147267,1,0,2:0:0:0:
212,90,147361,1,0,2:0:0:0:
388,89,147455,1,2,3:1:0:0:
212,90,147548,2,0,L|212:230,1,140,0|0,2:0|2:0,2:0:0:0:
35,246,147830,5,2,3:1:0:0:
212,90,147923,2,0,L|212:230,1,140,0|0,2:0|2:0,2:0:0:0:
388,89,148205,2,0,L|304:88,1,70,2|0,3:1|2:0,2:0:0:0:
496,176,148392,1,2,3:1:0:0:
212,327,148580,6,0,P|138:290|221:235,1,210,2|0,3:1|2:0,2:0:0:0:
386,247,148955,1,2,3:1:0:0:
212,231,149048,2,0,L|212:65,1,140,0|0,2:0|2:0,2:0:0:0:
34,103,149330,5,2,3:1:0:0:
212,231,149423,2,0,L|212:65,1,140,0|0,2:0|2:0,2:0:0:0:
386,247,149705,1,2,3:1:0:0:
212,91,149798,1,0,2:0:0:0:
288,89,149892,1,0,2:0:0:0:
212,91,149986,1,0,2:0:0:0:
462,245,150080,5,2,3:1:0:0:
288,89,150173,1,0,2:0:0:0:
364,87,150267,1,0,2:0:0:0:
288,89,150361,1,0,2:0:0:0:
112,88,150455,1,2,3:1:0:0:
288,89,150548,2,0,L|288:229,1,140,0|0,2:0|2:0,2:0:0:0:
462,245,150830,5,2,3:1:0:0:
288,229,150923,2,0,L|443:229,1,140,0|0,2:0|2:0,2:0:0:0:
256,232,151205,2,0,L|336:232,1,70,2|0,3:1|2:0,2:0:0:0:
150,230,151392,1,2,3:1:0:0:
326,232,151486,1,0,2:0:0:0:
150,230,151580,6,0,P|76:193|159:138,1,210,2|0,3:1|2:0,2:0:0:0:
323,135,151955,1,2,3:1:0:0:
496,128,152048,2,0,L|496:296,1,140,0|0,2:0|2:0,2:0:0:0:
323,135,152330,1,2,3:1:0:0:
496,128,152423,2,0,L|496:296,1,140,0|0,2:0|2:0,2:0:0:0:
323,135,152705,1,2,3:1:0:0:
497,291,152798,1,0,2:0:0:0:
421,293,152892,1,2,3:1:0:0:
497,291,152986,1,0,2:0:0:0:
256,136,153080,5,2,3:1:0:0:
82,292,153173,1,0,2:0:0:0:
158,294,153267,1,0,2:0:0:0:
82,292,153361,1,0,2:0:0:0:
256,136,153455,1,2,3:1:0:0:
16,128,153548,2,0,L|16:296,1,140,0|0,2:0|2:0,2:0:0:0:
189,135,153830,5,2,3:1:0:0:
16,128,153923,2,0,L|16:296,1,140,0|0,2:0|2:0,2:0:0:0:
189,135,154205,2,0,L|102:135,1,70,2|0,3:1|2:0,2:0:0:0:
295,141,154392,1,0,2:0:0:0:
16,136,154580,6,0,P|89:186|14:234,1,210,2|0,3:1|2:0,2:0:0:0:
189,135,154955,1,2,3:1:0:0:
362,128,155048,2,0,L|362:296,1,140,0|0,2:0|2:0,2:0:0:0:
189,135,155330,5,2,3:1:0:0:
362,128,155423,2,0,L|362:296,1,140,0|0,2:0|2:0,2:0:0:0:
189,135,155705,1,2,3:1:0:0:
363,291,155798,1,0,2:0:0:0:
287,293,155892,1,0,2:0:0:0:
363,291,155986,1,0,2:0:0:0:
149,353,156080,6,0,P|50:284|148:214,1,280,8|2,3:2|2:0,2:0:0:0:
218,222,156548,1,2,2:0:0:0:
394,149,156642,2,0,L|298:149,2,70,2|2|2,2:0|2:0|2:0,2:0:0:0:
144,89,156923,5,2,2:0:0:0:
320,89,157017,1,2,2:0:0:0:
496,89,157111,1,2,2:0:0:0:
246,149,157205,2,0,L|176:149,1,70,2|2,2:0|2:0,2:0:0:0:
390,89,157392,2,0,L|320:89,1,70,2|2,2:0|2:0,2:0:0:0:
68,46,157580,6,0,L|316:46,1,210,2|0,3:1|2:0,2:0:0:0:
95,207,157955,1,2,3:1:0:0:
278,46,158048,2,0,L|119:46,1,140,0|0,2:0|2:0,2:0:0:0:
323,212,158330,5,2,3:1:0:0:
138,46,158423,2,0,L|278:46,1,140,0|0,2:0|2:0,2:0:0:0:
95,207,158705,1,2,3:1:0:0:
278,46,158798,1,0,2:0:0:0:
204,83,158892,1,0,2:0:0:0:
278,46,158986,1,0,2:0:0:0:
496,302,159080,5,2,3:1:0:0:
313,141,159173,1,0,2:0:0:0:
387,178,159267,1,0,2:0:0:0:
313,141,159361,1,0,2:0:0:0:
130,140,159455,1,2,3:1:0:0:
313,141,159548,2,0,L|158:144,1,140,0|0,2:0|2:0,2:0:0:0:
356,142,159830,5,2,3:1:0:0:
173,143,159923,2,0,L|328:146,1,140,0|0,2:0|2:0,2:0:0:0:
130,140,160205,2,0,L|243:138,1,70,2|0,3:1|2:0,2:0:0:0:
17,256,160392,1,2,3:1:0:0:
355,145,160580,6,0,L|107:145,1,210,2|0,3:1|2:0,2:0:0:0:
328,306,160955,1,2,3:1:0:0:
145,145,161048,2,0,L|304:145,1,140,0|0,2:0|2:0,2:0:0:0:
100,311,161330,5,2,3:1:0:0:
285,145,161423,2,0,L|145:145,1,140,0|0,2:0|2:0,2:0:0:0:
328,306,161705,1,2,3:1:0:0:
145,145,161798,1,0,2:0:0:0:
219,182,161892,1,2,3:1:0:0:
145,145,161986,1,0,2:0:0:0:
328,71,162080,2,0,L|224:71,1,70,2|0,3:1|2:0,2:0:0:0:
46,217,162267,6,0,L|315:217,1,224,8|0,3:1|2:0,2:0:0:0:
203,317,162455,1,0,2:0:0:0:
466,217,162642,6,0,L|197:217,1,224,8|0,3:1|2:0,2:0:0:0:
309,317,162830,1,0,2:0:0:0:
46,217,163017,6,0,L|315:217,1,224,8|0,3:1|2:0,2:0:0:0:
203,317,163205,1,0,2:0:0:0:
384,320,163392,1,0,2:0:0:0:
130,275,163580,5,0,3:0:0:0:
304,275,163673,2,0,L|311:202,1,70,0|0,2:0|2:0,2:0:0:0:
489,133,163861,2,0,L|495:63,1,70,0|2,2:0|1:0,2:0:0:0:
320,205,164048,2,0,L|313:274,1,70,0|0,2:0|2:0,2:0:0:0:
136,275,164236,1,0,2:0:0:0:
382,275,164330,5,0,3:0:0:0:
208,275,164423,2,0,L|201:202,1,70,0|0,2:0|2:0,2:0:0:0:
23,133,164611,2,0,L|16:63,1,70,0|2,2:0|1:0,2:0:0:0:
192,205,164798,2,0,L|198:274,1,70,0|0,2:0|2:0,2:0:0:0:
376,275,164986,1,0,2:0:0:0:
130,275,165080,5,0,3:0:0:0:
304,275,165173,2,0,L|311:202,1,70,0|0,2:0|2:0,2:0:0:0:
133,141,165361,2,0,L|229:141,1,70,0|2,2:0|1:0,2:0:0:0:
27,376,165548,2,0,L|20:303,1,70,0|0,2:0|2:0,2:0:0:0:
201,184,165736,1,0,2:0:0:0:
382,275,165830,5,0,3:0:0:0:
208,275,165923,2,0,L|201:202,1,70,0|0,2:0|2:0,2:0:0:0:
379,141,166111,2,0,L|283:141,1,70,0|2,2:0|1:0,2:0:0:0:
394,172,166298,2,0,L|401:99,1,70,0|0,2:0|2:0,2:0:0:0:
223,183,166486,1,0,2:0:0:0:
47,192,166580,6,0,L|103:184,1,35,0|0,3:0|2:0,2:0:0:0:
208,275,166673,2,0,L|264:267,1,35,0|0,2:0|2:0,2:0:0:0:
465,192,166767,6,0,L|409:184,1,35,2|0,1:0|2:0,2:0:0:0:
304,275,166861,2,0,L|248:267,1,35,0|0,2:0|2:0,2:0:0:0:
94,258,166955,6,0,L|150:250,1,35,0|0,3:0|2:0,2:0:0:0:
255,341,167048,2,0,L|311:333,1,35,0|0,2:0|2:0,2:0:0:0:
418,258,167142,2,0,L|362:250,1,35,2|0,1:0|2:0,2:0:0:0:
257,341,167236,2,0,L|201:333,1,35,0|0,2:0|2:0,2:0:0:0:
383,253,167330,6,0,L|439:245,1,35,0|0,3:0|2:0,2:0:0:0:
290,164,167423,2,0,L|256:160,1,35,0|0,2:0|2:0,2:0:0:0:
129,253,167517,2,0,L|73:245,1,35,2|0,1:0|2:0,2:0:0:0:
221,164,167611,2,0,L|256:160,1,35,0|0,2:0|2:0,2:0:0:0:
419,151,167705,6,0,L|475:143,1,35,0|0,3:0|2:0,2:0:0:0:
326,62,167798,2,0,L|291:57,1,35,0|0,2:0|2:0,2:0:0:0:
93,151,167892,6,0,L|37:143,1,35,2|0,1:0|2:0,2:0:0:0:
186,62,167986,2,0,L|220:57,1,35,0|0,2:0|2:0,2:0:0:0:
16,48,168080,6,0,L|16:240,1,140,0|0,2:0|2:0,2:0:0:0:
186,62,168455,2,0,L|18:62,1,140,0|0,2:0|2:0,2:0:0:0:
392,255,168830,5,0,2:0:0:0:
120,255,169017,1,0,2:0:0:0:
456,68,169205,2,0,L|56:68,1,400,0|0,2:0|2:0,2:0:0:0:
392,255,169580,6,0,L|229:255,1,140,2|0,3:1|2:0,2:0:0:0:
69,340,169861,1,0,3:0:0:0:
252,255,169955,2,0,L|259:185,1,70,8|0,3:2|2:0,2:0:0:0:
442,123,170142,5,0,3:0:0:0:
259,185,170236,2,0,L|252:255,1,70,0|0,2:0|2:0,2:0:0:0:
69,340,170423,1,0,3:0:0:0:
252,255,170517,2,0,L|259:185,1,70,0|0,2:0|2:0,2:0:0:0:
442,123,170705,6,0,L|373:121,1,70,8|0,3:2|2:0,2:0:0:0:
188,187,170892,2,0,L|257:185,1,70,0|0,2:0|2:0,2:0:0:0:
443,340,171080,5,2,3:1:0:0:
260,255,171173,2,0,L|253:185,1,70,0|0,2:0|2:0,2:0:0:0:
69,340,171361,1,0,3:0:0:0:
252,255,171455,2,0,L|259:185,1,70,8|0,3:2|2:0,2:0:0:0:
69,340,171642,5,0,3:0:0:0:
252,255,171736,2,0,L|259:185,1,70,0|0,2:0|3:0,2:0:0:0:
443,340,171923,1,0,3:0:0:0:
253,185,172017,2,0,L|336:185,1,70,0|0,3:0|2:0,2:0:0:0:
144,144,172205,6,0,L|12:95,1,140,8|0,3:2|2:0,2:0:0:0:
345,221,172580,6,0,L|205:221,1,140,2|0,3:1|2:0,2:0:0:0:
16,376,172861,1,0,3:0:0:0:
199,291,172955,2,0,L|206:221,1,70,8|0,3:2|2:0,2:0:0:0:
389,159,173142,5,0,3:0:0:0:
206,221,173236,2,0,L|199:291,1,70,0|0,2:0|2:0,2:0:0:0:
16,376,173423,1,0,3:0:0:0:
199,291,173517,2,0,L|206:221,1,70,0|0,2:0|2:0,2:0:0:0:
16,376,173705,6,0,L|126:376,1,70,8|0,3:2|2:0,2:0:0:0:
325,247,173892,2,0,L|255:247,1,70,0|0,2:0|2:0,2:0:0:0:
496,376,174080,5,2,3:1:0:0:
313,291,174173,2,0,L|306:221,1,70,0|0,2:0|2:0,2:0:0:0:
123,136,174361,1,0,3:2:0:0:
306,221,174455,2,0,L|313:291,1,70,8|0,2:0|2:0,2:0:0:0:
123,136,174642,5,0,3:0:0:0:
306,221,174736,2,0,L|313:291,1,70,0|0,2:0|2:0,2:0:0:0:
496,376,174923,1,0,3:0:0:0:
312,290,175017,2,0,L|410:291,1,70,0|0,3:0|3:0,2:0:0:0:
198,250,175205,2,0,L|295:250,1,70,8|0,3:2|2:0,2:0:0:0:
451,255,175392,1,0,3:1:0:0:
120,255,175580,6,0,L|283:255,1,140,2|0,3:1|2:0,2:0:0:0:
443,340,175861,1,0,3:0:0:0:
260,255,175955,2,0,L|253:185,1,70,8|0,3:2|2:0,2:0:0:0:
70,123,176142,5,0,3:0:0:0:
253,185,176236,2,0,L|260:255,1,70,0|0,2:0|2:0,2:0:0:0:
443,340,176423,1,0,3:0:0:0:
260,255,176517,2,0,L|253:185,1,70,0|0,3:0|2:0,2:0:0:0:
70,123,176705,6,0,L|139:121,1,70,8|0,3:2|2:0,2:0:0:0:
324,187,176892,2,0,L|255:185,1,70,0|0,2:0|2:0,2:0:0:0:
69,340,177080,5,2,3:1:0:0:
252,255,177173,2,0,L|259:185,1,70,0|0,2:0|2:0,2:0:0:0:
443,340,177361,1,0,3:0:0:0:
260,255,177455,2,0,L|253:185,1,70,8|0,3:2|2:0,2:0:0:0:
443,340,177642,5,0,3:0:0:0:
260,255,177736,2,0,L|253:185,1,70,0|0,2:0|2:0,2:0:0:0:
69,340,177923,1,0,3:0:0:0:
259,185,178017,2,0,L|176:185,1,70,0|0,3:0|3:0,2:0:0:0:
368,144,178205,6,0,L|500:95,1,140,8|0,3:2|3:0,2:0:0:0:
167,221,178580,6,0,L|307:221,1,140,2|0,3:1|2:0,2:0:0:0:
496,376,178861,1,0,3:0:0:0:
313,291,178955,2,0,L|306:221,1,70,8|0,3:2|2:0,2:0:0:0:
123,159,179142,5,0,3:0:0:0:
306,221,179236,2,0,L|313:291,1,70,0|0,2:0|2:0,2:0:0:0:
496,376,179423,1,0,3:0:0:0:
313,291,179517,2,0,L|306:221,1,70,0|0,2:0|2:0,2:0:0:0:
496,376,179705,6,0,L|386:376,1,70,8|0,3:2|2:0,2:0:0:0:
187,247,179892,2,0,L|257:247,1,70,0|0,2:0|2:0,2:0:0:0:
72,271,180080,5,2,3:1:0:0:
148,310,180173,2,0,L|155:380,1,70,0|0,2:0|2:0,2:0:0:0:
340,82,180361,1,2,3:1:0:0:
264,121,180455,2,0,L|257:191,1,70,0|0,2:0|2:0,2:0:0:0:
442,276,180642,6,0,L|338:276,2,70,2|0|0,3:1|2:0|2:0,2:0:0:0:
256,232,180923,1,2,3:1:0:0:
442,276,181017,2,0,L|449:346,1,70,0|0,2:0|2:0,2:0:0:0:
256,336,181205,2,0,L|416:336,1,140,8|0,3:2|2:0,2:0:0:0:
16,192,181580,6,0,L|176:192,1,140,2|0,3:1|2:0,2:0:0:0:
339,185,181861,1,0,3:0:0:0:
155,105,181955,2,0,L|235:105,1,70,8|0,3:2|2:0,2:0:0:0:
41,185,182142,5,0,3:0:0:0:
225,105,182236,2,0,L|145:105,1,70,0|0,2:0|2:0,2:0:0:0:
339,185,182423,1,0,3:0:0:0:
155,105,182517,2,0,L|235:105,1,70,0|0,2:0|2:0,2:0:0:0:
410,104,182705,1,8,3:2:0:0:
225,105,182798,1,0,2:0:0:0:
410,104,182892,2,0,L|330:104,1,70,0|0,2:0|2:0,2:0:0:0:
155,105,183080,5,2,3:1:0:0:
339,25,183173,2,0,L|259:25,1,70,0|0,2:0|2:0,2:0:0:0:
453,105,183361,5,0,3:0:0:0:
269,25,183455,2,0,L|349:25,1,70,8|0,3:2|2:0,2:0:0:0:
155,105,183642,5,0,3:0:0:0:
339,25,183736,2,0,L|448:25,1,70,0|0,2:0|2:0,2:0:0:0:
226,230,183923,1,0,3:0:0:0:
410,150,184017,2,0,L|290:150,1,70,0|0,3:0|3:0,2:0:0:0:
155,105,184205,6,0,L|8:104,1,140,8|0,3:2|3:2,2:0:0:0:
496,192,184580,6,0,L|336:192,1,140,2|0,3:1|2:0,2:0:0:0:
173,185,184861,1,0,3:0:0:0:
357,105,184955,2,0,L|277:105,1,70,8|0,3:2|2:0,2:0:0:0:
471,185,185142,5,0,3:0:0:0:
287,105,185236,2,0,L|367:105,1,70,0|0,2:0|2:0,2:0:0:0:
173,185,185423,1,0,3:0:0:0:
357,105,185517,2,0,L|277:105,1,70,0|0,2:0|2:0,2:0:0:0:
102,104,185705,1,8,3:2:0:0:
287,105,185798,1,0,2:0:0:0:
102,104,185892,2,0,L|182:104,1,70,0|0,2:0|2:0,2:0:0:0:
392,114,186080,6,0,L|399:184,1,70,2|0,2:0|2:0,2:0:0:0:
308,204,186267,2,0,L|315:274,1,70,2|0,2:0|2:0,2:0:0:0:
407,308,186455,2,0,L|414:378,1,70,2|0,2:0|2:0,2:0:0:0:
165,168,186642,6,0,L|158:238,1,70,2|0,2:0|2:0,2:0:0:0:
260,237,186830,2,0,L|253:307,1,70,2|0,2:0|2:0,2:0:0:0:
354,238,187017,2,0,L|347:168,1,70,2|0,2:0|2:0,2:0:0:0:
176,88,187205,2,0,L|64:88,1,70,2|0,2:0|2:0,2:0:0:0:
336,88,187392,2,0,L|448:88,1,70,2|0,2:0|2:0,2:0:0:0:
144,312,187580,5,8,3:2:0:0:
336,88,187673,2,0,L|256:88,1,70,0|0,2:0|2:0,2:0:0:0:
458,312,187861,1,8,3:2:0:0:
266,88,187955,2,0,L|346:88,1,70,0|0,2:0|2:0,2:0:0:0:
144,312,188142,2,0,L|64:312,1,70,8|0,3:2|2:0,2:0:0:0:
266,88,188330,5,0,3:0:0:0:
182,165,188423,2,0,L|182:312,1,140,0|0,2:0|2:0,2:0:0:0:
98,332,188705,2,0,L|50:332,6,35,0|0|0|0|0|0|0,2:0|2:0|2:0|2:0|2:0|2:0|2:0,2:0:0:0:
368,312,189080,5,8,3:2:0:0:
176,88,189173,2,0,L|256:88,1,70,0|0,2:0|2:0,2:0:0:0:
54,312,189361,1,8,3:2:0:0:
246,88,189455,2,0,L|166:88,1,70,0|0,2:0|2:0,2:0:0:0:
368,312,189642,2,0,L|448:312,1,70,8|0,3:2|2:0,2:0:0:0:
246,88,189830,5,2,2:0:0:0:
496,37,190017,1,2,2:0:0:0:
412,101,190111,2,0,P|365:190|411:280,1,210,0|2,2:0|2:0,2:0:0:0:
147,358,190580,6,0,L|108:352,1,35,2|0,3:1|2:0,2:0:0:0:
238,242,190673,2,0,L|277:236,1,35,0|0,2:0|2:0,2:0:0:0:
400,352,190767,2,0,L|366:358,1,35,0|0,2:0|2:0,2:0:0:0:
131,334,190861,6,0,L|92:328,1,35,2|0,3:1|2:0,2:0:0:0:
238,242,190955,2,0,L|277:236,1,35,0|0,2:0|2:0,2:0:0:0:
416,328,191048,2,0,L|382:334,1,35,0|0,2:0|2:0,2:0:0:0:
189,302,191142,6,0,L|150:296,1,35,2|0,3:1|2:0,2:0:0:0:
323,302,191236,2,0,L|357:296,1,35,0|0,2:0|2:0,2:0:0:0:
131,358,191330,6,0,L|92:352,1,35,2|0,3:1|2:0,2:0:0:0:
238,242,191423,2,0,L|277:236,1,35,0|0,2:0|2:0,2:0:0:0:
415,352,191517,2,0,L|381:358,1,35,0|0,2:0|2:0,2:0:0:0:
115,334,191611,6,0,L|76:328,1,35,2|0,3:1|2:0,2:0:0:0:
238,242,191705,2,0,L|277:236,1,35,0|0,2:0|2:0,2:0:0:0:
431,328,191798,2,0,L|397:334,1,35,0|0,2:0|2:0,2:0:0:0:
173,302,191892,6,0,L|134:296,1,35,2|0,3:1|2:0,2:0:0:0:
339,302,191986,2,0,L|378:296,1,35,0|0,2:0|2:0,2:0:0:0:
228,245,192080,6,0,L|221:315,1,70,2|0,1:0|2:0,2:0:0:0:
319,166,192267,2,0,L|326:236,1,70,0|0,2:0|2:0,2:0:0:0:
425,266,192455,1,0,2:0:0:0:
132,181,192642,1,0,2:0:0:0:
440,63,192830,6,0,L|288:63,1,140,0|0,2:0|2:0,2:0:0:0:
16,72,193205,2,0,L|16:296,1,210,0|0,2:0|2:0,2:0:0:0:
256,344,193580,5,4,2:1:0:0:
256,192,193673,12,0,199580,1:0:0:0:
70,150,206209,5,2,1:0:0:0:
248,89,206320,1,2,1:0:0:0:
253,175,206542,1,0,1:0:0:0:
258,261,206764,1,0,1:0:0:0:
263,347,206986,2,0,L|265:401,1,44.4444444444444,0|0,1:0|2:0,2:0:0:0:
442,150,207097,5,2,1:0:0:0:
264,89,207209,1,2,1:0:0:0:
259,175,207431,1,0,1:0:0:0:
254,261,207653,1,0,1:0:0:0:
249,347,207764,2,0,L|247:401,3,44.4444444444444,0|0|0|0,2:0|2:0|1:0|2:0,2:0:0:0:
70,150,207986,5,2,1:0:0:0:
248,89,208097,1,2,1:0:0:0:
253,175,208320,1,0,1:0:0:0:
258,261,208542,1,0,1:0:0:0:
263,347,208764,1,0,1:0:0:0:
442,150,208875,6,0,L|450:268,1,88.8888888888889,2|0,1:0|2:0,2:0:0:0:
333,251,209097,2,0,L|325:369,1,88.8888888888889,2|0,1:0|2:0,2:0:0:0:
208,344,209320,2,0,L|104:344,1,88.8888888888889,2|0,1:0|2:0,2:0:0:0:
235,240,209542,2,0,L|237:294,3,44.4444444444444,0|0|0|0,2:0|2:0|2:0|2:0,2:0:0:0:
62,192,209764,5,0,1:0:0:0:
110,192,209820,1,0,2:0:0:0:
158,192,209875,1,0,2:0:0:0:
206,192,209931,1,0,2:0:0:0:
253,192,209986,1,0,2:0:0:0:
302,192,210042,1,0,2:0:0:0:
349,192,210097,1,0,2:0:0:0:
397,192,210153,1,0,2:0:0:0:
445,192,210209,5,0,1:0:0:0:
396,192,210264,1,0,2:0:0:0:
349,192,210320,1,0,2:0:0:0:
301,192,210375,1,0,2:0:0:0:
253,192,210431,1,0,2:0:0:0:
205,192,210486,1,0,2:0:0:0:
158,192,210542,1,0,2:0:0:0:
109,192,210597,1,0,2:0:0:0:
67,192,210653,6,0,L|153:192,1,44.4444444444444,0|0,1:0|2:0,2:0:0:0:
256,96,210764,2,0,L|300:96,1,44.4444444444444,0|0,2:0|2:0,2:0:0:0:
445,192,210875,2,0,L|359:192,1,44.4444444444444,0|0,1:0|2:0,2:0:0:0:
256,96,210986,2,0,L|211:96,1,44.4444444444444,0|0,2:0|2:0,2:0:0:0:
400,192,211097,6,0,L|445:192,1,44.4444444444444,0|0,1:0|2:0,2:0:0:0:
300,96,211209,2,0,L|255:96,1,44.4444444444444,0|0,2:0|2:0,2:0:0:0:
111,192,211320,2,0,L|67:192,1,44.4444444444444,0|0,1:0|2:0,2:0:0:0:
212,96,211431,2,0,L|257:96,1,44.4444444444444,0|0,1:0|2:0,2:0:0:0:
111,192,211542,6,0,L|308:193,1,177.777777777778,8|0,1:2|2:0,2:0:0:0:
496,312,211875,2,0,L|299:313,1,177.777777777778,8|0,1:2|2:0,2:0:0:0:
87,141,212209,5,8,1:2:0:0:
301,141,212320,2,0,L|212:141,1,88.8888888888889,0|0,2:0|2:0,2:0:0:0:
425,141,212542,1,8,1:2:0:0:
211,141,212653,2,0,L|299:141,1,88.8888888888889,0|0,2:0|2:0,2:0:0:0:
78,56,212875,6,0,L|434:56,1,356,0|0,1:0|1:0,2:0:0:0:
80,328,213320,5,2,3:2:0:0:
178,330,213431,2,0,B|267:325|267:325|178:317,1,177.777777777778,2|2,2:0|2:0,2:0:0:0:
364,197,213764,2,0,L|375:60,1,88.8888888888889,2|0,3:1|2:0,2:0:0:0:
192,264,213986,2,0,L|181:127,1,88.8888888888889,0|0,1:0|2:0,2:0:0:0:
438,131,214209,5,2,3:2:0:0:
223,172,214320,2,0,L|231:103,1,44.4444444444444,2|2,2:0|2:0,2:0:0:0:
356,260,214431,2,0,L|364:191,1,44.4444444444444,2|2,2:0|2:0,2:0:0:0:
489,348,214542,2,0,L|497:279,1,44.4444444444444,2|2,2:0|2:0,2:0:0:0:
341,350,214653,2,0,L|245:350,1,88.8888888888889,2|0,3:1|2:0,2:0:0:0:
350,281,214875,2,0,L|254:281,1,88.8888888888889,0|0,1:0|2:0,2:0:0:0:
74,131,215097,5,2,3:2:0:0:
289,172,215209,2,0,L|281:103,1,44.4444444444444,2|2,2:0|2:0,2:0:0:0:
156,260,215320,2,0,L|148:191,1,44.4444444444444,2|2,2:0|2:0,2:0:0:0:
23,348,215431,2,0,L|15:279,1,44.4444444444444,2|2,2:0|2:0,2:0:0:0:
171,350,215542,2,0,L|267:350,1,88.8888888888889,2|0,3:1|2:0,2:0:0:0:
162,281,215764,2,0,L|258:281,1,88.8888888888889,0|0,1:0|2:0,2:0:0:0:
438,131,215986,5,2,3:2:0:0:
223,172,216097,2,0,L|231:103,1,44.4444444444444,2|2,2:0|2:0,2:0:0:0:
356,260,216209,2,0,L|364:191,1,44.4444444444444,2|2,2:0|2:0,2:0:0:0:
489,348,216320,2,0,L|497:279,1,44.4444444444444,2|2,2:0|2:0,2:0:0:0:
341,350,216431,2,0,L|245:350,1,88.8888888888889,2|0,3:1|2:0,2:0:0:0:
496,152,216653,2,0,L|400:152,1,88.8888888888889,2|0,3:1|2:0,2:0:0:0:
139,209,216875,6,0,B|495:211|495:211|401:55,1,534.000000000001,10|0,3:2|2:0,2:0:0:0:
184,64,217320,2,0,L|314:64,1,118.518518518519,2|0,1:2|2:0,2:0:0:0:
139,209,217542,2,0,L|51:209,1,59.2592592592592,2|0,1:2|2:0,2:0:0:0:
242,136,217690,1,0,2:0:0:0:
405,90,217764,2,0,L|293:89,1,88.8888888888889,2|0,3:1|2:0,2:0:0:0:
139,209,217986,2,0,P|97:178|138:146,1,118.518518518519,0|0,1:2|2:0,2:0:0:0:
328,64,218209,6,0,L|198:64,1,118.518518518519,2|0,1:2|2:0,2:0:0:0:
373,209,218431,2,0,L|461:209,1,59.2592592592592,2|0,1:2|2:0,2:0:0:0:
270,136,218579,1,0,2:0:0:0:
107,90,218653,2,0,L|219:89,1,88.8888888888889,2|0,3:1|2:0,2:0:0:0:
373,209,218875,2,0,P|414:178|373:146,1,118.518518518519,0|0,1:0|2:0,2:0:0:0:
181,136,219097,6,0,L|301:136,1,88.8888888888889,2|0,3:1|2:0,2:0:0:0:
160,232,219320,2,0,L|96:232,2,44.4444444444444,2|0|0,3:1|2:0|2:0,2:0:0:0:
272,232,219542,1,2,3:2:0:0:
40,136,219653,1,0,2:0:0:0:
152,136,219764,1,0,2:0:0:0:
40,136,219875,1,0,2:0:0:0:
264,136,219986,5,8,3:2:0:0:
40,136,220097,2,0,L|32:67,1,44.4444444444444,0|0,2:0|2:0,2:0:0:0:
157,180,220209,2,0,L|149:111,1,44.4444444444444,0|0,2:0|2:0,2:0:0:0:
272,180,220320,2,0,L|264:111,1,44.4444444444444,0|0,2:0|2:0,2:0:0:0:
88,304,220431,6,0,L|88:192,1,88.8888888888889,2|0,3:1|2:0,2:0:0:0:
203,216,220653,2,0,L|213:170,2,44.4444444444444,0|0|0,1:0|2:0|2:0,2:0:0:0:
425,158,220875,2,0,L|297:158,1,88.8888888888889,2|0,3:1|2:0,2:0:0:0:
452,254,221097,1,0,1:0:0:0:
407,254,221153,1,0,2:0:0:0:
363,254,221209,1,0,2:0:0:0:
135,324,221320,5,2,3:2:0:0:
340,305,221431,2,0,L|348:236,1,44.4444444444444,2|2,2:0|2:0,2:0:0:0:
473,236,221542,2,0,L|481:167,1,44.4444444444444,2|2,2:0|2:0,2:0:0:0:
350,158,221653,2,0,L|342:89,1,44.4444444444444,2|2,2:0|2:0,2:0:0:0:
212,66,221764,2,0,L|316:66,1,88.8888888888889,2|0,3:1|2:0,2:0:0:0:
199,164,221986,2,0,L|95:164,1,88.8888888888889,0|0,1:0|2:0,2:0:0:0:
377,324,222209,5,0,3:1:0:0:
172,305,222320,2,0,L|164:236,1,44.4444444444444,2|2,2:0|2:0,2:0:0:0:
39,236,222431,2,0,L|31:167,1,44.4444444444444,2|2,2:0|2:0,2:0:0:0:
162,158,222542,2,0,L|170:89,1,44.4444444444444,2|2,2:0|2:0,2:0:0:0:
300,66,222653,2,0,L|196:66,1,88.8888888888889,2|0,3:1|2:0,2:0:0:0:
313,164,222875,2,0,L|417:164,1,88.8888888888889,0|0,1:0|2:0,2:0:0:0:
135,324,223097,5,2,3:2:0:0:
340,305,223209,2,0,L|348:236,1,44.4444444444444,2|2,2:0|2:0,2:0:0:0:
473,236,223320,2,0,L|481:167,1,44.4444444444444,2|2,2:0|2:0,2:0:0:0:
350,158,223431,2,0,L|342:89,1,44.4444444444444,2|2,2:0|2:0,2:0:0:0:
212,66,223542,2,0,L|316:66,1,88.8888888888889,2|0,3:1|2:0,2:0:0:0:
48,176,223764,2,0,L|136:176,1,88.8888888888889,2|0,3:1|2:0,2:0:0:0:
405,174,223986,6,0,B|49:176|49:176|143:20,1,534.000000000001,8|0,3:2|2:0,2:0:0:0:
373,209,224431,2,0,P|414:178|373:146,1,118.518518518519,0|0,1:0|2:0,2:0:0:0:
193,106,224653,2,0,L|121:106,1,59.2592592592592,0|0,1:0|2:0,2:0:0:0:
296,64,224801,1,0,2:0:0:0:
133,106,224875,6,0,L|17:106,1,88.8888888888889,2|0,3:1|2:0,2:0:0:0:
224,272,225097,2,0,L|376:272,1,118.518518518519,0|0,1:0|2:0,2:0:0:0:
139,209,225320,2,0,P|98:178|139:146,1,118.518518518519,0|0,1:0|2:0,2:0:0:0:
319,106,225542,2,0,L|391:106,1,59.2592592592592,0|0,1:0|2:0,2:0:0:0:
216,64,225690,1,0,2:0:0:0:
378,106,225764,5,2,3:1:0:0:
378,106,225986,1,2,3:1:0:0:
378,106,226208,2,0,L|228:107,1,88.8888888888889,2|0,3:1|2:0,2:0:0:0:
26,214,226431,6,0,L|251:214,1,220,2|2,3:1|3:1,2:0:0:0:
485,214,226764,2,0,L|260:215,1,220,0|0,2:0|2:0,2:0:0:0:
24,216,227097,2,0,B|24:18|24:18|24:64,1,220,8|0,3:2|2:0,2:0:0:0:
360,340,227542,6,0,P|453:274|361:207,1,266.666666666667,2|0,3:2|3:0,2:0:0:0:
174,178,227986,2,0,L|278:178,1,88.8888888888889,10|0,3:1|2:0,2:0:0:0:
76,183,228208,1,0,3:0:0:0:
165,183,228320,1,0,2:0:0:0:
120,183,228375,1,0,2:0:0:0:
76,183,228431,5,0,2:0:0:0:
263,178,228542,1,0,3:0:0:0:
76,183,228653,2,0,L|181:183,1,88.8888888888889,0|0,3:0|2:0,2:0:0:0:
352,178,228875,1,8,3:1:0:0:
308,178,228931,1,0,2:0:0:0:
263,178,228986,1,0,2:0:0:0:
450,323,229097,2,0,L|450:211,1,88.8888888888889,0|0,1:0|2:0,2:0:0:0:
180,298,229320,6,0,L|172:229,1,44.4444444444444,2|2,3:2|2:0,2:0:0:0:
310,265,229431,2,0,L|318:196,1,44.4444444444444,2|2,2:0|2:0,2:0:0:0:
450,246,229542,2,0,L|442:177,1,44.4444444444444,2|2,2:0|2:0,2:0:0:0:
312,112,229653,1,0,3:0:0:0:
496,48,229764,2,0,L|392:48,1,88.8888888888889,10|0,3:1|2:0,2:0:0:0:
221,227,229986,2,0,L|325:227,1,88.8888888888889,0|0,3:0|2:0,2:0:0:0:
123,376,230208,6,0,L|115:307,1,44.4444444444444,0|0,2:0|2:0,2:0:0:0:
255,204,230320,2,0,L|166:204,1,88.8888888888889,0|0,3:0|3:0,2:0:0:0:
389,376,230542,2,0,L|397:307,1,44.4444444444444,0|0,2:0|2:0,2:0:0:0:
257,204,230653,2,0,L|345:204,1,88.8888888888889,10|0,3:1|2:0,2:0:0:0:
161,260,230875,2,0,L|72:260,1,88.8888888888889,2|0,3:1|2:0,2:0:0:0:
339,302,231097,6,0,B|427:301|427:301|324:303,1,177.777777777778,0|0,3:0|2:0,2:0:0:0:
161,260,231431,1,0,3:0:0:0:
339,302,231542,2,0,L|250:302,1,88.8888888888889,10|0,3:1|2:0,2:0:0:0:
437,139,231764,2,0,L|341:139,2,59.2592592592592,0|0|0,3:0|2:0|2:0,2:0:0:0:
256,200,231986,6,0,L|376:200,1,88.8888888888889,0|0,2:0|3:0,2:0:0:0:
165,339,232208,2,0,L|117:339,2,44.4444444444444,0|0|0,3:0|2:0|2:0,2:0:0:0:
344,200,232431,2,0,P|385:169|344:137,1,118.518518518519,10|0,3:1|2:0,2:0:0:0:
180,74,232653,2,0,L|276:74,2,59.2592592592592,0|0|0,2:0|2:0|2:0,2:0:0:0:
16,104,232875,6,0,L|128:104,2,88.8888888888889,0|0|0,3:0|2:0|1:0,2:0:0:0:
203,176,233208,1,0,2:0:0:0:
391,333,233320,2,0,L|271:333,1,88.8888888888889,10|0,3:1|2:0,2:0:0:0:
489,248,233542,6,0,L|369:248,2,88.8888888888889,0|0|0,3:0|2:0|2:0,2:0:0:0:
302,172,233875,1,0,3:0:0:0:
114,329,233986,2,0,L|234:329,1,88.8888888888889,0|0,3:0|2:0,2:0:0:0:
18,192,234208,5,10,3:1:0:0:
206,189,234320,2,0,L|214:120,1,44.4444444444444,2|2,2:0|2:0,2:0:0:0:
77,271,234431,2,0,L|85:202,1,44.4444444444444,2|2,2:0|2:0,2:0:0:0:
217,362,234542,2,0,L|225:293,1,44.4444444444444,2|2,2:0|2:0,2:0:0:0:
357,272,234653,6,0,P|454:226|360:138,1,266.666666666667,0|0,3:0|3:0,2:0:0:0:
187,103,235097,2,0,L|283:103,1,88.8888888888889,10|0,3:1|2:0,2:0:0:0:
464,50,235320,1,0,3:0:0:0:
375,50,235431,1,0,2:0:0:0:
419,50,235486,1,0,2:0:0:0:
463,50,235542,5,0,2:0:0:0:
277,96,235653,1,0,3:0:0:0:
464,50,235764,2,0,L|373:50,1,88.8888888888889,0|0,3:0|2:0,2:0:0:0:
189,56,235986,1,10,3:1:0:0:
234,56,236042,1,0,2:0:0:0:
278,56,236097,1,0,2:0:0:0:
56,330,236208,2,0,L|160:330,1,88.8888888888889,0|0,3:0|2:0,2:0:0:0:
332,298,236431,6,0,L|340:229,1,44.4444444444444,2|2,3:2|2:0,2:0:0:0:
202,265,236542,2,0,L|194:196,1,44.4444444444444,2|2,2:0|2:0,2:0:0:0:
62,246,236653,2,0,L|70:177,1,44.4444444444444,2|2,2:0|2:0,2:0:0:0:
200,112,236764,1,0,3:0:0:0:
16,48,236875,2,0,L|120:48,1,88.8888888888889,10|0,3:1|2:0,2:0:0:0:
291,227,237097,2,0,L|187:227,1,88.8888888888889,0|0,3:0|2:0,2:0:0:0:
389,376,237320,6,0,L|397:307,1,44.4444444444444,0|0,2:0|2:0,2:0:0:0:
257,204,237431,2,0,L|346:204,1,88.8888888888889,0|0,3:0|3:0,2:0:0:0:
123,376,237653,2,0,L|115:307,1,44.4444444444444,0|0,2:0|2:0,2:0:0:0:
255,204,237764,2,0,L|167:204,1,88.8888888888889,10|0,3:1|2:0,2:0:0:0:
351,260,237986,2,0,L|440:260,1,88.8888888888889,2|0,3:1|2:0,2:0:0:0:
229,224,238208,6,0,L|496:224,1,266.666666666667,0|0,3:0|3:0,2:0:0:0:
312,328,238653,2,0,L|160:328,1,88.8888888888889,10|0,3:1|2:0,2:0:0:0:
37,198,238875,2,0,L|117:198,2,59.2592592592592,0|0|0,3:0|2:0|2:0,2:0:0:0:
215,108,239097,6,0,L|311:108,1,88.8888888888889,0|0,2:0|3:0,2:0:0:0:
116,229,239320,2,0,L|212:229,1,88.8888888888889,0|0,3:0|2:0,2:0:0:0:
392,224,239542,2,0,P|433:193|392:161,1,118.518518518519,8|0,3:1|2:0,2:0:0:0:
215,108,239764,2,0,L|295:108,2,59.2592592592592,0|0|0,2:0|2:0|2:0,2:0:0:0:
406,45,239987,6,0,L|273:45,1,100,2|0,1:2|2:0,2:0:0:0:
36,50,240217,2,0,L|476:50,1,440.000000000001,2|2,1:2|1:2,2:0:0:0:
464,80,240477,1,0,2:0:0:0:
485,77,240506,1,0,2:0:0:0:
475,104,240535,1,0,2:0:0:0:
465,114,240563,1,0,2:0:0:0:
486,97,240679,1,2,1:2:0:0:
481,124,240708,1,0,2:0:0:0:
473,78,240794,1,2,1:2:0:0:
481,98,240823,1,0,2:0:0:0:
319,159,240910,5,2,1:2:0:0:
311,109,240967,1,0,2:0:0:0:
303,60,241025,1,2,1:2:0:0:
124,285,241140,2,0,L|265:284,1,100,2|2,1:2|1:2,2:0:0:0:
40,272,241371,6,0,L|32:216,1,50,2|2,1:2|2:0,2:0:0:0:
181,230,241487,2,0,L|189:174,1,50,2|2,2:0|2:0,2:0:0:0:
334,230,241602,2,0,L|326:174,1,50,2|2,2:0|2:0,2:0:0:0:
472,272,241717,2,0,L|480:222,1,50,2|0,2:0|2:0,2:0:0:0:
256,336,241833,6,0,P|217:229|309:212,1,210,2|0,3:1|2:0,2:0:0:0:
391,213,242114,1,0,2:0:0:0:
232,104,242208,1,0,2:0:0:0:
125,102,242239,1,0,2:0:0:0:
360,64,242333,5,2,3:1:0:0:
389,62,242364,1,0,2:0:0:0:
301,251,242458,1,0,1:0:0:0:
272,249,242489,1,0,2:0:0:0:
184,210,242583,1,0,1:0:0:0:
213,207,242614,1,0,2:0:0:0:
301,146,242708,1,0,1:0:0:0:
330,143,242739,1,0,2:0:0:0:
141,353,242833,5,8,3:1:0:0:
170,350,242864,1,0,2:0:0:0:
258,289,242958,1,0,2:0:0:0:
287,286,242989,1,0,2:0:0:0:
199,245,243083,1,0,1:0:0:0:
170,242,243114,1,0,2:0:0:0:
258,159,243208,1,0,2:0:0:0:
287,156,243239,1,0,2:0:0:0:
64,64,243333,6,0,L|488:64,1,420,2|0,3:1|1:0,2:0:0:0:
455,61,243614,1,0,2:0:0:0:
376,173,243708,1,0,1:0:0:0:
269,171,243739,1,0,2:0:0:0:
190,271,243833,5,0,3:0:0:0:
161,268,243864,1,0,2:0:0:0:
240,74,243958,1,0,1:0:0:0:
347,76,243989,1,0,2:0:0:0:
268,337,244083,1,0,2:0:0:0:
239,334,244114,1,0,2:0:0:0:
318,140,244208,1,0,3:0:0:0:
425,142,244239,1,0,2:0:0:0:
181,223,244333,5,0,3:0:0:0:
152,220,244364,1,0,2:0:0:0:
64,146,244458,1,0,1:0:0:0:
93,143,244489,1,0,2:0:0:0:
187,223,244583,1,0,1:0:0:0:
158,220,244614,1,0,2:0:0:0:
70,146,244708,1,0,1:0:0:0:
99,143,244739,1,0,2:0:0:0:
294,61,244833,5,8,3:1:0:0:
323,58,244864,1,0,2:0:0:0:
235,77,244958,1,0,1:0:0:0:
206,74,244989,1,0,2:0:0:0:
118,39,245083,1,0,1:0:0:0:
147,36,245114,1,0,2:0:0:0:
235,177,245208,1,0,1:0:0:0:
264,174,245239,1,0,2:0:0:0:
435,342,245333,5,0,1:0:0:0:
464,339,245364,1,0,2:0:0:0:
269,229,245458,1,0,1:0:0:0:
240,226,245489,1,0,2:0:0:0:
407,115,245583,1,0,3:0:0:0:
436,112,245614,1,0,2:0:0:0:
94,44,245833,6,0,L|262:44,1,157.5,2|0,3:1|2:0,2:0:0:0:
79,197,246083,1,2,1:2:0:0:
40,165,246145,1,2,1:2:0:0:
52,117,246208,1,2,1:2:0:0:
101,108,246270,1,2,1:2:0:0:
256,184,246333,5,2,3:1:0:0:
285,181,246364,1,0,2:0:0:0:
364,273,246458,1,0,2:0:0:0:
257,275,246489,1,0,2:0:0:0:
160,257,246583,1,2,1:0:0:0:
131,254,246614,1,0,2:0:0:0:
52,346,246708,1,0,2:0:0:0:
159,348,246739,1,0,2:0:0:0:
357,256,246833,5,10,3:1:0:0:
386,253,246864,1,0,2:0:0:0:
298,309,246958,1,0,1:0:0:0:
269,306,246989,1,0,2:0:0:0:
431,358,247083,1,0,1:0:0:0:
460,344,247114,2,0,L|460:256,1,78.75,0|0,2:0|1:0,2:0:0:0:
117,84,247395,6,0,L|309:84,1,157.5,0|0,2:0|1:0,2:0:0:0:
244,81,247614,1,0,2:0:0:0:
156,232,247708,1,0,1:0:0:0:
127,229,247739,1,0,2:0:0:0:
39,117,247833,5,0,1:0:0:0:
68,114,247864,1,0,2:0:0:0:
156,199,247958,1,0,1:0:0:0:
185,196,247989,1,0,2:0:0:0:
97,327,248083,1,0,1:0:0:0:
68,324,248114,1,0,2:0:0:0:
372,134,248333,5,8,3:1:0:0:
401,131,248364,1,0,2:0:0:0:
489,326,248458,1,0,2:0:0:0:
460,323,248489,1,0,2:0:0:0:
256,320,248583,1,0,1:0:0:0:
236,306,248624,1,0,2:0:0:0:
255,303,248666,1,0,2:0:0:0:
243,336,248708,1,0,1:0:0:0:
237,318,248749,1,0,2:0:0:0:
261,336,248791,1,0,2:0:0:0:
428,157,248833,5,0,1:0:0:0:
457,161,248874,1,0,2:0:0:0:
432,153,248916,1,0,2:0:0:0:
436,179,248958,1,0,1:0:0:0:
454,164,248999,1,0,2:0:0:0:
422,170,249041,1,0,2:0:0:0:
448,164,249083,1,0,1:0:0:0:
423,150,249124,1,0,2:0:0:0:
438,184,249166,1,0,2:0:0:0:
451,158,249208,1,0,1:0:0:0:
425,179,249249,1,0,2:0:0:0:
442,144,249291,1,0,2:0:0:0:
256,136,249333,6,0,L|128:136,1,105,0|0,2:0|2:0,2:0:0:0:
361,136,249583,1,0,2:0:0:0:
151,136,249708,1,0,2:0:0:0:
401,95,249833,6,0,P|470:153|379:212,1,210,2|2,1:0|1:2,2:0:0:0:
256,288,250145,1,0,1:2:0:0:
112,218,250208,1,2,1:2:0:0:
335,122,250333,5,2,3:1:0:0:
364,119,250364,1,0,2:0:0:0:
452,264,250458,1,0,1:0:0:0:
481,261,250489,1,0,2:0:0:0:
393,189,250583,1,0,1:0:0:0:
364,186,250614,1,0,2:0:0:0:
276,331,250708,1,0,1:0:0:0:
247,328,250739,1,0,2:0:0:0:
37,53,250833,5,8,3:1:0:0:
66,50,250864,1,0,2:0:0:0:
154,195,250958,1,0,1:0:0:0:
183,192,250989,1,0,2:0:0:0:
95,366,251083,1,0,1:0:0:0:
66,363,251114,1,0,2:0:0:0:
154,248,251208,1,0,1:0:0:0:
183,245,251239,1,0,2:0:0:0:
466,80,251333,6,0,L|46:80,1,420,2|0,3:1|2:0,2:0:0:0:
75,133,251614,1,0,2:0:0:0:
154,298,251708,1,0,2:0:0:0:
261,300,251739,1,0,2:0:0:0:
340,256,251833,5,2,3:1:0:0:
311,253,251864,1,0,2:0:0:0:
232,204,251958,1,0,2:0:0:0:
125,206,251989,1,0,2:0:0:0:
204,139,252083,1,2,1:0:0:0:
233,136,252114,1,0,2:0:0:0:
320,87,252208,1,0,2:0:0:0:
427,89,252239,1,0,2:0:0:0:
269,139,252333,5,2,3:1:0:0:
240,136,252364,1,0,2:0:0:0:
328,38,252458,1,0,1:0:0:0:
357,35,252489,1,0,2:0:0:0:
445,305,252583,1,0,1:0:0:0:
416,302,252614,1,0,2:0:0:0:
328,352,252708,1,0,1:0:0:0:
299,349,252739,1,0,2:0:0:0:
116,336,252833,5,8,3:1:0:0:
87,321,252864,2,0,L|87:233,1,78.75,0|0,2:0|1:0,2:0:0:0:
205,134,253083,1,0,1:0:0:0:
176,131,253114,1,0,2:0:0:0:
88,176,253208,1,0,1:0:0:0:
59,173,253239,1,0,2:0:0:0:
226,345,253333,5,0,1:0:0:0:
255,342,253364,1,0,2:0:0:0:
56,321,253458,1,0,1:0:0:0:
27,318,253489,1,0,2:0:0:0:
258,165,253583,1,2,3:1:0:0:
287,162,253614,1,0,2:0:0:0:
11,48,253833,6,0,L|208:43,1,157.5,2|0,3:1|2:0,2:0:0:0:
360,43,254083,1,2,2:0:0:0:
403,67,254145,1,2,2:0:0:0:
402,117,254208,1,2,2:0:0:0:
358,140,254270,1,2,2:0:0:0:
176,326,254333,5,2,3:2:0:0:
205,323,254364,1,0,2:0:0:0:
284,274,254458,1,0,2:0:0:0:
391,276,254489,1,0,2:0:0:0:
312,338,254583,1,0,1:0:0:0:
283,335,254614,1,0,2:0:0:0:
195,286,254708,1,0,2:0:0:0:
88,288,254739,1,0,2:0:0:0:
256,184,254833,5,0,1:0:0:0:
285,181,254864,1,0,2:0:0:0:
373,48,254958,1,0,1:0:0:0:
402,45,254989,1,0,2:0:0:0:
314,62,255083,1,0,1:0:0:0:
286,47,255114,2,0,L|189:49,1,78.75,0|0,2:0|1:0,2:0:0:0:
496,24,255395,6,0,L|328:24,1,157.5,0|0,2:0|1:0,2:0:0:0:
369,21,255614,1,0,2:0:0:0:
457,220,255708,1,0,1:0:0:0:
428,217,255739,1,0,2:0:0:0:
234,338,255833,5,0,1:0:0:0:
205,335,255864,1,0,2:0:0:0:
293,260,255958,1,0,2:0:0:0:
322,257,255989,1,0,2:0:0:0:
133,209,256083,1,0,1:0:0:0:
104,194,256114,2,0,L|104:106,1,78.75,0|0,2:0|2:0,2:0:0:0:
346,199,256333,5,0,1:0:0:0:
375,196,256364,1,0,2:0:0:0:
287,121,256458,1,0,2:0:0:0:
258,118,256489,1,0,2:0:0:0:
433,369,256583,1,0,1:0:0:0:
462,366,256614,1,0,2:0:0:0:
256,208,256708,1,0,2:0:0:0:
227,205,256739,1,0,2:0:0:0:
24,208,256833,6,0,B|485:208|485:208|465:371|465:371|403:141,1,690,8|0,3:1|1:0,2:0:0:0:
176,360,257333,2,0,L|24:360,3,105,0|0|0|0,1:0|1:0|1:0|1:0,2:0:0:0:
496,192,257833,6,0,L|152:192,1,300,2|0,3:1|2:0,2:0:0:0:
135,284,258179,6,0,L|479:284,1,300,2|0,3:1|2:0,2:0:0:0:
375,166,258525,6,0,L|31:166,1,300,2|0,3:1|2:0,2:0:0:0:
16,256,258871,6,0,L|360:256,1,300,2|0,3:1|2:0,2:0:0:0:
496,272,259217,5,2,3:1:0:0:
16,272,259448,1,2,3:1:0:0:
323,199,259679,6,0,L|515:199,1,164,2|0,3:2|2:0,2:0:0:0:
236,318,260000,2,0,L|428:318,1,164,2|0,3:2|2:0,2:0:0:0:
148,96,260321,6,0,B|66:96|66:96|194:95,1,164,2|0,3:2|2:0,2:0:0:0:
364,96,260643,2,0,B|446:96|446:96|318:95,1,164,2|0,3:2|2:0,2:0:0:0:
113,343,260964,5,2,3:2:0:0:
399,343,261179,1,2,3:2:0:0:
16,192,261393,6,0,L|366:191,1,300,2|0,3:1|2:0,2:0:0:0:
377,284,261693,6,0,L|33:284,1,300,2|0,3:1|2:0,2:0:0:0:
137,166,261993,6,0,L|481:166,1,300,2|0,3:1|2:0,2:0:0:0:
496,256,262293,6,0,L|152:256,1,300,2|0,3:1|2:0,2:0:0:0:
32,256,262593,5,2,3:1:0:0:
480,256,262793,1,2,3:1:0:0:
189,199,262993,6,0,L|11:199,1,144,2|0,3:2|2:0,2:0:0:0:
276,318,263274,2,0,L|93:318,1,144,2|0,3:2|2:0,2:0:0:0:
364,96,263555,6,0,B|438:95|438:95|318:95,1,144,2|0,3:2|2:0,2:0:0:0:
148,96,263836,2,0,B|74:95|74:95|194:95,1,144,2|0,3:2|2:0,2:0:0:0:
399,343,264118,5,2,3:2:0:0:
113,343,264305,1,2,3:2:0:0:
496,192,264493,6,0,L|152:192,1,300,2|0,3:1|2:0,2:0:0:0:
135,284,264757,6,0,L|479:284,1,300,2|0,3:1|2:0,2:0:0:0:
375,166,265022,6,0,L|31:166,1,300,2|0,3:1|2:0,2:0:0:0:
16,256,265287,6,0,L|360:256,1,300,2|0,3:1|2:0,2:0:0:0:
464,256,265551,5,2,3:1:0:0:
48,256,265728,1,2,3:1:0:0:
426,373,265905,6,0,L|437:227,1,128,2|0,3:2|2:0,2:0:0:0:
266,278,266155,2,0,L|256:150,1,128,2|0,3:2|2:0,2:0:0:0:
86,373,266405,6,0,L|75:227,1,128,2|0,3:2|2:0,2:0:0:0:
246,278,266655,2,0,L|255:150,1,128,2|0,3:2|2:0,2:0:0:0:
416,56,266905,5,2,3:2:0:0:
96,56,267071,1,2,3:2:0:0:
384,264,267238,5,2,3:1:0:0:
202,356,267316,2,0,L|195:286,1,60.5,2|0,2:1|2:0,2:0:0:0:
380,148,267474,2,0,L|316:148,1,60.5,0|0,2:0|3:0,2:0:0:0:
135,66,267632,2,0,L|195:66,1,60.5,0|0,2:0|2:0,2:0:0:0:
380,148,267790,1,2,2:1:0:0:
198,66,267869,5,2,3:1:0:0:
16,200,267948,2,0,L|76:200,1,60.5,0|0,2:0|2:0,2:0:0:0:
261,335,268106,2,0,L|201:335,1,60.5,0|0,2:0|3:0,2:0:0:0:
385,229,268264,2,0,L|445:229,2,60.5,0|0|0,2:0|3:0|2:0,2:0:0:0:
201,227,268502,5,2,3:1:0:0:
371,233,268575,2,0,L|378:160,1,56,2|0,2:1|2:0,2:0:0:0:
209,92,268721,2,0,L|289:92,1,56,0|0,2:0|3:0,2:0:0:0:
97,268,268867,2,0,L|90:195,1,56,0|0,2:0|2:0,2:0:0:0:
262,160,269014,1,2,2:1:0:0:
430,150,269087,5,2,3:1:0:0:
262,160,269160,2,0,L|182:160,1,56,0|2,2:0|2:1,2:0:0:0:
374,64,269306,2,0,L|294:64,1,56,0|0,2:0|3:0,2:0:0:0:
148,48,269453,1,0,2:0:0:0:
204,48,269526,1,0,3:0:0:0:
260,48,269599,1,0,2:0:0:0:
88,283,269672,6,0,L|27:284,1,52.4999983978272,6|2,3:2|2:0,2:0:0:0:
104,241,269808,2,0,L|107:188,1,52.4999983978272,2|2,2:0|2:0,2:0:0:0:
291,195,269944,2,0,L|371:195,1,52.5,2|2,2:0|2:0,2:0:0:0:
205,119,270081,1,2,2:0:0:0:
69,168,270149,1,2,2:0:0:0:
262,305,270217,6,0,L|342:305,1,52.5,2|2,2:0|2:0,2:0:0:0:
247,328,270353,2,0,L|167:328,1,52.5,2|2,2:0|2:0,2:0:0:0:
391,366,270490,2,0,L|396:298,1,52.5,2|2,2:0|2:0,2:0:0:0:
256,248,270626,1,2,2:0:0:0:
117,313,270694,1,2,2:0:0:0:
443,240,270763,6,0,L|498:239,1,48.9999999999998,2|2,2:0|2:0,2:0:0:0:
352,120,270890,2,0,L|296:120,1,48.9999999999998,2|2,2:0|2:0,2:0:0:0:
160,120,271018,2,0,L|221:120,1,48.9999999999998,2|2,2:0|2:0,2:0:0:0:
68,240,271145,2,0,L|14:240,1,48.9999999999998,2|2,2:0|2:0,2:0:0:0:
253,353,271273,5,2,2:0:0:0:
305,328,271337,1,2,2:0:0:0:
177,338,271401,1,2,2:0:0:0:
49,328,271465,1,2,2:0:0:0:
256,200,271528,1,2,2:0:0:0:
384,190,271592,1,2,2:0:0:0:
256,200,271656,1,2,2:0:0:0:
384,190,271720,1,2,2:0:0:0:
177,338,271785,5,12,2:0:0:0:
256,192,271905,12,10,275625,2:0:0:0:
348,363,279465,6,0,P|277:245|348:127,1,288,8|2,2:0|2:0,2:0:0:0:
480,103,280305,6,0,L|136:103,1,336.000000000001,2|2,2:0|2:0,2:0:0:0:
277,324,281265,6,0,P|380:210|276:98,1,336.000000000001,2|2,2:0|2:0,2:0:0:0:
143,278,282225,2,0,P|39:164|143:52,1,336.000000000001,2|2,2:0|2:0,2:0:0:0:
383,72,283305,6,0,L|87:72,1,288,2|2,2:0|2:0,2:0:0:0:
242,305,284145,2,0,P|307:304|312:85,1,336.000000000001,2|2,2:0|2:0,2:0:0:0:
155,91,285105,6,0,P|104:236|242:304,1,336.000000000001,2|2,2:0|2:0,2:0:0:0:
387,297,286065,1,10,2:0:0:0:
256,192,286185,12,0,286905,2:0:0:0:
256,301,287145,6,0,P|192:246|256:192,1,191.999999999999,2|0,3:1|3:0,2:0:0:0:
360,192,287505,1,0,2:0:0:0:
456,192,287625,2,0,L|240:192,1,191.999999999999,0|0,3:0|3:0,2:0:0:0:
360,192,287985,1,0,2:0:0:0:
456,192,288105,6,0,L|467:-15,1,191.999999999999,2|0,3:1|3:0,2:0:0:0:
368,269,288465,1,0,2:0:0:0:
269,343,288585,2,0,L|393:345,1,95.9999999999997,0|0,3:0|2:0,2:0:0:0:
471,192,288825,2,0,L|347:194,1,95.9999999999997,0|0,3:0|2:0,2:0:0:0:
269,247,289065,6,0,L|61:239,1,191.999999999999,2|0,3:1|3:0,2:0:0:0:
174,242,289425,1,0,2:0:0:0:
270,247,289545,2,0,L|478:239,1,191.999999999999,0|0,3:0|3:0,2:0:0:0:
365,242,289905,1,0,2:0:0:0:
270,247,290025,6,0,P|189:217|230:119,1,191.999999999999,2|0,3:1|3:0,2:0:0:0:
306,99,290385,1,0,2:0:0:0:
200,101,290505,2,0,L|80:93,1,95.9999999999997,0|0,3:0|3:0,2:0:0:0:
211,316,290745,2,0,L|331:308,1,95.9999999999997,0|0,3:0|3:0,2:0:0:0:
200,369,290985,6,0,P|136:314|200:260,1,191.999999999999,2|0,3:1|3:0,2:0:0:0:
304,260,291345,1,0,2:0:0:0:
410,270,291465,2,0,P|474:215|410:161,1,191.999999999999,0|0,3:0|3:0,2:0:0:0:
306,161,291825,1,0,2:0:0:0:
210,167,291945,6,0,L|2:167,1,191.999999999999,2|0,3:1|3:0,2:0:0:0:
116,163,292305,1,0,2:0:0:0:
222,160,292425,2,0,L|94:160,1,95.9999999999997,0|0,3:0|2:0,2:0:0:0:
232,256,292665,2,0,L|360:256,1,95.9999999999997,0|0,3:0|3:0,2:0:0:0:
434,270,292905,6,0,P|498:215|434:161,1,191.999999999999,2|0,3:1|3:0,2:0:0:0:
330,161,293265,1,0,2:0:0:0:
426,270,293385,2,0,P|490:215|426:161,1,191.999999999999,0|0,3:0|3:0,2:0:0:0:
322,161,293745,1,0,2:0:0:0:
226,160,293865,6,0,L|442:160,1,191.999999999999,2|0,3:1|3:0,2:0:0:0:
321,138,294225,1,0,2:0:0:0:
418,160,294345,1,2,3:2:0:0:
224,320,294465,2,0,L|160:320,1,47.9999999999999,2|0,3:2|2:0,2:0:0:0:
230,280,294585,2,0,L|294:280,1,47.9999999999999,2|0,3:2|2:0,2:0:0:0:
131,176,294705,2,0,L|67:176,1,47.9999999999999,2|0,3:2|2:0,2:0:0:0:
256,72,294825,6,0,L|376:72,2,95.9999999999997,8|0|0,3:2|2:0|2:0,2:0:0:0:
448,224,295185,1,2,3:1:0:0:
352,224,295305,1,0,2:0:0:0:
256,224,295425,1,0,2:0:0:0:
64,224,295545,5,2,3:1:0:0:
160,224,295665,1,0,2:0:0:0:
256,224,295785,1,0,2:0:0:0:
64,224,295905,2,0,L|184:224,2,95.9999999999997,2|0|0,3:1|2:0|2:0,2:0:0:0:
256,224,296265,5,2,3:1:0:0:
160,224,296385,2,0,L|149:349,1,95.9999999999997,0|0,2:0|2:0,2:0:0:0:
360,319,296625,2,0,L|352:224,1,95.9999999999997,2|0,3:1|2:0,2:0:0:0:
256,224,296865,1,0,2:0:0:0:
464,80,296985,6,0,L|328:80,2,95.9999999999997,2|0|0,3:1|2:0|2:0,2:0:0:0:
256,224,297345,1,2,3:1:0:0:
352,224,297465,2,0,L|363:349,1,95.9999999999997,0|0,2:0|2:0,2:0:0:0:
151,319,297705,5,2,3:1:0:0:
360,319,297825,2,0,L|472:319,1,95.9999999999997,2|0,3:1|2:0,2:0:0:0:
308,166,298005,2,0,L|297:41,1,95.9999999999997,2|0,3:1|2:0,2:0:0:0:
152,319,298185,6,0,L|40:319,1,95.9999999999997,2|0,3:1|2:0,2:0:0:0:
203,192,298365,1,2,3:1:0:0:
347,224,298425,1,0,3:0:0:0:
151,319,298545,2,0,L|72:320,1,47.9999999999999,0|2,2:0|3:1,2:0:0:0:
256,272,298665,5,0,2:0:0:0:
467,192,298785,2,0,L|331:192,1,95.9999999999997,0|0,2:0|2:0,2:0:0:0:
160,120,299025,1,2,3:1:0:0:
256,120,299145,1,0,2:0:0:0:
352,120,299265,1,0,2:0:0:0:
141,192,299385,6,0,L|45:192,2,95.9999999999997,2|0|0,3:1|2:0|2:0,2:0:0:0:
352,120,299745,2,0,L|256:120,2,95.9999999999997,2|0|0,3:1|2:0|2:0,2:0:0:0:
160,120,300105,6,0,L|256:120,2,95.9999999999997,2|0|0,3:1|2:0|2:0,2:0:0:0:
371,192,300465,2,0,L|467:192,1,95.9999999999997,2|0,3:1|2:0,2:0:0:0:
152,319,300705,6,0,L|40:319,1,95.9999999999997,2|0,3:1|2:0,2:0:0:0:
204,166,300885,2,0,L|215:41,1,95.9999999999997,2|0,3:1|2:0,2:0:0:0:
360,319,301065,6,0,L|472:319,1,95.9999999999997,2|0,3:1|2:0,2:0:0:0:
309,192,301245,1,2,3:1:0:0:
165,224,301305,1,2,3:1:0:0:
360,319,301425,2,0,L|416:319,1,47.9999999999999,2|2,3:1|3:1,2:0:0:0:
256,248,301545,6,0,L|128:248,1,95.9999999999997,0|2,3:0|2:0,2:0:0:0:
421,145,301785,2,0,L|426:89,3,47.9999999999999,2|2|2|2,2:0|2:0|2:0|2:0,2:0:0:0:
256,248,302025,6,0,L|251:192,1,47.9999999999999,2|2,2:0|2:0,2:0:0:0:
314,185,302145,2,0,L|319:129,1,47.9999999999999,2|2,2:0|2:0,2:0:0:0:
150,118,302265,2,0,L|94:118,1,47.9999999999999,2|2,2:0|2:0,2:0:0:0:
273,46,302385,2,0,L|329:46,1,47.9999999999999,2|0,2:0|2:0,2:0:0:0:
126,201,302505,6,0,L|70:201,1,47.9999999999999,2|0,3:1|2:0,2:0:0:0:
249,320,302625,1,2,3:1:0:0:
259,264,302685,1,0,2:0:0:0:
229,217,302745,1,0,2:0:0:0:
174,205,302805,1,0,2:0:0:0:
342,153,302865,6,0,L|398:153,1,47.9999999999999,0|0,3:0|2:0,2:0:0:0:
336,153,302985,2,0,L|392:153,1,47.9999999999999,0|0,2:0|2:0,2:0:0:0:
213,264,303105,2,0,L|208:208,1,47.9999999999999,0|0,3:0|2:0,2:0:0:0:
273,182,303225,2,0,L|268:126,1,47.9999999999999,0|0,2:0|2:0,2:0:0:0:
100,129,303345,1,2,3:1:0:0:
244,117,303405,1,0,2:0:0:0:
388,105,303465,6,0,L|295:95,1,47.9999999999999,2|0,3:1|2:0,2:0:0:0:
169,295,303585,1,0,3:0:0:0:
217,295,303645,1,0,2:0:0:0:
265,295,303705,1,0,2:0:0:0:
313,295,303765,1,0,2:0:0:0:
145,205,303825,6,0,L|89:205,1,47.9999999999999,0|0,3:0|2:0,2:0:0:0:
151,205,303945,2,0,L|95:205,1,47.9999999999999,0|0,2:0|2:0,2:0:0:0:
274,107,304065,2,0,L|330:107,1,47.9999999999999,0|0,2:0|2:0,2:0:0:0:
493,48,304185,2,0,L|197:48,1,240,8|0,2:0|2:0,2:0:0:0:
351,198,304425,6,0,L|407:198,1,47.9999999999999,2|0,3:1|2:0,2:0:0:0:
228,345,304545,1,2,3:1:0:0:
276,345,304605,1,0,2:0:0:0:
324,345,304665,1,0,2:0:0:0:
372,345,304725,1,0,2:0:0:0:
204,160,304785,6,0,L|148:160,1,47.9999999999999,0|0,3:0|2:0,2:0:0:0:
210,160,304905,2,0,L|154:160,1,47.9999999999999,0|0,2:0|2:0,2:0:0:0:
333,271,305025,2,0,L|338:215,1,47.9999999999999,0|0,3:0|2:0,2:0:0:0:
273,189,305145,2,0,L|278:133,1,47.9999999999999,0|0,2:0|2:0,2:0:0:0:
109,96,305265,2,0,L|53:96,1,47.9999999999999,0|0,3:0|2:0,2:0:0:0:
232,267,305385,6,0,L|237:211,1,47.9999999999999,2|0,3:2|2:0,2:0:0:0:
405,180,305505,2,0,L|410:124,1,47.9999999999999,2|0,3:2|2:0,2:0:0:0:
241,320,305625,2,0,L|236:264,1,47.9999999999999,2|0,3:2|2:0,2:0:0:0:
68,233,305745,2,0,L|63:177,1,47.9999999999999,2|0,3:2|2:0,2:0:0:0:
232,98,305865,6,0,L|288:98,1,47.9999999999999,2|0,3:2|2:0,2:0:0:0:
226,142,305985,2,0,L|170:142,1,47.9999999999999,0|0,2:0|2:0,2:0:0:0:
16,48,306105,2,0,L|312:48,1,240,8|0,2:0|2:0,2:0:0:0:
496,48,306345,6,0,L|416:48,1,47.9999999999999,2|0,3:1|2:0,2:0:0:0:
277,209,306465,1,2,3:1:0:0:
325,209,306525,1,0,2:0:0:0:
373,209,306585,1,0,2:0:0:0:
421,209,306645,1,0,2:0:0:0:
253,256,306705,6,0,L|197:256,1,47.9999999999999,0|0,3:0|2:0,2:0:0:0:
259,256,306825,2,0,L|203:256,1,47.9999999999999,0|0,2:0|2:0,2:0:0:0:
382,367,306945,2,0,L|387:311,1,47.9999999999999,0|0,3:0|2:0,2:0:0:0:
322,285,307065,2,0,L|327:229,1,47.9999999999999,0|0,2:0|2:0,2:0:0:0:
495,232,307185,1,0,3:0:0:0:
351,220,307245,1,0,2:0:0:0:
207,208,307305,6,0,L|300:198,1,47.9999999999999,2|0,3:1|2:0,2:0:0:0:
423,127,307425,1,2,3:1:0:0:
375,124,307485,1,0,2:0:0:0:
327,122,307545,1,0,2:0:0:0:
279,120,307605,1,0,2:0:0:0:
111,324,307665,6,0,L|55:324,1,47.9999999999999,0|0,3:0|2:0,2:0:0:0:
117,324,307785,2,0,L|61:324,1,47.9999999999999,0|0,2:0|2:0,2:0:0:0:
240,148,307905,2,0,L|296:148,1,47.9999999999999,0|0,3:0|2:0,2:0:0:0:
63,324,308025,1,0,1:0:0:0:
63,324,308145,1,2,1:2:0:0:
256,200,308265,6,0,L|288:200,1,23.9999999999999,0|0,2:0|2:0,2:0:0:0:
368,280,308325,2,0,L|400:280,1,23.9999999999999,0|0,2:0|2:0,2:0:0:0:
256,200,308385,2,0,L|224:200,1,23.9999999999999,0|0,2:0|2:0,2:0:0:0:
144,280,308445,2,0,L|112:280,1,23.9999999999999,0|0,2:0|2:0,2:0:0:0:
260,200,308505,6,0,L|292:200,1,23.9999999999999,0|0,2:0|2:0,2:0:0:0:
376,280,308565,2,0,L|408:280,1,23.9999999999999,0|0,2:0|2:0,2:0:0:0:
252,200,308625,2,0,L|220:200,1,23.9999999999999,0|0,2:0|2:0,2:0:0:0:
136,280,308685,2,0,L|104:280,1,23.9999999999999,0|0,2:0|2:0,2:0:0:0:
264,200,308745,6,0,L|296:200,1,23.9999999999999,0|0,2:0|2:0,2:0:0:0:
384,280,308805,2,0,L|416:280,1,23.9999999999999,0|0,2:0|2:0,2:0:0:0:
248,200,308865,2,0,L|216:200,1,23.9999999999999,0|0,2:0|2:0,2:0:0:0:
128,280,308925,2,0,L|96:280,1,23.9999999999999,0|0,2:0|2:0,2:0:0:0:
268,200,308985,6,0,L|300:200,1,23.9999999999999,0|0,2:0|2:0,2:0:0:0:
392,280,309045,2,0,L|424:280,1,23.9999999999999,0|0,2:0|2:0,2:0:0:0:
244,200,309105,2,0,L|212:200,1,23.9999999999999,0|0,2:0|2:0,2:0:0:0:
120,280,309165,2,0,L|88:280,1,23.9999999999999,0|0,2:0|2:0,2:0:0:0:
256,336,309225,5,0,2:0:0:0:
400,280,309255,2,0,L|432:280,2,23.9999999999999,0|0|0,2:0|2:0|2:0,2:0:0:0:
286,289,309345,1,0,2:0:0:0:
112,280,309375,2,0,L|80:280,2,23.9999999999999,0|0|0,2:0|2:0|2:0,2:0:0:0:
226,289,309465,5,0,2:0:0:0:
416,280,309495,2,0,L|448:280,2,23.9999999999999,0|0|0,2:0|2:0|2:0,2:0:0:0:
304,224,309585,1,0,2:0:0:0:
96,280,309615,2,0,L|64:280,2,23.9999999999999,0|0|0,2:0|2:0|2:0,2:0:0:0:
208,224,309705,5,0,2:0:0:0:
408,280,309735,2,0,L|440:280,2,23.9999999999999,0|0|0,2:0|2:0|2:0,2:0:0:0:
286,289,309825,1,0,2:0:0:0:
104,280,309855,2,0,L|72:280,2,23.9999999999999,0|0|0,2:0|2:0|2:0,2:0:0:0:
226,289,309945,5,0,2:0:0:0:
404,280,309975,2,0,L|436:280,2,23.9999999999999,0|0|0,2:0|2:0|2:0,2:0:0:0:
256,336,310065,1,0,2:0:0:0:
108,280,310095,2,0,L|76:280,2,23.9999999999999,0|0|0,2:0|2:0|2:0,2:0:0:0:
256,367,310185,6,0,P|360:237|257:106,1,360.000000000001,0|0,2:0|2:0,2:0:0:0:
84,133,311145,6,0,L|274:131,1,144,8|0,2:0|2:0,2:0:0:0:
428,133,311385,2,0,L|433:77,3,47.9999999999999,0|0|0|0,2:0|2:0|2:0|2:0,2:0:0:0:
254,273,311625,6,0,L|259:217,3,47.9999999999999,0|0|0|0,2:0|2:0|2:0|2:0,2:0:0:0:
79,85,311865,2,0,L|156:80,1,47.9999999999999,0|0,2:0|2:0,2:0:0:0:
301,276,311985,2,0,L|224:270,1,47.9999999999999,0|0,2:0|2:0,2:0:0:0:
14,373,312105,6,0,B|266:362|266:362|285:110,1,500,2|0,3:1|2:0,2:0:0:0:
498,373,312465,6,0,B|246:362|246:362|227:110,1,500,2|0,3:1|2:0,2:0:0:0:
5,313,312825,6,0,B|256:305|256:305|150:60,1,500,2|0,3:1|2:0,2:0:0:0:
507,313,313185,6,0,B|256:305|256:305|362:60,1,500,2|0,3:1|2:0,2:0:0:0:
116,259,313545,6,0,L|36:251,1,47.9999999999999,8|0,3:2|2:0,2:0:0:0:
231,104,313665,2,0,L|311:96,1,47.9999999999999,0|0,2:0|2:0,2:0:0:0:
443,254,313785,2,0,L|396:259,1,47.9999999999999,8|0,3:2|2:0,2:0:0:0:
256,264,313905,1,0,2:0:0:0:
116,259,313965,1,0,2:0:0:0:
356,356,314025,6,0,P|416:332|341:266,1,191.999999999999,2|2,3:1|3:1,2:0:0:0:
160,208,314385,2,0,L|256:208,1,95.9999999999997,0|2,2:0|3:1,2:0:0:0:
56,208,314625,1,0,2:0:0:0:
344,208,314745,1,2,3:1:0:0:
104,122,314865,6,0,L|200:122,1,95.9999999999997,0|2,2:0|3:1,2:0:0:0:
396,121,315105,2,0,L|300:121,1,95.9999999999997,0|2,2:0|3:1,2:0:0:0:
496,120,315345,2,0,L|400:120,1,95.9999999999997,0|2,2:0|3:1,2:0:0:0:
206,116,315585,1,0,2:0:0:0:
496,120,315705,1,2,3:1:0:0:
256,62,315825,1,0,2:0:0:0:
16,119,315945,6,0,B|112:117|112:117|-2:110,1,191.999999999999,2|2,3:1|3:1,2:0:0:0:
224,294,316305,2,0,L|128:294,1,95.9999999999997,0|2,2:0|3:1,2:0:0:0:
331,304,316545,1,0,2:0:0:0:
43,254,316665,1,2,3:1:0:0:
283,146,316785,6,0,L|171:146,1,95.9999999999997,0|2,2:0|3:1,2:0:0:0:
381,331,317025,2,0,L|493:331,1,95.9999999999997,0|2,2:0|3:1,2:0:0:0:
283,146,317265,2,0,L|395:146,1,95.9999999999997,0|2,2:0|3:1,2:0:0:0:
184,40,317505,1,0,2:0:0:0:
424,96,317625,1,2,3:1:0:0:
136,272,317745,1,2,2:0:0:0:
424,96,317865,6,0,P|446:149|369:199,1,144,2|0,3:1|2:0,2:0:0:0:
221,294,318105,2,0,L|333:294,1,95.9999999999997,2|0,3:1|2:0,2:0:0:0:
123,142,318345,2,0,L|11:142,1,95.9999999999997,2|0,3:1|2:0,2:0:0:0:
269,88,318585,1,2,3:1:0:0:
27,142,318705,6,0,L|195:142,1,144,0|0,2:0|2:0,2:0:0:0:
342,321,318945,2,0,L|230:321,1,95.9999999999997,0|2,2:0|3:1,2:0:0:0:
459,353,319185,2,0,L|471:228,1,95.9999999999997,0|2,2:0|3:1,2:0:0:0:
270,220,319425,2,0,L|258:95,1,95.9999999999997,0|2,2:0|3:1,2:0:0:0:
367,103,319665,1,0,2:0:0:0:
127,101,319785,5,2,3:1:0:0:
233,128,319905,1,0,2:0:0:0:
185,128,319965,1,0,2:0:0:0:
137,128,320025,1,2,3:1:0:0:
375,128,320145,1,0,2:0:0:0:
178,254,320265,2,0,L|170:321,1,47.9999999999999,2|0,3:1|2:0,2:0:0:0:
233,313,320385,2,0,L|225:380,1,47.9999999999999,0|0,2:0|2:0,2:0:0:0:
81,371,320505,1,2,3:1:0:0:
187,368,320625,2,0,L|259:368,1,47.9999999999999,0|0,2:0|2:0,2:0:0:0:
382,362,320745,5,8,3:2:0:0:
190,176,320865,2,0,L|182:243,1,47.9999999999999,0|0,2:0|2:0,2:0:0:0:
331,296,320985,2,0,L|403:296,1,47.9999999999999,8|0,3:2|2:0,2:0:0:0:
318,337,321105,2,0,L|310:404,1,47.9999999999999,2|2,2:0|2:0,2:0:0:0:
483,179,321225,6,0,L|491:246,1,47.9999999999999,10|2,3:2|2:0,2:0:0:0:
342,250,321345,1,2,2:0:0:0:
198,247,321405,1,2,2:0:0:0:
342,250,321465,1,2,3:2:0:0:
486,247,321525,1,2,2:0:0:0:
318,296,321585,2,0,L|254:296,1,47.9999999999999,2|2,3:2|2:0,2:0:0:0:
99,183,321705,6,0,L|299:183,1,191.999999999999,2|2,3:1|3:1,2:0:0:0:
97,349,322065,2,0,L|217:349,1,95.9999999999997,0|2,2:0|3:1,2:0:0:0:
16,248,322305,1,0,2:0:0:0:
304,256,322425,1,2,3:1:0:0:
64,152,322545,6,0,L|184:152,1,95.9999999999997,0|2,2:0|3:1,2:0:0:0:
363,289,322785,2,0,L|243:289,1,95.9999999999997,0|2,2:0|3:1,2:0:0:0:
470,163,323025,2,0,L|350:163,1,95.9999999999997,0|2,2:0|3:1,2:0:0:0:
180,164,323265,1,0,2:0:0:0:
470,163,323385,1,2,3:1:0:0:
230,77,323505,1,0,2:0:0:0:
432,97,323625,6,0,B|336:95|336:95|450:88,1,191.999999999999,2|2,3:1|3:1,2:0:0:0:
232,296,323985,2,0,L|120:296,1,95.9999999999997,0|2,2:0|3:1,2:0:0:0:
339,152,324225,1,0,2:0:0:0:
99,149,324345,1,2,3:1:0:0:
387,62,324465,6,0,L|491:62,1,95.9999999999997,0|2,2:0|3:1,2:0:0:0:
241,215,324705,2,0,L|345:215,1,95.9999999999997,0|2,2:0|3:1,2:0:0:0:
95,374,324945,2,0,L|85:278,1,95.9999999999997,0|2,2:0|3:1,2:0:0:0:
284,266,325185,1,0,2:0:0:0:
44,162,325305,2,0,L|119:159,1,47.9999999999999,2|2,3:1|2:0,2:0:0:0:
263,95,325425,2,0,L|188:92,1,47.9999999999999,2|2,2:0|2:0,2:0:0:0:
32,158,325545,6,0,L|189:152,1,144,2|0,3:1|2:0,2:0:0:0:
347,308,325785,2,0,L|231:299,1,95.9999999999997,2|0,3:1|2:0,2:0:0:0:
486,375,326025,2,0,L|496:280,1,95.9999999999997,2|0,3:1|2:0,2:0:0:0:
248,200,326265,1,2,3:1:0:0:
496,152,326385,6,0,L|339:146,1,144,0|0,2:0|2:0,2:0:0:0:
181,300,326625,2,0,L|297:291,1,95.9999999999997,0|2,2:0|3:1,2:0:0:0:
41,367,326865,2,0,L|31:271,1,95.9999999999997,0|2,2:0|3:1,2:0:0:0:
227,189,327105,2,0,L|236:93,1,95.9999999999997,0|2,2:0|3:1,2:0:0:0:
42,63,327345,1,0,3:2:0:0:
282,304,327465,5,2,3:2:0:0:
176,327,327585,2,0,L|104:327,2,47.9999999999999,2|0|2,2:0|2:0|3:2,2:0:0:0:
424,320,327825,1,2,2:0:0:0:
232,168,327945,1,2,3:2:0:0:
338,175,328065,1,2,2:0:0:0:
290,175,328125,1,0,2:0:0:0:
242,175,328185,1,2,3:2:0:0:
37,296,328305,2,0,L|101:296,1,47.9999999999999,2|0,2:0|2:0,2:0:0:0:
256,304,328425,5,2,3:2:0:0:
64,217,328545,2,0,L|56:284,1,47.9999999999999,2|0,2:0|2:0,2:0:0:0:
240,318,328665,2,0,L|248:385,1,47.9999999999999,2|2,3:2|2:0,2:0:0:0:
427,307,328785,2,0,L|499:307,1,47.9999999999999,2|2,2:0|2:0,2:0:0:0:
304,248,328905,6,0,L|256:248,1,47.9999999999999,2|2,3:2|2:0,2:0:0:0:
55,181,329025,1,2,2:0:0:0:
188,172,329085,1,2,2:0:0:0:
323,172,329145,1,2,3:2:0:0:
456,181,329205,1,2,2:0:0:0:
256,248,329265,2,0,L|208:248,1,47.9999999999999,2|2,2:0|2:0,2:0:0:0:
379,361,329385,6,0,L|388:265,1,95.9999999999997,0|2,3:0|2:0,2:0:0:0:
267,263,329625,2,0,L|258:167,1,95.9999999999997,2|2,2:0|2:0,2:0:0:0:
64,137,329865,2,0,L|160:137,1,95.9999999999997,2|2,2:0|2:0,2:0:0:0:
352,137,330105,1,2,2:0:0:0:
160,137,330225,2,0,L|133:137,2,23.9999999999999,2|0|2,2:0|2:0|2:0,2:0:0:0:
284,138,330315,1,0,2:0:0:0:
404,139,330345,6,0,L|414:42,1,95.9999999999997,10|0,3:2|2:0,2:0:0:0:
243,289,330525,2,0,L|233:192,1,95.9999999999997,10|0,3:2|2:0,2:0:0:0:
62,132,330705,1,8,3:2:0:0:
256,128,330825,1,10,3:2:0:0:
398,132,330885,2,0,L|244:127,1,144,2|0,2:0|3:2,2:0:0:0:
448,45,331185,1,0,2:0:0:0:
133,361,331305,6,0,L|124:265,1,95.9999999999997,2|2,2:0|2:0,2:0:0:0:
245,263,331545,2,0,L|254:167,1,95.9999999999997,2|2,2:0|2:0,2:0:0:0:
448,137,331785,2,0,L|352:137,1,95.9999999999997,2|2,2:0|2:0,2:0:0:0:
160,137,332025,1,2,2:0:0:0:
352,137,332145,2,0,L|379:137,2,23.9999999999999,10|0|0,3:2|2:0|2:0,2:0:0:0:
228,138,332235,1,0,2:0:0:0:
108,139,332265,6,0,L|98:42,1,95.9999999999997,10|0,3:2|2:0,2:0:0:0:
269,289,332445,2,0,L|279:192,1,95.9999999999997,10|0,3:2|2:0,2:0:0:0:
450,132,332625,1,8,3:2:0:0:
256,320,332745,2,0,L|200:320,1,47.9999999999999,0|0,2:0|3:0,2:0:0:0:
379,124,332865,2,0,L|331:124,1,47.9999999999999,0|0,3:0|3:0,2:0:0:0:
184,44,332985,1,0,3:0:0:0:
232,44,333045,1,0,3:0:0:0:
280,44,333105,1,0,2:0:0:0:
328,44,333165,1,0,2:0:0:0:
160,343,333225,6,0,P|93:321|140:257,1,144,2|0,3:1|2:0,2:0:0:0:
283,199,333465,2,0,L|145:197,1,95.9999999999997,2|0,3:1|2:0,2:0:0:0:
384,306,333705,2,0,L|246:304,1,95.9999999999997,2|0,3:1|2:0,2:0:0:0:
88,304,333945,1,2,3:1:0:0:
352,343,334065,6,0,P|419:321|372:257,1,144,0|0,2:0|2:0,2:0:0:0:
229,199,334305,2,0,L|367:197,1,95.9999999999997,0|2,2:0|3:1,2:0:0:0:
128,306,334545,2,0,L|266:304,1,95.9999999999997,0|2,2:0|3:1,2:0:0:0:
424,304,334785,2,0,L|286:302,1,95.9999999999997,0|2,2:0|3:1,2:0:0:0:
434,179,335025,1,0,3:0:0:0:
145,190,335145,5,2,3:1:0:0:
385,179,335265,2,0,L|457:179,2,47.9999999999999,0|0|0,3:0|2:0|2:0,2:0:0:0:
191,100,335505,1,0,3:2:0:0:
367,190,335625,1,0,3:0:0:0:
127,179,335745,2,0,L|55:179,2,47.9999999999999,0|0|2,3:0|2:0|3:2,2:0:0:0:
321,100,335985,2,0,L|241:102,1,47.9999999999999,0|0,3:0|2:0,2:0:0:0:
105,106,336105,6,0,L|238:103,1,95.9999999999997,2|0,3:2|2:0,2:0:0:0:
443,280,336345,1,2,3:2:0:0:
299,283,336405,1,2,2:0:0:0:
155,280,336465,1,2,2:0:0:0:
299,283,336525,1,2,2:0:0:0:
443,280,336585,6,0,L|377:279,1,47.9999999999999,2|2,3:2|2:0,2:0:0:0:
227,165,336705,2,0,L|293:164,1,47.9999999999999,0|0,2:0|2:0,2:0:0:0:
104,301,336825,2,0,L|38:300,1,47.9999999999999,2|2,3:2|2:0,2:0:0:0:
233,357,336945,2,0,L|299:356,1,47.9999999999999,2|2,3:2|2:0,2:0:0:0:
150,206,337065,5,2,3:2:0:0:
444,131,337185,2,0,L|330:128,1,95.9999999999997,2|0,3:1|2:0,2:0:0:0:
107,319,337425,2,0,L|221:316,1,95.9999999999997,2|0,3:1|2:0,2:0:0:0:
16,184,337665,1,2,3:1:0:0:
256,192,337785,1,0,3:0:0:0:
16,184,337905,6,0,L|130:181,1,95.9999999999997,2|0,3:1|2:0,2:0:0:0:
432,136,338145,1,2,3:1:0:0:
256,96,338265,1,0,2:0:0:0:
80,136,338385,1,2,3:1:0:0:
400,181,338505,2,0,L|496:184,1,95.9999999999997,0|2,2:0|3:1,2:0:0:0:
256,336,338745,2,0,L|176:336,1,47.9999999999999,2|2,3:2|3:2,2:0:0:0:
379,230,338865,2,0,L|459:230,1,47.9999999999999,2|2,3:2|3:2,2:0:0:0:
229,74,338985,5,2,3:2:0:0:
469,363,339105,2,0,L|373:365,1,95.9999999999997,2|0,3:1|2:0,2:0:0:0:
131,208,339345,2,0,L|1:207,1,95.9999999999997,2|0,3:1|2:0,2:0:0:0:
275,276,339585,1,2,3:1:0:0:
35,207,339705,1,0,3:0:0:0:
275,276,339825,6,0,L|405:275,1,95.9999999999997,2|0,3:1|2:0,2:0:0:0:
141,275,340065,1,2,3:1:0:0:
370,275,340185,1,0,2:0:0:0:
128,120,340305,2,0,L|232:120,1,95.9999999999997,2|0,3:1|2:0,2:0:0:0:
384,157,340485,2,0,L|280:157,1,95.9999999999997,0|0,2:0|2:0,2:0:0:0:
448,288,340665,2,0,L|496:288,1,47.9999999999999,0|0,2:0|2:0,2:0:0:0:
326,348,340785,2,0,L|278:348,1,47.9999999999999,2|0,3:1|2:0,2:0:0:0:
107,345,340905,5,0,2:0:0:0:
88,302,340965,1,0,2:0:0:0:
110,261,341025,1,2,3:1:0:0:
156,253,341085,1,0,2:0:0:0:
325,190,341145,2,0,L|277:190,1,47.9999999999999,0|0,2:0|2:0,2:0:0:0:
218,267,341265,2,0,L|266:267,1,47.9999999999999,2|0,3:1|2:0,2:0:0:0:
437,72,341385,6,0,L|485:72,1,47.9999999999999,0|0,2:0|2:0,2:0:0:0:
337,277,341505,2,0,L|289:277,1,47.9999999999999,2|0,3:1|2:0,2:0:0:0:
437,72,341625,1,0,3:0:0:0:
195,120,341745,2,0,L|323:120,1,95.9999999999997,2|0,3:1|2:0,2:0:0:0:
49,351,341985,1,2,3:1:0:0:
31,307,342045,1,0,2:0:0:0:
52,266,342105,1,0,2:0:0:0:
98,255,342165,1,0,2:0:0:0:
266,161,342225,6,0,L|274:228,1,47.9999999999999,2|0,3:1|2:0,2:0:0:0:
118,305,342345,2,0,L|126:372,1,47.9999999999999,0|0,2:0|2:0,2:0:0:0:
294,298,342465,2,0,L|350:298,2,47.9999999999999,2|0|0,3:1|2:0|3:0,2:0:0:0:
97,187,342705,2,0,L|33:187,1,47.9999999999999,2|0,3:1|2:0,2:0:0:0:
256,248,342825,5,2,1:0:0:0:
400,240,342855,1,0,2:0:0:0:
427,231,342885,1,0,2:0:0:0:
439,204,342915,1,0,2:0:0:0:
427,178,342945,1,0,2:0:0:0:
399,169,342975,1,0,2:0:0:0:
256,248,343005,5,2,1:0:0:0:
112,240,343035,1,0,2:0:0:0:
85,231,343065,1,0,2:0:0:0:
73,204,343095,1,0,2:0:0:0:
85,178,343125,1,0,2:0:0:0:
113,169,343155,1,0,2:0:0:0:
232,152,343185,6,0,L|256:152,1,23.9999999999999,2|0,1:0|2:0,2:0:0:0:
375,169,343245,2,0,L|399:169,1,23.9999999999999,0|2,2:0|1:0,2:0:0:0:
256,248,343305,5,0,2:0:0:0:
102,273,343335,1,0,2:0:0:0:
75,264,343365,1,0,2:0:0:0:
63,237,343395,1,0,2:0:0:0:
75,211,343425,1,0,2:0:0:0:
103,202,343455,1,2,1:0:0:0:
256,248,343485,5,0,2:0:0:0:
410,273,343515,1,0,2:0:0:0:
437,264,343545,1,0,2:0:0:0:
449,237,343575,1,0,2:0:0:0:
437,211,343605,1,0,2:0:0:0:
409,202,343635,1,2,1:0:0:0:
280,152,343665,6,0,L|256:152,1,23.9999999999999,0|0,2:0|2:0,2:0:0:0:
127,202,343725,2,0,L|103:202,1,23.9999999999999,0|0,2:0|2:0,2:0:0:0:
256,336,343785,5,0,2:0:0:0:
307,318,343845,1,2,2:0:0:0:
256,336,343905,1,2,2:0:0:0:
205,318,343965,1,2,2:0:0:0:
373,368,344025,2,0,L|437:360,1,47.9999999999999,2|2,2:0|2:0,2:0:0:0:
256,336,344145,1,2,2:0:0:0:
205,318,344205,1,2,2:0:0:0:
256,336,344265,5,2,2:0:0:0:
307,318,344325,1,2,2:0:0:0:
139,368,344385,2,0,L|75:360,1,47.9999999999999,2|2,2:0|2:0,2:0:0:0:
312,192,344505,2,0,L|376:184,1,47.9999999999999,2|2,2:0|2:0,2:0:0:0:
200,192,344625,2,0,L|136:184,1,47.9999999999999,2|2,2:0|2:0,2:0:0:0:
373,368,344745,6,0,L|483:354,1,95.9999999999997,2|0,3:2|2:0,2:0:0:0:
320,288,344925,2,0,L|240:280,1,47.9999999999999,2|0,3:2|2:0,2:0:0:0:
468,77,345105,1,2,3:2:0:0:
273,78,345225,2,0,L|390:76,1,95.9999999999997,0|2,2:0|2:0,2:0:0:0:
256,128,345465,2,0,L|139:126,1,95.9999999999997,2|2,2:0|2:0,2:0:0:0:
351,126,345705,5,2,3:2:0:0:
160,126,345825,1,0,2:0:0:0:
351,126,345945,2,0,L|468:124,2,95.9999999999997,2|0|2,3:2|2:0|3:2,2:0:0:0:
157,323,346305,2,0,L|213:323,1,47.9999999999999,0|0,2:0|1:0,2:0:0:0:
352,330,346425,2,0,L|456:330,1,95.9999999999997,0|2,1:0|2:0,2:0:0:0:
206,175,346665,6,0,L|310:175,1,95.9999999999997,0|0,3:0|2:0,2:0:0:0:
155,281,346845,2,0,L|83:281,1,47.9999999999999,0|0,2:0|3:0,2:0:0:0:
302,175,347025,1,0,2:0:0:0:
62,364,347145,2,0,L|53:268,1,95.9999999999997,0|0,3:0|2:0,2:0:0:0:
174,210,347385,2,0,L|70:210,2,95.9999999999997,2|2|2,2:0|2:0|2:0,2:0:0:0:
368,216,347745,5,2,3:2:0:0:
174,210,347865,2,0,L|270:210,1,95.9999999999997,2|2,3:2|2:0,2:0:0:0:
72,212,348105,1,0,3:0:0:0:
270,210,348225,1,0,3:0:0:0:
72,212,348345,1,0,3:0:0:0:
24,197,348405,1,0,2:0:0:0:
24,197,348465,1,0,2:0:0:0:
72,212,348525,1,0,2:0:0:0:
240,323,348585,6,0,L|120:323,2,95.9999999999997,2|0|0,3:1|2:0|3:0,2:0:0:0:
488,328,348945,1,0,2:0:0:0:
272,323,349065,2,0,L|392:323,2,95.9999999999997,2|0|0,3:1|2:0|3:0,2:0:0:0:
24,328,349425,1,0,2:0:0:0:
240,323,349545,6,0,L|120:323,1,95.9999999999997,2|0,3:1|2:0,2:0:0:0:
360,328,349785,1,0,3:0:0:0:
144,323,349905,2,0,L|153:221,1,95.9999999999997,0|2,2:0|3:1,2:0:0:0:
346,164,350145,1,0,2:0:0:0:
226,145,350265,1,0,3:0:0:0:
24,198,350385,1,0,3:0:0:0:
256,216,350505,6,0,L|376:216,2,95.9999999999997,2|0|0,3:1|2:0|3:0,2:0:0:0:
488,216,350865,1,0,2:0:0:0:
256,216,350985,2,0,L|136:216,2,95.9999999999997,2|0|0,3:1|2:0|3:0,2:0:0:0:
24,216,351345,1,0,2:0:0:0:
256,216,351465,6,0,L|376:216,1,95.9999999999997,2|0,3:1|2:0,2:0:0:0:
160,216,351705,1,0,3:0:0:0:
352,216,351825,1,0,3:0:0:0:
112,360,351945,1,0,3:0:0:0:
224,360,352065,2,0,L|280:360,1,47.9999999999999,0|0,3:0|2:0,2:0:0:0:
120,128,352185,2,0,L|176:128,1,47.9999999999999,0|0,3:0|2:0,2:0:0:0:
322,171,352305,2,0,L|370:171,1,47.9999999999999,0|0,3:0|2:0,2:0:0:0:
199,288,352425,6,0,L|63:288,1,95.9999999999997,2|0,3:1|2:0,2:0:0:0:
274,80,352605,2,0,L|226:80,1,47.9999999999999,2|0,3:1|2:0,2:0:0:0:
32,75,352785,1,2,3:1:0:0:
256,128,352905,2,0,L|392:128,1,95.9999999999997,0|2,2:0|2:0,2:0:0:0:
256,128,353145,2,0,L|120:128,1,95.9999999999997,2|2,2:0|2:0,2:0:0:0:
402,223,353385,5,2,3:2:0:0:
210,272,353505,1,2,3:2:0:0:
450,318,353625,2,0,L|458:385,1,47.9999999999999,2|0,3:1|2:0,2:0:0:0:
392,308,353745,2,0,L|400:375,1,47.9999999999999,2|0,2:0|2:0,2:0:0:0:
227,294,353865,1,2,2:0:0:0:
323,171,353985,2,0,L|243:171,1,47.9999999999999,2|0,3:2|2:0,2:0:0:0:
112,281,354105,2,0,L|16:281,1,95.9999999999997,2|2,3:2|2:0,2:0:0:0:
258,317,354345,6,0,L|394:317,1,95.9999999999997,2|0,3:1|2:0,2:0:0:0:
183,109,354525,2,0,L|231:109,1,47.9999999999999,2|0,3:1|2:0,2:0:0:0:
434,112,354705,1,2,3:1:0:0:
192,272,354825,2,0,L|128:272,2,47.9999999999999,0|0|2,2:0|2:0|2:0,2:0:0:0:
308,232,355065,2,0,L|180:232,1,95.9999999999997,2|2,2:0|2:0,2:0:0:0:
328,139,355305,5,2,2:0:0:0:
88,142,355425,1,2,3:2:0:0:
280,42,355545,1,2,3:1:0:0:
184,298,355665,2,0,L|104:298,1,47.9999999999999,0|0,2:0|2:0,2:0:0:0:
284,354,355785,2,0,L|420:354,1,95.9999999999997,2|0,3:1|2:0,2:0:0:0:
132,354,356025,1,2,2:1:0:0:
380,354,356145,1,2,2:1:0:0:
132,354,356265,6,0,L|-4:354,1,95.9999999999997,2|0,3:1|2:0,2:0:0:0:
278,213,356505,1,2,3:1:0:0:
36,354,356625,1,2,3:1:0:0:
324,295,356745,1,2,3:1:0:0:
36,354,356865,1,2,3:1:0:0:
278,213,356985,2,0,L|156:212,1,95.9999999999997,8|0,3:2|2:0,2:0:0:0:
380,354,357225,6,0,L|516:354,1,95.9999999999997,2|0,3:1|2:0,2:0:0:0:
234,213,357465,1,2,3:1:0:0:
476,354,357585,1,2,3:1:0:0:
188,295,357705,1,2,3:1:0:0:
476,354,357825,1,2,3:1:0:0:
234,213,357945,2,0,L|356:212,1,95.9999999999997,8|0,3:2|2:0,2:0:0:0:
88,93,358185,6,0,L|183:93,1,95.9999999999997,2|0,3:1|2:0,2:0:0:0:
424,93,358425,1,2,3:1:0:0:
88,93,358545,1,2,3:1:0:0:
376,188,358665,1,2,3:1:0:0:
136,188,358785,2,0,L|56:188,1,47.9999999999999,2|0,3:1|3:2,2:0:0:0:
236,107,358905,2,0,L|316:107,1,47.9999999999999,8|0,3:2|3:0,2:0:0:0:
113,61,359025,2,0,L|33:61,1,47.9999999999999,0|0,3:0|2:0,2:0:0:0:
236,107,359145,6,0,L|363:105,1,95.9999999999997,2|0,1:0|2:0,2:0:0:0:
211,187,359385,2,0,L|84:185,1,95.9999999999997,2|0,1:0|2:0,2:0:0:0:
448,312,359625,2,0,L|496:312,1,47.9999999999999,2|0,1:0|2:0,2:0:0:0:
352,216,359745,2,0,L|304:216,1,47.9999999999999,0|0,2:0|2:0,2:0:0:0:
160,216,359865,2,0,L|208:216,1,47.9999999999999,10|0,1:2|2:0,2:0:0:0:
64,312,359985,2,0,L|16:312,1,47.9999999999999,0|0,2:0|2:0,2:0:0:0:
190,337,360105,6,0,L|286:337,1,95.9999999999997,2|0,3:2|2:0,2:0:0:0:
115,252,360285,2,0,L|19:252,1,95.9999999999997,2|0,3:2|2:0,2:0:0:0:
190,337,360465,2,0,B|429:334|429:334|452:277|452:277|458:341|458:341|470:285|470:285|484:227|484:227|486:290|486:290|494:234|494:234|499:176|499:176|500:241|500:241|501:185|501:185|499:126|499:126|497:187|497:187|494:127|494:127|485:69|485:69|478:129|478:129|469:67|469:67|457:11|457:11|445:71|445:71|427:9,1,1320,8|0,3:2|2:0,2:0:0:0:
260,187,361185,6,0,L|398:187,1,95.9999999999997,2|0,3:2|2:0,2:0:0:0:
185,62,361365,2,0,L|323:62,1,95.9999999999997,2|0,3:2|2:0,2:0:0:0:
112,317,361545,6,0,L|16:317,1,95.9999999999997,2|0,3:2|2:0,2:0:0:0:
187,192,361725,2,0,L|326:192,1,95.9999999999997,2|0,3:2|2:0,2:0:0:0:
454,196,361905,1,0,1:0:0:0:
328,268,361965,1,0,1:0:0:0:
201,230,362025,6,0,L|340:230,1,95.9999999999997,2|0,3:2|2:0,2:0:0:0:
468,360,362205,2,0,L|329:360,1,95.9999999999997,2|0,3:2|2:0,2:0:0:0:
189,299,362385,2,0,B|428:298|428:298|430:235|430:234|430:234|430:290|430:290|430:226|430:226|425:167|425:167|422:229|422:229|414:167|414:166|414:166|407:218|407:218|398:159|398:159|384:96|384:96|374:153|374:153|361:97|361:97|344:39|344:39|330:100|330:100|311:39|311:39|297:90|297:90|278:30|278:30|260:87|260:87|241:31|241:31|224:90|224:90|205:35|205:35|225:92|225:92|245:31|245:31|263:85|263:85|281:31|281:31|298:88|298:88|318:28|318:28|337:83|337:83|358:26|358:26|375:86|375:86|396:24|396:24|414:81|414:81|433:29|433:29|450:85|450:85|471:26,1,2280,10|0,3:2|2:0,2:0:0:0:
256,216,363585,6,0,L|168:216,2,47.9999999999999,2|2|2,1:0|2:0|2:0,2:0:0:0:
427,224,363765,1,2,1:0:0:0:
300,254,363825,1,2,2:0:0:0:
173,284,363885,1,2,2:0:0:0:
341,338,363945,6,0,L|480:338,1,95.9999999999997,2|0,3:2|2:0,2:0:0:0:
266,262,364125,2,0,L|127:262,1,95.9999999999997,2|0,3:2|2:0,2:0:0:0:
353,345,364305,2,0,B|114:342|114:342|91:285|91:285|85:349|85:349|73:293|73:293|59:235|59:235|57:298|57:298|49:242|49:242|44:184|44:184|43:249|43:249|42:193|42:193|44:134|44:134|46:195|46:195|49:135|49:135|58:77|58:77|65:137|65:137|74:75|74:75|86:19|86:19|98:79|98:79|116:17,1,1320,8|0,3:2|2:0,2:0:0:0:
283,166,365025,6,0,L|144:166,1,95.9999999999997,2|0,3:2|2:0,2:0:0:0:
358,325,365205,2,0,L|497:325,1,95.9999999999997,0|0,3:2|2:0,2:0:0:0:
283,110,365385,6,0,L|141:110,1,95.9999999999997,2|0,3:2|2:0,2:0:0:0:
358,337,365565,2,0,L|219:337,1,95.9999999999997,2|0,3:2|2:0,2:0:0:0:
91,166,365745,1,0,1:0:0:0:
217,238,365805,1,0,1:0:0:0:
344,200,365865,6,0,L|205:200,1,95.9999999999997,2|0,3:2|2:0,2:0:0:0:
77,330,366045,2,0,L|173:330,1,95.9999999999997,2|0,3:2|2:0,2:0:0:0:
356,280,366225,2,0,B|116:282|116:282|94:225|94:225|79:285|79:285|69:227|69:227|55:287|55:287|54:230|54:230|52:168|52:168|54:238|54:238|59:181|59:181|68:132|68:132|83:73|83:73|96:136|96:136|120:63,1,959.999999999999,8|0,3:2|1:0,2:0:0:0:
256,72,366765,1,0,1:0:0:0:
399,83,366825,6,0,B|159:81|159:81|107:205,1,360,2|0,3:1|2:0,2:0:0:0:
288,328,367065,6,0,P|339:288|287:249,1,150,2|0,3:1|2:0,2:0:0:0:
111,270,367305,6,0,P|60:230|112:191,1,150,2|0,3:1|2:0,2:0:0:0:
295,83,367545,6,0,B|55:81|55:81|118:199,1,360,2|0,3:1|2:0,2:0:0:0:
283,340,367785,6,0,L|379:340,1,95.9999999999997,2|0,3:1|2:0,2:0:0:0:
208,296,367965,2,0,L|112:296,1,95.9999999999997,0|0,2:0|2:0,2:0:0:0:
283,196,368145,2,0,L|187:196,1,95.9999999999997,0|2,2:0|3:1,2:0:0:0:
429,195,368385,1,0,2:0:0:0:
237,274,368505,2,0,L|225:149,1,95.9999999999997,0|0,3:0|2:0,2:0:0:0:
34,164,368745,1,2,3:1:0:0:
274,342,368865,6,0,L|370:342,1,95.9999999999997,0|0,2:0|3:0,2:0:0:0:
199,242,369045,2,0,L|187:117,1,95.9999999999997,0|0,2:0|2:0,2:0:0:0:
361,239,369225,2,0,L|265:239,1,95.9999999999997,2|0,3:1|2:0,2:0:0:0:
94,152,369405,2,0,L|190:152,1,95.9999999999997,0|0,2:0|2:0,2:0:0:0:
361,156,369585,1,0,2:0:0:0:
121,365,369705,6,0,L|25:365,1,95.9999999999997,2|0,3:1|2:0,2:0:0:0:
196,263,369885,2,0,L|292:263,1,95.9999999999997,0|0,2:0|2:0,2:0:0:0:
121,185,370065,2,0,L|217:185,1,95.9999999999997,0|2,2:0|3:1,2:0:0:0:
460,354,370305,2,0,L|364:354,2,95.9999999999997,0|2|0,2:0|3:1|2:0,2:0:0:0:
217,155,370665,6,0,L|313:155,1,95.9999999999997,2|0,3:1|2:0,2:0:0:0:
190,296,370905,2,0,L|94:296,2,95.9999999999997,2|0|2,3:1|2:0|3:1,2:0:0:0:
384,101,371265,6,0,L|472:101,2,47.9999999999999,0|2|2,2:0|2:0|3:2,2:0:0:0:
213,109,371445,1,2,2:0:0:0:
340,139,371505,1,2,2:0:0:0:
467,169,371565,1,2,2:0:0:0:
299,300,371625,6,0,L|187:300,1,95.9999999999997,2|0,3:1|2:0,2:0:0:0:
374,209,371805,2,0,L|262:209,1,95.9999999999997,0|0,2:0|2:0,2:0:0:0:
107,181,371985,2,0,L|219:181,1,95.9999999999997,0|2,2:0|3:1,2:0:0:0:
16,336,372225,1,0,2:0:0:0:
202,373,372345,2,0,L|214:248,1,95.9999999999997,0|0,3:0|2:0,2:0:0:0:
398,264,372585,1,2,3:1:0:0:
158,215,372705,6,0,L|46:215,1,95.9999999999997,0|0,2:0|3:0,2:0:0:0:
227,307,372885,2,0,L|239:182,1,95.9999999999997,0|0,2:0|2:0,2:0:0:0:
400,256,373065,2,0,L|496:256,1,95.9999999999997,2|0,3:1|2:0,2:0:0:0:
325,337,373245,2,0,L|229:337,1,95.9999999999997,0|0,2:0|2:0,2:0:0:0:
401,257,373425,1,0,2:0:0:0:
159,165,373545,6,0,L|391:162,1,191.999999999999,8|0,3:2|2:0,2:0:0:0:
109,84,373905,2,0,L|197:84,1,47.9999999999999,0|0,3:0|3:0,2:0:0:0:
328,261,374025,1,0,3:0:0:0:
136,281,374145,1,0,3:0:0:0:
376,120,374265,1,0,3:0:0:0:
88,120,374385,5,8,3:2:0:0:
256,192,374505,12,0,376185,2:0:0:0:
48,176,376425,5,2,1:2:0:0:
177,176,376485,1,2,2:0:0:0:
306,176,376545,1,2,2:0:0:0:
436,176,376605,1,2,2:0:0:0:
76,176,376785,5,2,1:2:0:0:
205,176,376845,1,2,2:0:0:0:
334,176,376905,1,2,2:0:0:0:
464,176,376965,1,2,2:0:0:0:
160,288,377145,6,0,L|104:288,1,47.9999999999999,2|2,1:2|2:0,2:0:0:0:
256,248,377265,1,2,2:0:0:0:
400,288,377325,1,2,2:0:0:0:
80,112,377505,6,0,L|136:112,1,47.9999999999999,2|2,1:2|2:0,2:0:0:0:
256,112,377625,1,2,2:0:0:0:
384,112,377685,1,2,2:0:0:0:
62,75,377865,5,2,1:2:0:0:
191,75,377925,1,2,2:0:0:0:
320,75,377985,1,2,2:0:0:0:
450,75,378045,1,2,2:0:0:0:
255,312,378105,2,0,P|222:252|256:192,1,144,0|0,2:0|2:0,2:0:0:0:
456,184,378345,6,0,L|456:56,1,95.9999999999997,8|0,3:2|2:0,2:0:0:0:
352,136,378585,1,0,2:0:0:0:
248,184,378705,2,0,L|248:56,1,95.9999999999997,0|0,2:0|2:0,2:0:0:0:
352,136,378945,1,0,2:0:0:0:
456,184,379065,2,0,L|339:181,1,95.9999999999997,0|0,2:0|2:0,2:0:0:0:
157,360,379305,6,0,L|148:264,1,95.9999999999997,0|0,2:0|2:0,2:0:0:0:
264,253,379545,2,0,L|255:157,1,95.9999999999997,0|0,2:0|2:0,2:0:0:0:
48,128,379785,2,0,L|160:128,3,95.9999999999997,0|0|0|0,2:0|2:0|2:0|2:0,2:0:0:0:
396,299,380265,6,0,L|508:299,2,95.9999999999997,8|0|0,3:2|2:0|2:0,2:0:0:0:
292,227,380611,2,0,L|180:227,2,95.9999999999997,0|0|0,2:0|2:0|2:0,2:0:0:0:
400,115,380957,2,0,L|264:115,1,95.9999999999997,0|0,2:0|2:0,2:0:0:0:
111,313,381188,5,0,2:0:0:0:
215,265,381303,2,0,L|225:167,1,95.9999999999997,0|0,2:0|2:0,2:0:0:0:
418,179,381534,1,0,2:0:0:0:
314,131,381649,2,0,L|304:33,1,95.9999999999997,0|0,2:0|2:0,2:0:0:0:
496,16,381880,2,0,L|376:16,1,95.9999999999997,0|0,2:0|2:0,2:0:0:0:
149,327,382111,6,0,L|139:229,1,95.9999999999997,8|0,3:2|2:0,2:0:0:0:
244,211,382333,1,0,2:0:0:0:
349,194,382444,2,0,L|339:96,1,95.9999999999997,0|0,2:0|2:0,2:0:0:0:
234,89,382666,1,0,2:0:0:0:
129,72,382777,2,0,L|241:64,1,95.9999999999997,0|0,2:0|2:0,2:0:0:0:
426,299,382999,6,0,L|234:291,1,191.999999999999,0|0,2:0|2:0,2:0:0:0:
31,216,383333,2,0,L|159:216,2,95.9999999999997,0|0|0,2:0|2:0|2:0,2:0:0:0:
137,327,383666,2,0,L|9:327,1,95.9999999999997,0|0,2:0|2:0,2:0:0:0:
283,142,383888,6,0,L|396:143,2,93.0000000000001,8|0|0,3:2|2:0|2:0,2:0:0:0:
181,217,384209,2,0,L|68:218,2,93.0000000000001,0|0|0,2:0|2:0|2:0,2:0:0:0:
283,117,384530,2,0,L|170:118,1,93.0000000000001,0|0,2:0|2:0,2:0:0:0:
384,191,384745,5,0,2:0:0:0:
128,191,384852,1,0,2:0:0:0:
354,60,384959,1,0,2:0:0:0:
256,88,385066,1,0,2:0:0:0:
158,60,385173,1,0,3:0:0:0:
384,191,385280,1,0,2:0:0:0:
208,240,385388,2,0,L|272:240,1,46.5000000000001,0|0,3:0|2:0,2:0:0:0:
304,240,385495,2,0,L|240:240,1,46.5000000000001,0|0,2:0|2:0,2:0:0:0:
67,365,385603,6,0,L|3:365,1,45.5,2|0,3:1|2:0,2:0:0:0:
178,362,385708,1,0,2:0:0:0:
176,317,385760,1,0,2:0:0:0:
146,283,385813,1,0,3:0:0:0:
102,276,385866,1,0,2:0:0:0:
265,108,385918,6,0,L|329:108,1,45.5,0|0,2:0|2:0,2:0:0:0:
261,167,386024,2,0,L|197:167,1,45.5,2|0,3:1|2:0,2:0:0:0:
372,271,386129,2,0,L|380:315,1,45.5,0|0,2:0|2:0,2:0:0:0:
324,306,386234,2,0,L|332:350,1,45.5,0|0,3:0|2:0,2:0:0:0:
490,221,386339,1,0,2:0:0:0:
352,198,386392,1,0,2:0:0:0:
214,175,386445,6,0,L|270:172,1,45.5,2|0,3:1|2:0,2:0:0:0:
421,155,386550,1,0,2:0:0:0:
465,162,386603,1,0,2:0:0:0:
494,195,386655,1,0,3:0:0:0:
496,240,386708,1,0,2:0:0:0:
335,299,386760,6,0,L|271:299,1,45.5,0|0,2:0|2:0,2:0:0:0:
339,358,386866,2,0,L|403:358,1,45.5,0|0,3:0|2:0,2:0:0:0:
228,241,386971,2,0,L|164:241,1,45.5,0|0,2:0|2:0,2:0:0:0:
24,190,387076,2,0,L|272:190,1,227.5,8|0,1:2|2:0,2:0:0:0:
445,365,387287,6,0,L|509:365,1,45.5,2|0,3:1|2:0,2:0:0:0:
334,362,387392,1,0,2:0:0:0:
336,317,387445,1,0,2:0:0:0:
366,283,387497,1,0,3:0:0:0:
410,276,387550,1,0,2:0:0:0:
247,108,387603,6,0,L|183:108,1,45.5,0|0,2:0|2:0,2:0:0:0:
251,167,387708,2,0,L|315:167,1,45.5,2|0,3:1|2:0,2:0:0:0:
140,271,387813,2,0,L|132:315,1,45.5,0|0,2:0|2:0,2:0:0:0:
183,340,387918,2,0,L|227:348,1,45.5,0|0,3:0|2:0,2:0:0:0:
67,317,388024,2,0,L|59:361,1,45.5,0|0,2:0|2:0,2:0:0:0:
225,216,388129,6,0,L|233:260,1,45.5,2|0,3:1|2:0,2:0:0:0:
394,327,388234,2,0,L|402:283,1,45.5,0|0,2:0|2:0,2:0:0:0:
242,171,388339,2,0,L|234:215,1,45.5,0|0,3:0|2:0,2:0:0:0:
78,337,388445,2,0,L|70:293,1,45.5,0|0,2:0|2:0,2:0:0:0:
214,336,388550,1,0,3:0:0:0:
218,291,388603,1,0,2:0:0:0:
194,254,388655,1,0,2:0:0:0:
151,241,388708,1,0,2:0:0:0:
268,191,388760,2,0,L|496:184,1,227.5,0|0,2:0|2:0,2:0:0:0:
256,88,388971,5,2,3:1:0:0:
496,264,389076,2,0,L|384:264,1,90.9999999999999,2|0,2:1|3:0,2:0:0:0:
165,88,389287,2,0,L|277:88,1,90.9999999999999,0|0,2:0|3:0,2:0:0:0:
16,264,389497,2,0,L|128:264,1,90.9999999999999,0|0,2:0|3:0,2:0:0:0:
290,264,389708,2,0,L|202:264,1,45.5,0|0,2:0|2:0,2:0:0:0:
84,268,389813,5,2,3:1:0:0:
311,341,389918,2,0,L|199:341,1,90.9999999999999,2|0,2:1|3:0,2:0:0:0:
449,202,390129,2,0,L|337:202,1,90.9999999999999,0|0,2:0|3:0,2:0:0:0:
131,112,390339,2,0,L|222:112,1,90.9999999999999,0|0,2:0|3:0,2:0:0:0:
40,192,390550,1,0,2:0:0:0:
333,224,390655,6,0,L|341:268,1,45.5,2|2,3:1|2:0,2:0:0:0:
179,224,390760,2,0,L|171:268,1,45.5,2|2,2:0|2:0,2:0:0:0:
342,220,390866,2,0,L|350:264,1,45.5,2|2,2:0|2:0,2:0:0:0:
170,220,390971,2,0,L|162:264,1,45.5,2|2,2:0|2:0,2:0:0:0:
351,216,391076,6,0,L|401:205,1,45.5,2|2,2:0|2:0,2:0:0:0:
161,216,391181,2,0,L|111:205,1,45.5,2|2,2:0|2:0,2:0:0:0:
360,212,391287,6,0,L|410:201,1,45.5,2|2,2:0|2:0,2:0:0:0:
152,212,391392,2,0,L|102:201,1,45.5,2|0,2:0|2:0,2:0:0:0:
256,112,391497,6,0,L|256:128,4,15.1666666666667,2|0|0|0|0,2:1|2:0|2:0|2:0|2:0,2:0:0:0:
410,81,391638,6,0,L|410:97,4,15.1666666666667,0|0|0|0|0,2:0|2:0|2:0|2:0|2:0,2:0:0:0:
256,112,391778,6,0,L|256:128,4,15.1666666666667,0|0|0|0|0,2:0|2:0|2:0|2:0|2:0,2:0:0:0:
102,81,391918,6,0,L|102:97,4,15.1666666666667,0|0|0|0|0,2:0|2:0|2:0|2:0|2:0,2:0:0:0:
344,296,392059,6,0,L|360:296,4,15.1666666666667,0|0|0|0|0,2:0|2:0|2:0|2:0|2:0,2:0:0:0:
168,296,392199,6,0,L|152:296,4,15.1666666666667,0|0|0|0|0,2:0|2:0|2:0|2:0|2:0,2:0:0:0:
410,81,392339,5,0,2:0:0:0:
45,345,394024,6,0,B|274:340|274:340|295:80,1,454.999999999999,8|0,3:2|2:0,2:0:0:0:
467,345,394339,6,0,B|238:340|238:340|217:80,1,454.999999999999,8|0,3:2|2:0,2:0:0:0:
40,365,394655,6,0,B|269:360|269:360|186:110,1,454.999999999999,8|0,3:2|2:0,2:0:0:0:
472,365,394971,6,0,B|243:360|243:360|326:108,1,454.999999999999,8|0,3:2|2:0,2:0:0:0:
28,77,395287,6,0,L|508:61,1,454.999999999999,8|8,3:2|3:2,2:0:0:0:
75,313,395708,5,2,3:1:0:0:
302,148,395813,2,0,L|206:148,1,90.9999999999999,0|2,2:0|3:1,2:0:0:0:
437,313,396024,1,0,2:0:0:0:
210,148,396129,2,0,L|306:148,1,90.9999999999999,2|0,3:1|2:0,2:0:0:0:
75,313,396339,1,2,3:1:0:0:
301,148,396445,6,0,L|210:148,2,90.9999999999999,0|2|0,2:0|3:1|2:0,2:0:0:0:
75,313,396760,2,0,L|166:313,1,90.9999999999999,2|0,3:1|2:0,2:0:0:0:
352,312,396971,1,2,3:1:0:0:
256,320,397076,1,0,2:0:0:0:
448,304,397181,1,2,3:1:0:0:
256,320,397287,2,0,L|196:316,1,45.5,0|0,2:0|2:0,2:0:0:0:
357,304,397392,6,0,L|477:304,1,90.9999999999999,2|2,3:2|3:2,2:0:0:0:
219,192,397603,2,0,L|99:192,1,90.9999999999999,2|0,3:2|2:0,2:0:0:0:
310,83,397813,1,2,3:2:0:0:
83,320,397918,2,0,L|163:320,1,45.5,2|0,3:2|2:0,2:0:0:0:
269,133,398024,2,0,L|189:133,1,45.5,2|0,3:2|2:0,2:0:0:0:
83,320,398129,1,2,3:2:0:0:
310,312,398234,6,0,L|390:312,1,45.5,2|0,3:2|2:0,2:0:0:0:
202,312,398339,2,0,L|122:312,1,45.5,2|0,3:2|2:0,2:0:0:0:
310,312,398445,2,0,L|432:312,1,90.9999999999999,2|2,3:2|3:2,2:0:0:0:
125,204,398655,6,0,L|45:204,1,45.5,8|0,3:2|2:0,2:0:0:0:
233,104,398760,2,0,L|278:104,1,45.5,0|0,2:0|2:0,2:0:0:0:
432,204,398866,2,0,L|387:204,1,45.5,8|0,3:2|2:0,2:0:0:0:
226,361,398971,2,0,L|271:361,1,45.5,0|0,2:0|2:0,2:0:0:0:
432,204,399076,5,2,3:1:0:0:
205,210,399181,2,0,L|77:210,1,90.9999999999999,0|2,2:0|3:1,2:0:0:0:
343,265,399392,1,0,2:0:0:0:
116,271,399497,2,0,L|-12:271,1,90.9999999999999,2|0,3:1|2:0,2:0:0:0:
254,352,399708,1,2,3:1:0:0:
25,271,399813,6,0,L|116:271,2,90.9999999999999,0|2|0,2:0|3:1|2:0,2:0:0:0:
254,352,400129,2,0,L|163:352,1,90.9999999999999,2|0,3:1|2:0,2:0:0:0:
345,212,400339,1,2,3:1:0:0:
254,212,400445,1,0,2:0:0:0:
71,211,400550,1,2,3:1:0:0:
254,212,400655,2,0,L|332:212,1,45.5,0|0,2:0|2:0,2:0:0:0:
116,363,400760,6,0,L|106:307,1,45.5,2|2,3:1|2:0,2:0:0:0:
272,273,400866,2,0,L|282:217,1,45.5,2|2,2:0|2:0,2:0:0:0:
441,216,400971,2,0,L|505:216,1,45.5,8|0,3:2|2:0,2:0:0:0:
349,160,401076,1,0,2:0:0:0:
211,141,401129,1,0,2:0:0:0:
369,88,401181,6,0,L|433:88,1,45.5,2|0,3:1|2:0,2:0:0:0:
250,52,401287,2,0,L|218:52,2,22.75,0|0|0,3:0|2:0|2:0,2:0:0:0:
368,47,401366,1,0,2:0:0:0:
482,49,401392,2,0,L|418:49,1,45.5,2|0,3:1|2:0,2:0:0:0:
256,136,401497,1,0,3:0:0:0:
68,334,401603,6,0,L|20:334,1,45.5,2|2,3:2|2:0,2:0:0:0:
75,272,401708,2,0,L|123:272,1,45.5,2|2,2:0|2:0,2:0:0:0:
281,324,401813,1,2,3:2:0:0:
294,281,401866,1,2,2:0:0:0:
272,243,401918,1,2,2:0:0:0:
229,232,401971,1,2,2:0:0:0:
393,359,402024,6,0,L|441:359,1,45.5,8|0,3:2|2:0,2:0:0:0:
301,252,402129,2,0,L|253:252,1,45.5,0|0,2:0|2:0,2:0:0:0:
416,111,402234,2,0,L|464:111,1,45.5,0|0,2:0|2:0,2:0:0:0:
278,267,402339,2,0,L|230:267,1,45.5,0|0,2:0|2:0,2:0:0:0:
396,192,402445,5,2,3:1:0:0:
169,91,402550,2,0,L|273:91,1,90.9999999999999,0|2,2:0|3:1,2:0:0:0:
33,242,402760,2,0,L|93:243,1,45.5,0|0,2:0|2:0,2:0:0:0:
260,91,402866,2,0,L|169:91,1,90.9999999999999,2|0,3:1|2:0,2:0:0:0:
396,192,403076,1,2,3:1:0:0:
169,91,403181,6,0,L|260:91,1,90.9999999999999,0|2,2:0|3:1,2:0:0:0:
489,93,403392,2,0,L|425:93,1,45.5,0|0,2:0|2:0,2:0:0:0:
283,93,403497,1,0,3:1:0:0:
54,213,403603,2,0,L|118:213,1,45.5,0|0,2:0|2:0,2:0:0:0:
283,93,403708,6,0,L|315:93,2,22.75,8|0|0,3:2|2:0|2:0,2:0:0:0:
165,88,403787,1,0,2:0:0:0:
47,93,403813,2,0,L|15:93,2,22.75,0|0|0,2:0|2:0|2:0,2:0:0:0:
165,88,403892,1,0,2:0:0:0:
283,93,403918,2,0,L|360:88,1,45.5,0|0,2:0|2:0,2:0:0:0:
186,262,404024,2,0,L|109:257,1,45.5,0|0,2:0|2:0,2:0:0:0:
308,348,404129,6,0,L|428:348,1,90.9999999999999,2|2,3:2|3:2,2:0:0:0:
204,348,404339,2,0,L|84:348,1,90.9999999999999,2|0,3:2|2:0,2:0:0:0:
308,348,404550,2,0,L|318:292,1,45.5,2|0,3:2|2:0,2:0:0:0:
480,200,404655,2,0,L|408:200,1,45.5,2|0,3:2|2:0,2:0:0:0:
274,102,404760,2,0,L|346:102,1,45.5,2|0,3:2|2:0,2:0:0:0:
156,242,404866,2,0,L|84:242,1,45.5,2|0,3:2|2:0,2:0:0:0:
271,275,404971,6,0,L|351:275,2,60.6666666666666,2|0|0,3:2|2:0|2:0,2:0:0:0:
89,305,405181,2,0,L|4:305,2,60.6666666666666,2|0|0,3:2|2:0|2:0,2:0:0:0:
256,320,405392,1,8,3:2:0:0:
456,311,405497,2,0,L|456:296,4,11.375,0|0|0|0|0,2:0|2:0|2:0|2:0|2:0,2:0:0:0:
292,184,405603,2,0,L|244:184,1,45.5,0|0,2:0|2:0,2:0:0:0:
407,54,405708,2,0,L|439:54,2,22.75,0|0|0,2:0|2:0|2:0,2:0:0:0:
289,49,405787,1,0,2:0:0:0:
175,56,405813,6,0,L|71:56,1,90.9999999999999,2|0,3:1|2:0,2:0:0:0:
245,138,405971,2,0,L|349:138,1,90.9999999999999,2|0,3:1|2:0,2:0:0:0:
496,344,406129,6,0,L|392:344,1,90.9999999999999,2|0,3:1|2:0,2:0:0:0:
245,138,406287,2,0,L|349:138,1,90.9999999999999,10|0,3:2|2:0,2:0:0:0:
175,359,406445,6,0,P|127:325|174:291,1,136.5,0|0,2:0|2:0,2:0:0:0:
337,56,406655,6,0,L|441:56,1,90.9999999999999,2|0,3:1|2:0,2:0:0:0:
267,138,406813,2,0,L|163:138,1,90.9999999999999,2|0,3:1|2:0,2:0:0:0:
16,344,406971,6,0,L|120:344,1,90.9999999999999,2|0,3:1|2:0,2:0:0:0:
267,138,407129,2,0,L|163:138,1,90.9999999999999,10|0,3:2|2:0,2:0:0:0:
337,359,407287,6,0,P|384:325|337:291,1,136.5,0|0,2:0|2:0,2:0:0:0:
141,61,407497,6,0,L|37:61,1,90.9999999999999,2|0,3:1|2:0,2:0:0:0:
211,143,407655,2,0,L|302:143,1,90.9999999999999,2|0,3:1|2:0,2:0:0:0:
462,349,407813,6,0,L|358:349,1,90.9999999999999,2|0,3:1|2:0,2:0:0:0:
211,143,407971,2,0,L|315:143,1,90.9999999999999,2|0,3:1|2:0,2:0:0:0:
141,61,408129,6,0,L|37:61,1,90.9999999999999,2|0,3:1|2:0,2:0:0:0:
256,328,408339,5,0,2:0:0:0:
144,360,408445,2,0,P|91:332|163:259,1,182,0|0,2:0|2:0,2:0:0:0:
368,360,408760,1,0,2:0:0:0:
409,346,408813,1,0,2:0:0:0:
427,305,408866,1,0,2:0:0:0:
408,265,408918,1,0,2:0:0:0:
365,253,408971,2,0,L|266:253,1,90.9999999999999,0|0,2:0|2:0,2:0:0:0:
496,112,409181,5,2,3:1:0:0:
274,253,409287,2,0,L|365:253,1,90.9999999999999,0|2,2:0|3:1,2:0:0:0:
143,112,409497,1,0,2:0:0:0:
372,242,409603,1,2,3:1:0:0:
150,383,409708,2,0,L|241:383,1,90.9999999999999,0|2,2:0|3:1,2:0:0:0:
19,242,409918,1,0,2:0:0:0:
246,383,410024,6,0,L|155:383,1,90.9999999999999,2|0,3:1|2:0,2:0:0:0:
382,264,410234,1,2,3:1:0:0:
203,364,410339,2,0,L|194:239,1,90.9999999999999,0|2,2:0|3:1,2:0:0:0:
16,256,410550,1,0,2:0:0:0:
196,273,410655,1,2,3:1:0:0:
16,256,410760,2,0,L|80:256,1,45.5,0|0,3:0|2:0,2:0:0:0:
226,226,410866,5,2,3:1:0:0:
453,148,410971,2,0,L|325:148,1,90.9999999999999,0|2,2:0|3:1,2:0:0:0:
135,160,411181,1,0,2:0:0:0:
364,333,411287,1,2,3:1:0:0:
137,255,411392,2,0,L|265:255,1,90.9999999999999,0|2,2:0|3:1,2:0:0:0:
455,267,411603,1,0,2:0:0:0:
228,255,411708,6,0,L|137:255,1,90.9999999999999,2|0,3:1|2:0,2:0:0:0:
364,253,411918,1,2,3:2:0:0:
137,255,412024,2,0,L|28:255,1,90.9999999999999,0|2,2:0|3:1,2:0:0:0:
287,74,412234,2,0,L|223:74,1,45.5,2|2,2:0|2:0,2:0:0:0:
104,108,412339,2,0,L|40:108,1,45.5,2|0,3:2|2:0,2:0:0:0:
199,287,412445,2,0,L|114:287,1,45.5,0|0,3:0|2:0,2:0:0:0:
16,112,412550,5,2,3:1:0:0:
238,253,412655,2,0,L|147:253,1,90.9999999999999,0|2,2:0|3:1,2:0:0:0:
369,112,412866,1,0,2:0:0:0:
140,242,412971,1,2,3:1:0:0:
362,383,413076,2,0,L|271:383,1,90.9999999999999,0|2,2:0|3:1,2:0:0:0:
493,242,413287,1,0,2:0:0:0:
266,383,413392,6,0,L|357:383,1,90.9999999999999,2|0,3:1|2:0,2:0:0:0:
130,264,413603,1,2,3:1:0:0:
309,364,413708,2,0,L|318:239,1,90.9999999999999,0|2,3:0|3:1,2:0:0:0:
496,256,413918,1,0,2:0:0:0:
316,273,414024,1,2,3:1:0:0:
496,256,414129,2,0,L|432:256,1,45.5,2|2,2:0|2:0,2:0:0:0:
286,226,414234,5,2,3:1:0:0:
59,148,414339,2,0,L|187:148,1,90.9999999999999,0|2,2:0|3:1,2:0:0:0:
377,160,414550,1,0,2:0:0:0:
148,333,414655,1,2,3:1:0:0:
375,255,414760,2,0,L|247:255,1,90.9999999999999,0|0,2:0|3:0,2:0:0:0:
57,267,414971,1,0,2:0:0:0:
286,129,415076,6,0,L|350:129,1,45.5,2|2,3:1|2:0,2:0:0:0:
281,201,415181,2,0,L|217:201,1,45.5,2|2,2:0|2:0,2:0:0:0:
399,363,415287,2,0,L|463:363,1,45.5,2|2,2:0|2:0,2:0:0:0:
284,204,415392,2,0,L|274:148,1,45.5,2|2,2:0|2:0,2:0:0:0:
331,128,415497,6,0,L|321:72,1,45.5,2|2,2:0|2:0,2:0:0:0:
183,90,415603,2,0,L|103:90,1,45.5,2|2,2:0|2:0,2:0:0:0:
274,230,415708,2,0,L|284:174,1,45.5,2|2,2:0|2:0,2:0:0:0:
443,173,415813,2,0,L|523:173,1,45.5,2|2,2:0|2:0,2:0:0:0:
328,312,415918,5,2,3:1:0:0:
53,193,416024,1,0,2:0:0:0:
235,163,416129,1,2,3:1:0:0:
464,160,416234,1,0,2:0:0:0:
184,312,416339,1,2,3:1:0:0:
459,193,416445,1,0,2:0:0:0:
277,163,416550,1,2,3:1:0:0:
48,160,416655,1,0,2:0:0:0:
328,312,416760,6,0,L|432:304,1,90.9999999999999,2|0,3:1|3:0,2:0:0:0:
184,312,416971,1,2,3:1:0:0:
459,193,417076,2,0,L|368:199,1,90.9999999999999,0|2,2:0|3:2,2:0:0:0:
184,312,417287,2,0,L|194:256,1,45.5,2|2,2:0|2:0,2:0:0:0:
330,238,417392,2,0,L|340:182,1,45.5,2|2,2:0|2:0,2:0:0:0:
476,189,417497,1,2,2:0:0:0:
184,312,417603,5,2,3:1:0:0:
459,193,417708,1,0,2:0:0:0:
277,163,417813,1,2,3:1:0:0:
48,160,417918,1,0,2:0:0:0:
328,312,418024,1,2,3:1:0:0:
53,193,418129,1,0,2:0:0:0:
235,163,418234,1,2,3:1:0:0:
464,160,418339,1,0,2:0:0:0:
184,312,418445,6,0,L|80:304,1,90.9999999999999,2|0,3:1|2:0,2:0:0:0:
328,312,418655,1,2,3:1:0:0:
93,305,418760,1,0,2:0:0:0:
368,169,418866,2,0,L|192:169,2,136.5,2|2|2,1:2|1:2|1:2,2:0:0:0:
185,276,419287,5,2,3:1:0:0:
457,342,419392,1,0,2:0:0:0:
275,220,419497,1,2,3:1:0:0:
46,213,419603,1,0,2:0:0:0:
327,276,419708,1,2,3:1:0:0:
55,342,419813,1,0,2:0:0:0:
237,220,419918,1,2,3:1:0:0:
466,213,420024,1,0,2:0:0:0:
192,359,420129,6,0,P|131:305|189:248,1,182,2|0,2:1|2:0,2:0:0:0:
291,182,420445,2,0,L|91:174,1,182,0|0,2:0|2:0,2:0:0:0:
16,136,420760,2,0,L|128:136,1,90.9999999999999,0|0,2:0|2:0,2:0:0:0:
382,330,420971,6,0,L|463:330,1,45.5,2|0,3:1|2:0,2:0:0:0:
265,256,421076,2,0,L|153:256,1,90.9999999999999,2|0,3:1|2:0,2:0:0:0:
335,160,421234,2,0,L|223:160,1,90.9999999999999,2|0,3:1|2:0,2:0:0:0:
83,333,421392,2,0,L|195:333,1,90.9999999999999,2|2,3:1|3:1,2:0:0:0:
13,237,421550,2,0,L|125:237,1,90.9999999999999,0|0,2:0|3:0,2:0:0:0:
256,128,421708,1,0,2:0:0:0:
150,128,421813,5,8,3:1:0:0:
362,128,421918,1,0,2:0:0:0:
150,128,422024,2,0,L|88:128,1,45.5,0|0,2:0|2:0,2:0:0:0:
243,250,422129,2,0,L|305:250,1,45.5,0|0,2:0|2:0,2:0:0:0:
94,351,422234,6,0,L|84:295,1,45.5,8|0,3:2|2:0,2:0:0:0:
204,284,422339,2,0,L|194:228,1,45.5,0|0,2:0|2:0,2:0:0:0:
316,239,422445,2,0,L|308:283,1,45.5,0|0,2:0|2:0,2:0:0:0:
425,306,422550,2,0,L|418:351,1,45.5,0|0,2:0|2:0,2:0:0:0:
256,360,422655,6,0,L|200:360,1,45.5,2|2,3:2|2:0,2:0:0:0:
371,353,422760,1,2,2:0:0:0:
415,350,422813,1,2,2:0:0:0:
442,315,422866,1,2,3:2:0:0:
435,272,422918,1,2,2:0:0:0:
271,182,422971,6,0,L|215:182,1,45.5,2|2,2:0|2:0,2:0:0:0:
276,249,423076,2,0,L|332:249,1,45.5,2|2,3:2|2:0,2:0:0:0:
161,281,423181,2,0,L|153:325,1,45.5,2|2,2:0|2:0,2:0:0:0:
209,316,423287,2,0,L|201:360,1,45.5,2|2,3:2|2:0,2:0:0:0:
40,249,423392,1,2,2:0:0:0:
178,226,423445,1,2,2:0:0:0:
316,203,423497,6,0,L|260:200,1,45.5,2|2,3:2|2:0,2:0:0:0:
106,187,423603,1,2,2:0:0:0:
61,181,423655,1,2,2:0:0:0:
61,181,423708,1,2,3:2:0:0:
106,187,423760,1,2,2:0:0:0:
267,233,423813,6,0,L|323:233,1,45.5,2|2,2:0|2:0,2:0:0:0:
262,300,423918,2,0,L|206:300,1,45.5,2|2,3:2|2:0,2:0:0:0:
380,182,424024,2,0,L|436:182,1,45.5,2|2,2:0|2:0,2:0:0:0:
265,119,424129,2,0,L|492:119,1,227.5,8|0,2:0|2:0,2:0:0:0:
266,331,424339,6,0,L|210:331,1,45.5,2|2,3:2|2:0,2:0:0:0:
104,186,424445,1,2,2:0:0:0:
59,180,424497,1,2,2:0:0:0:
59,180,424550,1,2,3:2:0:0:
104,186,424603,1,2,2:0:0:0:
265,233,424655,6,0,L|321:233,1,45.5,2|2,2:0|2:0,2:0:0:0:
260,300,424760,2,0,L|204:300,1,45.5,2|2,3:2|2:0,2:0:0:0:
378,235,424866,2,0,L|386:279,1,45.5,2|2,2:0|2:0,2:0:0:0:
330,270,424971,2,0,L|338:314,1,45.5,2|2,3:2|2:0,2:0:0:0:
473,235,425076,2,0,L|487:165,1,45.5,2|2,2:0|2:0,2:0:0:0:
290,174,425181,6,0,L|282:218,1,45.5,2|2,3:2|2:0,2:0:0:0:
118,252,425287,2,0,L|110:296,1,45.5,2|2,2:0|2:0,2:0:0:0:
270,246,425392,2,0,L|278:290,1,45.5,2|2,3:2|2:0,2:0:0:0:
442,324,425497,2,0,L|450:368,1,45.5,2|2,2:0|2:0,2:0:0:0:
290,371,425603,5,2,3:2:0:0:
262,336,425655,1,2,2:0:0:0:
275,294,425708,1,2,2:0:0:0:
316,280,425760,1,2,2:0:0:0:
480,192,425813,2,0,L|240:192,1,227.5,8|0,2:0|2:0,2:0:0:0:
32,192,426024,6,0,L|120:192,1,45.5,2|2,3:2|2:0,2:0:0:0:
238,227,426129,1,2,2:0:0:0:
283,228,426181,1,2,2:0:0:0:
283,228,426234,1,2,3:2:0:0:
237,228,426287,1,2,2:0:0:0:
76,341,426339,6,0,L|20:341,1,45.5,2|2,2:0|2:0,2:0:0:0:
82,344,426445,2,0,L|138:344,1,45.5,2|2,3:2|2:0,2:0:0:0:
288,275,426550,2,0,L|296:319,1,45.5,2|2,2:0|2:0,2:0:0:0:
240,310,426655,2,0,L|248:354,1,45.5,2|2,3:2|2:0,2:0:0:0:
406,274,426760,1,2,2:0:0:0:
268,251,426813,1,2,2:0:0:0:
130,228,426866,6,0,L|186:225,1,45.5,0|2,3:2|2:0,2:0:0:0:
324,299,426971,1,2,2:0:0:0:
352,264,427024,1,2,2:0:0:0:
339,222,427076,1,2,3:2:0:0:
298,208,427129,1,2,2:0:0:0:
445,47,427181,6,0,L|501:47,1,45.5,2|2,2:0|2:0,2:0:0:0:
439,50,427287,2,0,L|383:50,1,45.5,2|2,3:2|2:0,2:0:0:0:
233,203,427392,2,0,L|303:203,1,45.5,2|0,2:0|2:0,2:0:0:0:
449,361,427497,1,2,3:1:0:0:
449,361,427603,1,2,3:1:0:0:
279,178,427708,6,0,L|257:177,1,22.75,8|0,3:2|2:0,2:0:0:0:
155,272,427760,2,0,L|123:271,1,22.75,0|0,2:0|2:0,2:0:0:0:
233,178,427813,2,0,L|256:177,1,22.75,0|0,2:0|2:0,2:0:0:0:
357,272,427866,2,0,L|389:271,1,22.75,0|0,2:0|2:0,2:0:0:0:
270,192,427918,6,0,L|248:191,1,22.75,0|0,2:0|2:0,2:0:0:0:
146,286,427971,2,0,L|114:285,1,22.75,0|0,2:0|2:0,2:0:0:0:
242,192,428024,2,0,L|265:191,1,22.75,0|0,2:0|2:0,2:0:0:0:
366,286,428076,2,0,L|398:285,1,22.75,0|0,2:0|2:0,2:0:0:0:
261,206,428129,6,0,L|239:205,1,22.75,0|0,2:0|2:0,2:0:0:0:
146,286,428181,2,0,L|114:285,1,22.75,0|0,2:0|2:0,2:0:0:0:
251,206,428234,2,0,L|274:205,1,22.75,0|0,2:0|2:0,2:0:0:0:
366,286,428287,2,0,L|398:285,1,22.75,0|0,2:0|2:0,2:0:0:0:
251,220,428339,6,0,L|229:219,1,22.75,0|0,2:0|2:0,2:0:0:0:
136,300,428392,2,0,L|104:299,1,22.75,0|0,2:0|2:0,2:0:0:0:
261,220,428445,2,0,L|284:219,1,22.75,0|0,2:0|2:0,2:0:0:0:
376,300,428497,2,0,L|408:299,1,22.75,0|0,2:0|2:0,2:0:0:0:
256,360,428550,6,0,L|65:351,3,182,0|0|0|0,2:0|2:0|2:0|2:0,2:0:0:0:
496,360,429392,6,0,B|235:355|235:355|224:86,1,519.999999999999,8|0,3:2|2:0,2:0:0:0:
16,360,429708,6,0,B|277:355|277:355|289:85,1,519.999999999999,8|0,3:2|2:0,2:0:0:0:
496,360,430024,6,0,B|231:356|231:356|323:93,1,519.999999999999,8|0,3:2|2:0,2:0:0:0:
16,360,430339,6,0,B|281:356|281:356|189:93,1,519.999999999999,8|0,3:2|2:0,2:0:0:0:
406,73,430655,6,0,L|107:72,1,300,8|0,3:2|2:0,2:0:0:0:
354,368,430866,2,0,P|398:269|355:169,1,225.000000000001,8|0,3:2|2:0,2:0:0:0:
15,72,431287,6,0,L|498:72,1,481.999999999999,2|4,3:1|3:1,2:0:0:0:
256,192,431603,12,2,436971,2:0:0:0:
