osu file format v14

[General]
AudioFilename: audio.mp3
AudioLeadIn: 0
PreviewTime: 314025
Countdown: 0
SampleSet: Normal
StackLeniency: 0.7
Mode: 3
LetterboxInBreaks: 0
SpecialStyle: 0
WidescreenStoryboard: 0

[Editor]
Bookmarks: 15984,28784,38326,56066,64413,74848,91544,99892,108239,116587,124935,134181,145580,169580,193580,206209,213320,227542,241833,257833,279465,287145,294825,302505,314025,321705,343785,348585,352425,356265,360105,367785,376425,385603,395708,409181,422655
DistanceSpacing: 0.1
BeatDivisor: 4
GridSize: 32
TimelineZoom: 2.5

[Metadata]
Title:TremENDouS
TitleUnicode:TremENDouS
Artist:Camellia
ArtistUnicode:かめりあ
Creator:-mint-
Version:Intergalactic
Source:Expert Global Taiko Showdown 2021
Tags:kamelcamellia cametek masaya oya かめるかめりあ かめてく 大箭将也 大箭マサヤ egts grandfinals tb tiebreaker GTS Sound Team BespokE osu!mania 4k world cup 2022 mwc22 mwc 4k 2022 finals qqqant full flavor flavour speedcore artcore dnb d'n'b drum n bass drumstep electronic instrumental
BeatmapID:3784899
BeatmapSetID:1842682

[Difficulty]
HPDrainRate:8.3
CircleSize:4
OverallDifficulty:8.3
ApproachRate:5
SliderMultiplier:1.4
SliderTickRate:1

[Events]
//Background and Video events
0,0,"bg.jpg",0,0
//Break Periods
//Storyboard Layer 0 (Background)
//Storyboard Layer 1 (Fail)
//Storyboard Layer 2 (Pass)
//Storyboard Layer 3 (Foreground)
//Storyboard Layer 4 (Overlay)
//Storyboard Sound Samples

[TimingPoints]
3184,400,4,1,1,25,1,0
3184,-59.8802395209581,4,1,1,25,0,0
28784,375,4,1,1,30,1,0
28784,-64.1025641025641,4,1,1,30,0,0
30284,342.857142857143,4,1,1,30,1,0
30284,-69.9300699300699,4,1,1,30,0,0
31655,324.324324324324,4,1,1,35,1,0
31655,-74.0740740740741,4,1,1,35,0,0
32953,300,4,1,1,35,1,0
32953,-80,4,1,1,35,0,0
34153,260.869565217391,4,1,1,40,1,0
34153,-91.743119266055,4,1,1,40,0,0
36239,-91.743119266055,4,1,1,45,0,0
37283,-91.743119266055,4,1,1,50,0,0
56326,-91.743119266055,4,1,1,35,0,0
63370,-91.743119266055,4,1,1,50,0,0
74848,-91.743119266055,4,1,1,50,0,1
91544,-91.743119266055,4,1,1,50,0,0
117109,-91.743119266055,4,1,1,30,0,0
122848,-91.743119266055,4,1,1,50,0,0
127022,279.06976744186,4,1,1,50,1,0
127022,-86.2068965517241,4,1,1,50,0,0
129255,300,4,1,1,50,1,0
129255,-80,4,1,1,50,0,0
131655,315.789473684211,4,1,1,50,1,0
131655,-75.7575757575758,4,1,1,50,0,0
134181,333.333333333333,4,1,1,50,1,0
134181,-71.9424460431655,4,1,1,50,0,0
134514,-71.9424460431655,4,1,1,30,0,0
136848,352.941176470588,4,1,1,30,1,0
136848,-68.0272108843538,4,1,1,30,0,0
139671,363.636363636364,4,1,1,40,1,0
139671,-65.7894736842105,4,1,1,40,0,0
142580,375,4,1,1,50,1,0
142580,-64.1025641025641,4,1,1,50,0,0
169580,-64.1025641025641,4,1,1,50,0,1
186080,-64.1025641025641,4,1,1,50,0,0
187580,-64.1025641025641,4,1,1,50,0,1
188330,-64.1025641025641,4,1,1,50,0,0
189080,-64.1025641025641,4,1,1,50,0,1
189830,-64.1025641025641,4,1,1,50,0,0
190580,-64.1025641025641,4,1,1,50,0,1
192080,-64.1025641025641,4,1,1,50,0,0
194330,-64.1025641025641,4,1,1,30,0,0
199580,400,4,1,1,30,1,0
199580,-59.8802395209581,4,1,1,30,0,0
202780,428.571428571429,4,1,1,30,1,0
202780,-55.8659217877095,4,1,1,30,0,0
206209,444.444444444444,4,1,1,30,1,0
206209,-54.054054054054,4,1,1,30,0,0
209764,-54.054054054054,4,1,1,40,0,0
211542,-54.054054054054,4,1,1,50,0,0
239987,461.538461538462,4,1,1,50,1,8
239987,-52.0833333333333,4,1,1,50,0,8
241833,500,4,1,1,50,1,0
241833,-48.0769230769231,4,1,1,50,0,0
257833,461.538461538462,4,1,1,50,1,8
257833,-52.0833333333333,4,1,1,50,0,8
259679,428.571428571429,4,1,1,50,1,0
259679,-55.8659217877095,4,1,1,50,0,0
261393,400,4,1,1,50,1,0
261393,-59.8802395209581,4,1,1,50,0,0
262993,375,4,1,1,50,1,0
262993,-64.1025641025641,4,1,1,50,0,0
264493,352.941176470588,4,1,1,50,1,0
264493,-68.0272108843538,4,1,1,50,0,0
265905,333.333333333333,4,1,1,50,1,0
265905,-71.9424460431655,4,1,1,50,0,0
267238,315.789473684211,4,1,1,50,1,0
267238,-75.7575757575758,4,1,1,50,0,0
268502,292.682926829268,4,1,1,50,1,0
268502,-81.9672131147541,4,1,1,50,0,0
269672,272.727272727273,4,1,1,50,1,0
269672,-87.719298245614,4,1,1,50,0,0
270763,255.31914893617,4,1,1,50,1,0
270763,-94.3396226415094,4,1,1,50,0,0
271785,240,4,1,1,50,1,0
272505,-100,4,1,1,30,0,0
284265,-100,4,1,1,35,0,0
285225,-100,4,1,1,40,0,0
286185,-100,4,1,1,45,0,0
287145,-100,4,1,1,40,0,0
294825,-100,4,1,1,50,0,0
314025,-100,4,1,1,50,0,1
329385,-100,4,1,1,50,0,0
333225,-100,4,1,1,50,0,1
343785,-100,4,1,1,50,0,0
378465,-100,4,1,1,40,0,0
380265,230.769230769231,4,1,1,40,1,0
380265,-104.166666666667,4,1,1,40,0,0
382111,222.222222222222,4,1,1,45,1,0
382111,-107.52688172043,4,1,1,45,0,0
383888,214.285714285714,4,1,1,45,1,0
383888,-112.359550561798,4,1,1,45,0,0
385603,210.526315789474,4,1,1,50,1,0
385603,-113.636363636364,4,1,1,50,0,0

[HitObjects]
64,192,1684,128,0,2484:0:0:0:0:
320,192,1884,128,0,2384:0:0:0:0:
448,192,2384,128,0,2684:0:0:0:0:
192,192,2484,128,0,2684:0:0:0:0:
64,192,2584,128,0,2884:0:0:0:0:
320,192,2684,128,0,2884:0:0:0:0:
192,192,2784,128,0,2984:0:0:0:0:
448,192,2884,128,0,3084:0:0:0:0:
320,192,2984,128,0,3084:0:0:0:0:
192,192,3084,128,0,3184:0:0:0:0:
64,192,3184,5,0,0:0:0:0:
320,192,3184,1,0,0:0:0:0:
448,192,3184,1,0,0:0:0:0:
192,192,3384,1,0,0:0:0:0:
448,192,3584,1,0,0:0:0:0:
64,192,3784,1,0,0:0:0:0:
320,192,3984,1,0,0:0:0:0:
448,192,4184,1,0,0:0:0:0:
64,192,4384,1,0,0:0:0:0:
192,192,4384,1,0,0:0:0:0:
192,192,4584,1,0,0:0:0:0:
320,192,4584,1,0,0:0:0:0:
64,192,4984,1,0,0:0:0:0:
320,192,5184,1,0,0:0:0:0:
448,192,5384,1,0,0:0:0:0:
192,192,5584,1,0,0:0:0:0:
320,192,5784,1,0,0:0:0:0:
64,192,5984,1,0,0:0:0:0:
448,192,5984,1,0,0:0:0:0:
192,192,6184,1,0,0:0:0:0:
448,192,6184,1,0,0:0:0:0:
320,192,6584,1,0,0:0:0:0:
64,192,6784,1,0,0:0:0:0:
192,192,6984,1,0,0:0:0:0:
448,192,7184,1,0,0:0:0:0:
192,192,7384,1,0,0:0:0:0:
64,192,7584,1,0,0:0:0:0:
320,192,7584,1,0,0:0:0:0:
192,192,7784,1,0,0:0:0:0:
320,192,7784,1,0,0:0:0:0:
64,192,8384,1,0,0:0:0:0:
320,192,8584,1,0,0:0:0:0:
192,192,8784,1,0,0:0:0:0:
448,192,8984,1,0,0:0:0:0:
192,192,9184,1,0,0:0:0:0:
320,192,9184,1,0,0:0:0:0:
64,192,9384,1,0,0:0:0:0:
448,192,9584,1,0,0:0:0:0:
320,192,9584,1,0,0:0:0:0:
192,192,9784,1,0,0:0:0:0:
64,192,9984,1,0,0:0:0:0:
320,192,10184,1,0,0:0:0:0:
448,192,10384,1,0,0:0:0:0:
64,192,10584,1,0,0:0:0:0:
192,192,10784,1,0,0:0:0:0:
448,192,10784,1,0,0:0:0:0:
192,192,10984,1,0,0:0:0:0:
320,192,10984,1,0,0:0:0:0:
448,192,11384,1,0,0:0:0:0:
320,192,11584,1,0,0:0:0:0:
192,192,11784,1,0,0:0:0:0:
448,192,11984,1,0,0:0:0:0:
192,192,12184,1,0,0:0:0:0:
64,192,12384,1,0,0:0:0:0:
320,192,12384,1,0,0:0:0:0:
64,192,12584,1,0,0:0:0:0:
448,192,12584,1,0,0:0:0:0:
192,192,12984,1,0,0:0:0:0:
320,192,13184,1,0,0:0:0:0:
64,192,13384,1,0,0:0:0:0:
192,192,13584,1,0,0:0:0:0:
448,192,13584,1,0,0:0:0:0:
64,192,14184,1,0,0:0:0:0:
448,192,14184,1,0,0:0:0:0:
192,192,14584,1,0,0:0:0:0:
448,192,14784,1,0,0:0:0:0:
320,192,14984,1,0,0:0:0:0:
192,192,14984,1,0,0:0:0:0:
64,192,15384,1,0,0:0:0:0:
320,192,15584,1,0,0:0:0:0:
192,192,15784,1,0,0:0:0:0:
320,192,15984,1,0,0:0:0:0:
448,192,16017,1,0,0:0:0:0:
64,192,16184,1,0,0:0:0:0:
192,192,16384,1,0,0:0:0:0:
320,192,16584,1,0,0:0:0:0:
64,192,16784,1,0,0:0:0:0:
320,192,16984,1,0,0:0:0:0:
448,192,17184,1,0,0:0:0:0:
192,192,17217,1,0,0:0:0:0:
64,192,17384,1,0,0:0:0:0:
448,192,17417,1,0,0:0:0:0:
320,192,17784,1,0,0:0:0:0:
64,192,17984,1,0,0:0:0:0:
192,192,18184,1,0,0:0:0:0:
448,192,18384,1,0,0:0:0:0:
64,192,18584,1,0,0:0:0:0:
192,192,18784,1,0,0:0:0:0:
448,192,18817,1,0,0:0:0:0:
320,192,18984,1,0,0:0:0:0:
192,192,19017,1,0,0:0:0:0:
64,192,19384,1,0,0:0:0:0:
192,192,19584,1,0,0:0:0:0:
320,192,19784,1,0,0:0:0:0:
448,192,19984,1,0,0:0:0:0:
192,192,20184,1,0,0:0:0:0:
320,192,20384,1,0,0:0:0:0:
448,192,20417,1,0,0:0:0:0:
64,192,20584,1,0,0:0:0:0:
320,192,20617,1,0,0:0:0:0:
192,192,21184,1,0,0:0:0:0:
320,192,21384,1,0,0:0:0:0:
64,192,21584,1,0,0:0:0:0:
448,192,21784,1,0,0:0:0:0:
64,192,21984,1,0,0:0:0:0:
320,192,22017,1,0,0:0:0:0:
192,192,22184,1,0,0:0:0:0:
320,192,22384,1,0,0:0:0:0:
448,192,22417,1,0,0:0:0:0:
64,192,22584,1,0,0:0:0:0:
192,192,22784,1,0,0:0:0:0:
320,192,22984,1,0,0:0:0:0:
448,192,23184,1,0,0:0:0:0:
320,192,23384,1,0,0:0:0:0:
64,192,23584,1,0,0:0:0:0:
192,192,23617,1,0,0:0:0:0:
448,192,23784,1,0,0:0:0:0:
64,192,23817,1,0,0:0:0:0:
320,192,24184,1,0,0:0:0:0:
448,192,24384,1,0,0:0:0:0:
192,192,24584,1,0,0:0:0:0:
320,192,24784,1,0,0:0:0:0:
64,192,24984,1,0,0:0:0:0:
192,192,25184,1,0,0:0:0:0:
320,192,25217,1,0,0:0:0:0:
448,192,25384,1,0,0:0:0:0:
192,192,25417,1,0,0:0:0:0:
64,192,25584,1,0,0:0:0:0:
320,192,25784,1,0,0:0:0:0:
192,192,25984,1,0,0:0:0:0:
448,192,26184,1,0,0:0:0:0:
192,192,26384,1,0,0:0:0:0:
320,192,26584,1,0,0:0:0:0:
448,192,26784,1,0,0:0:0:0:
64,192,26817,1,0,0:0:0:0:
320,192,26984,1,0,0:0:0:0:
448,192,27017,1,0,0:0:0:0:
192,192,27184,1,0,0:0:0:0:
64,192,27384,1,0,0:0:0:0:
320,192,27584,1,0,0:0:0:0:
448,192,27784,1,0,0:0:0:0:
192,192,27984,1,0,0:0:0:0:
320,192,28184,1,0,0:0:0:0:
64,192,28384,1,0,0:0:0:0:
320,192,28584,1,0,0:0:0:0:
64,192,28784,1,0,0:0:0:0:
192,192,28784,1,0,0:0:0:0:
448,192,28815,1,0,0:0:0:0:
192,192,29159,1,0,0:0:0:0:
320,192,29346,1,0,0:0:0:0:
64,192,29534,1,0,0:0:0:0:
448,192,29534,1,0,0:0:0:0:
64,192,29909,1,0,0:0:0:0:
448,192,30096,1,0,0:0:0:0:
192,192,30284,1,0,0:0:0:0:
320,192,30284,1,0,0:0:0:0:
320,192,30626,1,0,0:0:0:0:
64,192,30798,1,0,0:0:0:0:
192,192,30969,1,0,0:0:0:0:
448,192,30969,1,0,0:0:0:0:
448,192,31312,1,0,0:0:0:0:
64,192,31398,1,0,0:0:0:0:
192,192,31484,1,0,0:0:0:0:
320,192,31569,1,0,0:0:0:0:
64,192,31655,1,0,0:0:0:0:
448,192,31655,1,0,0:0:0:0:
64,192,31979,1,0,0:0:0:0:
192,192,32141,1,0,0:0:0:0:
320,192,32303,1,0,0:0:0:0:
448,192,32303,1,0,0:0:0:0:
64,192,32465,1,0,0:0:0:0:
320,192,32627,1,0,0:0:0:0:
64,192,32790,1,0,0:0:0:0:
192,192,32953,1,0,0:0:0:0:
448,192,32953,1,0,0:0:0:0:
192,192,33253,1,0,0:0:0:0:
320,192,33403,1,0,0:0:0:0:
64,192,33553,1,0,0:0:0:0:
448,192,33553,1,0,0:0:0:0:
192,192,33703,1,0,0:0:0:0:
64,192,33778,1,0,0:0:0:0:
448,192,33853,1,0,0:0:0:0:
192,192,33928,1,0,0:0:0:0:
320,192,34003,1,0,0:0:0:0:
64,192,34153,1,0,0:0:0:0:
192,192,34153,1,0,0:0:0:0:
192,192,34413,1,0,0:0:0:0:
64,192,34413,1,0,0:0:0:0:
320,192,34544,128,0,34609:0:0:0:0:
192,192,34674,1,0,0:0:0:0:
64,192,34674,1,0,0:0:0:0:
448,192,34739,128,0,34805:0:0:0:0:
320,192,34805,128,0,34870:0:0:0:0:
192,192,34935,1,0,0:0:0:0:
64,192,34935,1,0,0:0:0:0:
64,192,35066,128,0,35196:0:0:0:0:
448,192,35196,1,0,0:0:0:0:
320,192,35196,1,0,0:0:0:0:
192,192,35326,1,0,0:0:0:0:
64,192,35392,1,0,0:0:0:0:
320,192,35457,1,0,0:0:0:0:
448,192,35457,1,0,0:0:0:0:
192,192,35587,1,0,0:0:0:0:
320,192,35718,1,0,0:0:0:0:
448,192,35718,1,0,0:0:0:0:
64,192,35848,1,0,0:0:0:0:
192,192,35913,1,0,0:0:0:0:
320,192,35979,1,0,0:0:0:0:
448,192,35979,1,0,0:0:0:0:
320,192,36109,1,0,0:0:0:0:
448,192,36174,1,0,0:0:0:0:
192,192,36239,1,0,0:0:0:0:
64,192,36239,1,0,0:0:0:0:
64,192,36370,128,0,36500:0:0:0:0:
320,192,36370,1,0,0:0:0:0:
448,192,36435,1,0,0:0:0:0:
192,192,36500,1,0,0:0:0:0:
320,192,36500,1,0,0:0:0:0:
192,192,36631,128,0,36761:0:0:0:0:
448,192,36631,1,0,0:0:0:0:
64,192,36696,1,0,0:0:0:0:
320,192,36761,1,0,0:0:0:0:
448,192,36761,1,0,0:0:0:0:
320,192,36892,128,0,37022:0:0:0:0:
64,192,36892,1,0,0:0:0:0:
192,192,36957,1,0,0:0:0:0:
64,192,37022,1,0,0:0:0:0:
448,192,37022,1,0,0:0:0:0:
448,192,37153,128,0,37283:0:0:0:0:
192,192,37153,1,0,0:0:0:0:
320,192,37218,1,0,0:0:0:0:
64,192,37283,5,0,0:0:0:0:
192,192,37283,1,0,0:0:0:0:
448,192,37348,1,0,0:0:0:0:
64,192,37413,1,0,0:0:0:0:
192,192,37413,1,0,0:0:0:0:
320,192,37479,1,0,0:0:0:0:
192,192,37544,1,0,0:0:0:0:
448,192,37544,1,0,0:0:0:0:
192,192,37609,1,0,0:0:0:0:
320,192,37674,1,0,0:0:0:0:
64,192,37674,1,0,0:0:0:0:
320,192,37739,1,0,0:0:0:0:
192,192,37805,1,0,0:0:0:0:
64,192,37805,1,0,0:0:0:0:
448,192,37848,1,0,0:0:0:0:
64,192,37892,1,0,0:0:0:0:
320,192,37935,128,0,38000:0:0:0:0:
448,192,38000,128,0,38261:0:0:0:0:
320,192,38066,128,0,38196:0:0:0:0:
192,192,38066,128,0,38131:0:0:0:0:
64,192,38131,128,0,38261:0:0:0:0:
192,192,38196,128,0,38261:0:0:0:0:
320,192,38261,128,0,38326:0:0:0:0:
192,192,38326,128,0,38522:0:0:0:0:
64,192,38326,128,0,38457:0:0:0:0:
448,192,38326,128,0,38392:0:0:0:0:
64,192,38522,128,0,38587:0:0:0:0:
448,192,38522,128,0,38718:0:0:0:0:
320,192,38522,128,0,38652:0:0:0:0:
320,192,38718,128,0,38783:0:0:0:0:
64,192,38718,128,0,39109:0:0:0:0:
192,192,38718,128,0,38979:0:0:0:0:
448,192,38979,1,0,0:0:0:0:
192,192,39109,128,0,39174:0:0:0:0:
64,192,39174,128,0,39239:0:0:0:0:
192,192,39239,128,0,39305:0:0:0:0:
64,192,39305,128,0,39370:0:0:0:0:
448,192,39370,128,0,39435:0:0:0:0:
192,192,39435,128,0,39566:0:0:0:0:
64,192,39500,128,0,39566:0:0:0:0:
320,192,39500,128,0,39566:0:0:0:0:
448,192,39500,128,0,39696:0:0:0:0:
320,192,39631,128,0,39761:0:0:0:0:
192,192,39696,128,0,39761:0:0:0:0:
64,192,39696,128,0,39826:0:0:0:0:
448,192,39761,128,0,40022:0:0:0:0:
320,192,39892,128,0,39957:0:0:0:0:
192,192,39892,128,0,40022:0:0:0:0:
64,192,39892,128,0,40022:0:0:0:0:
320,192,40087,128,0,40218:0:0:0:0:
448,192,40087,128,0,40218:0:0:0:0:
64,192,40087,128,0,40218:0:0:0:0:
192,192,40152,128,0,40283:0:0:0:0:
320,192,40283,1,0,0:0:0:0:
448,192,40283,1,0,0:0:0:0:
64,192,40283,128,0,40348:0:0:0:0:
448,192,40348,1,0,0:0:0:0:
192,192,40413,128,0,41457:0:0:0:0:
64,192,40413,128,0,40544:0:0:0:0:
320,192,40413,128,0,40479:0:0:0:0:
64,192,40609,128,0,40674:0:0:0:0:
320,192,40609,128,0,40739:0:0:0:0:
448,192,40609,128,0,40739:0:0:0:0:
448,192,40805,128,0,40935:0:0:0:0:
64,192,40805,128,0,40870:0:0:0:0:
320,192,40805,128,0,41066:0:0:0:0:
448,192,41066,1,0,0:0:0:0:
64,192,41196,1,0,0:0:0:0:
320,192,41326,1,0,0:0:0:0:
448,192,41457,128,0,41522:0:0:0:0:
192,192,41522,128,0,41587:0:0:0:0:
448,192,41587,128,0,41652:0:0:0:0:
192,192,41652,128,0,41718:0:0:0:0:
64,192,41718,128,0,41783:0:0:0:0:
320,192,41783,128,0,41848:0:0:0:0:
64,192,41848,128,0,41913:0:0:0:0:
448,192,41913,128,0,41979:0:0:0:0:
320,192,41979,128,0,42044:0:0:0:0:
192,192,42044,128,0,42109:0:0:0:0:
320,192,42109,128,0,42239:0:0:0:0:
448,192,42109,128,0,42174:0:0:0:0:
64,192,42109,128,0,42174:0:0:0:0:
192,192,42174,128,0,42239:0:0:0:0:
448,192,42239,128,0,42305:0:0:0:0:
320,192,42305,128,0,42370:0:0:0:0:
192,192,42305,128,0,42435:0:0:0:0:
64,192,42305,128,0,42370:0:0:0:0:
448,192,42370,128,0,42435:0:0:0:0:
64,192,42435,128,0,42500:0:0:0:0:
448,192,42500,128,0,42696:0:0:0:0:
320,192,42500,128,0,42631:0:0:0:0:
192,192,42500,128,0,42566:0:0:0:0:
320,192,42696,128,0,42761:0:0:0:0:
192,192,42696,128,0,42892:0:0:0:0:
64,192,42696,128,0,42826:0:0:0:0:
64,192,42892,128,0,42957:0:0:0:0:
320,192,42892,128,0,43283:0:0:0:0:
448,192,42892,128,0,43152:0:0:0:0:
192,192,43152,1,0,0:0:0:0:
448,192,43283,128,0,43348:0:0:0:0:
320,192,43348,128,0,43413:0:0:0:0:
448,192,43413,128,0,43479:0:0:0:0:
320,192,43479,128,0,43544:0:0:0:0:
192,192,43544,128,0,43609:0:0:0:0:
448,192,43609,128,0,43739:0:0:0:0:
320,192,43674,128,0,43739:0:0:0:0:
64,192,43674,128,0,43739:0:0:0:0:
192,192,43674,128,0,43870:0:0:0:0:
64,192,43805,128,0,43935:0:0:0:0:
448,192,43870,128,0,43935:0:0:0:0:
320,192,43870,128,0,44000:0:0:0:0:
192,192,43935,128,0,44196:0:0:0:0:
64,192,44066,128,0,44131:0:0:0:0:
448,192,44066,128,0,44196:0:0:0:0:
320,192,44066,128,0,44196:0:0:0:0:
448,192,44261,128,0,44457:0:0:0:0:
64,192,44261,128,0,44392:0:0:0:0:
192,192,44261,128,0,44392:0:0:0:0:
64,192,44457,1,0,0:0:0:0:
192,192,44457,1,0,0:0:0:0:
320,192,44457,128,0,44979:0:0:0:0:
192,192,44522,1,0,0:0:0:0:
448,192,44587,128,0,44718:0:0:0:0:
64,192,44587,128,0,44652:0:0:0:0:
448,192,44783,128,0,44848:0:0:0:0:
64,192,44783,128,0,44913:0:0:0:0:
192,192,44783,128,0,44913:0:0:0:0:
448,192,44979,128,0,45044:0:0:0:0:
192,192,44979,128,0,45044:0:0:0:0:
64,192,44979,128,0,45174:0:0:0:0:
320,192,45044,128,0,45109:0:0:0:0:
192,192,45109,128,0,45239:0:0:0:0:
320,192,45174,128,0,45239:0:0:0:0:
64,192,45239,128,0,45370:0:0:0:0:
448,192,45305,128,0,45435:0:0:0:0:
192,192,45370,128,0,45500:0:0:0:0:
64,192,45435,128,0,45500:0:0:0:0:
320,192,45500,1,0,0:0:0:0:
448,192,45500,1,0,0:0:0:0:
320,192,45566,1,0,0:0:0:0:
192,192,45631,128,0,45892:0:0:0:0:
64,192,45631,128,0,45826:0:0:0:0:
448,192,45631,128,0,45761:0:0:0:0:
64,192,45892,128,0,46022:0:0:0:0:
320,192,45892,128,0,46087:0:0:0:0:
448,192,45892,128,0,46152:0:0:0:0:
320,192,46152,128,0,46283:0:0:0:0:
192,192,46152,128,0,46348:0:0:0:0:
64,192,46152,128,0,46413:0:0:0:0:
192,192,46413,128,0,46544:0:0:0:0:
320,192,46413,128,0,46674:0:0:0:0:
448,192,46413,128,0,46609:0:0:0:0:
192,192,46674,128,0,46870:0:0:0:0:
64,192,46674,128,0,46805:0:0:0:0:
448,192,46674,128,0,46739:0:0:0:0:
64,192,46870,128,0,46935:0:0:0:0:
448,192,46870,128,0,47066:0:0:0:0:
320,192,46870,128,0,47000:0:0:0:0:
320,192,47066,128,0,47131:0:0:0:0:
64,192,47066,128,0,47457:0:0:0:0:
192,192,47066,128,0,47326:0:0:0:0:
448,192,47326,1,0,0:0:0:0:
192,192,47457,128,0,47522:0:0:0:0:
64,192,47522,128,0,47587:0:0:0:0:
192,192,47587,128,0,47652:0:0:0:0:
64,192,47652,128,0,47718:0:0:0:0:
448,192,47718,128,0,47783:0:0:0:0:
192,192,47783,128,0,47913:0:0:0:0:
64,192,47848,128,0,47913:0:0:0:0:
320,192,47848,128,0,47913:0:0:0:0:
448,192,47848,128,0,48044:0:0:0:0:
320,192,47979,128,0,48109:0:0:0:0:
192,192,48044,128,0,48109:0:0:0:0:
64,192,48044,128,0,48174:0:0:0:0:
448,192,48109,128,0,48370:0:0:0:0:
320,192,48239,128,0,48305:0:0:0:0:
192,192,48239,128,0,48370:0:0:0:0:
64,192,48239,128,0,48370:0:0:0:0:
320,192,48435,128,0,48566:0:0:0:0:
448,192,48435,128,0,48566:0:0:0:0:
64,192,48435,128,0,48566:0:0:0:0:
192,192,48500,128,0,48631:0:0:0:0:
320,192,48631,1,0,0:0:0:0:
448,192,48631,1,0,0:0:0:0:
64,192,48631,128,0,48696:0:0:0:0:
448,192,48696,1,0,0:0:0:0:
192,192,48761,128,0,49805:0:0:0:0:
64,192,48761,128,0,48892:0:0:0:0:
320,192,48761,128,0,48826:0:0:0:0:
64,192,48957,128,0,49022:0:0:0:0:
320,192,48957,128,0,49087:0:0:0:0:
448,192,48957,128,0,49087:0:0:0:0:
320,192,49152,128,0,49413:0:0:0:0:
448,192,49152,128,0,49283:0:0:0:0:
64,192,49152,128,0,49218:0:0:0:0:
448,192,49413,1,0,0:0:0:0:
64,192,49544,1,0,0:0:0:0:
320,192,49674,1,0,0:0:0:0:
448,192,49805,128,0,49870:0:0:0:0:
192,192,49870,128,0,49935:0:0:0:0:
448,192,49935,128,0,50000:0:0:0:0:
192,192,50000,128,0,50066:0:0:0:0:
64,192,50066,128,0,50131:0:0:0:0:
320,192,50131,128,0,50196:0:0:0:0:
64,192,50196,128,0,50261:0:0:0:0:
448,192,50261,128,0,50326:0:0:0:0:
320,192,50326,128,0,50392:0:0:0:0:
192,192,50392,128,0,50457:0:0:0:0:
320,192,50457,128,0,50587:0:0:0:0:
448,192,50457,128,0,50522:0:0:0:0:
64,192,50457,128,0,50522:0:0:0:0:
192,192,50522,128,0,50587:0:0:0:0:
448,192,50587,128,0,50652:0:0:0:0:
320,192,50652,128,0,50718:0:0:0:0:
192,192,50652,128,0,50783:0:0:0:0:
64,192,50652,128,0,50718:0:0:0:0:
448,192,50718,128,0,50783:0:0:0:0:
64,192,50783,128,0,50848:0:0:0:0:
448,192,50848,128,0,51044:0:0:0:0:
320,192,50848,128,0,50979:0:0:0:0:
192,192,50848,128,0,50913:0:0:0:0:
320,192,51044,128,0,51109:0:0:0:0:
192,192,51044,128,0,51239:0:0:0:0:
64,192,51044,128,0,51174:0:0:0:0:
64,192,51239,128,0,51305:0:0:0:0:
320,192,51239,128,0,51631:0:0:0:0:
448,192,51239,128,0,51500:0:0:0:0:
192,192,51500,1,0,0:0:0:0:
448,192,51631,128,0,51696:0:0:0:0:
320,192,51696,128,0,51761:0:0:0:0:
448,192,51761,128,0,51826:0:0:0:0:
320,192,51826,128,0,51892:0:0:0:0:
192,192,51892,128,0,51957:0:0:0:0:
448,192,51957,128,0,52087:0:0:0:0:
320,192,52022,128,0,52087:0:0:0:0:
64,192,52022,128,0,52087:0:0:0:0:
192,192,52022,128,0,52218:0:0:0:0:
64,192,52152,128,0,52283:0:0:0:0:
448,192,52218,128,0,52283:0:0:0:0:
320,192,52218,128,0,52348:0:0:0:0:
192,192,52283,128,0,52544:0:0:0:0:
64,192,52413,128,0,52479:0:0:0:0:
448,192,52413,128,0,52544:0:0:0:0:
320,192,52413,128,0,52544:0:0:0:0:
320,192,52609,128,0,52805:0:0:0:0:
64,192,52609,128,0,52739:0:0:0:0:
192,192,52609,128,0,52739:0:0:0:0:
64,192,52805,1,0,0:0:0:0:
192,192,52805,1,0,0:0:0:0:
448,192,52805,128,0,53326:0:0:0:0:
64,192,52870,1,0,0:0:0:0:
320,192,52935,128,0,53066:0:0:0:0:
192,192,52935,128,0,53000:0:0:0:0:
320,192,53131,128,0,53196:0:0:0:0:
192,192,53131,128,0,53261:0:0:0:0:
64,192,53131,128,0,53261:0:0:0:0:
192,192,53326,128,0,53522:0:0:0:0:
64,192,53326,128,0,53392:0:0:0:0:
320,192,53326,128,0,53392:0:0:0:0:
448,192,53392,128,0,53457:0:0:0:0:
64,192,53457,128,0,53587:0:0:0:0:
448,192,53522,128,0,53587:0:0:0:0:
192,192,53587,128,0,53718:0:0:0:0:
64,192,53718,128,0,53783:0:0:0:0:
320,192,53718,1,0,0:0:0:0:
448,192,53718,1,0,0:0:0:0:
320,192,53783,1,0,0:0:0:0:
64,192,53848,128,0,54370:0:0:0:0:
192,192,53848,128,0,54761:0:0:0:0:
448,192,53848,128,0,55152:0:0:0:0:
64,192,55152,128,0,55283:0:0:0:0:
64,192,55413,128,0,55587:0:0:0:0:
320,192,55413,128,0,55544:0:0:0:0:
320,192,55674,128,0,55892:0:0:0:0:
192,192,55674,128,0,55848:0:0:0:0:
192,192,55935,128,0,56066:0:0:0:0:
448,192,55935,128,0,56022:0:0:0:0:
64,192,56066,1,0,0:0:0:0:
320,192,56066,1,0,0:0:0:0:
448,192,56066,1,0,0:0:0:0:
320,192,56326,1,0,0:0:0:0:
192,192,56457,1,0,0:0:0:0:
448,192,56587,1,0,0:0:0:0:
192,192,56718,1,0,0:0:0:0:
320,192,56848,1,0,0:0:0:0:
448,192,56979,1,0,0:0:0:0:
64,192,57109,1,0,0:0:0:0:
320,192,57370,1,0,0:0:0:0:
64,192,57500,1,0,0:0:0:0:
192,192,57631,1,0,0:0:0:0:
448,192,57761,1,0,0:0:0:0:
448,192,57892,1,0,0:0:0:0:
448,192,58022,1,0,0:0:0:0:
64,192,58152,1,0,0:0:0:0:
320,192,58283,1,0,0:0:0:0:
320,192,58413,1,0,0:0:0:0:
192,192,58544,1,0,0:0:0:0:
64,192,58609,1,0,0:0:0:0:
448,192,58674,1,0,0:0:0:0:
64,192,58739,1,0,0:0:0:0:
192,192,58805,1,0,0:0:0:0:
320,192,58935,1,0,0:0:0:0:
64,192,59066,1,0,0:0:0:0:
448,192,59131,1,0,0:0:0:0:
192,192,59196,1,0,0:0:0:0:
64,192,59326,1,0,0:0:0:0:
320,192,59457,1,0,0:0:0:0:
448,192,59652,1,0,0:0:0:0:
192,192,59718,1,0,0:0:0:0:
448,192,59783,1,0,0:0:0:0:
320,192,59848,1,0,0:0:0:0:
64,192,59979,1,0,0:0:0:0:
320,192,60109,1,0,0:0:0:0:
192,192,60239,1,0,0:0:0:0:
64,192,60239,128,0,61283:0:0:0:0:
192,192,60500,1,0,0:0:0:0:
448,192,60631,1,0,0:0:0:0:
320,192,60761,1,0,0:0:0:0:
192,192,60892,1,0,0:0:0:0:
448,192,61022,1,0,0:0:0:0:
192,192,61152,1,0,0:0:0:0:
448,192,61283,1,0,0:0:0:0:
320,192,61316,1,0,0:0:0:0:
192,192,61348,1,0,0:0:0:0:
448,192,61413,1,0,0:0:0:0:
192,192,61479,1,0,0:0:0:0:
64,192,61544,1,0,0:0:0:0:
448,192,61674,1,0,0:0:0:0:
320,192,61805,1,0,0:0:0:0:
64,192,61935,1,0,0:0:0:0:
64,192,62066,1,0,0:0:0:0:
64,192,62196,5,0,0:0:0:0:
448,192,62326,1,0,0:0:0:0:
192,192,62457,1,0,0:0:0:0:
192,192,62587,1,0,0:0:0:0:
320,192,62718,1,0,0:0:0:0:
448,192,62783,1,0,0:0:0:0:
64,192,62848,1,0,0:0:0:0:
448,192,62913,1,0,0:0:0:0:
320,192,62979,1,0,0:0:0:0:
192,192,63109,1,0,0:0:0:0:
320,192,63239,1,0,0:0:0:0:
64,192,63370,5,0,0:0:0:0:
192,192,63370,1,0,0:0:0:0:
448,192,63370,1,0,0:0:0:0:
192,192,63500,1,0,0:0:0:0:
64,192,63500,1,0,0:0:0:0:
448,192,63500,1,0,0:0:0:0:
64,192,63631,1,0,0:0:0:0:
320,192,63631,1,0,0:0:0:0:
320,192,63761,1,0,0:0:0:0:
192,192,63892,1,0,0:0:0:0:
192,192,64022,1,0,0:0:0:0:
320,192,64022,1,0,0:0:0:0:
448,192,64087,1,0,0:0:0:0:
64,192,64152,1,0,0:0:0:0:
320,192,64218,1,0,0:0:0:0:
64,192,64283,1,0,0:0:0:0:
320,192,64348,1,0,0:0:0:0:
192,192,64413,5,0,0:0:0:0:
448,192,64413,1,0,0:0:0:0:
64,192,64479,1,0,0:0:0:0:
448,192,64544,1,0,0:0:0:0:
192,192,64544,1,0,0:0:0:0:
64,192,64609,1,0,0:0:0:0:
448,192,64674,1,0,0:0:0:0:
320,192,64739,1,0,0:0:0:0:
64,192,64805,1,0,0:0:0:0:
192,192,64805,1,0,0:0:0:0:
448,192,64870,1,0,0:0:0:0:
192,192,64935,1,0,0:0:0:0:
320,192,64935,1,0,0:0:0:0:
448,192,65000,1,0,0:0:0:0:
64,192,65066,1,0,0:0:0:0:
192,192,65066,1,0,0:0:0:0:
320,192,65131,1,0,0:0:0:0:
64,192,65196,1,0,0:0:0:0:
448,192,65261,1,0,0:0:0:0:
64,192,65326,1,0,0:0:0:0:
320,192,65326,1,0,0:0:0:0:
64,192,65392,1,0,0:0:0:0:
192,192,65457,1,0,0:0:0:0:
320,192,65457,1,0,0:0:0:0:
448,192,65522,1,0,0:0:0:0:
192,192,65587,1,0,0:0:0:0:
320,192,65587,1,0,0:0:0:0:
448,192,65652,1,0,0:0:0:0:
192,192,65718,1,0,0:0:0:0:
64,192,65783,1,0,0:0:0:0:
448,192,65848,1,0,0:0:0:0:
320,192,65848,1,0,0:0:0:0:
192,192,65913,1,0,0:0:0:0:
320,192,65979,1,0,0:0:0:0:
64,192,65979,1,0,0:0:0:0:
192,192,66044,1,0,0:0:0:0:
448,192,66109,1,0,0:0:0:0:
320,192,66109,1,0,0:0:0:0:
64,192,66174,1,0,0:0:0:0:
448,192,66239,128,0,66305:0:0:0:0:
192,192,66305,128,0,66370:0:0:0:0:
448,192,66370,128,0,66500:0:0:0:0:
320,192,66500,1,0,0:0:0:0:
64,192,66500,1,0,0:0:0:0:
192,192,66566,1,0,0:0:0:0:
64,192,66631,1,0,0:0:0:0:
320,192,66631,1,0,0:0:0:0:
192,192,66696,1,0,0:0:0:0:
320,192,66761,1,0,0:0:0:0:
448,192,66826,1,0,0:0:0:0:
192,192,66892,1,0,0:0:0:0:
64,192,66892,1,0,0:0:0:0:
320,192,66957,1,0,0:0:0:0:
64,192,67022,1,0,0:0:0:0:
448,192,67022,1,0,0:0:0:0:
320,192,67087,1,0,0:0:0:0:
192,192,67152,1,0,0:0:0:0:
64,192,67152,1,0,0:0:0:0:
448,192,67218,1,0,0:0:0:0:
192,192,67283,1,0,0:0:0:0:
320,192,67283,1,0,0:0:0:0:
64,192,67348,1,0,0:0:0:0:
448,192,67413,1,0,0:0:0:0:
320,192,67413,1,0,0:0:0:0:
192,192,67479,1,0,0:0:0:0:
64,192,67544,1,0,0:0:0:0:
448,192,67544,1,0,0:0:0:0:
192,192,67609,1,0,0:0:0:0:
320,192,67674,1,0,0:0:0:0:
448,192,67674,1,0,0:0:0:0:
64,192,67739,1,0,0:0:0:0:
192,192,67805,1,0,0:0:0:0:
320,192,67805,1,0,0:0:0:0:
448,192,67870,1,0,0:0:0:0:
192,192,67935,1,0,0:0:0:0:
64,192,67935,1,0,0:0:0:0:
320,192,68000,1,0,0:0:0:0:
192,192,68066,1,0,0:0:0:0:
64,192,68066,1,0,0:0:0:0:
448,192,68131,1,0,0:0:0:0:
64,192,68196,1,0,0:0:0:0:
192,192,68261,1,0,0:0:0:0:
320,192,68326,1,0,0:0:0:0:
448,192,68326,128,0,68457:0:0:0:0:
64,192,68392,128,0,68522:0:0:0:0:
320,192,68457,128,0,68587:0:0:0:0:
192,192,68587,5,0,0:0:0:0:
448,192,68587,1,0,0:0:0:0:
64,192,68652,1,0,0:0:0:0:
192,192,68718,1,0,0:0:0:0:
448,192,68718,1,0,0:0:0:0:
64,192,68783,1,0,0:0:0:0:
448,192,68848,1,0,0:0:0:0:
320,192,68913,1,0,0:0:0:0:
192,192,68979,1,0,0:0:0:0:
64,192,68979,1,0,0:0:0:0:
448,192,69044,1,0,0:0:0:0:
320,192,69109,1,0,0:0:0:0:
64,192,69109,1,0,0:0:0:0:
448,192,69174,1,0,0:0:0:0:
192,192,69239,1,0,0:0:0:0:
64,192,69239,1,0,0:0:0:0:
320,192,69305,1,0,0:0:0:0:
192,192,69370,1,0,0:0:0:0:
448,192,69435,1,0,0:0:0:0:
320,192,69500,1,0,0:0:0:0:
64,192,69500,1,0,0:0:0:0:
64,192,69566,1,0,0:0:0:0:
320,192,69631,1,0,0:0:0:0:
192,192,69631,1,0,0:0:0:0:
448,192,69696,1,0,0:0:0:0:
320,192,69761,1,0,0:0:0:0:
192,192,69761,1,0,0:0:0:0:
448,192,69826,1,0,0:0:0:0:
192,192,69892,1,0,0:0:0:0:
64,192,69957,1,0,0:0:0:0:
320,192,70022,1,0,0:0:0:0:
448,192,70022,1,0,0:0:0:0:
192,192,70087,1,0,0:0:0:0:
64,192,70152,1,0,0:0:0:0:
448,192,70152,1,0,0:0:0:0:
192,192,70218,1,0,0:0:0:0:
320,192,70283,1,0,0:0:0:0:
448,192,70283,1,0,0:0:0:0:
64,192,70348,1,0,0:0:0:0:
320,192,70413,1,0,0:0:0:0:
320,192,70544,1,0,0:0:0:0:
448,192,70674,1,0,0:0:0:0:
64,192,70674,1,0,0:0:0:0:
192,192,70712,1,0,0:0:0:0:
320,192,70749,1,0,0:0:0:0:
64,192,70786,1,0,0:0:0:0:
448,192,70823,1,0,0:0:0:0:
320,192,70861,1,0,0:0:0:0:
192,192,70898,1,0,0:0:0:0:
64,192,70935,1,0,0:0:0:0:
448,192,70972,1,0,0:0:0:0:
320,192,71010,1,0,0:0:0:0:
64,192,71047,1,0,0:0:0:0:
192,192,71084,1,0,0:0:0:0:
448,192,71121,1,0,0:0:0:0:
64,192,71159,1,0,0:0:0:0:
320,192,71196,1,0,0:0:0:0:
448,192,71233,1,0,0:0:0:0:
192,192,71271,1,0,0:0:0:0:
320,192,71308,1,0,0:0:0:0:
64,192,71345,1,0,0:0:0:0:
192,192,71382,1,0,0:0:0:0:
448,192,71420,1,0,0:0:0:0:
320,192,71457,1,0,0:0:0:0:
64,192,71494,1,0,0:0:0:0:
192,192,71531,1,0,0:0:0:0:
320,192,71569,1,0,0:0:0:0:
448,192,71606,1,0,0:0:0:0:
64,192,71643,1,0,0:0:0:0:
320,192,71680,1,0,0:0:0:0:
192,192,71718,128,0,71805:0:0:0:0:
64,192,71761,128,0,71848:0:0:0:0:
448,192,71805,128,0,71913:0:0:0:0:
320,192,71848,128,0,71979:0:0:0:0:
64,192,71913,128,0,71979:0:0:0:0:
448,192,71979,1,0,0:0:0:0:
192,192,71979,1,0,0:0:0:0:
320,192,72044,1,0,0:0:0:0:
192,192,72109,1,0,0:0:0:0:
320,192,72174,1,0,0:0:0:0:
64,192,72239,1,0,0:0:0:0:
448,192,72305,1,0,0:0:0:0:
320,192,72370,1,0,0:0:0:0:
64,192,72370,1,0,0:0:0:0:
192,192,72435,1,0,0:0:0:0:
64,192,72500,1,0,0:0:0:0:
448,192,72500,1,0,0:0:0:0:
192,192,72566,1,0,0:0:0:0:
448,192,72631,1,0,0:0:0:0:
320,192,72631,1,0,0:0:0:0:
64,192,72696,1,0,0:0:0:0:
192,192,72761,128,0,72892:0:0:0:0:
320,192,72761,128,0,72924:0:0:0:0:
448,192,72761,128,0,72957:0:0:0:0:
64,192,72957,1,0,0:0:0:0:
192,192,73006,1,0,0:0:0:0:
320,192,73055,1,0,0:0:0:0:
64,192,73104,1,0,0:0:0:0:
448,192,73152,128,0,73348:0:0:0:0:
192,192,73152,128,0,73283:0:0:0:0:
320,192,73152,128,0,73316:0:0:0:0:
64,192,73348,1,0,0:0:0:0:
320,192,73413,128,0,73479:0:0:0:0:
448,192,73479,128,0,73544:0:0:0:0:
192,192,73544,128,0,73707:0:0:0:0:
320,192,73544,128,0,73674:0:0:0:0:
64,192,73544,128,0,73739:0:0:0:0:
448,192,73739,128,0,73870:0:0:0:0:
192,192,73805,128,0,73870:0:0:0:0:
64,192,73935,128,0,74131:0:0:0:0:
320,192,73935,128,0,74066:0:0:0:0:
192,192,73935,128,0,74098:0:0:0:0:
448,192,74131,1,0,0:0:0:0:
192,192,74196,128,0,74326:0:0:0:0:
320,192,74196,128,0,74261:0:0:0:0:
320,192,74326,128,0,74522:0:0:0:0:
448,192,74326,128,0,74489:0:0:0:0:
64,192,74326,128,0,74392:0:0:0:0:
64,192,74457,1,0,0:0:0:0:
64,192,74587,128,0,74718:0:0:0:0:
320,192,74587,128,0,74783:0:0:0:0:
448,192,74587,128,0,74750:0:0:0:0:
192,192,74848,128,0,74913:0:0:0:0:
64,192,74848,128,0,74979:0:0:0:0:
448,192,74848,128,0,74979:0:0:0:0:
192,192,74979,128,0,75044:0:0:0:0:
64,192,75044,128,0,75174:0:0:0:0:
320,192,75044,128,0,75109:0:0:0:0:
448,192,75044,128,0,75174:0:0:0:0:
320,192,75174,128,0,75239:0:0:0:0:
64,192,75239,128,0,75370:0:0:0:0:
448,192,75239,128,0,75370:0:0:0:0:
192,192,75239,128,0,75305:0:0:0:0:
192,192,75370,1,0,0:0:0:0:
320,192,75500,1,0,0:0:0:0:
64,192,75533,1,0,0:0:0:0:
192,192,75566,1,0,0:0:0:0:
320,192,75598,1,0,0:0:0:0:
448,192,75631,128,0,75826:0:0:0:0:
64,192,75683,128,0,75787:0:0:0:0:
320,192,75735,128,0,75892:0:0:0:0:
192,192,75787,1,0,0:0:0:0:
64,192,75839,1,0,0:0:0:0:
192,192,75892,128,0,75957:0:0:0:0:
448,192,75892,128,0,75957:0:0:0:0:
192,192,76022,128,0,76087:0:0:0:0:
448,192,76022,128,0,76087:0:0:0:0:
192,192,76152,1,0,0:0:0:0:
448,192,76152,1,0,0:0:0:0:
64,192,76196,1,0,0:0:0:0:
448,192,76239,1,0,0:0:0:0:
192,192,76283,1,0,0:0:0:0:
320,192,76348,1,0,0:0:0:0:
64,192,76413,1,0,0:0:0:0:
448,192,76413,128,0,76479:0:0:0:0:
320,192,76544,1,0,0:0:0:0:
320,192,76609,1,0,0:0:0:0:
192,192,76674,1,0,0:0:0:0:
64,192,76674,128,0,76870:0:0:0:0:
192,192,76739,1,0,0:0:0:0:
320,192,76805,1,0,0:0:0:0:
320,192,76870,1,0,0:0:0:0:
192,192,76935,128,0,77000:0:0:0:0:
64,192,76935,128,0,77066:0:0:0:0:
448,192,76935,128,0,77066:0:0:0:0:
192,192,77066,128,0,77131:0:0:0:0:
64,192,77131,128,0,77261:0:0:0:0:
320,192,77131,128,0,77196:0:0:0:0:
448,192,77131,128,0,77261:0:0:0:0:
320,192,77261,128,0,77326:0:0:0:0:
64,192,77326,128,0,77457:0:0:0:0:
448,192,77326,128,0,77457:0:0:0:0:
192,192,77326,128,0,77392:0:0:0:0:
192,192,77457,1,0,0:0:0:0:
320,192,77587,1,0,0:0:0:0:
64,192,77620,1,0,0:0:0:0:
192,192,77652,1,0,0:0:0:0:
320,192,77685,1,0,0:0:0:0:
448,192,77718,128,0,77913:0:0:0:0:
192,192,77761,1,0,0:0:0:0:
64,192,77805,1,0,0:0:0:0:
320,192,77848,128,0,77979:0:0:0:0:
192,192,77892,128,0,77979:0:0:0:0:
64,192,77935,128,0,77979:0:0:0:0:
448,192,77979,1,0,0:0:0:0:
448,192,78109,1,0,0:0:0:0:
192,192,78109,1,0,0:0:0:0:
192,192,78174,1,0,0:0:0:0:
320,192,78239,1,0,0:0:0:0:
64,192,78283,1,0,0:0:0:0:
192,192,78326,1,0,0:0:0:0:
448,192,78370,1,0,0:0:0:0:
320,192,78370,1,0,0:0:0:0:
64,192,78413,1,0,0:0:0:0:
448,192,78457,1,0,0:0:0:0:
192,192,78500,128,0,78566:0:0:0:0:
320,192,78500,128,0,78566:0:0:0:0:
64,192,78631,128,0,78696:0:0:0:0:
448,192,78631,128,0,78761:0:0:0:0:
192,192,78631,128,0,78892:0:0:0:0:
320,192,78696,128,0,78957:0:0:0:0:
64,192,78761,128,0,78826:0:0:0:0:
448,192,78826,128,0,78957:0:0:0:0:
64,192,78892,128,0,79022:0:0:0:0:
192,192,79022,128,0,79152:0:0:0:0:
320,192,79022,128,0,79152:0:0:0:0:
448,192,79022,128,0,79087:0:0:0:0:
448,192,79152,128,0,79218:0:0:0:0:
64,192,79218,128,0,79283:0:0:0:0:
192,192,79218,128,0,79348:0:0:0:0:
320,192,79218,128,0,79348:0:0:0:0:
64,192,79348,128,0,79413:0:0:0:0:
192,192,79413,128,0,79544:0:0:0:0:
320,192,79413,128,0,79544:0:0:0:0:
448,192,79413,128,0,79479:0:0:0:0:
448,192,79544,1,0,0:0:0:0:
64,192,79674,1,0,0:0:0:0:
320,192,79707,1,0,0:0:0:0:
448,192,79739,1,0,0:0:0:0:
64,192,79772,1,0,0:0:0:0:
192,192,79805,128,0,79935:0:0:0:0:
448,192,79935,1,0,0:0:0:0:
320,192,79935,1,0,0:0:0:0:
64,192,79979,1,0,0:0:0:0:
320,192,80022,1,0,0:0:0:0:
192,192,80066,1,0,0:0:0:0:
448,192,80066,1,0,0:0:0:0:
192,192,80131,1,0,0:0:0:0:
320,192,80196,1,0,0:0:0:0:
64,192,80196,1,0,0:0:0:0:
320,192,80261,1,0,0:0:0:0:
192,192,80326,1,0,0:0:0:0:
64,192,80326,1,0,0:0:0:0:
448,192,80370,128,0,80500:0:0:0:0:
64,192,80413,128,0,80522:0:0:0:0:
320,192,80457,1,0,0:0:0:0:
192,192,80522,1,0,0:0:0:0:
448,192,80587,1,0,0:0:0:0:
64,192,80631,128,0,80718:0:0:0:0:
192,192,80674,128,0,80848:0:0:0:0:
448,192,80718,1,0,0:0:0:0:
320,192,80761,128,0,80848:0:0:0:0:
448,192,80848,128,0,81044:0:0:0:0:
64,192,80848,1,0,0:0:0:0:
64,192,80913,1,0,0:0:0:0:
320,192,80979,1,0,0:0:0:0:
64,192,81044,1,0,0:0:0:0:
448,192,81109,128,0,81174:0:0:0:0:
320,192,81109,128,0,81239:0:0:0:0:
192,192,81109,128,0,81239:0:0:0:0:
448,192,81239,128,0,81305:0:0:0:0:
320,192,81305,128,0,81435:0:0:0:0:
64,192,81305,128,0,81370:0:0:0:0:
192,192,81305,128,0,81435:0:0:0:0:
64,192,81435,128,0,81500:0:0:0:0:
448,192,81500,128,0,81566:0:0:0:0:
320,192,81500,128,0,81631:0:0:0:0:
192,192,81500,128,0,81631:0:0:0:0:
448,192,81631,1,0,0:0:0:0:
192,192,81718,1,0,0:0:0:0:
320,192,81718,1,0,0:0:0:0:
64,192,81761,1,0,0:0:0:0:
192,192,81805,1,0,0:0:0:0:
448,192,81805,1,0,0:0:0:0:
320,192,81848,1,0,0:0:0:0:
448,192,81892,1,0,0:0:0:0:
64,192,81892,1,0,0:0:0:0:
320,192,81979,1,0,0:0:0:0:
192,192,81979,1,0,0:0:0:0:
448,192,82022,1,0,0:0:0:0:
192,192,82066,1,0,0:0:0:0:
320,192,82109,1,0,0:0:0:0:
64,192,82152,128,0,82413:0:0:0:0:
448,192,82239,128,0,82413:0:0:0:0:
320,192,82326,128,0,82413:0:0:0:0:
192,192,82413,1,0,0:0:0:0:
320,192,82500,128,0,82674:0:0:0:0:
64,192,82544,1,0,0:0:0:0:
192,192,82587,128,0,82674:0:0:0:0:
448,192,82674,128,0,82935:0:0:0:0:
192,192,82739,128,0,82805:0:0:0:0:
64,192,82805,128,0,82935:0:0:0:0:
192,192,82870,128,0,82935:0:0:0:0:
320,192,82935,128,0,83131:0:0:0:0:
64,192,83000,128,0,83131:0:0:0:0:
448,192,83066,128,0,83131:0:0:0:0:
192,192,83131,128,0,83196:0:0:0:0:
320,192,83196,128,0,83261:0:0:0:0:
448,192,83196,128,0,83326:0:0:0:0:
64,192,83196,128,0,83326:0:0:0:0:
320,192,83326,128,0,83392:0:0:0:0:
448,192,83392,128,0,83522:0:0:0:0:
192,192,83392,128,0,83457:0:0:0:0:
64,192,83392,128,0,83522:0:0:0:0:
192,192,83522,128,0,83587:0:0:0:0:
448,192,83587,128,0,83718:0:0:0:0:
64,192,83587,128,0,83718:0:0:0:0:
320,192,83587,128,0,83652:0:0:0:0:
320,192,83718,1,0,0:0:0:0:
192,192,83848,1,0,0:0:0:0:
448,192,83881,1,0,0:0:0:0:
320,192,83913,1,0,0:0:0:0:
192,192,83946,1,0,0:0:0:0:
64,192,83979,128,0,84174:0:0:0:0:
448,192,84031,128,0,84135:0:0:0:0:
192,192,84083,128,0,84239:0:0:0:0:
320,192,84135,1,0,0:0:0:0:
448,192,84187,1,0,0:0:0:0:
320,192,84239,128,0,84305:0:0:0:0:
64,192,84239,128,0,84305:0:0:0:0:
320,192,84370,128,0,84435:0:0:0:0:
64,192,84370,128,0,84435:0:0:0:0:
448,192,84500,1,0,0:0:0:0:
320,192,84544,1,0,0:0:0:0:
192,192,84587,1,0,0:0:0:0:
64,192,84631,128,0,84696:0:0:0:0:
448,192,84631,128,0,84696:0:0:0:0:
64,192,84761,128,0,84826:0:0:0:0:
320,192,84761,128,0,84826:0:0:0:0:
64,192,84892,1,0,0:0:0:0:
448,192,84935,1,0,0:0:0:0:
320,192,84979,1,0,0:0:0:0:
192,192,85022,1,0,0:0:0:0:
64,192,85022,1,0,0:0:0:0:
64,192,85087,1,0,0:0:0:0:
192,192,85087,1,0,0:0:0:0:
320,192,85152,1,0,0:0:0:0:
448,192,85152,1,0,0:0:0:0:
320,192,85218,1,0,0:0:0:0:
448,192,85218,1,0,0:0:0:0:
64,192,85544,128,0,85674:0:0:0:0:
448,192,85544,128,0,85674:0:0:0:0:
320,192,85544,128,0,85609:0:0:0:0:
320,192,85674,128,0,85739:0:0:0:0:
64,192,85739,128,0,85805:0:0:0:0:
448,192,85739,128,0,85870:0:0:0:0:
192,192,85739,128,0,85870:0:0:0:0:
64,192,85870,128,0,85935:0:0:0:0:
320,192,85935,128,0,86196:0:0:0:0:
448,192,85935,128,0,86066:0:0:0:0:
192,192,85935,128,0,86131:0:0:0:0:
64,192,86066,128,0,86131:0:0:0:0:
448,192,86131,128,0,86196:0:0:0:0:
192,192,86196,1,0,0:0:0:0:
64,192,86239,1,0,0:0:0:0:
320,192,86283,1,0,0:0:0:0:
448,192,86326,1,0,0:0:0:0:
64,192,86457,1,0,0:0:0:0:
320,192,86457,1,0,0:0:0:0:
64,192,86522,1,0,0:0:0:0:
448,192,86587,1,0,0:0:0:0:
192,192,86587,1,0,0:0:0:0:
64,192,86718,1,0,0:0:0:0:
320,192,86750,1,0,0:0:0:0:
448,192,86783,1,0,0:0:0:0:
64,192,86816,1,0,0:0:0:0:
192,192,86848,128,0,86913:0:0:0:0:
320,192,86848,128,0,86913:0:0:0:0:
320,192,86979,128,0,87239:0:0:0:0:
64,192,86979,128,0,87109:0:0:0:0:
448,192,86979,128,0,87044:0:0:0:0:
192,192,87044,128,0,87305:0:0:0:0:
448,192,87109,128,0,87174:0:0:0:0:
64,192,87174,128,0,87305:0:0:0:0:
448,192,87239,128,0,87370:0:0:0:0:
320,192,87370,128,0,87500:0:0:0:0:
64,192,87370,128,0,87435:0:0:0:0:
192,192,87370,128,0,87500:0:0:0:0:
64,192,87500,128,0,87566:0:0:0:0:
320,192,87566,128,0,87696:0:0:0:0:
448,192,87566,128,0,87631:0:0:0:0:
192,192,87566,128,0,87696:0:0:0:0:
448,192,87696,128,0,87761:0:0:0:0:
192,192,87761,128,0,87892:0:0:0:0:
64,192,87761,128,0,87826:0:0:0:0:
320,192,87761,128,0,87892:0:0:0:0:
64,192,87892,1,0,0:0:0:0:
448,192,87921,1,0,0:0:0:0:
192,192,87950,1,0,0:0:0:0:
320,192,87979,1,0,0:0:0:0:
448,192,88037,1,0,0:0:0:0:
64,192,88037,1,0,0:0:0:0:
64,192,88152,1,0,0:0:0:0:
448,192,88152,1,0,0:0:0:0:
64,192,88283,1,0,0:0:0:0:
448,192,88283,1,0,0:0:0:0:
448,192,88413,128,0,88479:0:0:0:0:
320,192,88413,128,0,88544:0:0:0:0:
192,192,88413,128,0,88544:0:0:0:0:
448,192,88544,128,0,88609:0:0:0:0:
320,192,88609,128,0,88739:0:0:0:0:
192,192,88609,128,0,88739:0:0:0:0:
64,192,88609,128,0,88674:0:0:0:0:
64,192,88739,128,0,88805:0:0:0:0:
192,192,88805,128,0,88935:0:0:0:0:
320,192,88805,128,0,88935:0:0:0:0:
448,192,88805,128,0,88870:0:0:0:0:
448,192,88935,1,0,0:0:0:0:
64,192,88964,1,0,0:0:0:0:
320,192,88993,1,0,0:0:0:0:
192,192,89022,1,0,0:0:0:0:
64,192,89080,1,0,0:0:0:0:
448,192,89080,1,0,0:0:0:0:
448,192,89196,1,0,0:0:0:0:
64,192,89196,1,0,0:0:0:0:
448,192,89326,1,0,0:0:0:0:
64,192,89326,1,0,0:0:0:0:
64,192,89457,128,0,89522:0:0:0:0:
192,192,89457,128,0,89587:0:0:0:0:
320,192,89457,128,0,89587:0:0:0:0:
64,192,89587,128,0,89652:0:0:0:0:
192,192,89652,128,0,89783:0:0:0:0:
448,192,89652,128,0,89718:0:0:0:0:
320,192,89652,128,0,89783:0:0:0:0:
448,192,89783,128,0,89848:0:0:0:0:
320,192,89848,128,0,89979:0:0:0:0:
64,192,89848,128,0,89913:0:0:0:0:
192,192,89848,128,0,89979:0:0:0:0:
64,192,89979,1,0,0:0:0:0:
448,192,90022,1,0,0:0:0:0:
192,192,90066,1,0,0:0:0:0:
320,192,90109,128,0,90500:0:0:0:0:
64,192,90152,128,0,90239:0:0:0:0:
192,192,90196,128,0,90435:0:0:0:0:
448,192,90239,1,0,0:0:0:0:
64,192,90305,1,0,0:0:0:0:
448,192,90370,1,0,0:0:0:0:
64,192,90435,1,0,0:0:0:0:
192,192,90500,1,0,0:0:0:0:
320,192,90566,1,0,0:0:0:0:
64,192,90631,1,0,0:0:0:0:
320,192,90696,1,0,0:0:0:0:
192,192,90761,1,0,0:0:0:0:
448,192,90761,1,0,0:0:0:0:
192,192,90892,1,0,0:0:0:0:
320,192,91022,1,0,0:0:0:0:
64,192,91022,1,0,0:0:0:0:
448,192,91087,1,0,0:0:0:0:
64,192,91152,1,0,0:0:0:0:
192,192,91218,1,0,0:0:0:0:
448,192,91283,128,0,91479:0:0:0:0:
64,192,91348,1,0,0:0:0:0:
320,192,91413,128,0,91479:0:0:0:0:
192,192,91479,1,0,0:0:0:0:
64,192,91544,128,0,91674:0:0:0:0:
320,192,91544,128,0,91739:0:0:0:0:
448,192,91544,128,0,91805:0:0:0:0:
192,192,91674,128,0,91805:0:0:0:0:
64,192,91739,128,0,91805:0:0:0:0:
320,192,91805,128,0,91870:0:0:0:0:
320,192,91935,128,0,92131:0:0:0:0:
448,192,91935,128,0,92196:0:0:0:0:
192,192,92066,128,0,92196:0:0:0:0:
64,192,92131,128,0,92196:0:0:0:0:
320,192,92196,128,0,92326:0:0:0:0:
192,192,92326,128,0,92392:0:0:0:0:
320,192,92392,128,0,92457:0:0:0:0:
64,192,92457,128,0,92522:0:0:0:0:
192,192,92522,128,0,92587:0:0:0:0:
448,192,92587,128,0,92718:0:0:0:0:
64,192,92718,128,0,92783:0:0:0:0:
448,192,92783,128,0,92848:0:0:0:0:
192,192,92848,128,0,92913:0:0:0:0:
320,192,92913,128,0,92979:0:0:0:0:
448,192,92979,128,0,93109:0:0:0:0:
64,192,93109,128,0,93174:0:0:0:0:
448,192,93174,128,0,93239:0:0:0:0:
192,192,93239,128,0,93305:0:0:0:0:
320,192,93305,128,0,93370:0:0:0:0:
448,192,93370,128,0,93500:0:0:0:0:
320,192,93500,128,0,93566:0:0:0:0:
192,192,93566,128,0,93631:0:0:0:0:
64,192,93631,128,0,93696:0:0:0:0:
320,192,93631,128,0,93761:0:0:0:0:
448,192,93696,128,0,93761:0:0:0:0:
64,192,93761,128,0,93826:0:0:0:0:
320,192,93826,128,0,93892:0:0:0:0:
192,192,93892,128,0,94022:0:0:0:0:
448,192,94022,128,0,94087:0:0:0:0:
192,192,94087,128,0,94152:0:0:0:0:
64,192,94152,128,0,94218:0:0:0:0:
320,192,94218,128,0,94283:0:0:0:0:
192,192,94283,128,0,94413:0:0:0:0:
448,192,94413,128,0,94479:0:0:0:0:
192,192,94479,128,0,94544:0:0:0:0:
320,192,94544,128,0,94609:0:0:0:0:
448,192,94609,128,0,94674:0:0:0:0:
64,192,94674,128,0,94805:0:0:0:0:
320,192,94805,128,0,94870:0:0:0:0:
64,192,94870,128,0,94935:0:0:0:0:
448,192,94935,128,0,95000:0:0:0:0:
192,192,95000,128,0,95066:0:0:0:0:
64,192,95066,128,0,95196:0:0:0:0:
320,192,95196,128,0,95261:0:0:0:0:
64,192,95261,128,0,95326:0:0:0:0:
448,192,95326,128,0,95392:0:0:0:0:
192,192,95392,128,0,95457:0:0:0:0:
64,192,95457,128,0,95587:0:0:0:0:
320,192,95587,128,0,95652:0:0:0:0:
192,192,95652,128,0,95718:0:0:0:0:
64,192,95718,128,0,95848:0:0:0:0:
320,192,95718,128,0,95913:0:0:0:0:
448,192,95718,128,0,95979:0:0:0:0:
192,192,95848,128,0,95979:0:0:0:0:
64,192,95913,128,0,95979:0:0:0:0:
320,192,95979,128,0,96044:0:0:0:0:
320,192,96109,128,0,96305:0:0:0:0:
448,192,96109,128,0,96370:0:0:0:0:
192,192,96239,128,0,96370:0:0:0:0:
64,192,96305,128,0,96370:0:0:0:0:
320,192,96370,128,0,96500:0:0:0:0:
192,192,96500,128,0,96566:0:0:0:0:
320,192,96566,128,0,96631:0:0:0:0:
64,192,96631,128,0,96696:0:0:0:0:
448,192,96631,1,0,0:0:0:0:
192,192,96696,128,0,96761:0:0:0:0:
448,192,96761,128,0,96892:0:0:0:0:
64,192,96892,128,0,96957:0:0:0:0:
448,192,96957,128,0,97022:0:0:0:0:
192,192,97022,128,0,97087:0:0:0:0:
64,192,97022,1,0,0:0:0:0:
320,192,97087,128,0,97152:0:0:0:0:
448,192,97152,128,0,97283:0:0:0:0:
64,192,97283,128,0,97348:0:0:0:0:
448,192,97348,128,0,97413:0:0:0:0:
192,192,97413,128,0,97479:0:0:0:0:
64,192,97413,1,0,0:0:0:0:
320,192,97479,128,0,97544:0:0:0:0:
448,192,97544,128,0,97674:0:0:0:0:
320,192,97674,128,0,97739:0:0:0:0:
192,192,97739,128,0,97805:0:0:0:0:
64,192,97805,128,0,97870:0:0:0:0:
320,192,97805,128,0,97935:0:0:0:0:
448,192,97870,128,0,97935:0:0:0:0:
64,192,97935,128,0,98196:0:0:0:0:
320,192,98000,128,0,98066:0:0:0:0:
192,192,98066,128,0,98196:0:0:0:0:
448,192,98196,128,0,98457:0:0:0:0:
192,192,98261,128,0,98326:0:0:0:0:
64,192,98326,128,0,98392:0:0:0:0:
320,192,98392,128,0,98457:0:0:0:0:
192,192,98457,128,0,98587:0:0:0:0:
448,192,98587,128,0,98652:0:0:0:0:
192,192,98652,128,0,98718:0:0:0:0:
320,192,98718,128,0,98848:0:0:0:0:
448,192,98783,128,0,98848:0:0:0:0:
192,192,98848,128,0,99239:0:0:0:0:
64,192,98848,128,0,98979:0:0:0:0:
448,192,98979,128,0,99109:0:0:0:0:
320,192,99044,128,0,99566:0:0:0:0:
64,192,99109,128,0,99370:0:0:0:0:
448,192,99239,128,0,99566:0:0:0:0:
192,192,99370,128,0,99435:0:0:0:0:
192,192,99500,128,0,99566:0:0:0:0:
192,192,99631,128,0,99696:0:0:0:0:
320,192,99631,1,0,0:0:0:0:
448,192,99631,1,0,0:0:0:0:
192,192,99761,128,0,99826:0:0:0:0:
448,192,99892,1,0,0:0:0:0:
192,192,99892,128,0,100152:0:0:0:0:
64,192,99892,128,0,100022:0:0:0:0:
320,192,100022,128,0,100283:0:0:0:0:
448,192,100152,1,0,0:0:0:0:
64,192,100152,128,0,100413:0:0:0:0:
192,192,100283,128,0,100413:0:0:0:0:
320,192,100413,1,0,0:0:0:0:
448,192,100413,128,0,100674:0:0:0:0:
192,192,100544,1,0,0:0:0:0:
64,192,100544,128,0,100674:0:0:0:0:
320,192,100674,1,0,0:0:0:0:
192,192,100805,128,0,100935:0:0:0:0:
448,192,100805,1,0,0:0:0:0:
448,192,100935,1,0,0:0:0:0:
192,192,101066,1,0,0:0:0:0:
320,192,101066,128,0,101196:0:0:0:0:
192,192,101196,1,0,0:0:0:0:
64,192,101326,128,0,101457:0:0:0:0:
320,192,101326,1,0,0:0:0:0:
448,192,101457,1,0,0:0:0:0:
64,192,101587,1,0,0:0:0:0:
192,192,101587,128,0,101848:0:0:0:0:
320,192,101718,128,0,101848:0:0:0:0:
448,192,101848,1,0,0:0:0:0:
64,192,101848,128,0,101979:0:0:0:0:
320,192,101979,1,0,0:0:0:0:
192,192,101979,1,0,0:0:0:0:
192,192,102239,1,0,0:0:0:0:
448,192,102370,1,0,0:0:0:0:
64,192,102500,1,0,0:0:0:0:
320,192,102500,1,0,0:0:0:0:
320,192,102761,1,0,0:0:0:0:
64,192,102892,128,0,103022:0:0:0:0:
192,192,102957,128,0,103152:0:0:0:0:
320,192,103022,128,0,103283:0:0:0:0:
448,192,103022,128,0,103218:0:0:0:0:
448,192,103283,1,0,0:0:0:0:
64,192,103283,1,0,0:0:0:0:
192,192,103413,1,0,0:0:0:0:
320,192,103544,1,0,0:0:0:0:
448,192,103544,1,0,0:0:0:0:
64,192,103674,1,0,0:0:0:0:
320,192,103805,1,0,0:0:0:0:
192,192,103805,1,0,0:0:0:0:
448,192,103870,1,0,0:0:0:0:
192,192,103935,1,0,0:0:0:0:
320,192,104066,128,0,104326:0:0:0:0:
448,192,104066,128,0,104196:0:0:0:0:
192,192,104196,128,0,104457:0:0:0:0:
64,192,104326,1,0,0:0:0:0:
448,192,104326,128,0,104587:0:0:0:0:
320,192,104457,128,0,104587:0:0:0:0:
192,192,104587,1,0,0:0:0:0:
64,192,104587,128,0,104848:0:0:0:0:
320,192,104718,1,0,0:0:0:0:
448,192,104718,128,0,104848:0:0:0:0:
192,192,104848,1,0,0:0:0:0:
64,192,104979,1,0,0:0:0:0:
320,192,104979,1,0,0:0:0:0:
448,192,105109,1,0,0:0:0:0:
320,192,105142,1,0,0:0:0:0:
192,192,105174,1,0,0:0:0:0:
448,192,105239,1,0,0:0:0:0:
192,192,105305,1,0,0:0:0:0:
320,192,105370,1,0,0:0:0:0:
448,192,105500,128,0,105631:0:0:0:0:
192,192,105500,1,0,0:0:0:0:
64,192,105631,1,0,0:0:0:0:
448,192,105761,1,0,0:0:0:0:
320,192,105761,128,0,106022:0:0:0:0:
192,192,105892,128,0,106022:0:0:0:0:
64,192,106022,1,0,0:0:0:0:
448,192,106022,128,0,106152:0:0:0:0:
192,192,106152,1,0,0:0:0:0:
320,192,106152,1,0,0:0:0:0:
320,192,106283,1,0,0:0:0:0:
64,192,106413,1,0,0:0:0:0:
448,192,106413,1,0,0:0:0:0:
64,192,106544,1,0,0:0:0:0:
448,192,106674,1,0,0:0:0:0:
192,192,106674,1,0,0:0:0:0:
448,192,106805,1,0,0:0:0:0:
192,192,106935,1,0,0:0:0:0:
320,192,106935,1,0,0:0:0:0:
448,192,107066,128,0,107196:0:0:0:0:
320,192,107131,128,0,107326:0:0:0:0:
192,192,107196,128,0,107261:0:0:0:0:
64,192,107196,128,0,107392:0:0:0:0:
448,192,107261,128,0,107392:0:0:0:0:
192,192,107326,128,0,107457:0:0:0:0:
320,192,107392,128,0,107522:0:0:0:0:
64,192,107457,128,0,107522:0:0:0:0:
192,192,107522,128,0,107587:0:0:0:0:
448,192,107587,1,0,0:0:0:0:
320,192,107587,1,0,0:0:0:0:
64,192,107620,1,0,0:0:0:0:
192,192,107652,1,0,0:0:0:0:
320,192,107685,1,0,0:0:0:0:
448,192,107718,128,0,107783:0:0:0:0:
64,192,107718,128,0,107848:0:0:0:0:
192,192,107783,128,0,107848:0:0:0:0:
448,192,107848,128,0,107979:0:0:0:0:
320,192,107913,128,0,107979:0:0:0:0:
192,192,107913,128,0,108044:0:0:0:0:
64,192,107979,128,0,108044:0:0:0:0:
320,192,108044,128,0,108174:0:0:0:0:
448,192,108109,128,0,108174:0:0:0:0:
64,192,108109,128,0,108239:0:0:0:0:
192,192,108174,128,0,108239:0:0:0:0:
448,192,108239,128,0,108370:0:0:0:0:
320,192,108239,128,0,108305:0:0:0:0:
320,192,108370,128,0,108500:0:0:0:0:
192,192,108370,128,0,108435:0:0:0:0:
448,192,108435,128,0,108566:0:0:0:0:
192,192,108500,128,0,108631:0:0:0:0:
320,192,108631,128,0,108761:0:0:0:0:
448,192,108631,128,0,108696:0:0:0:0:
192,192,108696,128,0,108761:0:0:0:0:
64,192,108761,128,0,109218:0:0:0:0:
448,192,108761,128,0,108892:0:0:0:0:
192,192,108892,128,0,108957:0:0:0:0:
320,192,108892,128,0,109022:0:0:0:0:
448,192,108957,128,0,109022:0:0:0:0:
192,192,109022,128,0,109152:0:0:0:0:
320,192,109152,128,0,109283:0:0:0:0:
448,192,109152,128,0,109218:0:0:0:0:
192,192,109218,128,0,109283:0:0:0:0:
448,192,109283,128,0,109413:0:0:0:0:
64,192,109283,128,0,109348:0:0:0:0:
64,192,109413,128,0,109544:0:0:0:0:
320,192,109413,128,0,109479:0:0:0:0:
192,192,109479,128,0,109609:0:0:0:0:
320,192,109544,128,0,109674:0:0:0:0:
64,192,109674,128,0,109805:0:0:0:0:
192,192,109674,128,0,109739:0:0:0:0:
320,192,109739,128,0,109805:0:0:0:0:
448,192,109805,128,0,110261:0:0:0:0:
192,192,109805,128,0,109935:0:0:0:0:
320,192,109935,128,0,110000:0:0:0:0:
64,192,109935,128,0,110066:0:0:0:0:
192,192,110000,128,0,110066:0:0:0:0:
320,192,110066,128,0,110196:0:0:0:0:
64,192,110196,128,0,110326:0:0:0:0:
192,192,110196,128,0,110261:0:0:0:0:
320,192,110261,128,0,110326:0:0:0:0:
192,192,110326,128,0,110457:0:0:0:0:
448,192,110326,128,0,110392:0:0:0:0:
448,192,110457,128,0,110587:0:0:0:0:
64,192,110457,128,0,110522:0:0:0:0:
320,192,110522,128,0,110652:0:0:0:0:
64,192,110587,128,0,110718:0:0:0:0:
448,192,110718,128,0,110848:0:0:0:0:
320,192,110718,128,0,110783:0:0:0:0:
64,192,110783,128,0,110848:0:0:0:0:
192,192,110848,128,0,111305:0:0:0:0:
320,192,110848,128,0,110979:0:0:0:0:
64,192,110979,128,0,111044:0:0:0:0:
448,192,110979,128,0,111109:0:0:0:0:
320,192,111044,128,0,111109:0:0:0:0:
64,192,111109,128,0,111239:0:0:0:0:
448,192,111239,128,0,111370:0:0:0:0:
320,192,111239,128,0,111305:0:0:0:0:
64,192,111305,128,0,111370:0:0:0:0:
320,192,111370,128,0,111500:0:0:0:0:
192,192,111370,128,0,111435:0:0:0:0:
192,192,111500,128,0,111631:0:0:0:0:
448,192,111500,128,0,111566:0:0:0:0:
64,192,111566,128,0,111696:0:0:0:0:
448,192,111631,128,0,111761:0:0:0:0:
192,192,111761,128,0,111892:0:0:0:0:
64,192,111761,128,0,111826:0:0:0:0:
448,192,111826,128,0,111892:0:0:0:0:
320,192,111892,128,0,112348:0:0:0:0:
64,192,111892,128,0,112022:0:0:0:0:
448,192,112022,128,0,112087:0:0:0:0:
192,192,112022,128,0,112152:0:0:0:0:
64,192,112087,128,0,112152:0:0:0:0:
448,192,112152,128,0,112283:0:0:0:0:
192,192,112283,128,0,112413:0:0:0:0:
64,192,112283,128,0,112348:0:0:0:0:
448,192,112348,128,0,112413:0:0:0:0:
64,192,112413,128,0,112544:0:0:0:0:
320,192,112413,128,0,112479:0:0:0:0:
320,192,112544,128,0,112674:0:0:0:0:
192,192,112544,128,0,112609:0:0:0:0:
64,192,112609,128,0,112739:0:0:0:0:
192,192,112674,128,0,112805:0:0:0:0:
320,192,112805,128,0,112935:0:0:0:0:
448,192,112805,128,0,112870:0:0:0:0:
192,192,112870,128,0,112935:0:0:0:0:
64,192,112935,128,0,113392:0:0:0:0:
448,192,112935,128,0,113066:0:0:0:0:
192,192,113066,128,0,113196:0:0:0:0:
320,192,113066,128,0,113131:0:0:0:0:
448,192,113131,128,0,113196:0:0:0:0:
320,192,113196,128,0,113326:0:0:0:0:
192,192,113326,128,0,113392:0:0:0:0:
448,192,113326,128,0,113457:0:0:0:0:
320,192,113392,128,0,113457:0:0:0:0:
192,192,113457,128,0,113587:0:0:0:0:
64,192,113457,128,0,113522:0:0:0:0:
64,192,113587,128,0,113718:0:0:0:0:
320,192,113587,128,0,113652:0:0:0:0:
448,192,113652,128,0,113783:0:0:0:0:
320,192,113718,128,0,113848:0:0:0:0:
64,192,113848,128,0,113979:0:0:0:0:
192,192,113848,128,0,113913:0:0:0:0:
320,192,113913,128,0,113979:0:0:0:0:
448,192,113979,128,0,114435:0:0:0:0:
192,192,113979,128,0,114109:0:0:0:0:
320,192,114109,128,0,114239:0:0:0:0:
64,192,114109,128,0,114174:0:0:0:0:
192,192,114174,128,0,114239:0:0:0:0:
64,192,114239,128,0,114370:0:0:0:0:
320,192,114370,128,0,114435:0:0:0:0:
192,192,114370,128,0,114500:0:0:0:0:
64,192,114435,128,0,114500:0:0:0:0:
320,192,114500,128,0,114631:0:0:0:0:
448,192,114500,128,0,114566:0:0:0:0:
448,192,114631,128,0,114826:0:0:0:0:
64,192,114631,128,0,114696:0:0:0:0:
192,192,114696,128,0,114826:0:0:0:0:
64,192,114761,128,0,114892:0:0:0:0:
448,192,114892,128,0,115087:0:0:0:0:
320,192,114892,128,0,114957:0:0:0:0:
64,192,114957,128,0,115022:0:0:0:0:
192,192,115022,128,0,115479:0:0:0:0:
320,192,115022,128,0,115152:0:0:0:0:
64,192,115152,128,0,115348:0:0:0:0:
448,192,115152,128,0,115218:0:0:0:0:
320,192,115218,128,0,115283:0:0:0:0:
448,192,115283,128,0,115413:0:0:0:0:
64,192,115413,128,0,115479:0:0:0:0:
320,192,115413,128,0,115609:0:0:0:0:
448,192,115479,128,0,115544:0:0:0:0:
192,192,115544,128,0,115609:0:0:0:0:
64,192,115544,128,0,115674:0:0:0:0:
448,192,115674,128,0,115739:0:0:0:0:
192,192,115674,128,0,115870:0:0:0:0:
320,192,115739,128,0,115870:0:0:0:0:
448,192,115805,128,0,115870:0:0:0:0:
64,192,115870,5,0,0:0:0:0:
320,192,115935,1,0,0:0:0:0:
448,192,115935,1,0,0:0:0:0:
192,192,116000,1,0,0:0:0:0:
64,192,116000,1,0,0:0:0:0:
64,192,116066,1,0,0:0:0:0:
448,192,116066,1,0,0:0:0:0:
192,192,116131,1,0,0:0:0:0:
448,192,116196,1,0,0:0:0:0:
320,192,116196,1,0,0:0:0:0:
64,192,116261,1,0,0:0:0:0:
320,192,116326,1,0,0:0:0:0:
192,192,116326,1,0,0:0:0:0:
192,192,116392,128,0,116457:0:0:0:0:
448,192,116457,1,0,0:0:0:0:
64,192,116457,1,0,0:0:0:0:
448,192,116522,128,0,116587:0:0:0:0:
192,192,116587,1,0,0:0:0:0:
64,192,116587,1,0,0:0:0:0:
320,192,116587,128,0,117631:0:0:0:0:
192,192,117109,1,0,0:0:0:0:
64,192,117631,128,0,118674:0:0:0:0:
320,192,117761,1,0,0:0:0:0:
192,192,117892,1,0,0:0:0:0:
320,192,118152,1,0,0:0:0:0:
448,192,118674,128,0,119718:0:0:0:0:
64,192,119196,1,0,0:0:0:0:
320,192,119609,1,0,0:0:0:0:
192,192,119718,128,0,120761:0:0:0:0:
320,192,119870,1,0,0:0:0:0:
64,192,119979,1,0,0:0:0:0:
448,192,120239,1,0,0:0:0:0:
64,192,120370,1,0,0:0:0:0:
320,192,120761,128,0,121805:0:0:0:0:
64,192,121283,1,0,0:0:0:0:
192,192,121283,1,0,0:0:0:0:
448,192,121696,5,0,0:0:0:0:
192,192,121805,128,0,122848:0:0:0:0:
448,192,121957,1,0,0:0:0:0:
64,192,122066,1,0,0:0:0:0:
320,192,122326,1,0,0:0:0:0:
448,192,122326,1,0,0:0:0:0:
64,192,122479,1,0,0:0:0:0:
64,192,122848,5,0,0:0:0:0:
320,192,122848,1,0,0:0:0:0:
448,192,122913,1,0,0:0:0:0:
192,192,122979,1,0,0:0:0:0:
320,192,123109,1,0,0:0:0:0:
448,192,123109,1,0,0:0:0:0:
64,192,123239,1,0,0:0:0:0:
320,192,123239,1,0,0:0:0:0:
448,192,123305,1,0,0:0:0:0:
192,192,123370,1,0,0:0:0:0:
320,192,123500,1,0,0:0:0:0:
448,192,123500,1,0,0:0:0:0:
320,192,123631,1,0,0:0:0:0:
64,192,123631,1,0,0:0:0:0:
320,192,123761,1,0,0:0:0:0:
64,192,123892,5,0,0:0:0:0:
192,192,123892,1,0,0:0:0:0:
448,192,123892,1,0,0:0:0:0:
192,192,124022,1,0,0:0:0:0:
64,192,124022,1,0,0:0:0:0:
448,192,124022,1,0,0:0:0:0:
64,192,124152,1,0,0:0:0:0:
320,192,124152,1,0,0:0:0:0:
320,192,124283,1,0,0:0:0:0:
192,192,124413,1,0,0:0:0:0:
192,192,124544,1,0,0:0:0:0:
320,192,124544,1,0,0:0:0:0:
448,192,124609,1,0,0:0:0:0:
64,192,124674,1,0,0:0:0:0:
320,192,124739,1,0,0:0:0:0:
64,192,124805,1,0,0:0:0:0:
320,192,124870,1,0,0:0:0:0:
192,192,124935,5,0,0:0:0:0:
448,192,124935,1,0,0:0:0:0:
64,192,125000,1,0,0:0:0:0:
448,192,125066,1,0,0:0:0:0:
192,192,125066,1,0,0:0:0:0:
64,192,125131,1,0,0:0:0:0:
448,192,125196,1,0,0:0:0:0:
320,192,125261,1,0,0:0:0:0:
64,192,125326,1,0,0:0:0:0:
192,192,125326,1,0,0:0:0:0:
448,192,125392,1,0,0:0:0:0:
192,192,125457,1,0,0:0:0:0:
320,192,125457,1,0,0:0:0:0:
448,192,125522,1,0,0:0:0:0:
64,192,125587,1,0,0:0:0:0:
192,192,125587,1,0,0:0:0:0:
320,192,125652,1,0,0:0:0:0:
64,192,125718,1,0,0:0:0:0:
448,192,125783,1,0,0:0:0:0:
64,192,125848,1,0,0:0:0:0:
320,192,125848,1,0,0:0:0:0:
64,192,125913,1,0,0:0:0:0:
192,192,125979,1,0,0:0:0:0:
320,192,125979,1,0,0:0:0:0:
448,192,126044,1,0,0:0:0:0:
192,192,126109,1,0,0:0:0:0:
320,192,126109,1,0,0:0:0:0:
448,192,126174,1,0,0:0:0:0:
192,192,126239,1,0,0:0:0:0:
64,192,126305,1,0,0:0:0:0:
448,192,126370,1,0,0:0:0:0:
320,192,126370,1,0,0:0:0:0:
192,192,126435,1,0,0:0:0:0:
320,192,126500,1,0,0:0:0:0:
64,192,126500,1,0,0:0:0:0:
192,192,126566,1,0,0:0:0:0:
448,192,126631,1,0,0:0:0:0:
320,192,126631,1,0,0:0:0:0:
64,192,126696,1,0,0:0:0:0:
448,192,126761,128,0,126826:0:0:0:0:
192,192,126826,128,0,126892:0:0:0:0:
448,192,126892,128,0,127022:0:0:0:0:
64,192,127022,1,0,0:0:0:0:
320,192,127022,1,0,0:0:0:0:
192,192,127091,1,0,0:0:0:0:
320,192,127161,1,0,0:0:0:0:
64,192,127161,1,0,0:0:0:0:
192,192,127231,1,0,0:0:0:0:
320,192,127301,1,0,0:0:0:0:
448,192,127370,1,0,0:0:0:0:
64,192,127440,1,0,0:0:0:0:
192,192,127440,1,0,0:0:0:0:
320,192,127510,1,0,0:0:0:0:
64,192,127580,1,0,0:0:0:0:
448,192,127580,1,0,0:0:0:0:
320,192,127649,1,0,0:0:0:0:
64,192,127719,1,0,0:0:0:0:
192,192,127719,1,0,0:0:0:0:
448,192,127789,1,0,0:0:0:0:
192,192,127859,1,0,0:0:0:0:
320,192,127859,1,0,0:0:0:0:
64,192,127928,1,0,0:0:0:0:
448,192,127998,1,0,0:0:0:0:
320,192,127998,1,0,0:0:0:0:
192,192,128068,1,0,0:0:0:0:
448,192,128138,1,0,0:0:0:0:
64,192,128138,1,0,0:0:0:0:
192,192,128208,1,0,0:0:0:0:
320,192,128277,1,0,0:0:0:0:
448,192,128277,1,0,0:0:0:0:
64,192,128347,1,0,0:0:0:0:
192,192,128417,1,0,0:0:0:0:
320,192,128417,1,0,0:0:0:0:
448,192,128487,1,0,0:0:0:0:
192,192,128556,1,0,0:0:0:0:
64,192,128556,1,0,0:0:0:0:
320,192,128626,1,0,0:0:0:0:
64,192,128696,1,0,0:0:0:0:
192,192,128696,1,0,0:0:0:0:
448,192,128766,1,0,0:0:0:0:
64,192,128835,1,0,0:0:0:0:
192,192,128905,1,0,0:0:0:0:
448,192,128975,128,0,129115:0:0:0:0:
320,192,128975,1,0,0:0:0:0:
64,192,129045,128,0,129184:0:0:0:0:
320,192,129115,128,0,129255:0:0:0:0:
192,192,129255,5,0,0:0:0:0:
448,192,129255,1,0,0:0:0:0:
448,192,129330,1,0,0:0:0:0:
320,192,129405,1,0,0:0:0:0:
192,192,129405,1,0,0:0:0:0:
192,192,129480,1,0,0:0:0:0:
448,192,129555,1,0,0:0:0:0:
320,192,129630,1,0,0:0:0:0:
64,192,129705,1,0,0:0:0:0:
192,192,129705,1,0,0:0:0:0:
64,192,129780,1,0,0:0:0:0:
320,192,129855,1,0,0:0:0:0:
448,192,129930,1,0,0:0:0:0:
64,192,130005,1,0,0:0:0:0:
192,192,130005,1,0,0:0:0:0:
64,192,130080,1,0,0:0:0:0:
320,192,130155,1,0,0:0:0:0:
192,192,130230,1,0,0:0:0:0:
64,192,130305,1,0,0:0:0:0:
448,192,130305,1,0,0:0:0:0:
448,192,130380,1,0,0:0:0:0:
192,192,130455,1,0,0:0:0:0:
320,192,130455,1,0,0:0:0:0:
192,192,130530,1,0,0:0:0:0:
320,192,130605,1,0,0:0:0:0:
64,192,130605,1,0,0:0:0:0:
320,192,130680,1,0,0:0:0:0:
192,192,130755,1,0,0:0:0:0:
64,192,130830,1,0,0:0:0:0:
320,192,130905,1,0,0:0:0:0:
448,192,130905,1,0,0:0:0:0:
448,192,130980,1,0,0:0:0:0:
64,192,131055,1,0,0:0:0:0:
192,192,131130,1,0,0:0:0:0:
320,192,131205,1,0,0:0:0:0:
448,192,131205,1,0,0:0:0:0:
448,192,131280,1,0,0:0:0:0:
320,192,131355,1,0,0:0:0:0:
192,192,131355,1,0,0:0:0:0:
320,192,131505,1,0,0:0:0:0:
192,192,131505,1,0,0:0:0:0:
64,192,131655,1,0,0:0:0:0:
192,192,131694,1,0,0:0:0:0:
448,192,131733,1,0,0:0:0:0:
320,192,131773,1,0,0:0:0:0:
64,192,131812,1,0,0:0:0:0:
448,192,131852,1,0,0:0:0:0:
320,192,131891,1,0,0:0:0:0:
192,192,131931,1,0,0:0:0:0:
64,192,131970,1,0,0:0:0:0:
448,192,132010,1,0,0:0:0:0:
320,192,132049,1,0,0:0:0:0:
64,192,132089,1,0,0:0:0:0:
192,192,132128,1,0,0:0:0:0:
320,192,132168,1,0,0:0:0:0:
448,192,132207,1,0,0:0:0:0:
64,192,132247,1,0,0:0:0:0:
320,192,132286,1,0,0:0:0:0:
448,192,132326,1,0,0:0:0:0:
64,192,132365,1,0,0:0:0:0:
192,192,132405,1,0,0:0:0:0:
320,192,132444,1,0,0:0:0:0:
64,192,132483,1,0,0:0:0:0:
192,192,132523,1,0,0:0:0:0:
448,192,132562,1,0,0:0:0:0:
320,192,132602,1,0,0:0:0:0:
64,192,132641,1,0,0:0:0:0:
192,192,132681,1,0,0:0:0:0:
320,192,132720,1,0,0:0:0:0:
448,192,132760,1,0,0:0:0:0:
192,192,132799,1,0,0:0:0:0:
64,192,132839,1,0,0:0:0:0:
320,192,132878,1,0,0:0:0:0:
192,192,132918,128,0,133023:0:0:0:0:
64,192,132970,128,0,133076:0:0:0:0:
448,192,133023,128,0,133155:0:0:0:0:
320,192,133076,128,0,133233:0:0:0:0:
64,192,133155,128,0,133233:0:0:0:0:
192,192,133233,1,0,0:0:0:0:
448,192,133233,1,0,0:0:0:0:
320,192,133312,1,0,0:0:0:0:
192,192,133391,1,0,0:0:0:0:
320,192,133470,1,0,0:0:0:0:
64,192,133549,1,0,0:0:0:0:
64,192,133628,1,0,0:0:0:0:
192,192,133707,1,0,0:0:0:0:
448,192,133707,1,0,0:0:0:0:
448,192,133786,1,0,0:0:0:0:
320,192,133865,1,0,0:0:0:0:
192,192,133865,1,0,0:0:0:0:
192,192,133944,1,0,0:0:0:0:
64,192,134023,1,0,0:0:0:0:
320,192,134023,1,0,0:0:0:0:
320,192,134102,1,0,0:0:0:0:
64,192,134181,1,0,0:0:0:0:
448,192,134181,1,0,0:0:0:0:
192,192,134181,1,0,0:0:0:0:
448,192,134514,1,0,0:0:0:0:
448,192,134764,1,0,0:0:0:0:
320,192,134847,1,0,0:0:0:0:
192,192,134847,1,0,0:0:0:0:
64,192,135014,1,0,0:0:0:0:
320,192,135097,1,0,0:0:0:0:
448,192,135181,1,0,0:0:0:0:
192,192,135347,1,0,0:0:0:0:
448,192,135431,1,0,0:0:0:0:
320,192,135514,1,0,0:0:0:0:
64,192,135514,1,0,0:0:0:0:
448,192,135681,1,0,0:0:0:0:
64,192,135764,1,0,0:0:0:0:
192,192,135847,1,0,0:0:0:0:
448,192,136014,1,0,0:0:0:0:
192,192,136097,1,0,0:0:0:0:
64,192,136181,1,0,0:0:0:0:
320,192,136181,1,0,0:0:0:0:
448,192,136347,1,0,0:0:0:0:
64,192,136431,1,0,0:0:0:0:
192,192,136514,1,0,0:0:0:0:
320,192,136681,1,0,0:0:0:0:
64,192,136764,1,0,0:0:0:0:
192,192,136847,1,0,0:0:0:0:
448,192,136848,1,0,0:0:0:0:
192,192,137024,1,0,0:0:0:0:
448,192,137112,1,0,0:0:0:0:
320,192,137200,1,0,0:0:0:0:
64,192,137200,1,0,0:0:0:0:
64,192,137377,1,0,0:0:0:0:
320,192,137465,1,0,0:0:0:0:
448,192,137553,1,0,0:0:0:0:
192,192,137553,1,0,0:0:0:0:
64,192,137730,1,0,0:0:0:0:
448,192,137818,1,0,0:0:0:0:
320,192,137906,1,0,0:0:0:0:
192,192,137906,1,0,0:0:0:0:
192,192,138083,1,0,0:0:0:0:
320,192,138171,1,0,0:0:0:0:
64,192,138259,1,0,0:0:0:0:
448,192,138259,1,0,0:0:0:0:
448,192,138436,1,0,0:0:0:0:
64,192,138524,1,0,0:0:0:0:
192,192,138612,1,0,0:0:0:0:
320,192,138612,1,0,0:0:0:0:
320,192,138789,1,0,0:0:0:0:
192,192,138877,1,0,0:0:0:0:
64,192,138965,1,0,0:0:0:0:
448,192,138965,1,0,0:0:0:0:
320,192,139142,1,0,0:0:0:0:
64,192,139230,1,0,0:0:0:0:
192,192,139318,1,0,0:0:0:0:
448,192,139318,1,0,0:0:0:0:
448,192,139495,1,0,0:0:0:0:
192,192,139583,1,0,0:0:0:0:
320,192,139671,1,0,0:0:0:0:
64,192,139671,1,0,0:0:0:0:
320,192,139761,1,0,0:0:0:0:
192,192,139852,1,0,0:0:0:0:
192,192,139943,1,0,0:0:0:0:
64,192,140034,1,0,0:0:0:0:
320,192,140125,1,0,0:0:0:0:
320,192,140216,1,0,0:0:0:0:
64,192,140307,1,0,0:0:0:0:
192,192,140352,1,0,0:0:0:0:
320,192,140398,1,0,0:0:0:0:
448,192,140489,1,0,0:0:0:0:
448,192,140580,1,0,0:0:0:0:
64,192,140671,1,0,0:0:0:0:
64,192,140761,1,0,0:0:0:0:
320,192,140852,1,0,0:0:0:0:
320,192,140943,1,0,0:0:0:0:
192,192,141034,1,0,0:0:0:0:
320,192,141080,1,0,0:0:0:0:
64,192,141125,1,0,0:0:0:0:
448,192,141216,1,0,0:0:0:0:
448,192,141307,1,0,0:0:0:0:
192,192,141398,1,0,0:0:0:0:
448,192,141489,5,0,0:0:0:0:
64,192,141580,5,0,0:0:0:0:
320,192,141580,1,0,0:0:0:0:
64,192,141671,1,0,0:0:0:0:
448,192,141761,5,0,0:0:0:0:
320,192,141807,1,0,0:0:0:0:
64,192,141852,5,0,0:0:0:0:
192,192,141943,5,0,0:0:0:0:
320,192,141943,1,0,0:0:0:0:
192,192,142034,1,0,0:0:0:0:
448,192,142125,1,0,0:0:0:0:
64,192,142216,5,0,0:0:0:0:
320,192,142216,1,0,0:0:0:0:
64,192,142307,1,0,0:0:0:0:
320,192,142398,5,0,0:0:0:0:
192,192,142398,1,0,0:0:0:0:
320,192,142489,5,0,0:0:0:0:
192,192,142534,5,0,0:0:0:0:
64,192,142580,5,0,0:0:0:0:
448,192,142580,1,0,0:0:0:0:
320,192,142626,5,0,0:0:0:0:
64,192,142673,1,0,0:0:0:0:
320,192,142720,1,0,0:0:0:0:
192,192,142767,1,0,0:0:0:0:
448,192,142814,1,0,0:0:0:0:
192,192,142861,1,0,0:0:0:0:
320,192,142908,1,0,0:0:0:0:
448,192,142955,1,0,0:0:0:0:
64,192,143001,1,0,0:0:0:0:
448,192,143048,1,0,0:0:0:0:
64,192,143095,1,0,0:0:0:0:
320,192,143142,1,0,0:0:0:0:
192,192,143189,1,0,0:0:0:0:
320,192,143236,1,0,0:0:0:0:
64,192,143283,1,0,0:0:0:0:
192,192,143330,5,0,0:0:0:0:
192,192,143423,1,0,0:0:0:0:
192,192,143517,1,0,0:0:0:0:
192,192,143611,1,0,0:0:0:0:
64,192,143705,1,0,0:0:0:0:
64,192,143798,1,0,0:0:0:0:
448,192,143892,128,0,143986:0:0:0:0:
64,192,143892,1,0,0:0:0:0:
64,192,143986,1,0,0:0:0:0:
192,192,144080,128,0,144173:0:0:0:0:
320,192,144080,128,0,144197:0:0:0:0:
448,192,144080,128,0,144220:0:0:0:0:
64,192,144220,1,0,0:0:0:0:
320,192,144267,1,0,0:0:0:0:
64,192,144314,5,0,0:0:0:0:
448,192,144361,128,0,144501:0:0:0:0:
192,192,144361,128,0,144455:0:0:0:0:
320,192,144361,128,0,144478:0:0:0:0:
64,192,144501,5,0,0:0:0:0:
448,192,144548,128,0,144642:0:0:0:0:
320,192,144642,128,0,144736:0:0:0:0:
192,192,144642,128,0,144759:0:0:0:0:
64,192,144642,128,0,144783:0:0:0:0:
448,192,144783,1,0,0:0:0:0:
320,192,144830,1,0,0:0:0:0:
320,192,144923,128,0,145017:0:0:0:0:
192,192,144923,128,0,145040:0:0:0:0:
64,192,144923,128,0,145064:0:0:0:0:
448,192,145064,1,0,0:0:0:0:
192,192,145111,1,0,0:0:0:0:
320,192,145205,128,0,145345:0:0:0:0:
448,192,145205,128,0,145322:0:0:0:0:
64,192,145205,128,0,145298:0:0:0:0:
64,192,145392,128,0,145486:0:0:0:0:
320,192,145392,128,0,145533:0:0:0:0:
448,192,145392,128,0,145509:0:0:0:0:
192,192,145580,5,0,0:0:0:0:
64,192,145580,1,0,0:0:0:0:
448,192,145580,1,0,0:0:0:0:
320,192,145626,1,0,0:0:0:0:
192,192,145673,1,0,0:0:0:0:
320,192,145720,1,0,0:0:0:0:
64,192,145767,1,0,0:0:0:0:
448,192,145814,1,0,0:0:0:0:
64,192,145861,1,0,0:0:0:0:
320,192,145955,1,0,0:0:0:0:
448,192,145955,1,0,0:0:0:0:
192,192,145955,1,0,0:0:0:0:
64,192,146048,1,0,0:0:0:0:
448,192,146048,1,0,0:0:0:0:
192,192,146095,1,0,0:0:0:0:
64,192,146142,1,0,0:0:0:0:
320,192,146236,1,0,0:0:0:0:
192,192,146236,1,0,0:0:0:0:
64,192,146330,1,0,0:0:0:0:
192,192,146330,1,0,0:0:0:0:
448,192,146330,1,0,0:0:0:0:
64,192,146423,1,0,0:0:0:0:
320,192,146423,1,0,0:0:0:0:
448,192,146470,1,0,0:0:0:0:
320,192,146517,1,0,0:0:0:0:
192,192,146611,1,0,0:0:0:0:
64,192,146611,1,0,0:0:0:0:
320,192,146705,1,0,0:0:0:0:
448,192,146705,1,0,0:0:0:0:
192,192,146705,1,0,0:0:0:0:
448,192,146798,1,0,0:0:0:0:
64,192,146798,1,0,0:0:0:0:
448,192,146892,1,0,0:0:0:0:
64,192,146892,1,0,0:0:0:0:
192,192,146986,1,0,0:0:0:0:
320,192,146986,1,0,0:0:0:0:
320,192,147080,1,0,0:0:0:0:
64,192,147080,1,0,0:0:0:0:
448,192,147080,1,0,0:0:0:0:
64,192,147173,1,0,0:0:0:0:
192,192,147173,1,0,0:0:0:0:
64,192,147267,1,0,0:0:0:0:
192,192,147267,1,0,0:0:0:0:
320,192,147361,1,0,0:0:0:0:
448,192,147361,1,0,0:0:0:0:
192,192,147455,1,0,0:0:0:0:
64,192,147455,1,0,0:0:0:0:
320,192,147455,1,0,0:0:0:0:
192,192,147548,1,0,0:0:0:0:
448,192,147548,1,0,0:0:0:0:
320,192,147595,1,0,0:0:0:0:
448,192,147642,1,0,0:0:0:0:
320,192,147736,1,0,0:0:0:0:
64,192,147736,1,0,0:0:0:0:
192,192,147830,1,0,0:0:0:0:
320,192,147830,1,0,0:0:0:0:
448,192,147830,1,0,0:0:0:0:
64,192,147923,1,0,0:0:0:0:
448,192,147923,1,0,0:0:0:0:
192,192,147970,1,0,0:0:0:0:
64,192,148017,1,0,0:0:0:0:
448,192,148111,1,0,0:0:0:0:
320,192,148111,1,0,0:0:0:0:
320,192,148205,1,0,0:0:0:0:
192,192,148205,1,0,0:0:0:0:
64,192,148205,1,0,0:0:0:0:
448,192,148298,1,0,0:0:0:0:
64,192,148298,1,0,0:0:0:0:
448,192,148392,1,0,0:0:0:0:
192,192,148392,1,0,0:0:0:0:
64,192,148439,1,0,0:0:0:0:
192,192,148486,1,0,0:0:0:0:
448,192,148580,5,0,0:0:0:0:
320,192,148580,1,0,0:0:0:0:
64,192,148580,1,0,0:0:0:0:
192,192,148626,1,0,0:0:0:0:
448,192,148673,1,0,0:0:0:0:
192,192,148720,1,0,0:0:0:0:
320,192,148767,1,0,0:0:0:0:
320,192,148861,1,0,0:0:0:0:
192,192,148955,1,0,0:0:0:0:
64,192,148955,1,0,0:0:0:0:
448,192,148955,1,0,0:0:0:0:
320,192,149048,1,0,0:0:0:0:
64,192,149048,1,0,0:0:0:0:
448,192,149095,1,0,0:0:0:0:
320,192,149142,1,0,0:0:0:0:
192,192,149236,1,0,0:0:0:0:
448,192,149236,1,0,0:0:0:0:
320,192,149330,1,0,0:0:0:0:
448,192,149330,1,0,0:0:0:0:
64,192,149330,1,0,0:0:0:0:
320,192,149423,1,0,0:0:0:0:
192,192,149423,1,0,0:0:0:0:
64,192,149470,1,0,0:0:0:0:
192,192,149517,1,0,0:0:0:0:
448,192,149611,1,0,0:0:0:0:
320,192,149611,1,0,0:0:0:0:
192,192,149705,1,0,0:0:0:0:
64,192,149705,1,0,0:0:0:0:
448,192,149705,1,0,0:0:0:0:
64,192,149798,1,0,0:0:0:0:
320,192,149798,1,0,0:0:0:0:
64,192,149892,1,0,0:0:0:0:
320,192,149892,1,0,0:0:0:0:
448,192,149986,1,0,0:0:0:0:
192,192,149986,1,0,0:0:0:0:
192,192,150080,1,0,0:0:0:0:
320,192,150080,1,0,0:0:0:0:
64,192,150080,1,0,0:0:0:0:
320,192,150173,1,0,0:0:0:0:
448,192,150173,1,0,0:0:0:0:
320,192,150267,1,0,0:0:0:0:
448,192,150267,1,0,0:0:0:0:
192,192,150361,1,0,0:0:0:0:
64,192,150361,1,0,0:0:0:0:
448,192,150455,1,0,0:0:0:0:
320,192,150455,1,0,0:0:0:0:
192,192,150455,1,0,0:0:0:0:
448,192,150548,1,0,0:0:0:0:
64,192,150548,1,0,0:0:0:0:
192,192,150595,1,0,0:0:0:0:
64,192,150642,1,0,0:0:0:0:
192,192,150736,1,0,0:0:0:0:
320,192,150736,1,0,0:0:0:0:
448,192,150830,1,0,0:0:0:0:
192,192,150830,1,0,0:0:0:0:
64,192,150830,1,0,0:0:0:0:
320,192,150923,1,0,0:0:0:0:
64,192,150923,128,0,151017:0:0:0:0:
448,192,150970,1,0,0:0:0:0:
320,192,151017,1,0,0:0:0:0:
192,192,151111,1,0,0:0:0:0:
64,192,151111,1,0,0:0:0:0:
192,192,151205,128,0,151298:0:0:0:0:
320,192,151205,1,0,0:0:0:0:
448,192,151205,128,0,151345:0:0:0:0:
64,192,151298,1,0,0:0:0:0:
64,192,151392,1,0,0:0:0:0:
448,192,151392,128,0,151486:0:0:0:0:
320,192,151486,1,0,0:0:0:0:
64,192,151580,5,0,0:0:0:0:
192,192,151580,1,0,0:0:0:0:
320,192,151580,1,0,0:0:0:0:
448,192,151626,1,0,0:0:0:0:
64,192,151673,1,0,0:0:0:0:
448,192,151720,1,0,0:0:0:0:
192,192,151767,1,0,0:0:0:0:
192,192,151861,1,0,0:0:0:0:
448,192,151955,1,0,0:0:0:0:
320,192,151955,1,0,0:0:0:0:
64,192,151955,1,0,0:0:0:0:
192,192,152048,1,0,0:0:0:0:
320,192,152048,1,0,0:0:0:0:
64,192,152095,1,0,0:0:0:0:
192,192,152142,1,0,0:0:0:0:
448,192,152236,1,0,0:0:0:0:
64,192,152236,1,0,0:0:0:0:
192,192,152330,1,0,0:0:0:0:
64,192,152330,1,0,0:0:0:0:
320,192,152330,1,0,0:0:0:0:
192,192,152423,1,0,0:0:0:0:
448,192,152423,1,0,0:0:0:0:
320,192,152470,1,0,0:0:0:0:
448,192,152517,1,0,0:0:0:0:
64,192,152611,1,0,0:0:0:0:
192,192,152611,1,0,0:0:0:0:
448,192,152705,1,0,0:0:0:0:
320,192,152705,1,0,0:0:0:0:
64,192,152705,1,0,0:0:0:0:
320,192,152798,1,0,0:0:0:0:
192,192,152798,1,0,0:0:0:0:
320,192,152892,1,0,0:0:0:0:
192,192,152892,1,0,0:0:0:0:
64,192,152986,1,0,0:0:0:0:
448,192,152986,1,0,0:0:0:0:
448,192,153080,1,0,0:0:0:0:
192,192,153080,1,0,0:0:0:0:
320,192,153080,1,0,0:0:0:0:
192,192,153173,1,0,0:0:0:0:
64,192,153173,1,0,0:0:0:0:
192,192,153267,1,0,0:0:0:0:
64,192,153267,1,0,0:0:0:0:
448,192,153361,1,0,0:0:0:0:
320,192,153361,1,0,0:0:0:0:
64,192,153455,1,0,0:0:0:0:
192,192,153455,1,0,0:0:0:0:
448,192,153455,1,0,0:0:0:0:
64,192,153548,1,0,0:0:0:0:
320,192,153548,1,0,0:0:0:0:
448,192,153595,1,0,0:0:0:0:
320,192,153642,1,0,0:0:0:0:
448,192,153736,1,0,0:0:0:0:
192,192,153736,1,0,0:0:0:0:
64,192,153830,1,0,0:0:0:0:
448,192,153830,1,0,0:0:0:0:
320,192,153830,1,0,0:0:0:0:
192,192,153923,1,0,0:0:0:0:
320,192,153923,1,0,0:0:0:0:
64,192,153970,1,0,0:0:0:0:
192,192,154017,1,0,0:0:0:0:
320,192,154111,1,0,0:0:0:0:
448,192,154111,1,0,0:0:0:0:
64,192,154205,1,0,0:0:0:0:
192,192,154205,1,0,0:0:0:0:
448,192,154205,1,0,0:0:0:0:
192,192,154298,1,0,0:0:0:0:
320,192,154298,1,0,0:0:0:0:
320,192,154392,1,0,0:0:0:0:
64,192,154392,1,0,0:0:0:0:
192,192,154439,1,0,0:0:0:0:
64,192,154486,1,0,0:0:0:0:
320,192,154580,5,0,0:0:0:0:
448,192,154580,1,0,0:0:0:0:
192,192,154580,1,0,0:0:0:0:
64,192,154626,1,0,0:0:0:0:
320,192,154673,1,0,0:0:0:0:
64,192,154720,1,0,0:0:0:0:
448,192,154767,1,0,0:0:0:0:
448,192,154861,1,0,0:0:0:0:
64,192,154955,1,0,0:0:0:0:
192,192,154955,1,0,0:0:0:0:
320,192,154955,1,0,0:0:0:0:
448,192,155048,1,0,0:0:0:0:
192,192,155048,1,0,0:0:0:0:
320,192,155095,1,0,0:0:0:0:
448,192,155142,1,0,0:0:0:0:
64,192,155236,1,0,0:0:0:0:
320,192,155236,1,0,0:0:0:0:
448,192,155330,1,0,0:0:0:0:
320,192,155330,1,0,0:0:0:0:
192,192,155330,1,0,0:0:0:0:
448,192,155423,1,0,0:0:0:0:
64,192,155423,1,0,0:0:0:0:
192,192,155470,1,0,0:0:0:0:
64,192,155517,1,0,0:0:0:0:
320,192,155611,1,0,0:0:0:0:
448,192,155611,1,0,0:0:0:0:
64,192,155705,1,0,0:0:0:0:
192,192,155705,1,0,0:0:0:0:
320,192,155705,1,0,0:0:0:0:
192,192,155798,1,0,0:0:0:0:
448,192,155798,1,0,0:0:0:0:
192,192,155892,1,0,0:0:0:0:
448,192,155892,1,0,0:0:0:0:
320,192,155986,1,0,0:0:0:0:
64,192,155986,1,0,0:0:0:0:
192,192,156080,128,0,156173:0:0:0:0:
448,192,156080,128,0,156267:0:0:0:0:
64,192,156080,128,0,156361:0:0:0:0:
192,192,156267,1,0,0:0:0:0:
448,192,156361,128,0,156455:0:0:0:0:
320,192,156361,1,0,0:0:0:0:
320,192,156455,128,0,156830:0:0:0:0:
64,192,156455,128,0,156642:0:0:0:0:
192,192,156548,128,0,156642:0:0:0:0:
448,192,156642,128,0,156736:0:0:0:0:
64,192,156736,1,0,0:0:0:0:
192,192,156736,128,0,156830:0:0:0:0:
64,192,156830,128,0,157205:0:0:0:0:
448,192,156830,128,0,157017:0:0:0:0:
320,192,156923,128,0,157017:0:0:0:0:
192,192,157017,128,0,157111:0:0:0:0:
448,192,157111,1,0,0:0:0:0:
320,192,157111,128,0,157205:0:0:0:0:
448,192,157205,128,0,157486:0:0:0:0:
192,192,157205,128,0,157392:0:0:0:0:
64,192,157298,128,0,157392:0:0:0:0:
320,192,157392,128,0,157486:0:0:0:0:
64,192,157486,1,0,0:0:0:0:
320,192,157580,5,0,0:0:0:0:
64,192,157580,1,0,0:0:0:0:
448,192,157580,1,0,0:0:0:0:
192,192,157626,1,0,0:0:0:0:
320,192,157673,1,0,0:0:0:0:
192,192,157720,1,0,0:0:0:0:
448,192,157767,1,0,0:0:0:0:
64,192,157814,1,0,0:0:0:0:
448,192,157861,1,0,0:0:0:0:
320,192,157955,1,0,0:0:0:0:
64,192,157955,1,0,0:0:0:0:
192,192,157955,1,0,0:0:0:0:
64,192,158048,1,0,0:0:0:0:
448,192,158048,1,0,0:0:0:0:
320,192,158095,1,0,0:0:0:0:
448,192,158142,1,0,0:0:0:0:
320,192,158236,1,0,0:0:0:0:
192,192,158236,1,0,0:0:0:0:
64,192,158330,1,0,0:0:0:0:
320,192,158330,1,0,0:0:0:0:
448,192,158330,1,0,0:0:0:0:
192,192,158423,1,0,0:0:0:0:
448,192,158423,1,0,0:0:0:0:
64,192,158470,1,0,0:0:0:0:
192,192,158517,1,0,0:0:0:0:
448,192,158611,1,0,0:0:0:0:
320,192,158611,1,0,0:0:0:0:
320,192,158705,1,0,0:0:0:0:
64,192,158705,1,0,0:0:0:0:
192,192,158705,1,0,0:0:0:0:
448,192,158798,1,0,0:0:0:0:
64,192,158798,1,0,0:0:0:0:
448,192,158892,1,0,0:0:0:0:
64,192,158892,1,0,0:0:0:0:
192,192,158986,1,0,0:0:0:0:
320,192,158986,1,0,0:0:0:0:
64,192,159080,1,0,0:0:0:0:
448,192,159080,1,0,0:0:0:0:
192,192,159080,1,0,0:0:0:0:
320,192,159173,1,0,0:0:0:0:
448,192,159173,1,0,0:0:0:0:
320,192,159267,1,0,0:0:0:0:
448,192,159267,1,0,0:0:0:0:
64,192,159361,1,0,0:0:0:0:
192,192,159361,1,0,0:0:0:0:
192,192,159455,1,0,0:0:0:0:
448,192,159455,1,0,0:0:0:0:
320,192,159455,1,0,0:0:0:0:
64,192,159548,1,0,0:0:0:0:
320,192,159548,1,0,0:0:0:0:
192,192,159595,1,0,0:0:0:0:
64,192,159642,1,0,0:0:0:0:
448,192,159736,1,0,0:0:0:0:
192,192,159736,1,0,0:0:0:0:
64,192,159830,1,0,0:0:0:0:
192,192,159830,1,0,0:0:0:0:
320,192,159830,1,0,0:0:0:0:
64,192,159923,1,0,0:0:0:0:
448,192,159923,1,0,0:0:0:0:
320,192,159970,1,0,0:0:0:0:
448,192,160017,1,0,0:0:0:0:
192,192,160111,1,0,0:0:0:0:
64,192,160111,1,0,0:0:0:0:
448,192,160205,1,0,0:0:0:0:
320,192,160205,1,0,0:0:0:0:
192,192,160205,1,0,0:0:0:0:
448,192,160298,1,0,0:0:0:0:
64,192,160298,1,0,0:0:0:0:
320,192,160392,1,0,0:0:0:0:
64,192,160392,1,0,0:0:0:0:
448,192,160439,1,0,0:0:0:0:
320,192,160486,1,0,0:0:0:0:
64,192,160580,5,0,0:0:0:0:
448,192,160580,1,0,0:0:0:0:
192,192,160580,1,0,0:0:0:0:
320,192,160626,1,0,0:0:0:0:
64,192,160673,1,0,0:0:0:0:
320,192,160720,1,0,0:0:0:0:
192,192,160767,1,0,0:0:0:0:
192,192,160861,1,0,0:0:0:0:
64,192,160955,1,0,0:0:0:0:
448,192,160955,1,0,0:0:0:0:
320,192,160955,1,0,0:0:0:0:
448,192,161048,1,0,0:0:0:0:
192,192,161048,1,0,0:0:0:0:
64,192,161095,1,0,0:0:0:0:
192,192,161142,1,0,0:0:0:0:
64,192,161236,1,0,0:0:0:0:
320,192,161236,1,0,0:0:0:0:
448,192,161330,1,0,0:0:0:0:
64,192,161330,1,0,0:0:0:0:
192,192,161330,1,0,0:0:0:0:
320,192,161423,1,0,0:0:0:0:
192,192,161423,1,0,0:0:0:0:
448,192,161470,1,0,0:0:0:0:
320,192,161517,1,0,0:0:0:0:
192,192,161611,1,0,0:0:0:0:
64,192,161611,1,0,0:0:0:0:
64,192,161705,1,0,0:0:0:0:
448,192,161705,1,0,0:0:0:0:
320,192,161705,1,0,0:0:0:0:
192,192,161798,1,0,0:0:0:0:
448,192,161798,1,0,0:0:0:0:
192,192,161892,1,0,0:0:0:0:
448,192,161892,1,0,0:0:0:0:
320,192,161986,1,0,0:0:0:0:
64,192,161986,1,0,0:0:0:0:
320,192,162080,1,0,0:0:0:0:
64,192,162173,1,0,0:0:0:0:
192,192,162173,1,0,0:0:0:0:
64,192,162267,128,0,162455:0:0:0:0:
192,192,162267,128,0,162361:0:0:0:0:
320,192,162267,128,0,162361:0:0:0:0:
448,192,162267,1,0,0:0:0:0:
448,192,162361,128,0,162455:0:0:0:0:
192,192,162455,1,0,0:0:0:0:
320,192,162455,1,0,0:0:0:0:
448,192,162642,128,0,162736:0:0:0:0:
320,192,162642,128,0,162830:0:0:0:0:
64,192,162642,1,0,0:0:0:0:
192,192,162642,128,0,162736:0:0:0:0:
64,192,162736,128,0,162830:0:0:0:0:
448,192,162830,1,0,0:0:0:0:
192,192,162830,1,0,0:0:0:0:
320,192,163017,1,0,0:0:0:0:
64,192,163017,128,0,163111:0:0:0:0:
192,192,163017,128,0,163205:0:0:0:0:
448,192,163017,128,0,163205:0:0:0:0:
320,192,163111,128,0,163205:0:0:0:0:
64,192,163205,1,0,0:0:0:0:
448,192,163392,1,0,0:0:0:0:
64,192,163392,128,0,163517:0:0:0:0:
64,192,163580,1,0,0:0:0:0:
320,192,163580,1,0,0:0:0:0:
448,192,163580,1,0,0:0:0:0:
192,192,163673,1,0,0:0:0:0:
320,192,163673,1,0,0:0:0:0:
448,192,163673,1,0,0:0:0:0:
320,192,163767,1,0,0:0:0:0:
192,192,163861,1,0,0:0:0:0:
64,192,163861,1,0,0:0:0:0:
448,192,163861,1,0,0:0:0:0:
64,192,163955,1,0,0:0:0:0:
448,192,163955,1,0,0:0:0:0:
192,192,164048,1,0,0:0:0:0:
320,192,164048,1,0,0:0:0:0:
64,192,164048,1,0,0:0:0:0:
192,192,164142,1,0,0:0:0:0:
320,192,164236,1,0,0:0:0:0:
448,192,164236,1,0,0:0:0:0:
192,192,164330,1,0,0:0:0:0:
64,192,164330,1,0,0:0:0:0:
448,192,164330,1,0,0:0:0:0:
64,192,164423,1,0,0:0:0:0:
192,192,164423,1,0,0:0:0:0:
320,192,164423,1,0,0:0:0:0:
64,192,164517,1,0,0:0:0:0:
320,192,164611,1,0,0:0:0:0:
192,192,164611,1,0,0:0:0:0:
448,192,164611,1,0,0:0:0:0:
448,192,164705,1,0,0:0:0:0:
192,192,164705,1,0,0:0:0:0:
448,192,164798,1,0,0:0:0:0:
320,192,164798,1,0,0:0:0:0:
64,192,164798,1,0,0:0:0:0:
320,192,164892,1,0,0:0:0:0:
192,192,164986,1,0,0:0:0:0:
64,192,164986,1,0,0:0:0:0:
192,192,165080,1,0,0:0:0:0:
320,192,165080,1,0,0:0:0:0:
448,192,165080,1,0,0:0:0:0:
64,192,165173,1,0,0:0:0:0:
448,192,165173,1,0,0:0:0:0:
320,192,165173,1,0,0:0:0:0:
448,192,165267,1,0,0:0:0:0:
64,192,165361,1,0,0:0:0:0:
192,192,165361,1,0,0:0:0:0:
320,192,165361,1,0,0:0:0:0:
320,192,165455,5,0,0:0:0:0:
192,192,165455,1,0,0:0:0:0:
192,192,165548,1,0,0:0:0:0:
448,192,165548,1,0,0:0:0:0:
64,192,165548,1,0,0:0:0:0:
64,192,165642,1,0,0:0:0:0:
448,192,165736,1,0,0:0:0:0:
320,192,165736,1,0,0:0:0:0:
320,192,165830,1,0,0:0:0:0:
64,192,165830,1,0,0:0:0:0:
192,192,165830,1,0,0:0:0:0:
192,192,165923,1,0,0:0:0:0:
64,192,165923,1,0,0:0:0:0:
448,192,165923,1,0,0:0:0:0:
192,192,166017,1,0,0:0:0:0:
64,192,166111,1,0,0:0:0:0:
448,192,166111,1,0,0:0:0:0:
320,192,166111,1,0,0:0:0:0:
64,192,166205,5,0,0:0:0:0:
320,192,166205,1,0,0:0:0:0:
320,192,166298,1,0,0:0:0:0:
64,192,166392,1,0,0:0:0:0:
192,192,166486,1,0,0:0:0:0:
448,192,166580,5,0,0:0:0:0:
192,192,166580,1,0,0:0:0:0:
64,192,166626,1,0,0:0:0:0:
448,192,166673,1,0,0:0:0:0:
192,192,166720,1,0,0:0:0:0:
64,192,166767,1,0,0:0:0:0:
320,192,166767,1,0,0:0:0:0:
448,192,166814,1,0,0:0:0:0:
320,192,166861,1,0,0:0:0:0:
192,192,166908,1,0,0:0:0:0:
64,192,166955,1,0,0:0:0:0:
448,192,166955,1,0,0:0:0:0:
320,192,167001,1,0,0:0:0:0:
64,192,167048,1,0,0:0:0:0:
448,192,167095,1,0,0:0:0:0:
320,192,167142,1,0,0:0:0:0:
192,192,167142,1,0,0:0:0:0:
64,192,167189,1,0,0:0:0:0:
192,192,167236,1,0,0:0:0:0:
448,192,167283,1,0,0:0:0:0:
320,192,167330,1,0,0:0:0:0:
64,192,167330,1,0,0:0:0:0:
192,192,167376,1,0,0:0:0:0:
320,192,167423,1,0,0:0:0:0:
64,192,167470,1,0,0:0:0:0:
448,192,167517,1,0,0:0:0:0:
192,192,167517,1,0,0:0:0:0:
320,192,167564,1,0,0:0:0:0:
448,192,167611,1,0,0:0:0:0:
64,192,167658,1,0,0:0:0:0:
192,192,167705,1,0,0:0:0:0:
320,192,167705,1,0,0:0:0:0:
448,192,167751,1,0,0:0:0:0:
192,192,167798,1,0,0:0:0:0:
320,192,167845,1,0,0:0:0:0:
448,192,167892,1,0,0:0:0:0:
64,192,167892,1,0,0:0:0:0:
192,192,167939,1,0,0:0:0:0:
64,192,167986,1,0,0:0:0:0:
320,192,168033,1,0,0:0:0:0:
192,192,168080,1,0,0:0:0:0:
448,192,168080,1,0,0:0:0:0:
64,192,168267,1,0,0:0:0:0:
64,192,168455,128,0,168548:0:0:0:0:
64,192,168642,128,0,168767:0:0:0:0:
64,192,168830,128,0,168955:0:0:0:0:
192,192,168861,128,0,168955:0:0:0:0:
64,192,169017,128,0,169142:0:0:0:0:
192,192,169048,128,0,169142:0:0:0:0:
448,192,169205,1,0,0:0:0:0:
320,192,169205,1,0,0:0:0:0:
192,192,169392,128,0,169517:0:0:0:0:
448,192,169392,128,0,169455:0:0:0:0:
64,192,169392,128,0,169486:0:0:0:0:
448,192,169580,128,0,169861:0:0:0:0:
64,192,169580,128,0,169767:0:0:0:0:
320,192,169580,128,0,169673:0:0:0:0:
192,192,169673,128,0,169767:0:0:0:0:
320,192,169767,128,0,169861:0:0:0:0:
192,192,169861,1,0,0:0:0:0:
64,192,169861,1,0,0:0:0:0:
448,192,169955,1,0,0:0:0:0:
320,192,169955,128,0,170142:0:0:0:0:
64,192,169955,128,0,170236:0:0:0:0:
192,192,170048,1,0,0:0:0:0:
448,192,170048,128,0,170142:0:0:0:0:
192,192,170142,1,0,0:0:0:0:
320,192,170236,1,0,0:0:0:0:
448,192,170236,1,0,0:0:0:0:
320,192,170330,128,0,170423:0:0:0:0:
448,192,170330,128,0,170423:0:0:0:0:
64,192,170423,1,0,0:0:0:0:
192,192,170423,1,0,0:0:0:0:
448,192,170517,1,0,0:0:0:0:
64,192,170517,128,0,170611:0:0:0:0:
192,192,170611,1,0,0:0:0:0:
448,192,170611,128,0,170705:0:0:0:0:
64,192,170705,1,0,0:0:0:0:
320,192,170705,128,0,170892:0:0:0:0:
192,192,170705,128,0,170798:0:0:0:0:
448,192,170798,1,0,0:0:0:0:
64,192,170798,128,0,170892:0:0:0:0:
192,192,170892,1,0,0:0:0:0:
448,192,170892,128,0,171080:0:0:0:0:
320,192,170986,1,0,0:0:0:0:
192,192,170986,128,0,171080:0:0:0:0:
320,192,171080,1,0,0:0:0:0:
64,192,171173,1,0,0:0:0:0:
448,192,171173,128,0,171267:0:0:0:0:
64,192,171267,128,0,171361:0:0:0:0:
192,192,171267,128,0,171361:0:0:0:0:
320,192,171361,1,0,0:0:0:0:
448,192,171361,1,0,0:0:0:0:
192,192,171455,1,0,0:0:0:0:
64,192,171455,128,0,171642:0:0:0:0:
448,192,171455,128,0,171736:0:0:0:0:
320,192,171548,1,0,0:0:0:0:
192,192,171548,128,0,171642:0:0:0:0:
320,192,171642,1,0,0:0:0:0:
192,192,171736,1,0,0:0:0:0:
64,192,171736,1,0,0:0:0:0:
192,192,171830,128,0,171923:0:0:0:0:
64,192,171830,128,0,171923:0:0:0:0:
320,192,171923,1,0,0:0:0:0:
448,192,171923,1,0,0:0:0:0:
64,192,172017,1,0,0:0:0:0:
448,192,172017,1,0,0:0:0:0:
192,192,172017,1,0,0:0:0:0:
64,192,172111,128,0,172205:0:0:0:0:
320,192,172205,1,0,0:0:0:0:
192,192,172205,128,0,172345:0:0:0:0:
448,192,172205,128,0,172345:0:0:0:0:
448,192,172392,128,0,172533:0:0:0:0:
64,192,172392,128,0,172533:0:0:0:0:
192,192,172580,128,0,172673:0:0:0:0:
320,192,172580,128,0,172767:0:0:0:0:
64,192,172580,128,0,172861:0:0:0:0:
448,192,172673,128,0,172767:0:0:0:0:
192,192,172767,128,0,172861:0:0:0:0:
320,192,172861,1,0,0:0:0:0:
448,192,172861,1,0,0:0:0:0:
320,192,172955,128,0,173236:0:0:0:0:
192,192,172955,128,0,173142:0:0:0:0:
64,192,172955,1,0,0:0:0:0:
64,192,173048,128,0,173142:0:0:0:0:
448,192,173048,1,0,0:0:0:0:
448,192,173142,1,0,0:0:0:0:
64,192,173236,1,0,0:0:0:0:
192,192,173236,1,0,0:0:0:0:
64,192,173330,128,0,173423:0:0:0:0:
192,192,173330,128,0,173423:0:0:0:0:
448,192,173423,1,0,0:0:0:0:
320,192,173423,1,0,0:0:0:0:
320,192,173517,128,0,173611:0:0:0:0:
64,192,173517,1,0,0:0:0:0:
64,192,173611,128,0,173705:0:0:0:0:
448,192,173611,1,0,0:0:0:0:
448,192,173705,128,0,173798:0:0:0:0:
192,192,173705,128,0,173892:0:0:0:0:
320,192,173705,1,0,0:0:0:0:
320,192,173798,128,0,173892:0:0:0:0:
64,192,173798,1,0,0:0:0:0:
64,192,173892,128,0,174080:0:0:0:0:
448,192,173892,1,0,0:0:0:0:
448,192,173986,128,0,174080:0:0:0:0:
192,192,173986,1,0,0:0:0:0:
192,192,174080,1,0,0:0:0:0:
64,192,174173,128,0,174267:0:0:0:0:
320,192,174173,1,0,0:0:0:0:
448,192,174267,128,0,174361:0:0:0:0:
320,192,174267,128,0,174361:0:0:0:0:
64,192,174361,1,0,0:0:0:0:
192,192,174361,1,0,0:0:0:0:
64,192,174455,128,0,174736:0:0:0:0:
320,192,174455,128,0,174642:0:0:0:0:
448,192,174455,1,0,0:0:0:0:
448,192,174548,128,0,174642:0:0:0:0:
192,192,174548,1,0,0:0:0:0:
192,192,174642,1,0,0:0:0:0:
320,192,174736,1,0,0:0:0:0:
448,192,174736,1,0,0:0:0:0:
320,192,174830,128,0,174923:0:0:0:0:
448,192,174830,128,0,174923:0:0:0:0:
64,192,174923,1,0,0:0:0:0:
192,192,174923,1,0,0:0:0:0:
448,192,175017,1,0,0:0:0:0:
320,192,175017,1,0,0:0:0:0:
64,192,175017,1,0,0:0:0:0:
320,192,175111,128,0,175205:0:0:0:0:
64,192,175205,128,0,175345:0:0:0:0:
448,192,175205,128,0,175345:0:0:0:0:
192,192,175205,1,0,0:0:0:0:
320,192,175392,128,0,175533:0:0:0:0:
64,192,175392,128,0,175533:0:0:0:0:
192,192,175580,128,0,175767:0:0:0:0:
320,192,175580,128,0,175720:0:0:0:0:
448,192,175580,128,0,175720:0:0:0:0:
64,192,175673,128,0,175767:0:0:0:0:
448,192,175767,128,0,175861:0:0:0:0:
192,192,175861,128,0,176001:0:0:0:0:
64,192,175861,128,0,176001:0:0:0:0:
448,192,175955,128,0,176142:0:0:0:0:
320,192,175955,1,0,0:0:0:0:
320,192,176048,128,0,176142:0:0:0:0:
64,192,176048,1,0,0:0:0:0:
192,192,176142,128,0,176283:0:0:0:0:
64,192,176142,128,0,176283:0:0:0:0:
320,192,176236,1,0,0:0:0:0:
448,192,176236,1,0,0:0:0:0:
320,192,176330,128,0,176423:0:0:0:0:
448,192,176330,128,0,176423:0:0:0:0:
64,192,176423,1,0,0:0:0:0:
192,192,176423,1,0,0:0:0:0:
192,192,176517,128,0,176611:0:0:0:0:
320,192,176517,1,0,0:0:0:0:
320,192,176611,128,0,176705:0:0:0:0:
64,192,176611,1,0,0:0:0:0:
64,192,176705,128,0,176798:0:0:0:0:
448,192,176705,128,0,176892:0:0:0:0:
192,192,176705,1,0,0:0:0:0:
192,192,176798,128,0,176892:0:0:0:0:
320,192,176798,1,0,0:0:0:0:
320,192,176892,128,0,177080:0:0:0:0:
64,192,176892,1,0,0:0:0:0:
64,192,176986,128,0,177080:0:0:0:0:
448,192,176986,1,0,0:0:0:0:
448,192,177080,1,0,0:0:0:0:
320,192,177173,128,0,177267:0:0:0:0:
192,192,177173,1,0,0:0:0:0:
64,192,177267,128,0,177361:0:0:0:0:
192,192,177267,128,0,177361:0:0:0:0:
320,192,177361,1,0,0:0:0:0:
448,192,177361,1,0,0:0:0:0:
320,192,177455,128,0,177736:0:0:0:0:
192,192,177455,128,0,177642:0:0:0:0:
64,192,177455,1,0,0:0:0:0:
64,192,177548,128,0,177642:0:0:0:0:
448,192,177548,1,0,0:0:0:0:
448,192,177642,1,0,0:0:0:0:
192,192,177736,1,0,0:0:0:0:
64,192,177736,1,0,0:0:0:0:
192,192,177830,128,0,177923:0:0:0:0:
64,192,177830,128,0,177923:0:0:0:0:
320,192,177923,1,0,0:0:0:0:
448,192,177923,1,0,0:0:0:0:
64,192,178017,1,0,0:0:0:0:
320,192,178017,1,0,0:0:0:0:
192,192,178017,1,0,0:0:0:0:
192,192,178111,128,0,178205:0:0:0:0:
320,192,178205,128,0,178345:0:0:0:0:
64,192,178205,128,0,178345:0:0:0:0:
448,192,178205,1,0,0:0:0:0:
192,192,178392,128,0,178533:0:0:0:0:
320,192,178392,128,0,178533:0:0:0:0:
448,192,178580,128,0,178767:0:0:0:0:
64,192,178580,128,0,178673:0:0:0:0:
192,192,178580,128,0,178861:0:0:0:0:
320,192,178673,128,0,178767:0:0:0:0:
64,192,178767,128,0,178861:0:0:0:0:
448,192,178861,1,0,0:0:0:0:
320,192,178861,1,0,0:0:0:0:
64,192,178955,128,0,179142:0:0:0:0:
192,192,178955,1,0,0:0:0:0:
448,192,178955,128,0,179236:0:0:0:0:
192,192,179048,128,0,179142:0:0:0:0:
320,192,179048,1,0,0:0:0:0:
320,192,179142,1,0,0:0:0:0:
192,192,179236,1,0,0:0:0:0:
64,192,179236,1,0,0:0:0:0:
192,192,179330,128,0,179423:0:0:0:0:
64,192,179330,128,0,179423:0:0:0:0:
320,192,179423,1,0,0:0:0:0:
448,192,179423,1,0,0:0:0:0:
448,192,179517,128,0,179611:0:0:0:0:
192,192,179517,1,0,0:0:0:0:
192,192,179611,128,0,179705:0:0:0:0:
320,192,179611,1,0,0:0:0:0:
320,192,179705,128,0,179798:0:0:0:0:
64,192,179705,128,0,179892:0:0:0:0:
448,192,179705,1,0,0:0:0:0:
448,192,179798,128,0,179892:0:0:0:0:
192,192,179798,1,0,0:0:0:0:
192,192,179892,128,0,179986:0:0:0:0:
320,192,179892,1,0,0:0:0:0:
320,192,179986,128,0,180080:0:0:0:0:
64,192,179986,1,0,0:0:0:0:
448,192,180080,1,0,0:0:0:0:
192,192,180080,128,0,180220:0:0:0:0:
64,192,180080,128,0,180220:0:0:0:0:
320,192,180173,1,0,0:0:0:0:
192,192,180267,1,0,0:0:0:0:
448,192,180361,1,0,0:0:0:0:
64,192,180361,128,0,180455:0:0:0:0:
320,192,180455,1,0,0:0:0:0:
192,192,180455,1,0,0:0:0:0:
448,192,180455,1,0,0:0:0:0:
192,192,180548,1,0,0:0:0:0:
448,192,180642,128,0,180783:0:0:0:0:
320,192,180642,128,0,180736:0:0:0:0:
192,192,180689,1,0,0:0:0:0:
64,192,180736,1,0,0:0:0:0:
320,192,180783,1,0,0:0:0:0:
192,192,180830,1,0,0:0:0:0:
64,192,180923,1,0,0:0:0:0:
448,192,180923,128,0,181017:0:0:0:0:
64,192,181017,1,0,0:0:0:0:
320,192,181017,1,0,0:0:0:0:
320,192,181111,1,0,0:0:0:0:
192,192,181205,1,0,0:0:0:0:
448,192,181205,128,0,181486:0:0:0:0:
64,192,181205,128,0,181486:0:0:0:0:
192,192,181298,128,0,181392:0:0:0:0:
320,192,181392,128,0,181486:0:0:0:0:
192,192,181486,1,0,0:0:0:0:
64,192,181580,128,0,181767:0:0:0:0:
320,192,181580,128,0,181673:0:0:0:0:
448,192,181580,128,0,181861:0:0:0:0:
192,192,181673,128,0,181767:0:0:0:0:
320,192,181767,128,0,181861:0:0:0:0:
192,192,181861,1,0,0:0:0:0:
64,192,181861,1,0,0:0:0:0:
448,192,181955,1,0,0:0:0:0:
320,192,181955,128,0,182142:0:0:0:0:
64,192,181955,128,0,182236:0:0:0:0:
192,192,182048,1,0,0:0:0:0:
448,192,182048,128,0,182142:0:0:0:0:
192,192,182142,1,0,0:0:0:0:
320,192,182236,1,0,0:0:0:0:
448,192,182236,1,0,0:0:0:0:
320,192,182330,128,0,182423:0:0:0:0:
448,192,182330,128,0,182423:0:0:0:0:
64,192,182423,1,0,0:0:0:0:
192,192,182423,1,0,0:0:0:0:
448,192,182517,1,0,0:0:0:0:
64,192,182517,128,0,182611:0:0:0:0:
192,192,182611,1,0,0:0:0:0:
448,192,182611,128,0,182705:0:0:0:0:
64,192,182705,1,0,0:0:0:0:
320,192,182705,128,0,182892:0:0:0:0:
192,192,182705,128,0,182798:0:0:0:0:
448,192,182798,1,0,0:0:0:0:
64,192,182798,128,0,182892:0:0:0:0:
192,192,182892,1,0,0:0:0:0:
448,192,182892,128,0,183080:0:0:0:0:
320,192,182986,1,0,0:0:0:0:
192,192,182986,128,0,183080:0:0:0:0:
320,192,183080,1,0,0:0:0:0:
64,192,183173,1,0,0:0:0:0:
448,192,183173,128,0,183267:0:0:0:0:
64,192,183267,128,0,183361:0:0:0:0:
192,192,183267,128,0,183361:0:0:0:0:
320,192,183361,1,0,0:0:0:0:
448,192,183361,1,0,0:0:0:0:
192,192,183455,1,0,0:0:0:0:
64,192,183455,128,0,183642:0:0:0:0:
448,192,183455,128,0,183736:0:0:0:0:
320,192,183548,1,0,0:0:0:0:
192,192,183548,128,0,183642:0:0:0:0:
320,192,183642,1,0,0:0:0:0:
192,192,183736,1,0,0:0:0:0:
64,192,183736,1,0,0:0:0:0:
192,192,183830,128,0,183923:0:0:0:0:
64,192,183830,128,0,183923:0:0:0:0:
320,192,183923,1,0,0:0:0:0:
448,192,183923,1,0,0:0:0:0:
64,192,184017,1,0,0:0:0:0:
448,192,184017,1,0,0:0:0:0:
192,192,184017,1,0,0:0:0:0:
64,192,184111,128,0,184205:0:0:0:0:
320,192,184205,1,0,0:0:0:0:
192,192,184205,128,0,184345:0:0:0:0:
448,192,184205,128,0,184345:0:0:0:0:
448,192,184392,128,0,184533:0:0:0:0:
64,192,184392,128,0,184533:0:0:0:0:
192,192,184580,128,0,184673:0:0:0:0:
320,192,184580,128,0,184767:0:0:0:0:
64,192,184580,128,0,184861:0:0:0:0:
448,192,184673,128,0,184767:0:0:0:0:
192,192,184767,128,0,184861:0:0:0:0:
320,192,184861,1,0,0:0:0:0:
448,192,184861,1,0,0:0:0:0:
320,192,184955,128,0,185236:0:0:0:0:
192,192,184955,128,0,185142:0:0:0:0:
64,192,184955,1,0,0:0:0:0:
64,192,185048,128,0,185142:0:0:0:0:
448,192,185048,1,0,0:0:0:0:
448,192,185142,1,0,0:0:0:0:
64,192,185236,1,0,0:0:0:0:
192,192,185236,1,0,0:0:0:0:
64,192,185330,128,0,185423:0:0:0:0:
192,192,185330,128,0,185423:0:0:0:0:
448,192,185423,1,0,0:0:0:0:
320,192,185423,1,0,0:0:0:0:
320,192,185517,128,0,185611:0:0:0:0:
64,192,185517,1,0,0:0:0:0:
64,192,185611,128,0,185705:0:0:0:0:
448,192,185611,1,0,0:0:0:0:
448,192,185705,128,0,185798:0:0:0:0:
192,192,185705,128,0,185892:0:0:0:0:
320,192,185705,1,0,0:0:0:0:
320,192,185798,128,0,185892:0:0:0:0:
64,192,185798,1,0,0:0:0:0:
64,192,185892,128,0,186080:0:0:0:0:
448,192,185892,1,0,0:0:0:0:
448,192,185986,128,0,186080:0:0:0:0:
192,192,185986,1,0,0:0:0:0:
320,192,186080,1,0,0:0:0:0:
192,192,186080,1,0,0:0:0:0:
448,192,186173,1,0,0:0:0:0:
192,192,186267,1,0,0:0:0:0:
448,192,186361,1,0,0:0:0:0:
192,192,186455,1,0,0:0:0:0:
320,192,186548,1,0,0:0:0:0:
64,192,186642,1,0,0:0:0:0:
448,192,186642,1,0,0:0:0:0:
192,192,186736,1,0,0:0:0:0:
320,192,186830,1,0,0:0:0:0:
64,192,186923,1,0,0:0:0:0:
320,192,187017,1,0,0:0:0:0:
192,192,187017,1,0,0:0:0:0:
448,192,187111,1,0,0:0:0:0:
192,192,187111,1,0,0:0:0:0:
448,192,187205,1,0,0:0:0:0:
64,192,187205,1,0,0:0:0:0:
192,192,187298,1,0,0:0:0:0:
320,192,187298,1,0,0:0:0:0:
192,192,187392,1,0,0:0:0:0:
448,192,187392,1,0,0:0:0:0:
320,192,187486,1,0,0:0:0:0:
192,192,187580,1,0,0:0:0:0:
64,192,187580,1,0,0:0:0:0:
448,192,187580,1,0,0:0:0:0:
192,192,187673,1,0,0:0:0:0:
64,192,187673,1,0,0:0:0:0:
192,192,187767,1,0,0:0:0:0:
320,192,187861,1,0,0:0:0:0:
448,192,187861,1,0,0:0:0:0:
64,192,187861,1,0,0:0:0:0:
448,192,187955,1,0,0:0:0:0:
192,192,187955,1,0,0:0:0:0:
320,192,187955,1,0,0:0:0:0:
448,192,188048,1,0,0:0:0:0:
320,192,188142,1,0,0:0:0:0:
192,192,188142,1,0,0:0:0:0:
64,192,188142,1,0,0:0:0:0:
64,192,188236,1,0,0:0:0:0:
192,192,188236,1,0,0:0:0:0:
448,192,188330,1,0,0:0:0:0:
64,192,188330,1,0,0:0:0:0:
448,192,188423,128,0,188611:0:0:0:0:
320,192,188517,128,0,188611:0:0:0:0:
192,192,188611,1,0,0:0:0:0:
64,192,188705,1,0,0:0:0:0:
320,192,188751,1,0,0:0:0:0:
64,192,188798,1,0,0:0:0:0:
448,192,188845,1,0,0:0:0:0:
192,192,188892,1,0,0:0:0:0:
448,192,188939,1,0,0:0:0:0:
64,192,188986,1,0,0:0:0:0:
320,192,189033,1,0,0:0:0:0:
192,192,189080,1,0,0:0:0:0:
64,192,189080,1,0,0:0:0:0:
448,192,189080,1,0,0:0:0:0:
192,192,189173,1,0,0:0:0:0:
64,192,189173,1,0,0:0:0:0:
192,192,189267,1,0,0:0:0:0:
320,192,189361,1,0,0:0:0:0:
448,192,189361,1,0,0:0:0:0:
64,192,189361,1,0,0:0:0:0:
448,192,189455,1,0,0:0:0:0:
192,192,189455,1,0,0:0:0:0:
320,192,189455,1,0,0:0:0:0:
448,192,189548,1,0,0:0:0:0:
320,192,189642,1,0,0:0:0:0:
192,192,189642,1,0,0:0:0:0:
64,192,189642,1,0,0:0:0:0:
64,192,189736,1,0,0:0:0:0:
192,192,189736,1,0,0:0:0:0:
448,192,189830,1,0,0:0:0:0:
64,192,189830,1,0,0:0:0:0:
448,192,190017,128,0,190298:0:0:0:0:
64,192,190111,128,0,190298:0:0:0:0:
320,192,190205,128,0,190298:0:0:0:0:
320,192,190392,128,0,190580:0:0:0:0:
192,192,190580,1,0,0:0:0:0:
64,192,190580,1,0,0:0:0:0:
448,192,190580,1,0,0:0:0:0:
320,192,190626,1,0,0:0:0:0:
64,192,190673,1,0,0:0:0:0:
448,192,190720,1,0,0:0:0:0:
192,192,190767,1,0,0:0:0:0:
320,192,190814,1,0,0:0:0:0:
64,192,190861,1,0,0:0:0:0:
448,192,190861,1,0,0:0:0:0:
192,192,190908,1,0,0:0:0:0:
448,192,190955,1,0,0:0:0:0:
320,192,190955,1,0,0:0:0:0:
64,192,191001,1,0,0:0:0:0:
320,192,191048,1,0,0:0:0:0:
192,192,191095,1,0,0:0:0:0:
64,192,191142,1,0,0:0:0:0:
448,192,191142,1,0,0:0:0:0:
320,192,191189,1,0,0:0:0:0:
64,192,191236,1,0,0:0:0:0:
192,192,191283,1,0,0:0:0:0:
320,192,191330,1,0,0:0:0:0:
448,192,191330,1,0,0:0:0:0:
64,192,191376,1,0,0:0:0:0:
448,192,191423,1,0,0:0:0:0:
192,192,191470,1,0,0:0:0:0:
320,192,191517,1,0,0:0:0:0:
64,192,191564,1,0,0:0:0:0:
192,192,191611,1,0,0:0:0:0:
448,192,191611,1,0,0:0:0:0:
320,192,191658,1,0,0:0:0:0:
192,192,191705,1,0,0:0:0:0:
64,192,191705,1,0,0:0:0:0:
448,192,191751,1,0,0:0:0:0:
64,192,191798,1,0,0:0:0:0:
320,192,191845,1,0,0:0:0:0:
448,192,191892,1,0,0:0:0:0:
192,192,191892,1,0,0:0:0:0:
64,192,191939,1,0,0:0:0:0:
448,192,191986,1,0,0:0:0:0:
320,192,192033,1,0,0:0:0:0:
192,192,192080,1,0,0:0:0:0:
64,192,192080,1,0,0:0:0:0:
448,192,192173,1,0,0:0:0:0:
192,192,192267,1,0,0:0:0:0:
320,192,192361,1,0,0:0:0:0:
64,192,192455,1,0,0:0:0:0:
448,192,192455,1,0,0:0:0:0:
192,192,192548,1,0,0:0:0:0:
448,192,192642,1,0,0:0:0:0:
320,192,192705,1,0,0:0:0:0:
192,192,192767,1,0,0:0:0:0:
320,192,192830,1,0,0:0:0:0:
64,192,192830,1,0,0:0:0:0:
448,192,192923,1,0,0:0:0:0:
64,192,193017,128,0,193486:0:0:0:0:
320,192,193111,1,0,0:0:0:0:
192,192,193205,128,0,193392:0:0:0:0:
448,192,193298,128,0,193486:0:0:0:0:
320,192,193392,128,0,193486:0:0:0:0:
192,192,193486,128,0,193580:0:0:0:0:
320,192,193580,1,0,0:0:0:0:
448,192,193580,1,0,0:0:0:0:
64,192,193580,1,0,0:0:0:0:
448,192,194330,1,0,0:0:0:0:
448,192,194892,1,0,0:0:0:0:
192,192,195080,1,0,0:0:0:0:
448,192,195455,1,0,0:0:0:0:
64,192,195642,1,0,0:0:0:0:
320,192,195830,1,0,0:0:0:0:
192,192,196205,1,0,0:0:0:0:
320,192,196392,1,0,0:0:0:0:
64,192,196580,1,0,0:0:0:0:
320,192,196955,1,0,0:0:0:0:
64,192,197142,1,0,0:0:0:0:
192,192,197236,1,0,0:0:0:0:
448,192,197330,1,0,0:0:0:0:
192,192,197423,1,0,0:0:0:0:
64,192,197517,1,0,0:0:0:0:
320,192,197705,1,0,0:0:0:0:
64,192,197892,1,0,0:0:0:0:
448,192,198080,1,0,0:0:0:0:
192,192,198455,1,0,0:0:0:0:
448,192,198642,1,0,0:0:0:0:
320,192,198736,1,0,0:0:0:0:
64,192,198830,1,0,0:0:0:0:
320,192,198923,1,0,0:0:0:0:
448,192,199017,1,0,0:0:0:0:
192,192,199205,1,0,0:0:0:0:
448,192,199392,1,0,0:0:0:0:
192,192,199580,1,0,0:0:0:0:
64,192,199580,1,0,0:0:0:0:
320,192,199613,1,0,0:0:0:0:
448,192,199980,1,0,0:0:0:0:
192,192,200180,1,0,0:0:0:0:
64,192,200280,1,0,0:0:0:0:
320,192,200380,1,0,0:0:0:0:
64,192,200480,1,0,0:0:0:0:
192,192,200580,1,0,0:0:0:0:
448,192,200780,1,0,0:0:0:0:
192,192,200980,1,0,0:0:0:0:
64,192,201180,1,0,0:0:0:0:
448,192,201380,1,0,0:0:0:0:
192,192,201580,1,0,0:0:0:0:
320,192,201780,1,0,0:0:0:0:
448,192,201905,1,0,0:0:0:0:
192,192,201980,1,0,0:0:0:0:
448,192,202105,1,0,0:0:0:0:
320,192,202180,1,0,0:0:0:0:
64,192,202380,1,0,0:0:0:0:
192,192,202580,1,0,0:0:0:0:
64,192,202780,1,0,0:0:0:0:
448,192,202780,1,0,0:0:0:0:
320,192,202994,1,0,0:0:0:0:
192,192,203208,1,0,0:0:0:0:
64,192,203208,1,0,0:0:0:0:
448,192,203422,1,0,0:0:0:0:
64,192,203556,1,0,0:0:0:0:
448,192,203637,1,0,0:0:0:0:
64,192,203771,1,0,0:0:0:0:
320,192,203851,1,0,0:0:0:0:
192,192,204065,1,0,0:0:0:0:
448,192,204065,1,0,0:0:0:0:
448,192,204280,1,0,0:0:0:0:
64,192,204413,1,0,0:0:0:0:
192,192,204494,1,0,0:0:0:0:
320,192,204494,1,0,0:0:0:0:
448,192,204708,1,0,0:0:0:0:
192,192,204922,1,0,0:0:0:0:
64,192,204922,1,0,0:0:0:0:
320,192,205137,5,0,0:0:0:0:
192,192,205271,1,0,0:0:0:0:
320,192,205351,128,0,206101:0:0:0:0:
192,192,205485,1,0,0:0:0:0:
448,192,205565,128,0,206101:0:0:0:0:
64,192,205780,128,0,206101:0:0:0:0:
192,192,205994,128,0,206101:0:0:0:0:
64,192,206209,5,0,0:0:0:0:
192,192,206209,1,0,0:0:0:0:
448,192,206209,1,0,0:0:0:0:
64,192,206320,1,0,0:0:0:0:
448,192,206320,1,0,0:0:0:0:
320,192,206431,1,0,0:0:0:0:
64,192,206542,1,0,0:0:0:0:
192,192,206542,1,0,0:0:0:0:
448,192,206653,1,0,0:0:0:0:
192,192,206764,1,0,0:0:0:0:
64,192,206764,1,0,0:0:0:0:
448,192,206875,1,0,0:0:0:0:
192,192,206986,1,0,0:0:0:0:
192,192,207042,1,0,0:0:0:0:
448,192,207097,1,0,0:0:0:0:
64,192,207097,1,0,0:0:0:0:
448,192,207209,1,0,0:0:0:0:
64,192,207209,1,0,0:0:0:0:
320,192,207320,1,0,0:0:0:0:
192,192,207431,1,0,0:0:0:0:
64,192,207431,1,0,0:0:0:0:
448,192,207542,1,0,0:0:0:0:
192,192,207653,1,0,0:0:0:0:
64,192,207653,1,0,0:0:0:0:
320,192,207764,1,0,0:0:0:0:
192,192,207820,1,0,0:0:0:0:
320,192,207875,1,0,0:0:0:0:
192,192,207931,1,0,0:0:0:0:
64,192,207986,1,0,0:0:0:0:
448,192,207986,1,0,0:0:0:0:
320,192,207986,1,0,0:0:0:0:
64,192,208097,1,0,0:0:0:0:
448,192,208097,1,0,0:0:0:0:
192,192,208209,1,0,0:0:0:0:
320,192,208320,1,0,0:0:0:0:
448,192,208320,1,0,0:0:0:0:
64,192,208431,1,0,0:0:0:0:
448,192,208542,1,0,0:0:0:0:
320,192,208542,1,0,0:0:0:0:
64,192,208653,1,0,0:0:0:0:
320,192,208764,1,0,0:0:0:0:
448,192,208764,1,0,0:0:0:0:
192,192,208875,1,0,0:0:0:0:
64,192,208875,1,0,0:0:0:0:
192,192,208986,1,0,0:0:0:0:
448,192,208986,1,0,0:0:0:0:
448,192,209097,1,0,0:0:0:0:
64,192,209097,1,0,0:0:0:0:
320,192,209209,1,0,0:0:0:0:
192,192,209209,1,0,0:0:0:0:
64,192,209320,1,0,0:0:0:0:
320,192,209320,1,0,0:0:0:0:
448,192,209375,1,0,0:0:0:0:
64,192,209431,1,0,0:0:0:0:
192,192,209486,1,0,0:0:0:0:
448,192,209542,1,0,0:0:0:0:
320,192,209597,1,0,0:0:0:0:
448,192,209653,1,0,0:0:0:0:
320,192,209709,1,0,0:0:0:0:
64,192,209764,1,0,0:0:0:0:
192,192,209764,1,0,0:0:0:0:
448,192,209820,1,0,0:0:0:0:
192,192,209875,1,0,0:0:0:0:
320,192,209931,1,0,0:0:0:0:
64,192,209986,1,0,0:0:0:0:
448,192,210042,1,0,0:0:0:0:
64,192,210097,1,0,0:0:0:0:
192,192,210153,1,0,0:0:0:0:
320,192,210209,1,0,0:0:0:0:
448,192,210209,1,0,0:0:0:0:
64,192,210264,1,0,0:0:0:0:
320,192,210320,1,0,0:0:0:0:
64,192,210375,5,0,0:0:0:0:
192,192,210431,1,0,0:0:0:0:
448,192,210431,1,0,0:0:0:0:
320,192,210486,1,0,0:0:0:0:
192,192,210542,1,0,0:0:0:0:
448,192,210597,1,0,0:0:0:0:
320,192,210653,5,0,0:0:0:0:
64,192,210653,1,0,0:0:0:0:
192,192,210709,1,0,0:0:0:0:
320,192,210764,1,0,0:0:0:0:
192,192,210820,1,0,0:0:0:0:
64,192,210875,5,0,0:0:0:0:
448,192,210875,1,0,0:0:0:0:
320,192,210931,1,0,0:0:0:0:
64,192,210986,1,0,0:0:0:0:
448,192,211042,1,0,0:0:0:0:
192,192,211097,1,0,0:0:0:0:
320,192,211097,1,0,0:0:0:0:
64,192,211153,1,0,0:0:0:0:
448,192,211209,1,0,0:0:0:0:
64,192,211264,1,0,0:0:0:0:
448,192,211320,1,0,0:0:0:0:
64,192,211375,1,0,0:0:0:0:
448,192,211431,1,0,0:0:0:0:
192,192,211486,1,0,0:0:0:0:
64,192,211542,128,0,211653:0:0:0:0:
320,192,211542,128,0,211653:0:0:0:0:
448,192,211542,128,0,211653:0:0:0:0:
448,192,211764,128,0,211820:0:0:0:0:
192,192,211820,128,0,211875:0:0:0:0:
64,192,211875,128,0,211986:0:0:0:0:
448,192,211875,128,0,211986:0:0:0:0:
320,192,211875,1,0,0:0:0:0:
192,192,211931,128,0,212042:0:0:0:0:
320,192,211986,128,0,212097:0:0:0:0:
448,192,212042,128,0,212153:0:0:0:0:
64,192,212097,128,0,212153:0:0:0:0:
320,192,212209,128,0,212320:0:0:0:0:
448,192,212209,128,0,212320:0:0:0:0:
64,192,212209,128,0,212264:0:0:0:0:
64,192,212320,128,0,212375:0:0:0:0:
64,192,212431,128,0,212486:0:0:0:0:
320,192,212542,128,0,212653:0:0:0:0:
448,192,212542,128,0,212653:0:0:0:0:
64,192,212542,128,0,212597:0:0:0:0:
64,192,212653,128,0,212709:0:0:0:0:
64,192,212764,128,0,212820:0:0:0:0:
320,192,212875,128,0,212986:0:0:0:0:
448,192,212875,128,0,212986:0:0:0:0:
64,192,212875,128,0,213097:0:0:0:0:
192,192,212949,128,0,213097:0:0:0:0:
448,192,213097,128,0,213246:0:0:0:0:
320,192,213097,128,0,213320:0:0:0:0:
64,192,213320,5,0,0:0:0:0:
192,192,213320,1,0,0:0:0:0:
448,192,213431,1,0,0:0:0:0:
64,192,213468,1,0,0:0:0:0:
320,192,213505,1,0,0:0:0:0:
192,192,213542,1,0,0:0:0:0:
448,192,213579,1,0,0:0:0:0:
320,192,213616,1,0,0:0:0:0:
64,192,213653,1,0,0:0:0:0:
192,192,213690,1,0,0:0:0:0:
320,192,213727,1,0,0:0:0:0:
448,192,213764,1,0,0:0:0:0:
64,192,213764,1,0,0:0:0:0:
192,192,213875,128,0,213986:0:0:0:0:
64,192,213931,128,0,214060:0:0:0:0:
448,192,213986,1,0,0:0:0:0:
320,192,214023,1,0,0:0:0:0:
192,192,214060,1,0,0:0:0:0:
448,192,214097,1,0,0:0:0:0:
64,192,214134,1,0,0:0:0:0:
192,192,214171,1,0,0:0:0:0:
320,192,214209,1,0,0:0:0:0:
448,192,214209,1,0,0:0:0:0:
320,192,214320,128,0,214597:0:0:0:0:
64,192,214320,128,0,214375:0:0:0:0:
192,192,214375,128,0,214431:0:0:0:0:
64,192,214431,128,0,214486:0:0:0:0:
192,192,214486,128,0,214542:0:0:0:0:
64,192,214542,128,0,214597:0:0:0:0:
192,192,214597,128,0,214653:0:0:0:0:
448,192,214653,1,0,0:0:0:0:
320,192,214653,1,0,0:0:0:0:
320,192,214764,128,0,214875:0:0:0:0:
448,192,214820,128,0,214949:0:0:0:0:
192,192,214875,1,0,0:0:0:0:
64,192,214912,1,0,0:0:0:0:
320,192,214949,1,0,0:0:0:0:
192,192,214986,1,0,0:0:0:0:
448,192,215023,1,0,0:0:0:0:
320,192,215060,1,0,0:0:0:0:
64,192,215097,1,0,0:0:0:0:
192,192,215097,1,0,0:0:0:0:
64,192,215209,128,0,215486:0:0:0:0:
448,192,215209,128,0,215264:0:0:0:0:
320,192,215264,128,0,215320:0:0:0:0:
448,192,215320,128,0,215375:0:0:0:0:
320,192,215375,128,0,215431:0:0:0:0:
448,192,215431,128,0,215486:0:0:0:0:
320,192,215486,128,0,215542:0:0:0:0:
192,192,215542,1,0,0:0:0:0:
64,192,215542,1,0,0:0:0:0:
64,192,215653,128,0,215764:0:0:0:0:
192,192,215709,128,0,215838:0:0:0:0:
320,192,215764,1,0,0:0:0:0:
448,192,215801,1,0,0:0:0:0:
64,192,215838,1,0,0:0:0:0:
320,192,215875,1,0,0:0:0:0:
192,192,215912,1,0,0:0:0:0:
64,192,215949,1,0,0:0:0:0:
448,192,215986,1,0,0:0:0:0:
320,192,215986,1,0,0:0:0:0:
192,192,216097,128,0,216153:0:0:0:0:
448,192,216097,128,0,216375:0:0:0:0:
64,192,216153,128,0,216209:0:0:0:0:
192,192,216209,128,0,216264:0:0:0:0:
64,192,216264,128,0,216320:0:0:0:0:
192,192,216320,128,0,216375:0:0:0:0:
64,192,216375,128,0,216431:0:0:0:0:
320,192,216431,1,0,0:0:0:0:
448,192,216431,1,0,0:0:0:0:
64,192,216505,1,0,0:0:0:0:
320,192,216542,1,0,0:0:0:0:
192,192,216579,1,0,0:0:0:0:
320,192,216653,1,0,0:0:0:0:
64,192,216690,1,0,0:0:0:0:
448,192,216727,1,0,0:0:0:0:
192,192,216764,1,0,0:0:0:0:
64,192,216801,1,0,0:0:0:0:
320,192,216875,1,0,0:0:0:0:
448,192,216875,1,0,0:0:0:0:
192,192,216931,128,0,217097:0:0:0:0:
448,192,216986,128,0,217209:0:0:0:0:
64,192,217042,128,0,217153:0:0:0:0:
320,192,217097,128,0,217264:0:0:0:0:
192,192,217153,128,0,217320:0:0:0:0:
64,192,217209,128,0,217320:0:0:0:0:
320,192,217320,1,0,0:0:0:0:
448,192,217320,1,0,0:0:0:0:
64,192,217394,128,0,217468:0:0:0:0:
448,192,217468,1,0,0:0:0:0:
192,192,217468,128,0,217542:0:0:0:0:
448,192,217542,1,0,0:0:0:0:
64,192,217542,128,0,217616:0:0:0:0:
320,192,217616,1,0,0:0:0:0:
192,192,217616,128,0,217690:0:0:0:0:
320,192,217690,1,0,0:0:0:0:
64,192,217690,128,0,217764:0:0:0:0:
192,192,217764,1,0,0:0:0:0:
448,192,217764,1,0,0:0:0:0:
192,192,217875,1,0,0:0:0:0:
64,192,217986,1,0,0:0:0:0:
320,192,217986,1,0,0:0:0:0:
448,192,218014,1,0,0:0:0:0:
192,192,218042,1,0,0:0:0:0:
320,192,218070,1,0,0:0:0:0:
64,192,218097,1,0,0:0:0:0:
448,192,218153,1,0,0:0:0:0:
64,192,218209,1,0,0:0:0:0:
192,192,218209,1,0,0:0:0:0:
448,192,218283,128,0,218357:0:0:0:0:
64,192,218357,1,0,0:0:0:0:
320,192,218357,128,0,218431:0:0:0:0:
64,192,218431,1,0,0:0:0:0:
448,192,218431,128,0,218505:0:0:0:0:
192,192,218505,1,0,0:0:0:0:
320,192,218505,128,0,218579:0:0:0:0:
192,192,218579,1,0,0:0:0:0:
448,192,218579,128,0,218653:0:0:0:0:
320,192,218653,1,0,0:0:0:0:
64,192,218653,1,0,0:0:0:0:
320,192,218764,1,0,0:0:0:0:
448,192,218875,1,0,0:0:0:0:
192,192,218875,1,0,0:0:0:0:
64,192,218903,1,0,0:0:0:0:
320,192,218931,1,0,0:0:0:0:
192,192,218959,1,0,0:0:0:0:
448,192,218986,1,0,0:0:0:0:
64,192,219042,1,0,0:0:0:0:
320,192,219097,1,0,0:0:0:0:
448,192,219097,1,0,0:0:0:0:
192,192,219209,1,0,0:0:0:0:
448,192,219246,1,0,0:0:0:0:
64,192,219283,1,0,0:0:0:0:
320,192,219320,1,0,0:0:0:0:
192,192,219375,1,0,0:0:0:0:
320,192,219431,1,0,0:0:0:0:
448,192,219486,1,0,0:0:0:0:
64,192,219542,1,0,0:0:0:0:
192,192,219542,1,0,0:0:0:0:
64,192,219653,1,0,0:0:0:0:
320,192,219709,1,0,0:0:0:0:
448,192,219764,1,0,0:0:0:0:
192,192,219801,1,0,0:0:0:0:
320,192,219838,1,0,0:0:0:0:
64,192,219875,1,0,0:0:0:0:
192,192,219912,1,0,0:0:0:0:
448,192,219949,1,0,0:0:0:0:
64,192,219986,1,0,0:0:0:0:
320,192,219986,1,0,0:0:0:0:
192,192,220097,128,0,220153:0:0:0:0:
320,192,220097,128,0,220431:0:0:0:0:
448,192,220153,128,0,220209:0:0:0:0:
192,192,220209,128,0,220264:0:0:0:0:
448,192,220264,128,0,220320:0:0:0:0:
192,192,220320,128,0,220375:0:0:0:0:
448,192,220375,128,0,220431:0:0:0:0:
64,192,220431,5,0,0:0:0:0:
192,192,220431,1,0,0:0:0:0:
448,192,220542,1,0,0:0:0:0:
64,192,220579,1,0,0:0:0:0:
320,192,220616,1,0,0:0:0:0:
192,192,220653,1,0,0:0:0:0:
448,192,220690,1,0,0:0:0:0:
320,192,220727,1,0,0:0:0:0:
64,192,220764,1,0,0:0:0:0:
192,192,220801,1,0,0:0:0:0:
320,192,220838,1,0,0:0:0:0:
448,192,220875,1,0,0:0:0:0:
64,192,220875,1,0,0:0:0:0:
192,192,220986,1,0,0:0:0:0:
64,192,221042,1,0,0:0:0:0:
448,192,221097,1,0,0:0:0:0:
320,192,221134,1,0,0:0:0:0:
192,192,221171,1,0,0:0:0:0:
448,192,221209,1,0,0:0:0:0:
64,192,221246,1,0,0:0:0:0:
192,192,221283,1,0,0:0:0:0:
448,192,221320,1,0,0:0:0:0:
320,192,221320,1,0,0:0:0:0:
64,192,221431,128,0,221486:0:0:0:0:
320,192,221431,128,0,221709:0:0:0:0:
192,192,221486,128,0,221542:0:0:0:0:
64,192,221542,128,0,221597:0:0:0:0:
192,192,221597,128,0,221653:0:0:0:0:
64,192,221653,128,0,221709:0:0:0:0:
192,192,221709,128,0,221764:0:0:0:0:
448,192,221764,1,0,0:0:0:0:
320,192,221764,1,0,0:0:0:0:
320,192,221875,1,0,0:0:0:0:
448,192,221931,1,0,0:0:0:0:
192,192,221986,1,0,0:0:0:0:
64,192,222023,1,0,0:0:0:0:
320,192,222060,1,0,0:0:0:0:
192,192,222097,1,0,0:0:0:0:
448,192,222134,1,0,0:0:0:0:
320,192,222171,1,0,0:0:0:0:
64,192,222208,1,0,0:0:0:0:
192,192,222208,1,0,0:0:0:0:
64,192,222320,128,0,222597:0:0:0:0:
448,192,222320,128,0,222375:0:0:0:0:
320,192,222375,128,0,222431:0:0:0:0:
448,192,222431,128,0,222486:0:0:0:0:
320,192,222486,128,0,222542:0:0:0:0:
448,192,222542,128,0,222597:0:0:0:0:
320,192,222597,128,0,222653:0:0:0:0:
192,192,222653,1,0,0:0:0:0:
64,192,222653,1,0,0:0:0:0:
64,192,222764,1,0,0:0:0:0:
192,192,222820,1,0,0:0:0:0:
320,192,222875,1,0,0:0:0:0:
448,192,222912,1,0,0:0:0:0:
64,192,222949,1,0,0:0:0:0:
320,192,222986,1,0,0:0:0:0:
192,192,223023,1,0,0:0:0:0:
64,192,223060,1,0,0:0:0:0:
448,192,223097,1,0,0:0:0:0:
320,192,223097,1,0,0:0:0:0:
192,192,223208,128,0,223264:0:0:0:0:
448,192,223208,128,0,223486:0:0:0:0:
64,192,223264,128,0,223320:0:0:0:0:
192,192,223320,128,0,223375:0:0:0:0:
64,192,223375,128,0,223431:0:0:0:0:
192,192,223431,128,0,223486:0:0:0:0:
64,192,223486,128,0,223542:0:0:0:0:
320,192,223542,1,0,0:0:0:0:
448,192,223542,1,0,0:0:0:0:
64,192,223616,1,0,0:0:0:0:
320,192,223653,1,0,0:0:0:0:
192,192,223690,1,0,0:0:0:0:
320,192,223764,1,0,0:0:0:0:
64,192,223801,1,0,0:0:0:0:
448,192,223838,1,0,0:0:0:0:
192,192,223875,1,0,0:0:0:0:
64,192,223912,1,0,0:0:0:0:
320,192,223986,1,0,0:0:0:0:
448,192,223986,1,0,0:0:0:0:
192,192,224042,128,0,224208:0:0:0:0:
448,192,224097,128,0,224320:0:0:0:0:
64,192,224153,128,0,224264:0:0:0:0:
320,192,224208,128,0,224375:0:0:0:0:
192,192,224264,128,0,224431:0:0:0:0:
64,192,224320,128,0,224431:0:0:0:0:
320,192,224431,1,0,0:0:0:0:
448,192,224431,1,0,0:0:0:0:
64,192,224505,128,0,224579:0:0:0:0:
448,192,224579,1,0,0:0:0:0:
192,192,224579,128,0,224653:0:0:0:0:
448,192,224653,1,0,0:0:0:0:
64,192,224653,128,0,224727:0:0:0:0:
320,192,224727,1,0,0:0:0:0:
192,192,224727,128,0,224801:0:0:0:0:
320,192,224801,1,0,0:0:0:0:
64,192,224801,128,0,224875:0:0:0:0:
192,192,224875,1,0,0:0:0:0:
448,192,224875,1,0,0:0:0:0:
192,192,224986,1,0,0:0:0:0:
64,192,225097,1,0,0:0:0:0:
320,192,225097,1,0,0:0:0:0:
448,192,225125,1,0,0:0:0:0:
192,192,225153,1,0,0:0:0:0:
320,192,225181,1,0,0:0:0:0:
64,192,225208,1,0,0:0:0:0:
448,192,225264,1,0,0:0:0:0:
64,192,225320,1,0,0:0:0:0:
192,192,225320,1,0,0:0:0:0:
448,192,225394,128,0,225468:0:0:0:0:
64,192,225468,1,0,0:0:0:0:
320,192,225468,128,0,225542:0:0:0:0:
64,192,225542,1,0,0:0:0:0:
448,192,225542,128,0,225616:0:0:0:0:
192,192,225616,1,0,0:0:0:0:
320,192,225616,128,0,225690:0:0:0:0:
192,192,225690,1,0,0:0:0:0:
448,192,225690,128,0,225764:0:0:0:0:
320,192,225764,1,0,0:0:0:0:
64,192,225764,128,0,225875:0:0:0:0:
320,192,225875,1,0,0:0:0:0:
64,192,225986,1,0,0:0:0:0:
64,192,226097,1,0,0:0:0:0:
192,192,226208,1,0,0:0:0:0:
448,192,226208,128,0,226320:0:0:0:0:
192,192,226320,1,0,0:0:0:0:
64,192,226431,1,0,0:0:0:0:
320,192,226431,1,0,0:0:0:0:
448,192,226431,1,0,0:0:0:0:
448,192,226542,128,0,226653:0:0:0:0:
192,192,226653,1,0,0:0:0:0:
64,192,226708,1,0,0:0:0:0:
320,192,226764,1,0,0:0:0:0:
448,192,226764,1,0,0:0:0:0:
192,192,226820,1,0,0:0:0:0:
320,192,226875,128,0,227097:0:0:0:0:
64,192,226986,128,0,227097:0:0:0:0:
448,192,227097,128,0,227320:0:0:0:0:
192,192,227097,128,0,227246:0:0:0:0:
64,192,227171,128,0,227375:0:0:0:0:
320,192,227246,128,0,227486:0:0:0:0:
192,192,227320,128,0,227431:0:0:0:0:
448,192,227431,128,0,227542:0:0:0:0:
64,192,227542,5,0,0:0:0:0:
192,192,227542,128,0,227653:0:0:0:0:
448,192,227653,1,0,0:0:0:0:
64,192,227690,1,0,0:0:0:0:
320,192,227727,1,0,0:0:0:0:
192,192,227764,1,0,0:0:0:0:
448,192,227801,1,0,0:0:0:0:
320,192,227838,1,0,0:0:0:0:
64,192,227875,1,0,0:0:0:0:
192,192,227875,128,0,227986:0:0:0:0:
448,192,227986,1,0,0:0:0:0:
64,192,227986,1,0,0:0:0:0:
320,192,227986,1,0,0:0:0:0:
320,192,228097,1,0,0:0:0:0:
64,192,228153,1,0,0:0:0:0:
448,192,228208,1,0,0:0:0:0:
192,192,228208,128,0,228320:0:0:0:0:
448,192,228320,1,0,0:0:0:0:
64,192,228357,1,0,0:0:0:0:
192,192,228394,1,0,0:0:0:0:
320,192,228431,1,0,0:0:0:0:
320,192,228486,1,0,0:0:0:0:
64,192,228542,1,0,0:0:0:0:
192,192,228542,1,0,0:0:0:0:
192,192,228653,1,0,0:0:0:0:
320,192,228653,1,0,0:0:0:0:
64,192,228764,1,0,0:0:0:0:
64,192,228820,1,0,0:0:0:0:
192,192,228875,1,0,0:0:0:0:
448,192,228875,1,0,0:0:0:0:
320,192,228875,1,0,0:0:0:0:
320,192,228986,128,0,229097:0:0:0:0:
448,192,229042,128,0,229171:0:0:0:0:
192,192,229097,1,0,0:0:0:0:
64,192,229134,1,0,0:0:0:0:
320,192,229171,1,0,0:0:0:0:
192,192,229208,1,0,0:0:0:0:
448,192,229246,1,0,0:0:0:0:
320,192,229283,1,0,0:0:0:0:
64,192,229320,1,0,0:0:0:0:
192,192,229320,1,0,0:0:0:0:
448,192,229431,1,0,0:0:0:0:
448,192,229486,1,0,0:0:0:0:
64,192,229542,1,0,0:0:0:0:
64,192,229597,1,0,0:0:0:0:
448,192,229653,1,0,0:0:0:0:
320,192,229653,1,0,0:0:0:0:
192,192,229764,1,0,0:0:0:0:
320,192,229764,1,0,0:0:0:0:
64,192,229764,1,0,0:0:0:0:
64,192,229875,1,0,0:0:0:0:
320,192,229931,1,0,0:0:0:0:
448,192,229986,1,0,0:0:0:0:
192,192,229986,1,0,0:0:0:0:
192,192,230097,1,0,0:0:0:0:
320,192,230134,1,0,0:0:0:0:
448,192,230171,1,0,0:0:0:0:
64,192,230208,1,0,0:0:0:0:
64,192,230264,1,0,0:0:0:0:
320,192,230320,1,0,0:0:0:0:
448,192,230320,1,0,0:0:0:0:
64,192,230431,1,0,0:0:0:0:
448,192,230431,1,0,0:0:0:0:
320,192,230542,1,0,0:0:0:0:
320,192,230597,1,0,0:0:0:0:
448,192,230653,1,0,0:0:0:0:
192,192,230653,1,0,0:0:0:0:
64,192,230727,1,0,0:0:0:0:
192,192,230764,1,0,0:0:0:0:
320,192,230801,1,0,0:0:0:0:
192,192,230875,1,0,0:0:0:0:
448,192,230912,1,0,0:0:0:0:
64,192,230949,1,0,0:0:0:0:
320,192,230986,1,0,0:0:0:0:
448,192,231023,1,0,0:0:0:0:
64,192,231097,1,0,0:0:0:0:
192,192,231097,128,0,231208:0:0:0:0:
320,192,231153,128,0,231375:0:0:0:0:
64,192,231208,128,0,231320:0:0:0:0:
448,192,231264,128,0,231375:0:0:0:0:
192,192,231320,128,0,231431:0:0:0:0:
64,192,231375,128,0,231431:0:0:0:0:
448,192,231431,1,0,0:0:0:0:
320,192,231431,128,0,231542:0:0:0:0:
64,192,231542,1,0,0:0:0:0:
448,192,231542,1,0,0:0:0:0:
192,192,231542,1,0,0:0:0:0:
64,192,231690,1,0,0:0:0:0:
448,192,231764,1,0,0:0:0:0:
320,192,231764,128,0,231875:0:0:0:0:
192,192,231838,1,0,0:0:0:0:
448,192,231912,1,0,0:0:0:0:
64,192,231912,128,0,231986:0:0:0:0:
192,192,231986,1,0,0:0:0:0:
448,192,231986,1,0,0:0:0:0:
192,192,232097,1,0,0:0:0:0:
320,192,232097,1,0,0:0:0:0:
64,192,232208,1,0,0:0:0:0:
320,192,232208,1,0,0:0:0:0:
192,192,232320,1,0,0:0:0:0:
320,192,232357,1,0,0:0:0:0:
64,192,232431,1,0,0:0:0:0:
192,192,232431,1,0,0:0:0:0:
448,192,232431,1,0,0:0:0:0:
64,192,232579,1,0,0:0:0:0:
320,192,232579,128,0,232653:0:0:0:0:
64,192,232653,1,0,0:0:0:0:
448,192,232653,128,0,232727:0:0:0:0:
192,192,232727,1,0,0:0:0:0:
320,192,232727,128,0,232801:0:0:0:0:
192,192,232801,1,0,0:0:0:0:
448,192,232801,128,0,232875:0:0:0:0:
320,192,232875,1,0,0:0:0:0:
64,192,232875,1,0,0:0:0:0:
320,192,232986,1,0,0:0:0:0:
448,192,233097,1,0,0:0:0:0:
192,192,233097,1,0,0:0:0:0:
64,192,233125,1,0,0:0:0:0:
448,192,233208,1,0,0:0:0:0:
320,192,233208,1,0,0:0:0:0:
320,192,233320,1,0,0:0:0:0:
64,192,233320,1,0,0:0:0:0:
192,192,233320,1,0,0:0:0:0:
192,192,233431,1,0,0:0:0:0:
448,192,233468,1,0,0:0:0:0:
320,192,233542,1,0,0:0:0:0:
192,192,233542,1,0,0:0:0:0:
320,192,233653,1,0,0:0:0:0:
448,192,233708,1,0,0:0:0:0:
64,192,233764,1,0,0:0:0:0:
192,192,233764,1,0,0:0:0:0:
64,192,233875,1,0,0:0:0:0:
320,192,233875,1,0,0:0:0:0:
192,192,233986,1,0,0:0:0:0:
320,192,233986,1,0,0:0:0:0:
448,192,234060,1,0,0:0:0:0:
64,192,234097,1,0,0:0:0:0:
192,192,234134,1,0,0:0:0:0:
320,192,234171,1,0,0:0:0:0:
64,192,234208,1,0,0:0:0:0:
448,192,234208,1,0,0:0:0:0:
192,192,234320,128,0,234375:0:0:0:0:
320,192,234320,128,0,234653:0:0:0:0:
448,192,234375,128,0,234431:0:0:0:0:
192,192,234431,128,0,234486:0:0:0:0:
448,192,234486,128,0,234542:0:0:0:0:
192,192,234542,128,0,234597:0:0:0:0:
448,192,234597,128,0,234653:0:0:0:0:
64,192,234653,5,0,0:0:0:0:
192,192,234653,128,0,234764:0:0:0:0:
448,192,234764,1,0,0:0:0:0:
64,192,234801,1,0,0:0:0:0:
320,192,234838,1,0,0:0:0:0:
192,192,234875,1,0,0:0:0:0:
448,192,234912,1,0,0:0:0:0:
320,192,234949,1,0,0:0:0:0:
64,192,234986,1,0,0:0:0:0:
192,192,234986,128,0,235097:0:0:0:0:
448,192,235097,1,0,0:0:0:0:
64,192,235097,1,0,0:0:0:0:
320,192,235097,1,0,0:0:0:0:
320,192,235208,1,0,0:0:0:0:
64,192,235264,1,0,0:0:0:0:
448,192,235320,1,0,0:0:0:0:
192,192,235320,128,0,235431:0:0:0:0:
448,192,235431,1,0,0:0:0:0:
64,192,235468,1,0,0:0:0:0:
192,192,235505,1,0,0:0:0:0:
320,192,235542,1,0,0:0:0:0:
320,192,235597,1,0,0:0:0:0:
64,192,235653,1,0,0:0:0:0:
192,192,235653,1,0,0:0:0:0:
320,192,235764,1,0,0:0:0:0:
192,192,235764,1,0,0:0:0:0:
64,192,235875,1,0,0:0:0:0:
64,192,235931,1,0,0:0:0:0:
192,192,235986,1,0,0:0:0:0:
448,192,235986,1,0,0:0:0:0:
320,192,235986,1,0,0:0:0:0:
320,192,236097,128,0,236208:0:0:0:0:
448,192,236153,128,0,236283:0:0:0:0:
192,192,236208,1,0,0:0:0:0:
64,192,236246,1,0,0:0:0:0:
320,192,236283,1,0,0:0:0:0:
192,192,236320,1,0,0:0:0:0:
448,192,236357,1,0,0:0:0:0:
320,192,236394,1,0,0:0:0:0:
64,192,236431,1,0,0:0:0:0:
192,192,236431,1,0,0:0:0:0:
448,192,236542,1,0,0:0:0:0:
448,192,236597,1,0,0:0:0:0:
64,192,236653,1,0,0:0:0:0:
64,192,236708,1,0,0:0:0:0:
448,192,236764,1,0,0:0:0:0:
320,192,236764,1,0,0:0:0:0:
192,192,236875,1,0,0:0:0:0:
320,192,236875,1,0,0:0:0:0:
64,192,236875,1,0,0:0:0:0:
64,192,236986,1,0,0:0:0:0:
320,192,237042,1,0,0:0:0:0:
448,192,237097,1,0,0:0:0:0:
192,192,237097,1,0,0:0:0:0:
192,192,237208,1,0,0:0:0:0:
320,192,237246,1,0,0:0:0:0:
448,192,237283,1,0,0:0:0:0:
64,192,237320,1,0,0:0:0:0:
64,192,237375,1,0,0:0:0:0:
320,192,237431,1,0,0:0:0:0:
448,192,237431,1,0,0:0:0:0:
64,192,237542,1,0,0:0:0:0:
448,192,237542,1,0,0:0:0:0:
320,192,237653,1,0,0:0:0:0:
320,192,237708,1,0,0:0:0:0:
448,192,237764,1,0,0:0:0:0:
192,192,237764,1,0,0:0:0:0:
64,192,237838,1,0,0:0:0:0:
192,192,237875,1,0,0:0:0:0:
320,192,237912,1,0,0:0:0:0:
192,192,237986,1,0,0:0:0:0:
448,192,238023,1,0,0:0:0:0:
64,192,238060,1,0,0:0:0:0:
320,192,238097,1,0,0:0:0:0:
448,192,238134,1,0,0:0:0:0:
64,192,238208,1,0,0:0:0:0:
192,192,238208,128,0,238320:0:0:0:0:
320,192,238264,128,0,238486:0:0:0:0:
64,192,238320,128,0,238431:0:0:0:0:
448,192,238375,128,0,238486:0:0:0:0:
192,192,238431,128,0,238542:0:0:0:0:
64,192,238486,128,0,238542:0:0:0:0:
448,192,238542,1,0,0:0:0:0:
320,192,238542,128,0,238653:0:0:0:0:
64,192,238653,1,0,0:0:0:0:
448,192,238653,1,0,0:0:0:0:
192,192,238653,1,0,0:0:0:0:
64,192,238801,1,0,0:0:0:0:
448,192,238875,1,0,0:0:0:0:
320,192,238875,128,0,238986:0:0:0:0:
192,192,238949,1,0,0:0:0:0:
448,192,239023,1,0,0:0:0:0:
64,192,239023,128,0,239097:0:0:0:0:
192,192,239097,1,0,0:0:0:0:
448,192,239097,1,0,0:0:0:0:
192,192,239208,1,0,0:0:0:0:
320,192,239208,1,0,0:0:0:0:
64,192,239320,1,0,0:0:0:0:
320,192,239320,1,0,0:0:0:0:
192,192,239431,1,0,0:0:0:0:
320,192,239468,1,0,0:0:0:0:
64,192,239542,1,0,0:0:0:0:
192,192,239542,1,0,0:0:0:0:
448,192,239542,1,0,0:0:0:0:
64,192,239690,1,0,0:0:0:0:
320,192,239690,128,0,239764:0:0:0:0:
64,192,239764,1,0,0:0:0:0:
448,192,239764,128,0,239838:0:0:0:0:
192,192,239838,1,0,0:0:0:0:
320,192,239838,128,0,239912:0:0:0:0:
192,192,239912,1,0,0:0:0:0:
448,192,239912,128,0,239986:0:0:0:0:
320,192,239986,1,0,0:0:0:0:
64,192,239986,1,0,0:0:0:0:
320,192,240102,1,0,0:0:0:0:
448,192,240217,128,0,240390:0:0:0:0:
192,192,240256,1,0,0:0:0:0:
64,192,240294,1,0,0:0:0:0:
320,192,240333,1,0,0:0:0:0:
192,192,240390,1,0,0:0:0:0:
448,192,240448,128,0,240506:0:0:0:0:
64,192,240506,128,0,240563:0:0:0:0:
448,192,240563,128,0,240679:0:0:0:0:
320,192,240621,1,0,0:0:0:0:
192,192,240679,128,0,240737:0:0:0:0:
192,192,240794,128,0,240852:0:0:0:0:
448,192,240871,1,0,0:0:0:0:
64,192,240910,1,0,0:0:0:0:
192,192,240948,1,0,0:0:0:0:
320,192,240987,1,0,0:0:0:0:
64,192,241025,1,0,0:0:0:0:
448,192,241063,1,0,0:0:0:0:
192,192,241102,1,0,0:0:0:0:
320,192,241140,1,0,0:0:0:0:
448,192,241179,1,0,0:0:0:0:
64,192,241217,1,0,0:0:0:0:
192,192,241256,1,0,0:0:0:0:
448,192,241294,1,0,0:0:0:0:
64,192,241333,1,0,0:0:0:0:
192,192,241371,128,0,241429:0:0:0:0:
320,192,241371,128,0,241833:0:0:0:0:
448,192,241429,128,0,241487:0:0:0:0:
192,192,241487,128,0,241544:0:0:0:0:
448,192,241544,128,0,241602:0:0:0:0:
192,192,241602,128,0,241660:0:0:0:0:
448,192,241660,128,0,241717:0:0:0:0:
192,192,241717,128,0,241775:0:0:0:0:
448,192,241775,128,0,241833:0:0:0:0:
192,192,241833,1,0,0:0:0:0:
64,192,241833,128,0,242083:0:0:0:0:
320,192,242083,128,0,242145:0:0:0:0:
192,192,242114,128,0,242176:0:0:0:0:
64,192,242145,128,0,242239:0:0:0:0:
192,192,242208,128,0,242270:0:0:0:0:
320,192,242239,128,0,242301:0:0:0:0:
448,192,242270,128,0,242364:0:0:0:0:
64,192,242333,128,0,242395:0:0:0:0:
320,192,242364,128,0,242458:0:0:0:0:
64,192,242458,128,0,242520:0:0:0:0:
448,192,242583,1,0,0:0:0:0:
64,192,242583,128,0,242645:0:0:0:0:
448,192,242708,128,0,242791:0:0:0:0:
320,192,242833,128,0,242895:0:0:0:0:
192,192,242833,128,0,242989:0:0:0:0:
64,192,242958,128,0,243020:0:0:0:0:
320,192,242958,128,0,243114:0:0:0:0:
448,192,243083,128,0,243145:0:0:0:0:
64,192,243083,128,0,243270:0:0:0:0:
448,192,243208,128,0,243333:0:0:0:0:
64,192,243333,128,0,243458:0:0:0:0:
192,192,243333,128,0,243583:0:0:0:0:
320,192,243333,128,0,243645:0:0:0:0:
64,192,243749,128,0,243833:0:0:0:0:
192,192,243791,128,0,243874:0:0:0:0:
448,192,243833,128,0,243958:0:0:0:0:
192,192,243958,128,0,244041:0:0:0:0:
64,192,243999,128,0,244083:0:0:0:0:
320,192,244041,128,0,244124:0:0:0:0:
192,192,244083,1,0,0:0:0:0:
448,192,244083,128,0,244166:0:0:0:0:
64,192,244208,128,0,244270:0:0:0:0:
320,192,244270,1,0,0:0:0:0:
448,192,244270,128,0,244333:0:0:0:0:
64,192,244333,1,0,0:0:0:0:
192,192,244333,128,0,244395:0:0:0:0:
192,192,244458,128,0,244520:0:0:0:0:
192,192,244583,128,0,244645:0:0:0:0:
192,192,244708,128,0,244770:0:0:0:0:
192,192,244833,128,0,244895:0:0:0:0:
320,192,244833,1,0,0:0:0:0:
320,192,244958,128,0,245041:0:0:0:0:
64,192,245083,128,0,245145:0:0:0:0:
448,192,245083,1,0,0:0:0:0:
64,192,245208,128,0,245270:0:0:0:0:
320,192,245333,128,0,245583:0:0:0:0:
448,192,245333,128,0,245395:0:0:0:0:
192,192,245333,128,0,245708:0:0:0:0:
448,192,245458,128,0,245520:0:0:0:0:
448,192,245583,128,0,245833:0:0:0:0:
64,192,245583,128,0,245770:0:0:0:0:
320,192,245708,128,0,245833:0:0:0:0:
192,192,245833,128,0,246083:0:0:0:0:
64,192,245833,128,0,246020:0:0:0:0:
320,192,246083,1,0,0:0:0:0:
192,192,246145,1,0,0:0:0:0:
320,192,246208,1,0,0:0:0:0:
192,192,246270,1,0,0:0:0:0:
448,192,246333,128,0,246458:0:0:0:0:
192,192,246458,128,0,246541:0:0:0:0:
64,192,246499,128,0,246583:0:0:0:0:
320,192,246583,128,0,246708:0:0:0:0:
64,192,246666,128,0,246749:0:0:0:0:
448,192,246708,128,0,246833:0:0:0:0:
320,192,246770,128,0,246958:0:0:0:0:
64,192,246833,1,0,0:0:0:0:
192,192,246833,128,0,246895:0:0:0:0:
192,192,246958,128,0,247020:0:0:0:0:
448,192,247083,1,0,0:0:0:0:
320,192,247083,128,0,247208:0:0:0:0:
64,192,247208,128,0,247270:0:0:0:0:
320,192,247364,1,0,0:0:0:0:
448,192,247395,128,0,247583:0:0:0:0:
192,192,247395,128,0,247708:0:0:0:0:
64,192,247489,1,0,0:0:0:0:
320,192,247583,128,0,247645:0:0:0:0:
320,192,247708,128,0,247770:0:0:0:0:
320,192,247833,128,0,247895:0:0:0:0:
320,192,247958,1,0,0:0:0:0:
64,192,248083,128,0,248208:0:0:0:0:
448,192,248145,1,0,0:0:0:0:
192,192,248208,1,0,0:0:0:0:
320,192,248270,1,0,0:0:0:0:
192,192,248333,1,0,0:0:0:0:
448,192,248333,128,0,248395:0:0:0:0:
448,192,248458,128,0,248520:0:0:0:0:
192,192,248583,128,0,248666:0:0:0:0:
64,192,248624,1,0,0:0:0:0:
320,192,248666,1,0,0:0:0:0:
64,192,248708,128,0,248791:0:0:0:0:
192,192,248749,128,0,248833:0:0:0:0:
448,192,248791,128,0,248874:0:0:0:0:
320,192,248833,1,0,0:0:0:0:
192,192,248874,1,0,0:0:0:0:
64,192,248958,1,0,0:0:0:0:
448,192,248958,1,0,0:0:0:0:
320,192,249041,128,0,249124:0:0:0:0:
448,192,249083,128,0,249166:0:0:0:0:
64,192,249124,128,0,249208:0:0:0:0:
320,192,249166,128,0,249249:0:0:0:0:
192,192,249249,1,0,0:0:0:0:
64,192,249249,128,0,249499:0:0:0:0:
448,192,249291,1,0,0:0:0:0:
320,192,249333,1,0,0:0:0:0:
192,192,249426,1,0,0:0:0:0:
320,192,249458,1,0,0:0:0:0:
448,192,249489,1,0,0:0:0:0:
192,192,249551,1,0,0:0:0:0:
64,192,249583,128,0,249770:0:0:0:0:
448,192,249614,1,0,0:0:0:0:
320,192,249676,1,0,0:0:0:0:
192,192,249770,1,0,0:0:0:0:
448,192,249833,128,0,250083:0:0:0:0:
192,192,250083,128,0,250145:0:0:0:0:
320,192,250114,128,0,250176:0:0:0:0:
448,192,250145,128,0,250239:0:0:0:0:
320,192,250208,128,0,250270:0:0:0:0:
192,192,250239,128,0,250301:0:0:0:0:
64,192,250270,128,0,250364:0:0:0:0:
448,192,250333,128,0,250395:0:0:0:0:
192,192,250364,128,0,250458:0:0:0:0:
448,192,250458,128,0,250520:0:0:0:0:
64,192,250583,1,0,0:0:0:0:
448,192,250583,128,0,250645:0:0:0:0:
64,192,250708,128,0,250791:0:0:0:0:
192,192,250833,128,0,250895:0:0:0:0:
320,192,250833,128,0,250989:0:0:0:0:
448,192,250958,128,0,251020:0:0:0:0:
192,192,250958,128,0,251114:0:0:0:0:
64,192,251083,128,0,251145:0:0:0:0:
448,192,251083,128,0,251270:0:0:0:0:
64,192,251208,128,0,251333:0:0:0:0:
448,192,251333,128,0,251458:0:0:0:0:
320,192,251333,128,0,251583:0:0:0:0:
192,192,251333,128,0,251645:0:0:0:0:
448,192,251749,128,0,251833:0:0:0:0:
320,192,251791,128,0,251874:0:0:0:0:
64,192,251833,128,0,251958:0:0:0:0:
320,192,251958,128,0,252041:0:0:0:0:
448,192,251999,128,0,252083:0:0:0:0:
192,192,252041,128,0,252124:0:0:0:0:
320,192,252083,1,0,0:0:0:0:
64,192,252083,128,0,252166:0:0:0:0:
448,192,252208,128,0,252270:0:0:0:0:
192,192,252270,1,0,0:0:0:0:
64,192,252270,128,0,252333:0:0:0:0:
448,192,252333,1,0,0:0:0:0:
320,192,252333,128,0,252395:0:0:0:0:
320,192,252458,128,0,252520:0:0:0:0:
320,192,252583,128,0,252645:0:0:0:0:
320,192,252708,128,0,252770:0:0:0:0:
320,192,252833,128,0,252895:0:0:0:0:
192,192,252833,1,0,0:0:0:0:
192,192,252958,128,0,253041:0:0:0:0:
448,192,253083,128,0,253145:0:0:0:0:
64,192,253083,1,0,0:0:0:0:
448,192,253208,128,0,253270:0:0:0:0:
192,192,253333,128,0,253583:0:0:0:0:
64,192,253333,128,0,253395:0:0:0:0:
320,192,253333,128,0,253708:0:0:0:0:
64,192,253458,128,0,253520:0:0:0:0:
64,192,253583,128,0,253833:0:0:0:0:
448,192,253583,128,0,253770:0:0:0:0:
192,192,253708,128,0,253833:0:0:0:0:
320,192,253833,128,0,254083:0:0:0:0:
448,192,253833,128,0,254020:0:0:0:0:
192,192,254083,1,0,0:0:0:0:
320,192,254145,1,0,0:0:0:0:
192,192,254208,1,0,0:0:0:0:
320,192,254270,1,0,0:0:0:0:
64,192,254333,128,0,254458:0:0:0:0:
320,192,254458,128,0,254541:0:0:0:0:
448,192,254499,128,0,254583:0:0:0:0:
192,192,254583,128,0,254708:0:0:0:0:
448,192,254666,128,0,254749:0:0:0:0:
64,192,254708,128,0,254833:0:0:0:0:
192,192,254770,128,0,254958:0:0:0:0:
448,192,254833,1,0,0:0:0:0:
320,192,254833,128,0,254895:0:0:0:0:
320,192,254958,128,0,255020:0:0:0:0:
64,192,255083,1,0,0:0:0:0:
192,192,255083,128,0,255208:0:0:0:0:
448,192,255208,128,0,255270:0:0:0:0:
192,192,255364,1,0,0:0:0:0:
64,192,255458,1,0,0:0:0:0:
320,192,255458,1,0,0:0:0:0:
448,192,255520,1,0,0:0:0:0:
320,192,255583,1,0,0:0:0:0:
192,192,255583,128,0,255645:0:0:0:0:
192,192,255708,1,0,0:0:0:0:
320,192,255833,128,0,255895:0:0:0:0:
64,192,255833,128,0,255958:0:0:0:0:
320,192,255958,1,0,0:0:0:0:
64,192,256083,128,0,256208:0:0:0:0:
448,192,256083,128,0,256208:0:0:0:0:
448,192,256333,1,0,0:0:0:0:
64,192,256333,1,0,0:0:0:0:
64,192,256458,1,0,0:0:0:0:
192,192,256458,1,0,0:0:0:0:
448,192,256520,1,0,0:0:0:0:
64,192,256583,1,0,0:0:0:0:
320,192,256583,1,0,0:0:0:0:
192,192,256645,1,0,0:0:0:0:
64,192,256708,1,0,0:0:0:0:
448,192,256708,1,0,0:0:0:0:
192,192,256770,1,0,0:0:0:0:
448,192,256833,128,0,256958:0:0:0:0:
320,192,256833,128,0,257083:0:0:0:0:
192,192,256916,128,0,257145:0:0:0:0:
64,192,256999,128,0,257208:0:0:0:0:
448,192,257083,128,0,257208:0:0:0:0:
192,192,257208,128,0,257395:0:0:0:0:
64,192,257333,128,0,257520:0:0:0:0:
320,192,257333,128,0,257520:0:0:0:0:
448,192,257458,128,0,257645:0:0:0:0:
320,192,257583,128,0,257708:0:0:0:0:
192,192,257583,128,0,257770:0:0:0:0:
64,192,257708,128,0,257770:0:0:0:0:
192,192,257833,128,0,258063:0:0:0:0:
64,192,257833,128,0,257948:0:0:0:0:
448,192,257833,128,0,257890:0:0:0:0:
448,192,257948,128,0,258121:0:0:0:0:
64,192,258063,128,0,258179:0:0:0:0:
320,192,258179,128,0,258409:0:0:0:0:
448,192,258179,128,0,258294:0:0:0:0:
192,192,258179,128,0,258236:0:0:0:0:
192,192,258294,128,0,258467:0:0:0:0:
448,192,258409,128,0,258525:0:0:0:0:
320,192,258525,128,0,258583:0:0:0:0:
192,192,258525,128,0,258640:0:0:0:0:
64,192,258525,128,0,258756:0:0:0:0:
320,192,258640,128,0,258813:0:0:0:0:
192,192,258756,128,0,258871:0:0:0:0:
64,192,258871,128,0,258929:0:0:0:0:
320,192,258871,128,0,258986:0:0:0:0:
448,192,258871,128,0,259102:0:0:0:0:
64,192,258986,128,0,259159:0:0:0:0:
320,192,259102,128,0,259217:0:0:0:0:
192,192,259217,128,0,259275:0:0:0:0:
64,192,259217,128,0,259390:0:0:0:0:
448,192,259217,128,0,259333:0:0:0:0:
192,192,259333,128,0,259448:0:0:0:0:
448,192,259448,128,0,259506:0:0:0:0:
320,192,259448,128,0,259621:0:0:0:0:
64,192,259448,128,0,259563:0:0:0:0:
448,192,259563,128,0,259679:0:0:0:0:
64,192,259679,128,0,259893:0:0:0:0:
320,192,259679,128,0,259839:0:0:0:0:
192,192,259679,128,0,260107:0:0:0:0:
448,192,260000,128,0,260214:0:0:0:0:
64,192,260000,128,0,260161:0:0:0:0:
320,192,260000,128,0,260429:0:0:0:0:
448,192,260321,128,0,260482:0:0:0:0:
192,192,260321,128,0,260536:0:0:0:0:
64,192,260321,128,0,260750:0:0:0:0:
192,192,260643,128,0,260804:0:0:0:0:
320,192,260643,128,0,260857:0:0:0:0:
448,192,260643,128,0,261018:0:0:0:0:
192,192,260964,128,0,261071:0:0:0:0:
64,192,260964,128,0,261125:0:0:0:0:
320,192,260964,128,0,261232:0:0:0:0:
64,192,261179,128,0,261286:0:0:0:0:
192,192,261179,128,0,261393:0:0:0:0:
448,192,261179,128,0,261339:0:0:0:0:
320,192,261393,128,0,261593:0:0:0:0:
448,192,261393,128,0,261493:0:0:0:0:
64,192,261393,128,0,261443:0:0:0:0:
64,192,261493,128,0,261643:0:0:0:0:
448,192,261593,128,0,261693:0:0:0:0:
192,192,261693,128,0,261893:0:0:0:0:
64,192,261693,128,0,261793:0:0:0:0:
320,192,261693,128,0,261743:0:0:0:0:
320,192,261793,128,0,261943:0:0:0:0:
64,192,261893,128,0,261993:0:0:0:0:
192,192,261993,128,0,262043:0:0:0:0:
448,192,261993,128,0,262193:0:0:0:0:
320,192,261993,128,0,262093:0:0:0:0:
192,192,262093,128,0,262243:0:0:0:0:
320,192,262193,128,0,262293:0:0:0:0:
448,192,262293,128,0,262343:0:0:0:0:
64,192,262293,128,0,262493:0:0:0:0:
192,192,262293,128,0,262393:0:0:0:0:
448,192,262393,128,0,262543:0:0:0:0:
192,192,262493,128,0,262593:0:0:0:0:
320,192,262593,128,0,262643:0:0:0:0:
64,192,262593,128,0,262693:0:0:0:0:
448,192,262593,128,0,262743:0:0:0:0:
320,192,262693,128,0,262793:0:0:0:0:
192,192,262793,128,0,262943:0:0:0:0:
64,192,262793,128,0,262843:0:0:0:0:
448,192,262793,128,0,262893:0:0:0:0:
64,192,262893,128,0,262993:0:0:0:0:
192,192,262993,128,0,263133:0:0:0:0:
448,192,262993,128,0,263180:0:0:0:0:
320,192,262993,128,0,263368:0:0:0:0:
448,192,263274,128,0,263414:0:0:0:0:
64,192,263274,128,0,263461:0:0:0:0:
192,192,263274,128,0,263649:0:0:0:0:
64,192,263555,128,0,263696:0:0:0:0:
320,192,263555,128,0,263743:0:0:0:0:
448,192,263555,128,0,263930:0:0:0:0:
320,192,263836,128,0,263977:0:0:0:0:
192,192,263836,128,0,264024:0:0:0:0:
64,192,263836,128,0,264164:0:0:0:0:
192,192,264118,128,0,264352:0:0:0:0:
320,192,264118,128,0,264211:0:0:0:0:
448,192,264118,128,0,264258:0:0:0:0:
320,192,264305,128,0,264493:0:0:0:0:
64,192,264305,128,0,264446:0:0:0:0:
448,192,264305,128,0,264399:0:0:0:0:
192,192,264493,128,0,264669:0:0:0:0:
64,192,264493,128,0,264581:0:0:0:0:
448,192,264493,1,0,0:0:0:0:
448,192,264581,128,0,264713:0:0:0:0:
64,192,264669,128,0,264757:0:0:0:0:
320,192,264757,128,0,264934:0:0:0:0:
448,192,264757,128,0,264845:0:0:0:0:
192,192,264757,1,0,0:0:0:0:
192,192,264845,128,0,264978:0:0:0:0:
448,192,264934,128,0,265022:0:0:0:0:
192,192,265022,128,0,265110:0:0:0:0:
64,192,265022,128,0,265198:0:0:0:0:
320,192,265022,1,0,0:0:0:0:
320,192,265110,128,0,265243:0:0:0:0:
192,192,265198,128,0,265287:0:0:0:0:
320,192,265287,128,0,265375:0:0:0:0:
448,192,265287,128,0,265463:0:0:0:0:
64,192,265287,1,0,0:0:0:0:
64,192,265375,128,0,265507:0:0:0:0:
320,192,265463,128,0,265551:0:0:0:0:
448,192,265551,128,0,265640:0:0:0:0:
64,192,265551,128,0,265684:0:0:0:0:
192,192,265551,1,0,0:0:0:0:
192,192,265640,128,0,265728:0:0:0:0:
64,192,265728,128,0,265816:0:0:0:0:
320,192,265728,128,0,265860:0:0:0:0:
448,192,265728,1,0,0:0:0:0:
448,192,265816,128,0,265904:0:0:0:0:
320,192,265905,128,0,266030:0:0:0:0:
64,192,265905,128,0,266071:0:0:0:0:
192,192,265905,128,0,266238:0:0:0:0:
64,192,266155,128,0,266280:0:0:0:0:
320,192,266155,128,0,266488:0:0:0:0:
448,192,266155,128,0,266321:0:0:0:0:
448,192,266405,128,0,266530:0:0:0:0:
192,192,266405,128,0,266571:0:0:0:0:
64,192,266405,128,0,266738:0:0:0:0:
192,192,266655,128,0,266780:0:0:0:0:
320,192,266655,128,0,266821:0:0:0:0:
448,192,266655,128,0,266946:0:0:0:0:
192,192,266905,128,0,266988:0:0:0:0:
64,192,266905,128,0,267030:0:0:0:0:
320,192,266905,128,0,267113:0:0:0:0:
64,192,267071,128,0,267155:0:0:0:0:
192,192,267071,128,0,267238:0:0:0:0:
448,192,267071,128,0,267196:0:0:0:0:
448,192,267238,1,0,0:0:0:0:
64,192,267238,1,0,0:0:0:0:
320,192,267238,1,0,0:0:0:0:
192,192,267316,1,0,0:0:0:0:
448,192,267316,1,0,0:0:0:0:
64,192,267395,1,0,0:0:0:0:
192,192,267474,1,0,0:0:0:0:
320,192,267474,1,0,0:0:0:0:
320,192,267553,1,0,0:0:0:0:
192,192,267632,1,0,0:0:0:0:
448,192,267632,1,0,0:0:0:0:
192,192,267711,1,0,0:0:0:0:
64,192,267790,1,0,0:0:0:0:
448,192,267790,1,0,0:0:0:0:
192,192,267869,1,0,0:0:0:0:
320,192,267869,1,0,0:0:0:0:
320,192,267948,1,0,0:0:0:0:
64,192,267948,1,0,0:0:0:0:
192,192,268027,1,0,0:0:0:0:
64,192,268106,1,0,0:0:0:0:
448,192,268106,1,0,0:0:0:0:
448,192,268185,1,0,0:0:0:0:
320,192,268264,1,0,0:0:0:0:
64,192,268264,1,0,0:0:0:0:
64,192,268343,1,0,0:0:0:0:
320,192,268422,1,0,0:0:0:0:
192,192,268502,1,0,0:0:0:0:
448,192,268502,1,0,0:0:0:0:
320,192,268575,1,0,0:0:0:0:
192,192,268575,1,0,0:0:0:0:
448,192,268648,1,0,0:0:0:0:
320,192,268721,1,0,0:0:0:0:
64,192,268721,1,0,0:0:0:0:
64,192,268794,1,0,0:0:0:0:
192,192,268867,1,0,0:0:0:0:
320,192,268867,1,0,0:0:0:0:
320,192,268941,1,0,0:0:0:0:
448,192,269014,1,0,0:0:0:0:
192,192,269014,1,0,0:0:0:0:
320,192,269087,1,0,0:0:0:0:
64,192,269087,1,0,0:0:0:0:
64,192,269160,1,0,0:0:0:0:
448,192,269160,1,0,0:0:0:0:
320,192,269233,1,0,0:0:0:0:
192,192,269306,1,0,0:0:0:0:
448,192,269306,1,0,0:0:0:0:
192,192,269380,1,0,0:0:0:0:
64,192,269453,1,0,0:0:0:0:
448,192,269453,1,0,0:0:0:0:
448,192,269526,1,0,0:0:0:0:
64,192,269599,1,0,0:0:0:0:
320,192,269672,1,0,0:0:0:0:
448,192,269672,1,0,0:0:0:0:
192,192,269740,1,0,0:0:0:0:
64,192,269808,1,0,0:0:0:0:
320,192,269808,1,0,0:0:0:0:
192,192,269876,1,0,0:0:0:0:
320,192,269944,1,0,0:0:0:0:
448,192,269944,1,0,0:0:0:0:
64,192,270012,1,0,0:0:0:0:
192,192,270081,1,0,0:0:0:0:
448,192,270081,1,0,0:0:0:0:
320,192,270149,1,0,0:0:0:0:
192,192,270217,1,0,0:0:0:0:
64,192,270217,1,0,0:0:0:0:
448,192,270285,1,0,0:0:0:0:
64,192,270353,1,0,0:0:0:0:
320,192,270353,1,0,0:0:0:0:
448,192,270422,1,0,0:0:0:0:
192,192,270490,1,0,0:0:0:0:
64,192,270490,1,0,0:0:0:0:
320,192,270558,1,0,0:0:0:0:
448,192,270626,1,0,0:0:0:0:
192,192,270626,1,0,0:0:0:0:
64,192,270694,1,0,0:0:0:0:
320,192,270763,1,0,0:0:0:0:
448,192,270763,128,0,270826:0:0:0:0:
192,192,270826,128,0,270890:0:0:0:0:
320,192,270890,1,0,0:0:0:0:
64,192,270890,128,0,270954:0:0:0:0:
192,192,270954,128,0,271018:0:0:0:0:
448,192,271018,1,0,0:0:0:0:
320,192,271018,128,0,271145:0:0:0:0:
64,192,271082,128,0,271209:0:0:0:0:
448,192,271145,1,0,0:0:0:0:
192,192,271145,128,0,271273:0:0:0:0:
320,192,271209,128,0,271337:0:0:0:0:
448,192,271273,128,0,271401:0:0:0:0:
64,192,271273,128,0,271337:0:0:0:0:
192,192,271337,128,0,271401:0:0:0:0:
64,192,271401,128,0,271465:0:0:0:0:
320,192,271401,128,0,271528:0:0:0:0:
192,192,271465,128,0,271528:0:0:0:0:
448,192,271528,128,0,271592:0:0:0:0:
64,192,271528,128,0,271656:0:0:0:0:
320,192,271592,128,0,271656:0:0:0:0:
192,192,271656,128,0,271720:0:0:0:0:
448,192,271656,128,0,271720:0:0:0:0:
320,192,271720,128,0,271785:0:0:0:0:
192,192,271785,1,0,0:0:0:0:
64,192,271785,1,0,0:0:0:0:
448,192,271785,1,0,0:0:0:0:
64,192,272505,1,0,0:0:0:0:
320,192,272625,1,0,0:0:0:0:
448,192,273465,1,0,0:0:0:0:
64,192,273585,1,0,0:0:0:0:
320,192,274425,1,0,0:0:0:0:
192,192,274545,1,0,0:0:0:0:
320,192,275385,1,0,0:0:0:0:
192,192,275625,1,0,0:0:0:0:
64,192,276345,1,0,0:0:0:0:
448,192,276465,1,0,0:0:0:0:
320,192,277305,1,0,0:0:0:0:
448,192,277425,1,0,0:0:0:0:
64,192,278025,1,0,0:0:0:0:
192,192,278385,1,0,0:0:0:0:
320,192,279465,1,0,0:0:0:0:
448,192,279495,1,0,0:0:0:0:
64,192,279705,1,0,0:0:0:0:
320,192,279825,1,0,0:0:0:0:
448,192,280185,1,0,0:0:0:0:
192,192,280215,1,0,0:0:0:0:
64,192,280305,1,0,0:0:0:0:
448,192,280335,1,0,0:0:0:0:
320,192,280545,1,0,0:0:0:0:
64,192,280605,1,0,0:0:0:0:
192,192,280665,1,0,0:0:0:0:
448,192,280785,1,0,0:0:0:0:
192,192,280845,1,0,0:0:0:0:
64,192,280905,1,0,0:0:0:0:
320,192,280965,1,0,0:0:0:0:
192,192,281025,1,0,0:0:0:0:
192,192,281145,1,0,0:0:0:0:
448,192,281175,1,0,0:0:0:0:
320,192,281265,1,0,0:0:0:0:
192,192,281295,1,0,0:0:0:0:
64,192,281385,1,0,0:0:0:0:
64,192,281505,1,0,0:0:0:0:
448,192,281625,1,0,0:0:0:0:
192,192,281745,1,0,0:0:0:0:
320,192,281865,1,0,0:0:0:0:
192,192,281985,1,0,0:0:0:0:
64,192,282045,1,0,0:0:0:0:
320,192,282105,1,0,0:0:0:0:
448,192,282135,1,0,0:0:0:0:
64,192,282225,1,0,0:0:0:0:
320,192,282255,1,0,0:0:0:0:
192,192,282345,1,0,0:0:0:0:
448,192,282405,1,0,0:0:0:0:
192,192,282465,1,0,0:0:0:0:
64,192,282585,1,0,0:0:0:0:
320,192,282705,1,0,0:0:0:0:
192,192,282825,1,0,0:0:0:0:
64,192,282885,1,0,0:0:0:0:
448,192,282945,1,0,0:0:0:0:
192,192,283005,1,0,0:0:0:0:
64,192,283065,128,0,283245:0:0:0:0:
320,192,283095,1,0,0:0:0:0:
192,192,283185,128,0,283305:0:0:0:0:
320,192,283305,1,0,0:0:0:0:
448,192,283335,1,0,0:0:0:0:
192,192,283545,1,0,0:0:0:0:
320,192,283545,1,0,0:0:0:0:
320,192,283665,1,0,0:0:0:0:
64,192,283725,1,0,0:0:0:0:
448,192,283785,1,0,0:0:0:0:
64,192,283845,1,0,0:0:0:0:
320,192,283905,1,0,0:0:0:0:
64,192,284025,1,0,0:0:0:0:
192,192,284055,1,0,0:0:0:0:
320,192,284085,1,0,0:0:0:0:
448,192,284145,1,0,0:0:0:0:
64,192,284175,1,0,0:0:0:0:
320,192,284205,1,0,0:0:0:0:
192,192,284265,1,0,0:0:0:0:
448,192,284385,1,0,0:0:0:0:
64,192,284445,1,0,0:0:0:0:
192,192,284505,1,0,0:0:0:0:
320,192,284505,1,0,0:0:0:0:
448,192,284625,1,0,0:0:0:0:
64,192,284685,1,0,0:0:0:0:
320,192,284745,1,0,0:0:0:0:
64,192,284805,1,0,0:0:0:0:
448,192,284865,1,0,0:0:0:0:
192,192,284985,1,0,0:0:0:0:
320,192,285015,1,0,0:0:0:0:
64,192,285045,1,0,0:0:0:0:
448,192,285105,1,0,0:0:0:0:
192,192,285135,1,0,0:0:0:0:
64,192,285165,1,0,0:0:0:0:
320,192,285225,1,0,0:0:0:0:
320,192,285345,1,0,0:0:0:0:
320,192,285465,1,0,0:0:0:0:
192,192,285585,1,0,0:0:0:0:
448,192,285665,1,0,0:0:0:0:
64,192,285705,1,0,0:0:0:0:
320,192,285785,1,0,0:0:0:0:
192,192,285865,1,0,0:0:0:0:
448,192,285945,1,0,0:0:0:0:
64,192,285975,1,0,0:0:0:0:
320,192,286065,1,0,0:0:0:0:
448,192,286095,1,0,0:0:0:0:
192,192,286185,1,0,0:0:0:0:
64,192,286305,128,0,286425:0:0:0:0:
320,192,286305,1,0,0:0:0:0:
448,192,286365,1,0,0:0:0:0:
320,192,286425,1,0,0:0:0:0:
192,192,286545,128,0,286665:0:0:0:0:
448,192,286545,1,0,0:0:0:0:
64,192,286605,1,0,0:0:0:0:
448,192,286665,1,0,0:0:0:0:
320,192,286785,128,0,286905:0:0:0:0:
64,192,286785,1,0,0:0:0:0:
192,192,286845,1,0,0:0:0:0:
64,192,286905,1,0,0:0:0:0:
192,192,287025,1,0,0:0:0:0:
448,192,287025,128,0,287145:0:0:0:0:
320,192,287085,1,0,0:0:0:0:
192,192,287145,1,0,0:0:0:0:
64,192,287145,128,0,287205:0:0:0:0:
320,192,287265,1,0,0:0:0:0:
64,192,287385,1,0,0:0:0:0:
64,192,287505,1,0,0:0:0:0:
448,192,287505,128,0,287565:0:0:0:0:
448,192,287625,1,0,0:0:0:0:
192,192,287625,128,0,287685:0:0:0:0:
64,192,287745,1,0,0:0:0:0:
448,192,287865,1,0,0:0:0:0:
448,192,287985,1,0,0:0:0:0:
192,192,287985,128,0,288045:0:0:0:0:
192,192,288105,5,0,0:0:0:0:
320,192,288105,128,0,288165:0:0:0:0:
64,192,288225,1,0,0:0:0:0:
192,192,288345,5,0,0:0:0:0:
320,192,288345,128,0,288405:0:0:0:0:
320,192,288465,1,0,0:0:0:0:
64,192,288465,128,0,288525:0:0:0:0:
64,192,288585,1,0,0:0:0:0:
448,192,288705,1,0,0:0:0:0:
320,192,288705,128,0,288765:0:0:0:0:
320,192,288825,1,0,0:0:0:0:
192,192,288825,128,0,288885:0:0:0:0:
192,192,288945,1,0,0:0:0:0:
448,192,288945,128,0,289005:0:0:0:0:
448,192,289065,1,0,0:0:0:0:
64,192,289065,128,0,289125:0:0:0:0:
320,192,289185,1,0,0:0:0:0:
64,192,289305,1,0,0:0:0:0:
64,192,289425,1,0,0:0:0:0:
448,192,289425,128,0,289485:0:0:0:0:
448,192,289545,1,0,0:0:0:0:
192,192,289545,128,0,289605:0:0:0:0:
64,192,289665,1,0,0:0:0:0:
448,192,289785,1,0,0:0:0:0:
448,192,289905,1,0,0:0:0:0:
192,192,289905,128,0,289965:0:0:0:0:
192,192,290025,5,0,0:0:0:0:
320,192,290025,128,0,290085:0:0:0:0:
64,192,290145,1,0,0:0:0:0:
192,192,290265,5,0,0:0:0:0:
320,192,290265,128,0,290325:0:0:0:0:
320,192,290385,1,0,0:0:0:0:
64,192,290385,128,0,290445:0:0:0:0:
64,192,290505,1,0,0:0:0:0:
448,192,290625,1,0,0:0:0:0:
320,192,290625,128,0,290685:0:0:0:0:
320,192,290745,1,0,0:0:0:0:
192,192,290745,128,0,290805:0:0:0:0:
192,192,290865,1,0,0:0:0:0:
448,192,290865,128,0,290925:0:0:0:0:
448,192,290985,1,0,0:0:0:0:
64,192,290985,128,0,291045:0:0:0:0:
320,192,291105,1,0,0:0:0:0:
64,192,291225,1,0,0:0:0:0:
64,192,291345,1,0,0:0:0:0:
448,192,291345,128,0,291405:0:0:0:0:
448,192,291465,1,0,0:0:0:0:
192,192,291465,128,0,291525:0:0:0:0:
64,192,291585,1,0,0:0:0:0:
448,192,291705,1,0,0:0:0:0:
448,192,291825,1,0,0:0:0:0:
192,192,291825,128,0,291885:0:0:0:0:
192,192,291945,5,0,0:0:0:0:
320,192,291945,128,0,292005:0:0:0:0:
64,192,292065,1,0,0:0:0:0:
192,192,292185,5,0,0:0:0:0:
320,192,292185,128,0,292245:0:0:0:0:
320,192,292305,1,0,0:0:0:0:
64,192,292305,128,0,292365:0:0:0:0:
64,192,292425,1,0,0:0:0:0:
448,192,292545,1,0,0:0:0:0:
320,192,292545,128,0,292605:0:0:0:0:
320,192,292665,1,0,0:0:0:0:
192,192,292665,128,0,292725:0:0:0:0:
192,192,292785,1,0,0:0:0:0:
448,192,292785,128,0,292845:0:0:0:0:
448,192,292905,1,0,0:0:0:0:
64,192,292905,128,0,292965:0:0:0:0:
320,192,293025,1,0,0:0:0:0:
64,192,293145,1,0,0:0:0:0:
64,192,293265,1,0,0:0:0:0:
448,192,293265,128,0,293325:0:0:0:0:
448,192,293385,1,0,0:0:0:0:
192,192,293385,128,0,293445:0:0:0:0:
64,192,293505,1,0,0:0:0:0:
448,192,293625,1,0,0:0:0:0:
448,192,293745,1,0,0:0:0:0:
192,192,293745,128,0,293805:0:0:0:0:
192,192,293865,5,0,0:0:0:0:
320,192,293865,128,0,293925:0:0:0:0:
64,192,293985,1,0,0:0:0:0:
192,192,294105,5,0,0:0:0:0:
320,192,294105,128,0,294165:0:0:0:0:
320,192,294225,1,0,0:0:0:0:
64,192,294225,128,0,294285:0:0:0:0:
64,192,294345,1,0,0:0:0:0:
320,192,294465,128,0,294585:0:0:0:0:
448,192,294525,128,0,294645:0:0:0:0:
64,192,294585,5,0,0:0:0:0:
192,192,294585,128,0,294705:0:0:0:0:
320,192,294645,128,0,294765:0:0:0:0:
64,192,294705,128,0,294765:0:0:0:0:
448,192,294765,128,0,294825:0:0:0:0:
320,192,294825,5,0,0:0:0:0:
64,192,294825,128,0,295065:0:0:0:0:
192,192,294825,128,0,295005:0:0:0:0:
320,192,294945,128,0,295065:0:0:0:0:
192,192,295065,1,0,0:0:0:0:
448,192,295185,1,0,0:0:0:0:
64,192,295185,128,0,295365:0:0:0:0:
320,192,295185,128,0,295425:0:0:0:0:
448,192,295305,128,0,295425:0:0:0:0:
192,192,295305,128,0,295365:0:0:0:0:
64,192,295425,1,0,0:0:0:0:
192,192,295545,1,0,0:0:0:0:
448,192,295545,128,0,295725:0:0:0:0:
320,192,295545,128,0,295725:0:0:0:0:
192,192,295665,128,0,295785:0:0:0:0:
64,192,295665,128,0,295725:0:0:0:0:
448,192,295785,128,0,295845:0:0:0:0:
320,192,295785,1,0,0:0:0:0:
64,192,295905,1,0,0:0:0:0:
192,192,295905,128,0,296145:0:0:0:0:
320,192,295905,128,0,296085:0:0:0:0:
64,192,296025,128,0,296145:0:0:0:0:
448,192,296025,128,0,296085:0:0:0:0:
320,192,296145,128,0,296205:0:0:0:0:
192,192,296265,128,0,296505:0:0:0:0:
64,192,296265,128,0,296445:0:0:0:0:
448,192,296265,1,0,0:0:0:0:
448,192,296385,128,0,296505:0:0:0:0:
64,192,296505,128,0,296565:0:0:0:0:
192,192,296625,128,0,296805:0:0:0:0:
320,192,296625,1,0,0:0:0:0:
448,192,296625,128,0,296865:0:0:0:0:
320,192,296745,128,0,296865:0:0:0:0:
64,192,296745,128,0,296805:0:0:0:0:
192,192,296865,1,0,0:0:0:0:
64,192,296985,1,0,0:0:0:0:
320,192,296985,128,0,297165:0:0:0:0:
448,192,296985,128,0,297165:0:0:0:0:
64,192,297105,128,0,297225:0:0:0:0:
192,192,297105,128,0,297165:0:0:0:0:
448,192,297225,1,0,0:0:0:0:
320,192,297225,128,0,297285:0:0:0:0:
192,192,297345,1,0,0:0:0:0:
64,192,297345,128,0,297585:0:0:0:0:
448,192,297345,128,0,297525:0:0:0:0:
192,192,297465,128,0,297585:0:0:0:0:
320,192,297585,1,0,0:0:0:0:
448,192,297585,128,0,297645:0:0:0:0:
64,192,297705,5,0,0:0:0:0:
320,192,297705,128,0,297825:0:0:0:0:
192,192,297705,128,0,297765:0:0:0:0:
448,192,297825,128,0,297945:0:0:0:0:
64,192,297825,128,0,297945:0:0:0:0:
192,192,297825,1,0,0:0:0:0:
320,192,298005,128,0,298125:0:0:0:0:
448,192,298005,1,0,0:0:0:0:
64,192,298005,128,0,298125:0:0:0:0:
64,192,298185,1,0,0:0:0:0:
192,192,298185,128,0,298305:0:0:0:0:
320,192,298185,128,0,298305:0:0:0:0:
448,192,298305,1,0,0:0:0:0:
192,192,298365,1,0,0:0:0:0:
320,192,298365,1,0,0:0:0:0:
448,192,298425,1,0,0:0:0:0:
64,192,298425,1,0,0:0:0:0:
192,192,298545,1,0,0:0:0:0:
64,192,298545,1,0,0:0:0:0:
448,192,298605,1,0,0:0:0:0:
320,192,298665,1,0,0:0:0:0:
64,192,298665,128,0,298905:0:0:0:0:
192,192,298665,128,0,298845:0:0:0:0:
320,192,298785,128,0,298905:0:0:0:0:
192,192,298905,1,0,0:0:0:0:
448,192,299025,1,0,0:0:0:0:
64,192,299025,128,0,299205:0:0:0:0:
320,192,299025,128,0,299265:0:0:0:0:
448,192,299145,128,0,299265:0:0:0:0:
64,192,299265,1,0,0:0:0:0:
192,192,299385,1,0,0:0:0:0:
320,192,299385,128,0,299625:0:0:0:0:
448,192,299385,128,0,299565:0:0:0:0:
192,192,299505,128,0,299625:0:0:0:0:
448,192,299625,1,0,0:0:0:0:
64,192,299745,1,0,0:0:0:0:
192,192,299745,128,0,299985:0:0:0:0:
320,192,299745,128,0,299925:0:0:0:0:
64,192,299865,128,0,299985:0:0:0:0:
320,192,299985,1,0,0:0:0:0:
448,192,300105,1,0,0:0:0:0:
192,192,300105,128,0,300345:0:0:0:0:
64,192,300105,128,0,300285:0:0:0:0:
448,192,300225,128,0,300345:0:0:0:0:
64,192,300345,1,0,0:0:0:0:
320,192,300465,1,0,0:0:0:0:
192,192,300465,128,0,300645:0:0:0:0:
448,192,300465,128,0,300585:0:0:0:0:
320,192,300585,1,0,0:0:0:0:
192,192,300705,1,0,0:0:0:0:
64,192,300705,128,0,300825:0:0:0:0:
448,192,300705,128,0,300825:0:0:0:0:
448,192,300885,1,0,0:0:0:0:
320,192,300885,128,0,301005:0:0:0:0:
64,192,300885,128,0,301005:0:0:0:0:
64,192,301065,1,0,0:0:0:0:
192,192,301065,128,0,301185:0:0:0:0:
320,192,301065,128,0,301185:0:0:0:0:
448,192,301185,1,0,0:0:0:0:
320,192,301245,1,0,0:0:0:0:
192,192,301245,1,0,0:0:0:0:
64,192,301305,1,0,0:0:0:0:
448,192,301305,1,0,0:0:0:0:
192,192,301425,5,0,0:0:0:0:
64,192,301425,1,0,0:0:0:0:
320,192,301485,1,0,0:0:0:0:
192,192,301545,5,0,0:0:0:0:
64,192,301545,1,0,0:0:0:0:
448,192,301545,1,0,0:0:0:0:
192,192,301665,1,0,0:0:0:0:
64,192,301665,1,0,0:0:0:0:
448,192,301665,1,0,0:0:0:0:
320,192,301785,1,0,0:0:0:0:
192,192,301845,1,0,0:0:0:0:
320,192,301905,1,0,0:0:0:0:
64,192,301965,1,0,0:0:0:0:
192,192,302025,1,0,0:0:0:0:
448,192,302085,1,0,0:0:0:0:
192,192,302145,1,0,0:0:0:0:
320,192,302145,1,0,0:0:0:0:
448,192,302205,1,0,0:0:0:0:
64,192,302265,5,0,0:0:0:0:
320,192,302325,5,0,0:0:0:0:
64,192,302385,5,0,0:0:0:0:
320,192,302445,5,0,0:0:0:0:
192,192,302505,5,0,0:0:0:0:
448,192,302505,1,0,0:0:0:0:
64,192,302565,1,0,0:0:0:0:
192,192,302625,1,0,0:0:0:0:
448,192,302625,1,0,0:0:0:0:
64,192,302685,1,0,0:0:0:0:
448,192,302745,1,0,0:0:0:0:
320,192,302805,1,0,0:0:0:0:
192,192,302865,1,0,0:0:0:0:
64,192,302865,1,0,0:0:0:0:
448,192,302925,1,0,0:0:0:0:
192,192,302985,1,0,0:0:0:0:
320,192,302985,1,0,0:0:0:0:
448,192,303045,1,0,0:0:0:0:
192,192,303105,1,0,0:0:0:0:
64,192,303105,1,0,0:0:0:0:
320,192,303165,1,0,0:0:0:0:
64,192,303225,1,0,0:0:0:0:
448,192,303285,1,0,0:0:0:0:
320,192,303345,1,0,0:0:0:0:
64,192,303345,1,0,0:0:0:0:
64,192,303405,1,0,0:0:0:0:
192,192,303465,1,0,0:0:0:0:
320,192,303465,1,0,0:0:0:0:
448,192,303525,1,0,0:0:0:0:
192,192,303585,1,0,0:0:0:0:
320,192,303585,1,0,0:0:0:0:
448,192,303645,1,0,0:0:0:0:
192,192,303705,1,0,0:0:0:0:
64,192,303765,1,0,0:0:0:0:
320,192,303825,1,0,0:0:0:0:
448,192,303825,1,0,0:0:0:0:
192,192,303885,1,0,0:0:0:0:
64,192,303945,1,0,0:0:0:0:
320,192,303945,1,0,0:0:0:0:
192,192,304005,1,0,0:0:0:0:
320,192,304065,1,0,0:0:0:0:
448,192,304065,1,0,0:0:0:0:
64,192,304125,1,0,0:0:0:0:
448,192,304185,128,0,304245:0:0:0:0:
192,192,304245,128,0,304305:0:0:0:0:
448,192,304305,128,0,304425:0:0:0:0:
64,192,304425,1,0,0:0:0:0:
320,192,304425,1,0,0:0:0:0:
192,192,304485,1,0,0:0:0:0:
64,192,304545,1,0,0:0:0:0:
320,192,304545,1,0,0:0:0:0:
192,192,304605,1,0,0:0:0:0:
320,192,304665,1,0,0:0:0:0:
448,192,304725,1,0,0:0:0:0:
192,192,304785,1,0,0:0:0:0:
64,192,304785,1,0,0:0:0:0:
320,192,304845,1,0,0:0:0:0:
64,192,304905,1,0,0:0:0:0:
448,192,304905,1,0,0:0:0:0:
320,192,304965,1,0,0:0:0:0:
192,192,305025,1,0,0:0:0:0:
64,192,305025,1,0,0:0:0:0:
448,192,305085,1,0,0:0:0:0:
320,192,305145,1,0,0:0:0:0:
192,192,305145,1,0,0:0:0:0:
64,192,305205,1,0,0:0:0:0:
320,192,305265,1,0,0:0:0:0:
448,192,305265,1,0,0:0:0:0:
192,192,305325,1,0,0:0:0:0:
64,192,305385,1,0,0:0:0:0:
448,192,305385,1,0,0:0:0:0:
192,192,305445,1,0,0:0:0:0:
320,192,305505,1,0,0:0:0:0:
448,192,305505,1,0,0:0:0:0:
64,192,305565,1,0,0:0:0:0:
192,192,305625,1,0,0:0:0:0:
320,192,305625,1,0,0:0:0:0:
448,192,305685,1,0,0:0:0:0:
192,192,305745,1,0,0:0:0:0:
64,192,305745,1,0,0:0:0:0:
320,192,305805,1,0,0:0:0:0:
192,192,305865,1,0,0:0:0:0:
64,192,305865,1,0,0:0:0:0:
448,192,305925,1,0,0:0:0:0:
64,192,305985,1,0,0:0:0:0:
192,192,306045,1,0,0:0:0:0:
320,192,306105,1,0,0:0:0:0:
448,192,306105,128,0,306225:0:0:0:0:
64,192,306165,128,0,306285:0:0:0:0:
320,192,306225,128,0,306345:0:0:0:0:
192,192,306345,128,0,306465:0:0:0:0:
448,192,306345,128,0,306405:0:0:0:0:
64,192,306405,1,0,0:0:0:0:
448,192,306465,1,0,0:0:0:0:
192,192,306525,1,0,0:0:0:0:
320,192,306585,128,0,306705:0:0:0:0:
64,192,306585,128,0,306645:0:0:0:0:
448,192,306645,1,0,0:0:0:0:
64,192,306705,128,0,306825:0:0:0:0:
192,192,306705,128,0,306765:0:0:0:0:
320,192,306765,1,0,0:0:0:0:
192,192,306825,1,0,0:0:0:0:
448,192,306885,1,0,0:0:0:0:
320,192,306945,128,0,307065:0:0:0:0:
64,192,306945,128,0,307005:0:0:0:0:
192,192,307005,1,0,0:0:0:0:
64,192,307065,128,0,307185:0:0:0:0:
448,192,307065,128,0,307125:0:0:0:0:
192,192,307125,1,0,0:0:0:0:
448,192,307185,128,0,307305:0:0:0:0:
320,192,307185,128,0,307245:0:0:0:0:
64,192,307245,1,0,0:0:0:0:
192,192,307305,1,0,0:0:0:0:
320,192,307365,1,0,0:0:0:0:
192,192,307425,128,0,307545:0:0:0:0:
448,192,307425,128,0,307485:0:0:0:0:
64,192,307485,1,0,0:0:0:0:
448,192,307545,1,0,0:0:0:0:
192,192,307605,1,0,0:0:0:0:
320,192,307665,128,0,307785:0:0:0:0:
64,192,307665,128,0,307725:0:0:0:0:
448,192,307725,1,0,0:0:0:0:
64,192,307785,1,0,0:0:0:0:
448,192,307845,1,0,0:0:0:0:
192,192,307905,128,0,308025:0:0:0:0:
320,192,307905,128,0,307965:0:0:0:0:
64,192,307965,1,0,0:0:0:0:
320,192,308025,1,0,0:0:0:0:
320,192,308145,1,0,0:0:0:0:
64,192,308265,128,0,308325:0:0:0:0:
448,192,308265,128,0,308345:0:0:0:0:
192,192,308305,1,0,0:0:0:0:
320,192,308345,1,0,0:0:0:0:
64,192,308385,1,0,0:0:0:0:
448,192,308425,1,0,0:0:0:0:
192,192,308465,128,0,308545:0:0:0:0:
64,192,308505,128,0,308625:0:0:0:0:
448,192,308545,1,0,0:0:0:0:
320,192,308585,128,0,308665:0:0:0:0:
192,192,308625,128,0,308745:0:0:0:0:
448,192,308665,1,0,0:0:0:0:
64,192,308705,1,0,0:0:0:0:
320,192,308745,1,0,0:0:0:0:
448,192,308785,128,0,308865:0:0:0:0:
192,192,308825,128,0,308985:0:0:0:0:
320,192,308865,128,0,308925:0:0:0:0:
64,192,308905,1,0,0:0:0:0:
448,192,308945,128,0,309025:0:0:0:0:
320,192,308985,128,0,309105:0:0:0:0:
64,192,309025,1,0,0:0:0:0:
192,192,309065,128,0,309145:0:0:0:0:
448,192,309105,128,0,309225:0:0:0:0:
64,192,309145,1,0,0:0:0:0:
320,192,309185,128,0,309325:0:0:0:0:
192,192,309225,128,0,309285:0:0:0:0:
64,192,309265,128,0,309405:0:0:0:0:
448,192,309305,128,0,309365:0:0:0:0:
192,192,309345,128,0,309445:0:0:0:0:
320,192,309385,128,0,309485:0:0:0:0:
448,192,309425,128,0,309565:0:0:0:0:
64,192,309465,128,0,309525:0:0:0:0:
192,192,309505,128,0,309645:0:0:0:0:
320,192,309545,128,0,309605:0:0:0:0:
64,192,309585,128,0,309685:0:0:0:0:
448,192,309625,128,0,309725:0:0:0:0:
320,192,309665,128,0,309805:0:0:0:0:
192,192,309705,128,0,309765:0:0:0:0:
64,192,309745,128,0,309885:0:0:0:0:
448,192,309785,128,0,309845:0:0:0:0:
192,192,309825,128,0,309925:0:0:0:0:
320,192,309865,128,0,309965:0:0:0:0:
448,192,309905,128,0,310045:0:0:0:0:
64,192,309945,128,0,310005:0:0:0:0:
192,192,309985,128,0,310125:0:0:0:0:
320,192,310025,128,0,310085:0:0:0:0:
64,192,310065,128,0,310185:0:0:0:0:
448,192,310105,128,0,310185:0:0:0:0:
320,192,310145,1,0,0:0:0:0:
192,192,310185,128,0,311145:0:0:0:0:
448,192,310245,128,0,310485:0:0:0:0:
64,192,310305,128,0,310425:0:0:0:0:
320,192,310425,128,0,310545:0:0:0:0:
64,192,310665,128,0,311025:0:0:0:0:
320,192,310665,128,0,310905:0:0:0:0:
320,192,311145,128,0,311225:0:0:0:0:
448,192,311185,128,0,311265:0:0:0:0:
64,192,311225,128,0,311325:0:0:0:0:
192,192,311265,128,0,311385:0:0:0:0:
448,192,311325,128,0,311385:0:0:0:0:
320,192,311385,1,0,0:0:0:0:
64,192,311385,1,0,0:0:0:0:
192,192,311445,1,0,0:0:0:0:
320,192,311505,1,0,0:0:0:0:
192,192,311565,1,0,0:0:0:0:
448,192,311625,1,0,0:0:0:0:
64,192,311685,1,0,0:0:0:0:
448,192,311745,1,0,0:0:0:0:
192,192,311745,1,0,0:0:0:0:
320,192,311805,1,0,0:0:0:0:
448,192,311865,1,0,0:0:0:0:
64,192,311865,1,0,0:0:0:0:
320,192,311925,1,0,0:0:0:0:
64,192,311985,1,0,0:0:0:0:
192,192,311985,1,0,0:0:0:0:
448,192,312045,1,0,0:0:0:0:
320,192,312105,128,0,312225:0:0:0:0:
192,192,312105,128,0,312255:0:0:0:0:
64,192,312105,128,0,312285:0:0:0:0:
448,192,312285,1,0,0:0:0:0:
320,192,312330,1,0,0:0:0:0:
192,192,312375,1,0,0:0:0:0:
448,192,312420,1,0,0:0:0:0:
64,192,312465,128,0,312645:0:0:0:0:
320,192,312465,128,0,312585:0:0:0:0:
192,192,312465,128,0,312615:0:0:0:0:
448,192,312645,1,0,0:0:0:0:
192,192,312705,128,0,312765:0:0:0:0:
64,192,312765,128,0,312825:0:0:0:0:
192,192,312825,128,0,312945:0:0:0:0:
320,192,312825,128,0,312975:0:0:0:0:
448,192,312825,128,0,313005:0:0:0:0:
192,192,313005,1,0,0:0:0:0:
320,192,313065,128,0,313125:0:0:0:0:
64,192,313065,128,0,313185:0:0:0:0:
192,192,313185,128,0,313305:0:0:0:0:
320,192,313185,128,0,313335:0:0:0:0:
448,192,313185,128,0,313365:0:0:0:0:
64,192,313365,1,0,0:0:0:0:
192,192,313425,128,0,313485:0:0:0:0:
320,192,313425,128,0,313545:0:0:0:0:
64,192,313545,1,0,0:0:0:0:
448,192,313545,128,0,313725:0:0:0:0:
192,192,313545,128,0,313665:0:0:0:0:
320,192,313605,128,0,313725:0:0:0:0:
64,192,313665,128,0,313725:0:0:0:0:
192,192,313725,128,0,313785:0:0:0:0:
448,192,313785,1,0,0:0:0:0:
64,192,313785,128,0,313965:0:0:0:0:
320,192,313785,128,0,313905:0:0:0:0:
192,192,313845,128,0,313965:0:0:0:0:
448,192,313905,128,0,313965:0:0:0:0:
320,192,313965,128,0,314025:0:0:0:0:
192,192,314025,128,0,314145:0:0:0:0:
448,192,314025,128,0,314145:0:0:0:0:
64,192,314025,1,0,0:0:0:0:
320,192,314085,128,0,314145:0:0:0:0:
64,192,314145,128,0,314205:0:0:0:0:
448,192,314205,128,0,314265:0:0:0:0:
320,192,314265,128,0,314505:0:0:0:0:
192,192,314265,1,0,0:0:0:0:
64,192,314325,128,0,314385:0:0:0:0:
192,192,314385,128,0,314505:0:0:0:0:
448,192,314385,128,0,314445:0:0:0:0:
64,192,314445,128,0,314505:0:0:0:0:
448,192,314505,128,0,314565:0:0:0:0:
320,192,314565,128,0,314625:0:0:0:0:
192,192,314625,128,0,314745:0:0:0:0:
64,192,314625,1,0,0:0:0:0:
448,192,314685,128,0,314745:0:0:0:0:
64,192,314745,128,0,314985:0:0:0:0:
320,192,314745,1,0,0:0:0:0:
192,192,314805,128,0,314865:0:0:0:0:
320,192,314865,128,0,314985:0:0:0:0:
448,192,314865,128,0,314925:0:0:0:0:
192,192,314925,128,0,314985:0:0:0:0:
448,192,314985,128,0,315045:0:0:0:0:
320,192,315045,128,0,315105:0:0:0:0:
192,192,315105,128,0,315225:0:0:0:0:
64,192,315105,128,0,315165:0:0:0:0:
448,192,315165,128,0,315225:0:0:0:0:
64,192,315225,128,0,315285:0:0:0:0:
192,192,315285,128,0,315345:0:0:0:0:
448,192,315345,128,0,315465:0:0:0:0:
320,192,315345,128,0,315405:0:0:0:0:
64,192,315405,128,0,315465:0:0:0:0:
320,192,315465,128,0,315525:0:0:0:0:
448,192,315525,128,0,315585:0:0:0:0:
64,192,315585,128,0,315825:0:0:0:0:
192,192,315585,1,0,0:0:0:0:
320,192,315645,128,0,315705:0:0:0:0:
448,192,315705,128,0,315825:0:0:0:0:
192,192,315705,128,0,315765:0:0:0:0:
320,192,315765,128,0,315825:0:0:0:0:
192,192,315825,128,0,315885:0:0:0:0:
64,192,315885,128,0,315945:0:0:0:0:
448,192,315945,128,0,316065:0:0:0:0:
320,192,315945,128,0,316005:0:0:0:0:
192,192,316005,128,0,316065:0:0:0:0:
320,192,316065,128,0,316125:0:0:0:0:
64,192,316125,128,0,316185:0:0:0:0:
192,192,316185,128,0,316425:0:0:0:0:
448,192,316185,1,0,0:0:0:0:
320,192,316245,128,0,316305:0:0:0:0:
448,192,316305,128,0,316425:0:0:0:0:
64,192,316305,128,0,316365:0:0:0:0:
320,192,316365,128,0,316425:0:0:0:0:
64,192,316425,128,0,316485:0:0:0:0:
192,192,316485,128,0,316545:0:0:0:0:
448,192,316545,128,0,316665:0:0:0:0:
320,192,316545,1,0,0:0:0:0:
64,192,316605,128,0,316665:0:0:0:0:
320,192,316665,128,0,316905:0:0:0:0:
192,192,316665,1,0,0:0:0:0:
448,192,316725,128,0,316785:0:0:0:0:
192,192,316785,128,0,316905:0:0:0:0:
64,192,316785,128,0,316845:0:0:0:0:
448,192,316845,128,0,316905:0:0:0:0:
64,192,316905,128,0,316965:0:0:0:0:
320,192,316965,128,0,317025:0:0:0:0:
192,192,317025,128,0,317145:0:0:0:0:
448,192,317025,128,0,317085:0:0:0:0:
64,192,317085,128,0,317145:0:0:0:0:
448,192,317145,128,0,317205:0:0:0:0:
320,192,317205,128,0,317265:0:0:0:0:
64,192,317265,128,0,317385:0:0:0:0:
192,192,317265,128,0,317325:0:0:0:0:
448,192,317325,128,0,317385:0:0:0:0:
192,192,317385,128,0,317445:0:0:0:0:
320,192,317445,128,0,317505:0:0:0:0:
448,192,317505,128,0,317625:0:0:0:0:
64,192,317505,1,0,0:0:0:0:
192,192,317565,128,0,317625:0:0:0:0:
320,192,317625,128,0,317805:0:0:0:0:
64,192,317625,128,0,317745:0:0:0:0:
448,192,317685,128,0,317805:0:0:0:0:
192,192,317745,128,0,317865:0:0:0:0:
64,192,317805,128,0,317865:0:0:0:0:
448,192,317865,128,0,317925:0:0:0:0:
320,192,317865,128,0,317985:0:0:0:0:
192,192,317925,128,0,317985:0:0:0:0:
448,192,317985,128,0,318045:0:0:0:0:
64,192,318045,128,0,318105:0:0:0:0:
192,192,318105,128,0,318165:0:0:0:0:
320,192,318105,128,0,318225:0:0:0:0:
448,192,318165,128,0,318225:0:0:0:0:
192,192,318225,128,0,318285:0:0:0:0:
320,192,318285,128,0,318345:0:0:0:0:
448,192,318345,128,0,318405:0:0:0:0:
64,192,318345,128,0,318465:0:0:0:0:
192,192,318405,128,0,318465:0:0:0:0:
448,192,318465,1,0,0:0:0:0:
320,192,318465,128,0,318585:0:0:0:0:
64,192,318525,128,0,318585:0:0:0:0:
448,192,318585,128,0,318825:0:0:0:0:
192,192,318585,1,0,0:0:0:0:
320,192,318645,128,0,318705:0:0:0:0:
64,192,318705,128,0,318765:0:0:0:0:
192,192,318705,128,0,318825:0:0:0:0:
320,192,318765,128,0,318825:0:0:0:0:
64,192,318825,128,0,318885:0:0:0:0:
448,192,318885,128,0,318945:0:0:0:0:
192,192,318945,128,0,319065:0:0:0:0:
320,192,318945,128,0,319005:0:0:0:0:
64,192,319005,128,0,319065:0:0:0:0:
320,192,319065,128,0,319125:0:0:0:0:
192,192,319125,128,0,319185:0:0:0:0:
448,192,319185,128,0,319305:0:0:0:0:
64,192,319185,128,0,319245:0:0:0:0:
320,192,319245,128,0,319305:0:0:0:0:
64,192,319305,128,0,319365:0:0:0:0:
192,192,319365,128,0,319425:0:0:0:0:
320,192,319425,128,0,319545:0:0:0:0:
448,192,319425,128,0,319485:0:0:0:0:
64,192,319485,128,0,319545:0:0:0:0:
448,192,319545,128,0,319605:0:0:0:0:
192,192,319605,128,0,319665:0:0:0:0:
64,192,319665,128,0,319725:0:0:0:0:
320,192,319665,128,0,319785:0:0:0:0:
448,192,319725,128,0,319785:0:0:0:0:
192,192,319785,128,0,319845:0:0:0:0:
64,192,319785,128,0,319905:0:0:0:0:
320,192,319845,128,0,319905:0:0:0:0:
192,192,319905,128,0,319965:0:0:0:0:
320,192,319965,128,0,320085:0:0:0:0:
448,192,319965,128,0,320025:0:0:0:0:
64,192,320025,128,0,320085:0:0:0:0:
448,192,320085,128,0,320145:0:0:0:0:
320,192,320145,128,0,320205:0:0:0:0:
192,192,320145,128,0,320265:0:0:0:0:
64,192,320205,128,0,320265:0:0:0:0:
320,192,320265,128,0,320385:0:0:0:0:
448,192,320265,128,0,320325:0:0:0:0:
192,192,320325,128,0,320385:0:0:0:0:
448,192,320385,128,0,320445:0:0:0:0:
192,192,320445,128,0,320565:0:0:0:0:
64,192,320445,128,0,320505:0:0:0:0:
320,192,320505,128,0,320565:0:0:0:0:
64,192,320565,128,0,320625:0:0:0:0:
192,192,320625,128,0,320685:0:0:0:0:
448,192,320625,128,0,320745:0:0:0:0:
320,192,320685,128,0,320745:0:0:0:0:
192,192,320745,128,0,320865:0:0:0:0:
64,192,320745,128,0,320865:0:0:0:0:
320,192,320865,128,0,320925:0:0:0:0:
448,192,320925,128,0,321045:0:0:0:0:
192,192,320985,128,0,321105:0:0:0:0:
320,192,320985,128,0,321105:0:0:0:0:
64,192,321045,128,0,321165:0:0:0:0:
448,192,321105,128,0,321225:0:0:0:0:
320,192,321165,128,0,321285:0:0:0:0:
192,192,321225,1,0,0:0:0:0:
64,192,321225,128,0,321285:0:0:0:0:
448,192,321285,128,0,321405:0:0:0:0:
64,192,321345,128,0,321465:0:0:0:0:
320,192,321405,128,0,321525:0:0:0:0:
192,192,321465,128,0,321585:0:0:0:0:
448,192,321465,1,0,0:0:0:0:
64,192,321525,128,0,321645:0:0:0:0:
320,192,321585,1,0,0:0:0:0:
192,192,321645,1,0,0:0:0:0:
320,192,321705,128,0,321825:0:0:0:0:
64,192,321705,128,0,321825:0:0:0:0:
448,192,321705,1,0,0:0:0:0:
192,192,321765,128,0,321825:0:0:0:0:
448,192,321825,128,0,321885:0:0:0:0:
64,192,321885,128,0,321945:0:0:0:0:
192,192,321945,128,0,322185:0:0:0:0:
320,192,321945,1,0,0:0:0:0:
448,192,322005,128,0,322065:0:0:0:0:
320,192,322065,128,0,322185:0:0:0:0:
64,192,322065,128,0,322125:0:0:0:0:
448,192,322125,128,0,322185:0:0:0:0:
64,192,322185,128,0,322245:0:0:0:0:
192,192,322245,128,0,322305:0:0:0:0:
320,192,322305,128,0,322425:0:0:0:0:
448,192,322305,1,0,0:0:0:0:
64,192,322365,128,0,322425:0:0:0:0:
448,192,322425,128,0,322665:0:0:0:0:
192,192,322425,1,0,0:0:0:0:
320,192,322485,128,0,322545:0:0:0:0:
192,192,322545,128,0,322665:0:0:0:0:
64,192,322545,128,0,322605:0:0:0:0:
320,192,322605,128,0,322665:0:0:0:0:
64,192,322665,128,0,322725:0:0:0:0:
192,192,322725,128,0,322785:0:0:0:0:
320,192,322785,128,0,322905:0:0:0:0:
448,192,322785,128,0,322845:0:0:0:0:
64,192,322845,128,0,322905:0:0:0:0:
448,192,322905,128,0,322965:0:0:0:0:
320,192,322965,128,0,323025:0:0:0:0:
64,192,323025,128,0,323145:0:0:0:0:
192,192,323025,128,0,323085:0:0:0:0:
448,192,323085,128,0,323145:0:0:0:0:
192,192,323145,128,0,323205:0:0:0:0:
64,192,323205,128,0,323265:0:0:0:0:
448,192,323265,128,0,323505:0:0:0:0:
320,192,323265,1,0,0:0:0:0:
192,192,323325,128,0,323385:0:0:0:0:
64,192,323385,128,0,323505:0:0:0:0:
320,192,323385,128,0,323445:0:0:0:0:
192,192,323445,128,0,323505:0:0:0:0:
320,192,323505,128,0,323565:0:0:0:0:
448,192,323565,128,0,323625:0:0:0:0:
64,192,323625,128,0,323745:0:0:0:0:
192,192,323625,128,0,323685:0:0:0:0:
320,192,323685,128,0,323745:0:0:0:0:
192,192,323745,128,0,323805:0:0:0:0:
448,192,323805,128,0,323865:0:0:0:0:
320,192,323865,128,0,324105:0:0:0:0:
64,192,323865,1,0,0:0:0:0:
192,192,323925,128,0,323985:0:0:0:0:
64,192,323985,128,0,324105:0:0:0:0:
448,192,323985,128,0,324045:0:0:0:0:
192,192,324045,128,0,324105:0:0:0:0:
448,192,324105,128,0,324165:0:0:0:0:
320,192,324165,128,0,324225:0:0:0:0:
64,192,324225,1,0,0:0:0:0:
192,192,324225,128,0,324345:0:0:0:0:
448,192,324285,128,0,324345:0:0:0:0:
320,192,324345,1,0,0:0:0:0:
64,192,324345,128,0,324585:0:0:0:0:
192,192,324405,128,0,324465:0:0:0:0:
320,192,324465,128,0,324585:0:0:0:0:
448,192,324465,128,0,324525:0:0:0:0:
192,192,324525,128,0,324585:0:0:0:0:
448,192,324585,128,0,324645:0:0:0:0:
320,192,324645,128,0,324705:0:0:0:0:
192,192,324705,128,0,324825:0:0:0:0:
64,192,324705,128,0,324765:0:0:0:0:
448,192,324765,128,0,324825:0:0:0:0:
64,192,324825,128,0,324885:0:0:0:0:
192,192,324885,128,0,324945:0:0:0:0:
320,192,324945,128,0,325065:0:0:0:0:
448,192,324945,128,0,325005:0:0:0:0:
64,192,325005,128,0,325065:0:0:0:0:
448,192,325065,128,0,325125:0:0:0:0:
192,192,325125,128,0,325185:0:0:0:0:
64,192,325185,128,0,325305:0:0:0:0:
320,192,325185,1,0,0:0:0:0:
448,192,325245,128,0,325305:0:0:0:0:
192,192,325305,128,0,325485:0:0:0:0:
320,192,325305,128,0,325425:0:0:0:0:
64,192,325365,128,0,325485:0:0:0:0:
448,192,325425,128,0,325545:0:0:0:0:
320,192,325485,128,0,325545:0:0:0:0:
64,192,325545,128,0,325665:0:0:0:0:
192,192,325545,128,0,325605:0:0:0:0:
448,192,325605,128,0,325665:0:0:0:0:
192,192,325665,128,0,325725:0:0:0:0:
320,192,325725,128,0,325785:0:0:0:0:
64,192,325785,128,0,325905:0:0:0:0:
448,192,325785,128,0,325845:0:0:0:0:
192,192,325845,128,0,325905:0:0:0:0:
448,192,325905,128,0,325965:0:0:0:0:
64,192,325965,128,0,326025:0:0:0:0:
192,192,326025,128,0,326085:0:0:0:0:
320,192,326025,128,0,326145:0:0:0:0:
448,192,326085,128,0,326145:0:0:0:0:
64,192,326145,128,0,326205:0:0:0:0:
320,192,326205,128,0,326265:0:0:0:0:
192,192,326265,128,0,326505:0:0:0:0:
448,192,326265,1,0,0:0:0:0:
64,192,326325,128,0,326385:0:0:0:0:
320,192,326385,128,0,326445:0:0:0:0:
448,192,326385,128,0,326505:0:0:0:0:
64,192,326445,128,0,326505:0:0:0:0:
320,192,326505,128,0,326565:0:0:0:0:
192,192,326565,128,0,326625:0:0:0:0:
64,192,326625,128,0,326685:0:0:0:0:
448,192,326625,128,0,326745:0:0:0:0:
320,192,326685,128,0,326745:0:0:0:0:
64,192,326745,128,0,326805:0:0:0:0:
448,192,326805,128,0,326865:0:0:0:0:
192,192,326865,128,0,326985:0:0:0:0:
320,192,326865,128,0,326925:0:0:0:0:
64,192,326925,128,0,326985:0:0:0:0:
320,192,326985,128,0,327045:0:0:0:0:
448,192,327045,128,0,327105:0:0:0:0:
64,192,327105,128,0,327225:0:0:0:0:
192,192,327105,128,0,327165:0:0:0:0:
320,192,327165,128,0,327225:0:0:0:0:
192,192,327225,128,0,327285:0:0:0:0:
448,192,327285,128,0,327345:0:0:0:0:
320,192,327345,128,0,327405:0:0:0:0:
64,192,327345,128,0,327465:0:0:0:0:
192,192,327405,128,0,327465:0:0:0:0:
320,192,327465,128,0,327585:0:0:0:0:
448,192,327465,128,0,327525:0:0:0:0:
64,192,327525,128,0,327585:0:0:0:0:
448,192,327585,128,0,327645:0:0:0:0:
64,192,327645,128,0,327765:0:0:0:0:
192,192,327645,128,0,327705:0:0:0:0:
320,192,327705,128,0,327765:0:0:0:0:
192,192,327765,128,0,327825:0:0:0:0:
64,192,327825,128,0,327885:0:0:0:0:
448,192,327825,128,0,327945:0:0:0:0:
320,192,327885,128,0,327945:0:0:0:0:
64,192,327945,128,0,328065:0:0:0:0:
192,192,327945,128,0,328005:0:0:0:0:
448,192,328005,128,0,328065:0:0:0:0:
192,192,328065,128,0,328125:0:0:0:0:
320,192,328125,128,0,328185:0:0:0:0:
448,192,328125,128,0,328245:0:0:0:0:
64,192,328185,128,0,328245:0:0:0:0:
320,192,328245,128,0,328305:0:0:0:0:
192,192,328305,128,0,328425:0:0:0:0:
448,192,328305,128,0,328365:0:0:0:0:
64,192,328365,128,0,328425:0:0:0:0:
320,192,328425,128,0,328485:0:0:0:0:
448,192,328425,128,0,328545:0:0:0:0:
192,192,328485,128,0,328545:0:0:0:0:
64,192,328545,128,0,328605:0:0:0:0:
320,192,328545,128,0,328665:0:0:0:0:
448,192,328605,128,0,328665:0:0:0:0:
64,192,328665,128,0,328785:0:0:0:0:
192,192,328665,128,0,328725:0:0:0:0:
320,192,328725,128,0,328845:0:0:0:0:
192,192,328785,128,0,328905:0:0:0:0:
448,192,328845,128,0,328965:0:0:0:0:
320,192,328905,128,0,328965:0:0:0:0:
64,192,328905,1,0,0:0:0:0:
192,192,328965,128,0,329085:0:0:0:0:
320,192,329025,128,0,329145:0:0:0:0:
448,192,329085,128,0,329205:0:0:0:0:
192,192,329145,1,0,0:0:0:0:
64,192,329145,128,0,329265:0:0:0:0:
320,192,329205,128,0,329325:0:0:0:0:
192,192,329265,128,0,329385:0:0:0:0:
64,192,329325,1,0,0:0:0:0:
320,192,329385,1,0,0:0:0:0:
448,192,329385,1,0,0:0:0:0:
192,192,329505,1,0,0:0:0:0:
64,192,329625,128,0,329745:0:0:0:0:
320,192,329745,128,0,329985:0:0:0:0:
192,192,329865,128,0,329985:0:0:0:0:
448,192,329985,128,0,330105:0:0:0:0:
64,192,329985,128,0,330225:0:0:0:0:
192,192,330105,128,0,330225:0:0:0:0:
320,192,330105,1,0,0:0:0:0:
448,192,330225,1,0,0:0:0:0:
320,192,330255,1,0,0:0:0:0:
64,192,330285,1,0,0:0:0:0:
192,192,330315,1,0,0:0:0:0:
320,192,330345,128,0,330465:0:0:0:0:
448,192,330345,128,0,330405:0:0:0:0:
448,192,330465,128,0,330585:0:0:0:0:
192,192,330525,128,0,330705:0:0:0:0:
64,192,330525,1,0,0:0:0:0:
320,192,330585,128,0,330645:0:0:0:0:
320,192,330705,128,0,330825:0:0:0:0:
64,192,330705,128,0,330765:0:0:0:0:
64,192,330825,128,0,330945:0:0:0:0:
192,192,330825,1,0,0:0:0:0:
448,192,330885,128,0,331005:0:0:0:0:
320,192,330885,1,0,0:0:0:0:
192,192,330945,128,0,331185:0:0:0:0:
448,192,331065,128,0,331125:0:0:0:0:
64,192,331065,128,0,331245:0:0:0:0:
320,192,331185,128,0,331305:0:0:0:0:
448,192,331185,128,0,331305:0:0:0:0:
192,192,331305,1,0,0:0:0:0:
64,192,331305,1,0,0:0:0:0:
320,192,331425,1,0,0:0:0:0:
448,192,331545,128,0,331665:0:0:0:0:
192,192,331665,128,0,331905:0:0:0:0:
320,192,331785,128,0,331905:0:0:0:0:
64,192,331905,128,0,332025:0:0:0:0:
448,192,331905,128,0,332145:0:0:0:0:
320,192,332025,128,0,332145:0:0:0:0:
192,192,332025,1,0,0:0:0:0:
64,192,332145,5,0,0:0:0:0:
192,192,332175,1,0,0:0:0:0:
448,192,332205,1,0,0:0:0:0:
320,192,332235,1,0,0:0:0:0:
192,192,332265,128,0,332385:0:0:0:0:
64,192,332265,128,0,332325:0:0:0:0:
64,192,332385,128,0,332505:0:0:0:0:
320,192,332445,128,0,332625:0:0:0:0:
448,192,332445,1,0,0:0:0:0:
192,192,332505,128,0,332565:0:0:0:0:
192,192,332625,128,0,332745:0:0:0:0:
448,192,332625,128,0,332685:0:0:0:0:
320,192,332745,1,0,0:0:0:0:
448,192,332745,1,0,0:0:0:0:
320,192,332805,1,0,0:0:0:0:
448,192,332805,1,0,0:0:0:0:
64,192,332865,1,0,0:0:0:0:
192,192,332865,1,0,0:0:0:0:
192,192,332925,1,0,0:0:0:0:
64,192,332925,1,0,0:0:0:0:
320,192,332985,128,0,333165:0:0:0:0:
448,192,333045,128,0,333165:0:0:0:0:
192,192,333105,128,0,333225:0:0:0:0:
64,192,333165,128,0,333225:0:0:0:0:
448,192,333225,128,0,333285:0:0:0:0:
320,192,333225,128,0,333345:0:0:0:0:
192,192,333285,128,0,333345:0:0:0:0:
448,192,333345,128,0,333405:0:0:0:0:
64,192,333405,128,0,333465:0:0:0:0:
192,192,333465,128,0,333525:0:0:0:0:
320,192,333465,128,0,333585:0:0:0:0:
448,192,333525,128,0,333585:0:0:0:0:
192,192,333585,128,0,333645:0:0:0:0:
320,192,333645,128,0,333705:0:0:0:0:
448,192,333705,128,0,333765:0:0:0:0:
64,192,333705,128,0,333825:0:0:0:0:
192,192,333765,128,0,333825:0:0:0:0:
448,192,333825,1,0,0:0:0:0:
320,192,333825,128,0,333945:0:0:0:0:
64,192,333885,128,0,333945:0:0:0:0:
448,192,333945,128,0,334185:0:0:0:0:
192,192,333945,1,0,0:0:0:0:
320,192,334005,128,0,334065:0:0:0:0:
64,192,334065,128,0,334125:0:0:0:0:
192,192,334065,128,0,334185:0:0:0:0:
320,192,334125,128,0,334185:0:0:0:0:
64,192,334185,128,0,334245:0:0:0:0:
448,192,334245,128,0,334305:0:0:0:0:
192,192,334305,128,0,334425:0:0:0:0:
320,192,334305,128,0,334365:0:0:0:0:
64,192,334365,128,0,334425:0:0:0:0:
320,192,334425,128,0,334485:0:0:0:0:
192,192,334485,128,0,334545:0:0:0:0:
448,192,334545,128,0,334665:0:0:0:0:
64,192,334545,128,0,334605:0:0:0:0:
320,192,334605,128,0,334665:0:0:0:0:
64,192,334665,128,0,334725:0:0:0:0:
192,192,334725,128,0,334785:0:0:0:0:
320,192,334785,128,0,334905:0:0:0:0:
448,192,334785,128,0,334845:0:0:0:0:
64,192,334845,128,0,334905:0:0:0:0:
448,192,334905,128,0,334965:0:0:0:0:
192,192,334965,128,0,335025:0:0:0:0:
64,192,335025,128,0,335085:0:0:0:0:
320,192,335025,128,0,335085:0:0:0:0:
448,192,335085,128,0,335145:0:0:0:0:
192,192,335145,128,0,335205:0:0:0:0:
320,192,335145,128,0,335265:0:0:0:0:
64,192,335145,1,0,0:0:0:0:
192,192,335265,128,0,335325:0:0:0:0:
64,192,335265,1,0,0:0:0:0:
448,192,335325,128,0,335445:0:0:0:0:
320,192,335325,128,0,335385:0:0:0:0:
192,192,335385,128,0,335505:0:0:0:0:
320,192,335505,128,0,335565:0:0:0:0:
64,192,335505,128,0,335685:0:0:0:0:
448,192,335625,128,0,335685:0:0:0:0:
320,192,335625,1,0,0:0:0:0:
192,192,335625,128,0,335745:0:0:0:0:
448,192,335745,128,0,335805:0:0:0:0:
320,192,335745,1,0,0:0:0:0:
192,192,335805,128,0,335865:0:0:0:0:
64,192,335805,128,0,335925:0:0:0:0:
320,192,335865,128,0,335985:0:0:0:0:
192,192,335985,128,0,336045:0:0:0:0:
448,192,335985,128,0,336045:0:0:0:0:
320,192,336045,128,0,336105:0:0:0:0:
192,192,336105,128,0,336225:0:0:0:0:
64,192,336105,128,0,336165:0:0:0:0:
448,192,336105,128,0,336225:0:0:0:0:
320,192,336225,128,0,336285:0:0:0:0:
64,192,336225,128,0,336345:0:0:0:0:
448,192,336285,128,0,336405:0:0:0:0:
192,192,336345,128,0,336465:0:0:0:0:
320,192,336345,128,0,336465:0:0:0:0:
64,192,336405,128,0,336525:0:0:0:0:
448,192,336465,128,0,336585:0:0:0:0:
320,192,336525,128,0,336645:0:0:0:0:
192,192,336585,128,0,336645:0:0:0:0:
64,192,336585,1,0,0:0:0:0:
448,192,336645,128,0,336765:0:0:0:0:
64,192,336705,128,0,336825:0:0:0:0:
192,192,336705,1,0,0:0:0:0:
320,192,336765,128,0,336885:0:0:0:0:
192,192,336825,128,0,336945:0:0:0:0:
448,192,336825,1,0,0:0:0:0:
64,192,336885,128,0,337005:0:0:0:0:
320,192,336945,1,0,0:0:0:0:
448,192,336945,128,0,337005:0:0:0:0:
192,192,337005,128,0,337065:0:0:0:0:
320,192,337065,128,0,337125:0:0:0:0:
448,192,337065,128,0,337185:0:0:0:0:
64,192,337065,1,0,0:0:0:0:
320,192,337185,1,0,0:0:0:0:
64,192,337185,128,0,337305:0:0:0:0:
320,192,337305,128,0,337545:0:0:0:0:
64,192,337425,128,0,337545:0:0:0:0:
448,192,337425,128,0,337545:0:0:0:0:
192,192,337425,1,0,0:0:0:0:
192,192,337545,128,0,337665:0:0:0:0:
320,192,337665,1,0,0:0:0:0:
64,192,337665,128,0,337845:0:0:0:0:
448,192,337665,128,0,337725:0:0:0:0:
448,192,337785,1,0,0:0:0:0:
192,192,337785,128,0,337845:0:0:0:0:
320,192,337785,128,0,338025:0:0:0:0:
64,192,337905,1,0,0:0:0:0:
192,192,337905,128,0,338025:0:0:0:0:
448,192,337905,128,0,338025:0:0:0:0:
64,192,338025,128,0,338145:0:0:0:0:
320,192,338145,128,0,338265:0:0:0:0:
192,192,338145,1,0,0:0:0:0:
448,192,338145,128,0,338205:0:0:0:0:
448,192,338265,1,0,0:0:0:0:
192,192,338265,128,0,338385:0:0:0:0:
320,192,338385,1,0,0:0:0:0:
448,192,338385,128,0,338505:0:0:0:0:
64,192,338385,128,0,338445:0:0:0:0:
64,192,338505,1,0,0:0:0:0:
320,192,338505,128,0,338625:0:0:0:0:
192,192,338625,128,0,338805:0:0:0:0:
64,192,338745,128,0,338865:0:0:0:0:
448,192,338745,128,0,338805:0:0:0:0:
320,192,338805,1,0,0:0:0:0:
448,192,338865,128,0,338985:0:0:0:0:
192,192,338865,128,0,338925:0:0:0:0:
320,192,338925,1,0,0:0:0:0:
192,192,338985,128,0,339105:0:0:0:0:
64,192,338985,128,0,339045:0:0:0:0:
448,192,339105,1,0,0:0:0:0:
64,192,339105,128,0,339225:0:0:0:0:
448,192,339225,128,0,339345:0:0:0:0:
64,192,339345,1,0,0:0:0:0:
192,192,339345,128,0,339465:0:0:0:0:
320,192,339345,128,0,339465:0:0:0:0:
64,192,339465,128,0,339585:0:0:0:0:
448,192,339585,1,0,0:0:0:0:
192,192,339585,128,0,339765:0:0:0:0:
320,192,339585,128,0,339645:0:0:0:0:
320,192,339705,1,0,0:0:0:0:
64,192,339705,128,0,339765:0:0:0:0:
448,192,339705,128,0,339945:0:0:0:0:
192,192,339825,1,0,0:0:0:0:
320,192,339825,128,0,339945:0:0:0:0:
64,192,339825,128,0,339945:0:0:0:0:
192,192,339945,128,0,340065:0:0:0:0:
320,192,340065,1,0,0:0:0:0:
64,192,340065,128,0,340125:0:0:0:0:
448,192,340065,128,0,340185:0:0:0:0:
64,192,340185,1,0,0:0:0:0:
320,192,340185,128,0,340305:0:0:0:0:
192,192,340305,1,0,0:0:0:0:
64,192,340305,128,0,340425:0:0:0:0:
448,192,340305,128,0,340425:0:0:0:0:
192,192,340425,128,0,340545:0:0:0:0:
320,192,340485,1,0,0:0:0:0:
448,192,340485,128,0,340665:0:0:0:0:
64,192,340545,128,0,340665:0:0:0:0:
320,192,340665,128,0,340785:0:0:0:0:
192,192,340665,128,0,340725:0:0:0:0:
64,192,340725,128,0,340785:0:0:0:0:
448,192,340785,128,0,340845:0:0:0:0:
192,192,340785,128,0,340905:0:0:0:0:
64,192,340845,128,0,340905:0:0:0:0:
320,192,340905,128,0,340965:0:0:0:0:
448,192,340905,128,0,341025:0:0:0:0:
192,192,340965,128,0,341025:0:0:0:0:
64,192,341025,128,0,341085:0:0:0:0:
448,192,341085,128,0,341145:0:0:0:0:
64,192,341145,128,0,341265:0:0:0:0:
192,192,341145,128,0,341205:0:0:0:0:
320,192,341205,128,0,341265:0:0:0:0:
448,192,341265,128,0,341325:0:0:0:0:
192,192,341265,1,0,0:0:0:0:
64,192,341325,128,0,341385:0:0:0:0:
448,192,341385,128,0,341505:0:0:0:0:
192,192,341445,128,0,341505:0:0:0:0:
64,192,341505,128,0,341565:0:0:0:0:
320,192,341505,1,0,0:0:0:0:
448,192,341565,128,0,341625:0:0:0:0:
320,192,341625,128,0,341745:0:0:0:0:
192,192,341625,128,0,341685:0:0:0:0:
448,192,341685,128,0,341745:0:0:0:0:
64,192,341745,128,0,341805:0:0:0:0:
192,192,341745,128,0,341925:0:0:0:0:
320,192,341805,128,0,341865:0:0:0:0:
64,192,341865,128,0,341985:0:0:0:0:
320,192,341985,128,0,342105:0:0:0:0:
448,192,341985,128,0,342045:0:0:0:0:
192,192,342045,128,0,342105:0:0:0:0:
448,192,342105,128,0,342165:0:0:0:0:
320,192,342165,1,0,0:0:0:0:
192,192,342165,128,0,342225:0:0:0:0:
64,192,342225,128,0,342345:0:0:0:0:
320,192,342285,128,0,342345:0:0:0:0:
192,192,342345,1,0,0:0:0:0:
448,192,342345,128,0,342405:0:0:0:0:
64,192,342405,128,0,342465:0:0:0:0:
448,192,342465,128,0,342585:0:0:0:0:
192,192,342525,128,0,342585:0:0:0:0:
64,192,342525,1,0,0:0:0:0:
320,192,342585,128,0,342645:0:0:0:0:
192,192,342645,128,0,342705:0:0:0:0:
64,192,342705,128,0,342765:0:0:0:0:
448,192,342705,128,0,342825:0:0:0:0:
320,192,342765,128,0,342825:0:0:0:0:
64,192,342825,128,0,342915:0:0:0:0:
192,192,342825,1,0,0:0:0:0:
448,192,342870,1,0,0:0:0:0:
192,192,342915,1,0,0:0:0:0:
320,192,342960,1,0,0:0:0:0:
448,192,343005,128,0,343095:0:0:0:0:
64,192,343005,1,0,0:0:0:0:
192,192,343050,1,0,0:0:0:0:
64,192,343095,1,0,0:0:0:0:
320,192,343140,1,0,0:0:0:0:
192,192,343185,128,0,343305:0:0:0:0:
448,192,343185,128,0,343245:0:0:0:0:
64,192,343245,128,0,343305:0:0:0:0:
448,192,343305,128,0,343395:0:0:0:0:
320,192,343305,1,0,0:0:0:0:
192,192,343350,1,0,0:0:0:0:
320,192,343395,1,0,0:0:0:0:
64,192,343440,1,0,0:0:0:0:
192,192,343485,128,0,343575:0:0:0:0:
448,192,343485,1,0,0:0:0:0:
320,192,343530,1,0,0:0:0:0:
448,192,343575,1,0,0:0:0:0:
64,192,343620,1,0,0:0:0:0:
320,192,343665,128,0,343785:0:0:0:0:
192,192,343665,128,0,343725:0:0:0:0:
448,192,343725,128,0,343785:0:0:0:0:
192,192,343785,128,0,343905:0:0:0:0:
64,192,343785,128,0,343845:0:0:0:0:
320,192,343845,128,0,344025:0:0:0:0:
64,192,343905,128,0,344085:0:0:0:0:
192,192,343965,128,0,344205:0:0:0:0:
448,192,344025,128,0,344145:0:0:0:0:
320,192,344085,128,0,344385:0:0:0:0:
64,192,344145,128,0,344265:0:0:0:0:
448,192,344205,128,0,344445:0:0:0:0:
192,192,344265,128,0,344325:0:0:0:0:
64,192,344325,128,0,344505:0:0:0:0:
192,192,344385,128,0,344625:0:0:0:0:
320,192,344445,128,0,344565:0:0:0:0:
448,192,344505,128,0,344685:0:0:0:0:
64,192,344565,128,0,344685:0:0:0:0:
320,192,344625,128,0,344685:0:0:0:0:
192,192,344685,128,0,344745:0:0:0:0:
64,192,344745,1,0,0:0:0:0:
448,192,344745,1,0,0:0:0:0:
320,192,344745,1,0,0:0:0:0:
448,192,344865,1,0,0:0:0:0:
320,192,344925,1,0,0:0:0:0:
192,192,344925,1,0,0:0:0:0:
64,192,344985,1,0,0:0:0:0:
64,192,345105,1,0,0:0:0:0:
320,192,345105,1,0,0:0:0:0:
192,192,345225,1,0,0:0:0:0:
320,192,345225,1,0,0:0:0:0:
192,192,345345,1,0,0:0:0:0:
448,192,345345,1,0,0:0:0:0:
64,192,345465,1,0,0:0:0:0:
320,192,345585,1,0,0:0:0:0:
64,192,345705,1,0,0:0:0:0:
192,192,345705,1,0,0:0:0:0:
448,192,345825,1,0,0:0:0:0:
64,192,345825,1,0,0:0:0:0:
192,192,345945,1,0,0:0:0:0:
448,192,345945,1,0,0:0:0:0:
192,192,346065,1,0,0:0:0:0:
320,192,346185,1,0,0:0:0:0:
448,192,346305,5,0,0:0:0:0:
64,192,346305,1,0,0:0:0:0:
64,192,346365,1,0,0:0:0:0:
192,192,346425,1,0,0:0:0:0:
320,192,346425,1,0,0:0:0:0:
448,192,346485,1,0,0:0:0:0:
192,192,346545,1,0,0:0:0:0:
320,192,346605,1,0,0:0:0:0:
448,192,346665,1,0,0:0:0:0:
64,192,346665,1,0,0:0:0:0:
192,192,346725,1,0,0:0:0:0:
448,192,346785,1,0,0:0:0:0:
192,192,346845,1,0,0:0:0:0:
320,192,346845,1,0,0:0:0:0:
64,192,346905,1,0,0:0:0:0:
320,192,346965,1,0,0:0:0:0:
64,192,347025,1,0,0:0:0:0:
448,192,347025,1,0,0:0:0:0:
192,192,347085,1,0,0:0:0:0:
448,192,347145,1,0,0:0:0:0:
320,192,347145,1,0,0:0:0:0:
64,192,347265,1,0,0:0:0:0:
320,192,347325,1,0,0:0:0:0:
192,192,347385,1,0,0:0:0:0:
448,192,347385,1,0,0:0:0:0:
448,192,347505,1,0,0:0:0:0:
64,192,347625,1,0,0:0:0:0:
448,192,347745,1,0,0:0:0:0:
192,192,347745,1,0,0:0:0:0:
64,192,347865,1,0,0:0:0:0:
192,192,347865,1,0,0:0:0:0:
320,192,347985,1,0,0:0:0:0:
448,192,348105,1,0,0:0:0:0:
64,192,348105,1,0,0:0:0:0:
448,192,348225,1,0,0:0:0:0:
320,192,348225,1,0,0:0:0:0:
192,192,348345,1,0,0:0:0:0:
320,192,348345,1,0,0:0:0:0:
448,192,348405,1,0,0:0:0:0:
64,192,348465,1,0,0:0:0:0:
320,192,348525,1,0,0:0:0:0:
192,192,348585,1,0,0:0:0:0:
448,192,348585,128,0,348825:0:0:0:0:
64,192,348585,128,0,348765:0:0:0:0:
320,192,348705,128,0,348825:0:0:0:0:
64,192,348825,1,0,0:0:0:0:
192,192,348825,128,0,348945:0:0:0:0:
448,192,348945,1,0,0:0:0:0:
64,192,348945,128,0,349065:0:0:0:0:
448,192,349065,128,0,349245:0:0:0:0:
192,192,349065,128,0,349305:0:0:0:0:
64,192,349185,128,0,349305:0:0:0:0:
448,192,349305,1,0,0:0:0:0:
320,192,349305,128,0,349425:0:0:0:0:
448,192,349425,128,0,349545:0:0:0:0:
192,192,349425,1,0,0:0:0:0:
192,192,349545,128,0,349725:0:0:0:0:
320,192,349545,128,0,349665:0:0:0:0:
64,192,349665,128,0,349785:0:0:0:0:
320,192,349785,1,0,0:0:0:0:
192,192,349785,128,0,350025:0:0:0:0:
320,192,349905,128,0,350025:0:0:0:0:
64,192,349905,1,0,0:0:0:0:
64,192,350025,1,0,0:0:0:0:
320,192,350145,1,0,0:0:0:0:
448,192,350145,128,0,350265:0:0:0:0:
320,192,350265,128,0,350505:0:0:0:0:
192,192,350265,1,0,0:0:0:0:
448,192,350385,1,0,0:0:0:0:
192,192,350385,128,0,350505:0:0:0:0:
448,192,350505,128,0,350745:0:0:0:0:
64,192,350505,128,0,350685:0:0:0:0:
320,192,350625,128,0,350745:0:0:0:0:
64,192,350745,1,0,0:0:0:0:
192,192,350745,128,0,350865:0:0:0:0:
448,192,350865,1,0,0:0:0:0:
64,192,350865,128,0,350985:0:0:0:0:
448,192,350985,128,0,351165:0:0:0:0:
192,192,350985,128,0,351225:0:0:0:0:
64,192,351105,128,0,351225:0:0:0:0:
448,192,351225,1,0,0:0:0:0:
320,192,351225,128,0,351345:0:0:0:0:
448,192,351345,128,0,351465:0:0:0:0:
192,192,351345,1,0,0:0:0:0:
192,192,351465,128,0,351645:0:0:0:0:
320,192,351465,128,0,351585:0:0:0:0:
64,192,351585,128,0,351705:0:0:0:0:
320,192,351705,1,0,0:0:0:0:
192,192,351705,128,0,351945:0:0:0:0:
320,192,351825,128,0,351945:0:0:0:0:
64,192,351825,1,0,0:0:0:0:
64,192,351945,128,0,352125:0:0:0:0:
448,192,351945,128,0,352005:0:0:0:0:
448,192,352065,1,0,0:0:0:0:
320,192,352125,1,0,0:0:0:0:
64,192,352185,1,0,0:0:0:0:
448,192,352185,1,0,0:0:0:0:
192,192,352245,1,0,0:0:0:0:
64,192,352305,1,0,0:0:0:0:
320,192,352305,1,0,0:0:0:0:
448,192,352365,1,0,0:0:0:0:
64,192,352425,1,0,0:0:0:0:
192,192,352425,1,0,0:0:0:0:
320,192,352425,1,0,0:0:0:0:
192,192,352545,1,0,0:0:0:0:
320,192,352605,1,0,0:0:0:0:
448,192,352605,1,0,0:0:0:0:
64,192,352665,1,0,0:0:0:0:
192,192,352785,1,0,0:0:0:0:
448,192,352785,1,0,0:0:0:0:
448,192,352905,5,0,0:0:0:0:
320,192,353025,5,0,0:0:0:0:
192,192,353025,1,0,0:0:0:0:
192,192,353145,5,0,0:0:0:0:
320,192,353145,1,0,0:0:0:0:
64,192,353265,1,0,0:0:0:0:
320,192,353385,5,0,0:0:0:0:
448,192,353385,1,0,0:0:0:0:
448,192,353505,5,0,0:0:0:0:
192,192,353505,1,0,0:0:0:0:
64,192,353625,5,0,0:0:0:0:
192,192,353625,1,0,0:0:0:0:
320,192,353665,1,0,0:0:0:0:
64,192,353705,1,0,0:0:0:0:
448,192,353745,1,0,0:0:0:0:
192,192,353805,1,0,0:0:0:0:
320,192,353865,1,0,0:0:0:0:
64,192,353985,5,0,0:0:0:0:
448,192,353985,1,0,0:0:0:0:
448,192,354045,1,0,0:0:0:0:
192,192,354105,1,0,0:0:0:0:
320,192,354105,1,0,0:0:0:0:
64,192,354165,1,0,0:0:0:0:
320,192,354225,1,0,0:0:0:0:
192,192,354285,1,0,0:0:0:0:
448,192,354345,1,0,0:0:0:0:
64,192,354345,1,0,0:0:0:0:
320,192,354405,1,0,0:0:0:0:
64,192,354465,1,0,0:0:0:0:
192,192,354525,1,0,0:0:0:0:
320,192,354525,1,0,0:0:0:0:
448,192,354585,1,0,0:0:0:0:
192,192,354645,1,0,0:0:0:0:
64,192,354705,1,0,0:0:0:0:
448,192,354705,1,0,0:0:0:0:
320,192,354765,1,0,0:0:0:0:
192,192,354825,1,0,0:0:0:0:
64,192,354825,1,0,0:0:0:0:
448,192,354885,1,0,0:0:0:0:
192,192,354945,1,0,0:0:0:0:
320,192,354985,1,0,0:0:0:0:
448,192,355025,1,0,0:0:0:0:
320,192,355065,1,0,0:0:0:0:
64,192,355185,1,0,0:0:0:0:
448,192,355305,1,0,0:0:0:0:
192,192,355345,1,0,0:0:0:0:
448,192,355385,1,0,0:0:0:0:
320,192,355425,1,0,0:0:0:0:
64,192,355425,1,0,0:0:0:0:
320,192,355545,1,0,0:0:0:0:
448,192,355545,1,0,0:0:0:0:
192,192,355665,1,0,0:0:0:0:
320,192,355705,1,0,0:0:0:0:
192,192,355745,1,0,0:0:0:0:
448,192,355785,1,0,0:0:0:0:
64,192,355785,1,0,0:0:0:0:
192,192,355905,1,0,0:0:0:0:
64,192,355905,1,0,0:0:0:0:
192,192,356025,1,0,0:0:0:0:
320,192,356025,1,0,0:0:0:0:
64,192,356085,1,0,0:0:0:0:
448,192,356145,1,0,0:0:0:0:
192,192,356205,1,0,0:0:0:0:
64,192,356265,1,0,0:0:0:0:
320,192,356265,1,0,0:0:0:0:
448,192,356265,1,0,0:0:0:0:
192,192,356325,1,0,0:0:0:0:
320,192,356385,1,0,0:0:0:0:
448,192,356445,1,0,0:0:0:0:
192,192,356505,1,0,0:0:0:0:
64,192,356505,1,0,0:0:0:0:
320,192,356565,1,0,0:0:0:0:
192,192,356625,1,0,0:0:0:0:
448,192,356625,1,0,0:0:0:0:
64,192,356685,1,0,0:0:0:0:
192,192,356745,1,0,0:0:0:0:
320,192,356745,1,0,0:0:0:0:
64,192,356805,1,0,0:0:0:0:
320,192,356865,1,0,0:0:0:0:
448,192,356865,1,0,0:0:0:0:
192,192,356925,1,0,0:0:0:0:
448,192,356985,1,0,0:0:0:0:
64,192,356985,1,0,0:0:0:0:
192,192,357045,1,0,0:0:0:0:
448,192,357105,1,0,0:0:0:0:
320,192,357165,1,0,0:0:0:0:
64,192,357225,1,0,0:0:0:0:
192,192,357225,1,0,0:0:0:0:
448,192,357285,1,0,0:0:0:0:
64,192,357345,1,0,0:0:0:0:
320,192,357405,1,0,0:0:0:0:
192,192,357465,1,0,0:0:0:0:
448,192,357465,1,0,0:0:0:0:
64,192,357525,1,0,0:0:0:0:
320,192,357585,1,0,0:0:0:0:
448,192,357585,1,0,0:0:0:0:
64,192,357645,1,0,0:0:0:0:
192,192,357705,1,0,0:0:0:0:
320,192,357705,1,0,0:0:0:0:
448,192,357765,1,0,0:0:0:0:
64,192,357825,1,0,0:0:0:0:
192,192,357825,1,0,0:0:0:0:
320,192,357885,1,0,0:0:0:0:
64,192,357945,1,0,0:0:0:0:
448,192,357945,1,0,0:0:0:0:
320,192,358005,1,0,0:0:0:0:
64,192,358065,1,0,0:0:0:0:
192,192,358125,1,0,0:0:0:0:
448,192,358185,1,0,0:0:0:0:
320,192,358185,1,0,0:0:0:0:
64,192,358245,1,0,0:0:0:0:
448,192,358305,1,0,0:0:0:0:
320,192,358365,1,0,0:0:0:0:
64,192,358425,1,0,0:0:0:0:
192,192,358425,1,0,0:0:0:0:
448,192,358485,1,0,0:0:0:0:
192,192,358545,1,0,0:0:0:0:
320,192,358545,1,0,0:0:0:0:
64,192,358605,1,0,0:0:0:0:
448,192,358665,1,0,0:0:0:0:
192,192,358665,1,0,0:0:0:0:
64,192,358725,1,0,0:0:0:0:
320,192,358785,1,0,0:0:0:0:
448,192,358785,1,0,0:0:0:0:
448,192,358845,1,0,0:0:0:0:
320,192,358845,1,0,0:0:0:0:
64,192,358905,1,0,0:0:0:0:
192,192,358905,1,0,0:0:0:0:
192,192,358965,5,0,0:0:0:0:
64,192,358965,1,0,0:0:0:0:
448,192,359025,5,0,0:0:0:0:
320,192,359025,1,0,0:0:0:0:
320,192,359085,5,0,0:0:0:0:
448,192,359085,1,0,0:0:0:0:
192,192,359145,5,0,0:0:0:0:
64,192,359145,128,0,359385:0:0:0:0:
320,192,359265,1,0,0:0:0:0:
192,192,359385,1,0,0:0:0:0:
448,192,359385,1,0,0:0:0:0:
64,192,359505,128,0,359565:0:0:0:0:
448,192,359565,128,0,359625:0:0:0:0:
320,192,359625,128,0,359685:0:0:0:0:
192,192,359685,128,0,359745:0:0:0:0:
320,192,359745,128,0,359805:0:0:0:0:
448,192,359805,128,0,359865:0:0:0:0:
192,192,359865,128,0,359925:0:0:0:0:
64,192,359925,128,0,359985:0:0:0:0:
192,192,359985,128,0,360045:0:0:0:0:
320,192,360045,128,0,360105:0:0:0:0:
192,192,360105,128,0,360285:0:0:0:0:
64,192,360105,128,0,360225:0:0:0:0:
448,192,360105,128,0,360165:0:0:0:0:
64,192,360285,128,0,360345:0:0:0:0:
320,192,360285,128,0,360405:0:0:0:0:
448,192,360285,128,0,360465:0:0:0:0:
64,192,360465,128,0,360825:0:0:0:0:
320,192,360465,128,0,360525:0:0:0:0:
192,192,360465,128,0,360705:0:0:0:0:
448,192,360705,1,0,0:0:0:0:
192,192,360825,128,0,360885:0:0:0:0:
64,192,360885,128,0,360945:0:0:0:0:
192,192,360945,128,0,361005:0:0:0:0:
64,192,361005,128,0,361065:0:0:0:0:
448,192,361065,128,0,361125:0:0:0:0:
192,192,361125,128,0,361245:0:0:0:0:
64,192,361185,128,0,361245:0:0:0:0:
320,192,361185,128,0,361245:0:0:0:0:
448,192,361185,128,0,361365:0:0:0:0:
320,192,361305,128,0,361425:0:0:0:0:
192,192,361365,128,0,361425:0:0:0:0:
64,192,361365,128,0,361485:0:0:0:0:
448,192,361425,128,0,361665:0:0:0:0:
320,192,361545,128,0,361605:0:0:0:0:
192,192,361545,128,0,361665:0:0:0:0:
64,192,361545,128,0,361665:0:0:0:0:
320,192,361725,128,0,361845:0:0:0:0:
448,192,361725,128,0,361845:0:0:0:0:
64,192,361725,128,0,361845:0:0:0:0:
192,192,361785,128,0,361905:0:0:0:0:
64,192,361905,128,0,361965:0:0:0:0:
320,192,361905,1,0,0:0:0:0:
448,192,361905,1,0,0:0:0:0:
448,192,361965,1,0,0:0:0:0:
192,192,362025,128,0,362985:0:0:0:0:
64,192,362025,128,0,362145:0:0:0:0:
320,192,362025,128,0,362085:0:0:0:0:
64,192,362205,128,0,362265:0:0:0:0:
320,192,362205,128,0,362325:0:0:0:0:
448,192,362205,128,0,362325:0:0:0:0:
64,192,362385,128,0,362445:0:0:0:0:
448,192,362385,128,0,362505:0:0:0:0:
320,192,362385,128,0,362625:0:0:0:0:
448,192,362625,1,0,0:0:0:0:
64,192,362745,1,0,0:0:0:0:
320,192,362865,1,0,0:0:0:0:
448,192,362985,128,0,363045:0:0:0:0:
192,192,363045,128,0,363105:0:0:0:0:
448,192,363105,128,0,363165:0:0:0:0:
192,192,363165,128,0,363225:0:0:0:0:
64,192,363225,128,0,363285:0:0:0:0:
320,192,363285,128,0,363345:0:0:0:0:
64,192,363345,128,0,363405:0:0:0:0:
448,192,363405,128,0,363465:0:0:0:0:
320,192,363465,128,0,363525:0:0:0:0:
192,192,363525,128,0,363585:0:0:0:0:
320,192,363585,128,0,363705:0:0:0:0:
64,192,363585,128,0,363645:0:0:0:0:
448,192,363585,128,0,363645:0:0:0:0:
192,192,363645,128,0,363705:0:0:0:0:
448,192,363705,128,0,363765:0:0:0:0:
192,192,363765,128,0,363885:0:0:0:0:
64,192,363765,128,0,363825:0:0:0:0:
320,192,363765,128,0,363825:0:0:0:0:
448,192,363825,128,0,363885:0:0:0:0:
64,192,363885,128,0,363945:0:0:0:0:
448,192,363945,128,0,364125:0:0:0:0:
320,192,363945,128,0,364065:0:0:0:0:
192,192,363945,128,0,364005:0:0:0:0:
64,192,364125,128,0,364245:0:0:0:0:
192,192,364125,128,0,364305:0:0:0:0:
320,192,364125,128,0,364185:0:0:0:0:
64,192,364305,128,0,364365:0:0:0:0:
448,192,364305,128,0,364545:0:0:0:0:
320,192,364305,128,0,364665:0:0:0:0:
192,192,364545,1,0,0:0:0:0:
448,192,364665,128,0,364725:0:0:0:0:
320,192,364725,128,0,364785:0:0:0:0:
448,192,364785,128,0,364845:0:0:0:0:
320,192,364845,128,0,364905:0:0:0:0:
192,192,364905,128,0,364965:0:0:0:0:
448,192,364965,128,0,365085:0:0:0:0:
64,192,365025,128,0,365085:0:0:0:0:
320,192,365025,128,0,365085:0:0:0:0:
192,192,365025,128,0,365205:0:0:0:0:
64,192,365145,128,0,365265:0:0:0:0:
320,192,365205,128,0,365325:0:0:0:0:
448,192,365205,128,0,365265:0:0:0:0:
192,192,365265,128,0,365505:0:0:0:0:
64,192,365385,128,0,365445:0:0:0:0:
320,192,365385,128,0,365505:0:0:0:0:
448,192,365385,128,0,365505:0:0:0:0:
64,192,365565,128,0,365685:0:0:0:0:
192,192,365565,128,0,365685:0:0:0:0:
448,192,365565,128,0,365745:0:0:0:0:
64,192,365745,1,0,0:0:0:0:
192,192,365745,1,0,0:0:0:0:
320,192,365745,128,0,366225:0:0:0:0:
192,192,365805,1,0,0:0:0:0:
64,192,365865,128,0,365925:0:0:0:0:
448,192,365865,128,0,365985:0:0:0:0:
448,192,366045,128,0,366105:0:0:0:0:
192,192,366045,128,0,366165:0:0:0:0:
64,192,366045,128,0,366165:0:0:0:0:
448,192,366225,128,0,366285:0:0:0:0:
192,192,366225,128,0,366285:0:0:0:0:
64,192,366225,128,0,366405:0:0:0:0:
320,192,366285,128,0,366345:0:0:0:0:
192,192,366345,128,0,366465:0:0:0:0:
320,192,366405,128,0,366465:0:0:0:0:
64,192,366465,128,0,366585:0:0:0:0:
448,192,366525,128,0,366645:0:0:0:0:
192,192,366585,128,0,366705:0:0:0:0:
64,192,366645,128,0,366705:0:0:0:0:
320,192,366705,1,0,0:0:0:0:
448,192,366705,1,0,0:0:0:0:
320,192,366765,1,0,0:0:0:0:
192,192,366825,128,0,367065:0:0:0:0:
64,192,366825,128,0,367005:0:0:0:0:
448,192,366825,128,0,366945:0:0:0:0:
64,192,367065,128,0,367185:0:0:0:0:
320,192,367065,128,0,367245:0:0:0:0:
448,192,367065,128,0,367305:0:0:0:0:
320,192,367305,128,0,367425:0:0:0:0:
192,192,367305,128,0,367485:0:0:0:0:
64,192,367305,128,0,367545:0:0:0:0:
192,192,367545,128,0,367665:0:0:0:0:
320,192,367545,128,0,367785:0:0:0:0:
448,192,367545,128,0,367725:0:0:0:0:
192,192,367785,128,0,367965:0:0:0:0:
64,192,367785,128,0,367905:0:0:0:0:
448,192,367785,128,0,367845:0:0:0:0:
320,192,367965,128,0,368085:0:0:0:0:
448,192,367965,128,0,368145:0:0:0:0:
64,192,368025,128,0,368085:0:0:0:0:
320,192,368145,128,0,368205:0:0:0:0:
64,192,368145,128,0,368505:0:0:0:0:
192,192,368265,128,0,368385:0:0:0:0:
320,192,368265,1,0,0:0:0:0:
448,192,368385,128,0,368625:0:0:0:0:
192,192,368505,128,0,368565:0:0:0:0:
320,192,368505,128,0,368685:0:0:0:0:
64,192,368565,128,0,368625:0:0:0:0:
192,192,368625,128,0,368685:0:0:0:0:
64,192,368685,128,0,368745:0:0:0:0:
448,192,368745,128,0,368805:0:0:0:0:
320,192,368745,128,0,368925:0:0:0:0:
192,192,368805,128,0,368925:0:0:0:0:
64,192,368865,128,0,368925:0:0:0:0:
448,192,368865,128,0,369045:0:0:0:0:
320,192,368985,128,0,369045:0:0:0:0:
64,192,368985,128,0,369165:0:0:0:0:
192,192,369045,128,0,369105:0:0:0:0:
448,192,369105,128,0,369345:0:0:0:0:
320,192,369105,128,0,369285:0:0:0:0:
64,192,369225,128,0,369345:0:0:0:0:
192,192,369225,1,0,0:0:0:0:
64,192,369405,128,0,369525:0:0:0:0:
448,192,369405,128,0,369525:0:0:0:0:
192,192,369465,128,0,369585:0:0:0:0:
64,192,369585,128,0,369645:0:0:0:0:
320,192,369585,128,0,369705:0:0:0:0:
448,192,369645,128,0,369705:0:0:0:0:
192,192,369705,128,0,370065:0:0:0:0:
64,192,369705,128,0,369825:0:0:0:0:
320,192,369885,128,0,370005:0:0:0:0:
448,192,369885,128,0,370005:0:0:0:0:
64,192,369945,128,0,370005:0:0:0:0:
64,192,370065,128,0,370185:0:0:0:0:
448,192,370065,128,0,370125:0:0:0:0:
192,192,370125,128,0,370305:0:0:0:0:
448,192,370185,128,0,370305:0:0:0:0:
320,192,370185,128,0,370245:0:0:0:0:
320,192,370305,128,0,370425:0:0:0:0:
64,192,370305,128,0,370485:0:0:0:0:
192,192,370425,128,0,370485:0:0:0:0:
192,192,370545,128,0,370665:0:0:0:0:
320,192,370545,128,0,370665:0:0:0:0:
448,192,370665,128,0,370725:0:0:0:0:
64,192,370665,1,0,0:0:0:0:
192,192,370725,128,0,370785:0:0:0:0:
448,192,370785,128,0,370845:0:0:0:0:
192,192,370845,128,0,370905:0:0:0:0:
64,192,370905,128,0,370965:0:0:0:0:
448,192,370905,1,0,0:0:0:0:
320,192,370965,128,0,371025:0:0:0:0:
64,192,371025,128,0,371085:0:0:0:0:
448,192,371085,128,0,371145:0:0:0:0:
320,192,371145,128,0,371205:0:0:0:0:
64,192,371145,1,0,0:0:0:0:
192,192,371205,128,0,371265:0:0:0:0:
320,192,371265,128,0,371385:0:0:0:0:
448,192,371265,128,0,371325:0:0:0:0:
64,192,371325,128,0,371385:0:0:0:0:
448,192,371385,128,0,371445:0:0:0:0:
64,192,371445,128,0,371565:0:0:0:0:
192,192,371445,128,0,371505:0:0:0:0:
320,192,371505,128,0,371565:0:0:0:0:
192,192,371565,128,0,371625:0:0:0:0:
64,192,371625,128,0,371685:0:0:0:0:
320,192,371625,128,0,371745:0:0:0:0:
448,192,371625,128,0,371805:0:0:0:0:
64,192,371805,128,0,371985:0:0:0:0:
192,192,371805,128,0,371925:0:0:0:0:
320,192,371865,128,0,371925:0:0:0:0:
320,192,371985,128,0,372345:0:0:0:0:
192,192,371985,128,0,372045:0:0:0:0:
192,192,372105,1,0,0:0:0:0:
448,192,372105,128,0,372225:0:0:0:0:
64,192,372225,128,0,372465:0:0:0:0:
192,192,372345,128,0,372525:0:0:0:0:
448,192,372345,128,0,372405:0:0:0:0:
320,192,372405,128,0,372465:0:0:0:0:
448,192,372465,128,0,372525:0:0:0:0:
320,192,372525,128,0,372585:0:0:0:0:
192,192,372585,128,0,372765:0:0:0:0:
64,192,372585,128,0,372645:0:0:0:0:
448,192,372645,128,0,372765:0:0:0:0:
64,192,372705,128,0,372885:0:0:0:0:
320,192,372705,128,0,372765:0:0:0:0:
320,192,372825,128,0,373005:0:0:0:0:
192,192,372825,128,0,372885:0:0:0:0:
448,192,372885,128,0,372945:0:0:0:0:
192,192,372945,128,0,373125:0:0:0:0:
64,192,372945,128,0,373185:0:0:0:0:
448,192,373065,1,0,0:0:0:0:
320,192,373065,128,0,373185:0:0:0:0:
64,192,373245,128,0,373365:0:0:0:0:
320,192,373245,128,0,373365:0:0:0:0:
448,192,373305,128,0,373425:0:0:0:0:
192,192,373425,128,0,373545:0:0:0:0:
320,192,373425,128,0,373485:0:0:0:0:
64,192,373485,128,0,373545:0:0:0:0:
320,192,373545,128,0,373665:0:0:0:0:
448,192,373545,128,0,373905:0:0:0:0:
64,192,373725,128,0,373845:0:0:0:0:
192,192,373725,128,0,373845:0:0:0:0:
64,192,373905,128,0,373965:0:0:0:0:
192,192,373905,128,0,373965:0:0:0:0:
448,192,373965,128,0,374145:0:0:0:0:
64,192,374025,128,0,374145:0:0:0:0:
320,192,374025,128,0,374085:0:0:0:0:
192,192,374145,128,0,374205:0:0:0:0:
320,192,374145,128,0,374265:0:0:0:0:
448,192,374265,128,0,374325:0:0:0:0:
192,192,374265,128,0,374385:0:0:0:0:
64,192,374385,1,0,0:0:0:0:
448,192,374385,128,0,374985:0:0:0:0:
320,192,374385,128,0,374985:0:0:0:0:
64,192,374985,5,0,0:0:0:0:
448,192,375065,1,0,0:0:0:0:
192,192,375145,1,0,0:0:0:0:
320,192,375225,1,0,0:0:0:0:
448,192,375305,5,0,0:0:0:0:
192,192,375385,1,0,0:0:0:0:
320,192,375438,1,0,0:0:0:0:
64,192,375465,128,0,376185:0:0:0:0:
192,192,375825,128,0,376185:0:0:0:0:
448,192,376185,1,0,0:0:0:0:
320,192,376245,1,0,0:0:0:0:
192,192,376305,1,0,0:0:0:0:
448,192,376345,1,0,0:0:0:0:
64,192,376385,1,0,0:0:0:0:
320,192,376425,5,0,0:0:0:0:
192,192,376425,1,0,0:0:0:0:
448,192,376425,1,0,0:0:0:0:
192,192,376485,1,0,0:0:0:0:
448,192,376545,1,0,0:0:0:0:
64,192,376545,1,0,0:0:0:0:
192,192,376605,1,0,0:0:0:0:
320,192,376605,1,0,0:0:0:0:
448,192,376785,1,0,0:0:0:0:
192,192,376785,1,0,0:0:0:0:
64,192,376785,1,0,0:0:0:0:
448,192,376845,1,0,0:0:0:0:
320,192,376905,1,0,0:0:0:0:
64,192,376905,1,0,0:0:0:0:
448,192,376965,1,0,0:0:0:0:
192,192,376965,1,0,0:0:0:0:
448,192,377145,1,0,0:0:0:0:
64,192,377145,1,0,0:0:0:0:
320,192,377145,1,0,0:0:0:0:
64,192,377205,1,0,0:0:0:0:
320,192,377265,1,0,0:0:0:0:
192,192,377265,1,0,0:0:0:0:
448,192,377325,1,0,0:0:0:0:
64,192,377325,1,0,0:0:0:0:
64,192,377505,1,0,0:0:0:0:
320,192,377505,1,0,0:0:0:0:
192,192,377505,1,0,0:0:0:0:
320,192,377565,1,0,0:0:0:0:
192,192,377625,1,0,0:0:0:0:
448,192,377625,1,0,0:0:0:0:
320,192,377685,1,0,0:0:0:0:
64,192,377685,1,0,0:0:0:0:
320,192,377865,1,0,0:0:0:0:
448,192,377865,1,0,0:0:0:0:
192,192,377865,1,0,0:0:0:0:
192,192,377925,1,0,0:0:0:0:
448,192,377985,1,0,0:0:0:0:
64,192,377985,1,0,0:0:0:0:
192,192,378045,1,0,0:0:0:0:
320,192,378045,1,0,0:0:0:0:
448,192,378105,1,0,0:0:0:0:
64,192,378145,1,0,0:0:0:0:
448,192,378185,1,0,0:0:0:0:
192,192,378225,1,0,0:0:0:0:
320,192,378285,1,0,0:0:0:0:
64,192,378345,128,0,379305:0:0:0:0:
448,192,378345,1,0,0:0:0:0:
192,192,378345,1,0,0:0:0:0:
320,192,378465,1,0,0:0:0:0:
448,192,378525,1,0,0:0:0:0:
192,192,378585,1,0,0:0:0:0:
320,192,378585,1,0,0:0:0:0:
192,192,378705,1,0,0:0:0:0:
448,192,378825,1,0,0:0:0:0:
192,192,378945,1,0,0:0:0:0:
320,192,379005,1,0,0:0:0:0:
448,192,379065,1,0,0:0:0:0:
192,192,379065,1,0,0:0:0:0:
320,192,379185,1,0,0:0:0:0:
448,192,379305,1,0,0:0:0:0:
320,192,379425,1,0,0:0:0:0:
64,192,379485,1,0,0:0:0:0:
192,192,379545,1,0,0:0:0:0:
448,192,379665,1,0,0:0:0:0:
320,192,379725,1,0,0:0:0:0:
192,192,379785,1,0,0:0:0:0:
448,192,379845,1,0,0:0:0:0:
192,192,379905,1,0,0:0:0:0:
448,192,379965,1,0,0:0:0:0:
64,192,380025,1,0,0:0:0:0:
320,192,380145,1,0,0:0:0:0:
448,192,380265,1,0,0:0:0:0:
192,192,380265,1,0,0:0:0:0:
64,192,380265,128,0,381188:0:0:0:0:
320,192,380380,1,0,0:0:0:0:
448,192,380438,1,0,0:0:0:0:
192,192,380495,1,0,0:0:0:0:
320,192,380495,1,0,0:0:0:0:
192,192,380611,1,0,0:0:0:0:
448,192,380668,1,0,0:0:0:0:
320,192,380726,1,0,0:0:0:0:
320,192,380841,1,0,0:0:0:0:
448,192,380957,1,0,0:0:0:0:
192,192,380957,1,0,0:0:0:0:
320,192,381015,1,0,0:0:0:0:
192,192,381072,1,0,0:0:0:0:
448,192,381188,1,0,0:0:0:0:
192,192,381245,1,0,0:0:0:0:
320,192,381303,1,0,0:0:0:0:
320,192,381418,1,0,0:0:0:0:
64,192,381534,1,0,0:0:0:0:
448,192,381591,1,0,0:0:0:0:
192,192,381649,1,0,0:0:0:0:
448,192,381707,1,0,0:0:0:0:
64,192,381765,1,0,0:0:0:0:
320,192,381822,1,0,0:0:0:0:
192,192,381880,1,0,0:0:0:0:
448,192,381995,1,0,0:0:0:0:
64,192,382053,1,0,0:0:0:0:
448,192,382111,128,0,382999:0:0:0:0:
320,192,382111,1,0,0:0:0:0:
192,192,382111,1,0,0:0:0:0:
64,192,382222,1,0,0:0:0:0:
192,192,382277,1,0,0:0:0:0:
64,192,382333,1,0,0:0:0:0:
320,192,382333,1,0,0:0:0:0:
320,192,382444,1,0,0:0:0:0:
64,192,382499,1,0,0:0:0:0:
192,192,382555,1,0,0:0:0:0:
320,192,382666,1,0,0:0:0:0:
192,192,382722,1,0,0:0:0:0:
64,192,382777,1,0,0:0:0:0:
320,192,382777,1,0,0:0:0:0:
192,192,382888,1,0,0:0:0:0:
64,192,382999,1,0,0:0:0:0:
192,192,383111,1,0,0:0:0:0:
448,192,383222,1,0,0:0:0:0:
64,192,383277,1,0,0:0:0:0:
320,192,383333,1,0,0:0:0:0:
448,192,383388,1,0,0:0:0:0:
192,192,383444,1,0,0:0:0:0:
448,192,383499,1,0,0:0:0:0:
64,192,383555,1,0,0:0:0:0:
320,192,383666,1,0,0:0:0:0:
448,192,383777,1,0,0:0:0:0:
64,192,383833,1,0,0:0:0:0:
448,192,383888,128,0,384691:0:0:0:0:
320,192,383888,1,0,0:0:0:0:
192,192,383888,1,0,0:0:0:0:
64,192,383995,1,0,0:0:0:0:
192,192,384048,1,0,0:0:0:0:
64,192,384102,1,0,0:0:0:0:
320,192,384102,1,0,0:0:0:0:
320,192,384209,1,0,0:0:0:0:
64,192,384263,1,0,0:0:0:0:
192,192,384316,1,0,0:0:0:0:
320,192,384423,1,0,0:0:0:0:
192,192,384477,1,0,0:0:0:0:
64,192,384530,1,0,0:0:0:0:
320,192,384530,1,0,0:0:0:0:
192,192,384638,1,0,0:0:0:0:
320,192,384691,1,0,0:0:0:0:
192,192,384745,1,0,0:0:0:0:
64,192,384745,1,0,0:0:0:0:
448,192,384745,1,0,0:0:0:0:
64,192,384852,1,0,0:0:0:0:
192,192,384852,1,0,0:0:0:0:
448,192,384852,1,0,0:0:0:0:
320,192,384959,1,0,0:0:0:0:
64,192,384959,1,0,0:0:0:0:
320,192,385066,1,0,0:0:0:0:
192,192,385173,1,0,0:0:0:0:
192,192,385280,1,0,0:0:0:0:
320,192,385280,1,0,0:0:0:0:
448,192,385334,1,0,0:0:0:0:
64,192,385388,1,0,0:0:0:0:
320,192,385441,1,0,0:0:0:0:
64,192,385495,1,0,0:0:0:0:
320,192,385548,1,0,0:0:0:0:
192,192,385603,1,0,0:0:0:0:
448,192,385603,1,0,0:0:0:0:
64,192,385655,1,0,0:0:0:0:
192,192,385708,1,0,0:0:0:0:
448,192,385708,1,0,0:0:0:0:
64,192,385760,1,0,0:0:0:0:
448,192,385813,1,0,0:0:0:0:
320,192,385866,1,0,0:0:0:0:
64,192,385918,1,0,0:0:0:0:
192,192,385918,1,0,0:0:0:0:
448,192,385971,1,0,0:0:0:0:
320,192,386024,1,0,0:0:0:0:
448,192,386076,1,0,0:0:0:0:
64,192,386129,1,0,0:0:0:0:
192,192,386129,1,0,0:0:0:0:
320,192,386181,1,0,0:0:0:0:
64,192,386234,1,0,0:0:0:0:
192,192,386287,1,0,0:0:0:0:
320,192,386339,1,0,0:0:0:0:
448,192,386339,1,0,0:0:0:0:
64,192,386392,1,0,0:0:0:0:
320,192,386445,1,0,0:0:0:0:
192,192,386445,1,0,0:0:0:0:
448,192,386497,1,0,0:0:0:0:
320,192,386550,1,0,0:0:0:0:
192,192,386550,1,0,0:0:0:0:
448,192,386603,1,0,0:0:0:0:
192,192,386655,1,0,0:0:0:0:
64,192,386708,1,0,0:0:0:0:
320,192,386760,1,0,0:0:0:0:
448,192,386760,1,0,0:0:0:0:
192,192,386813,1,0,0:0:0:0:
64,192,386866,1,0,0:0:0:0:
192,192,386918,1,0,0:0:0:0:
320,192,386971,1,0,0:0:0:0:
448,192,386971,1,0,0:0:0:0:
64,192,387024,1,0,0:0:0:0:
448,192,387076,128,0,387129:0:0:0:0:
192,192,387129,128,0,387181:0:0:0:0:
448,192,387181,128,0,387287:0:0:0:0:
64,192,387287,1,0,0:0:0:0:
320,192,387287,1,0,0:0:0:0:
192,192,387339,1,0,0:0:0:0:
64,192,387392,1,0,0:0:0:0:
320,192,387392,1,0,0:0:0:0:
192,192,387445,1,0,0:0:0:0:
320,192,387497,1,0,0:0:0:0:
448,192,387550,1,0,0:0:0:0:
192,192,387603,1,0,0:0:0:0:
64,192,387603,1,0,0:0:0:0:
320,192,387655,1,0,0:0:0:0:
448,192,387708,1,0,0:0:0:0:
320,192,387760,1,0,0:0:0:0:
192,192,387813,1,0,0:0:0:0:
64,192,387813,1,0,0:0:0:0:
448,192,387866,1,0,0:0:0:0:
192,192,387918,1,0,0:0:0:0:
64,192,387971,1,0,0:0:0:0:
320,192,388024,1,0,0:0:0:0:
448,192,388024,1,0,0:0:0:0:
192,192,388076,1,0,0:0:0:0:
64,192,388129,1,0,0:0:0:0:
448,192,388129,1,0,0:0:0:0:
192,192,388181,1,0,0:0:0:0:
320,192,388234,1,0,0:0:0:0:
448,192,388234,1,0,0:0:0:0:
64,192,388287,1,0,0:0:0:0:
192,192,388339,1,0,0:0:0:0:
320,192,388339,1,0,0:0:0:0:
448,192,388392,1,0,0:0:0:0:
192,192,388445,1,0,0:0:0:0:
64,192,388445,1,0,0:0:0:0:
320,192,388497,1,0,0:0:0:0:
64,192,388550,1,0,0:0:0:0:
192,192,388550,1,0,0:0:0:0:
448,192,388603,1,0,0:0:0:0:
64,192,388655,1,0,0:0:0:0:
192,192,388708,1,0,0:0:0:0:
448,192,388760,128,0,388866:0:0:0:0:
320,192,388760,1,0,0:0:0:0:
64,192,388813,128,0,388918:0:0:0:0:
320,192,388866,128,0,388971:0:0:0:0:
192,192,388971,1,0,0:0:0:0:
64,192,388971,1,0,0:0:0:0:
448,192,388971,1,0,0:0:0:0:
192,192,389076,1,0,0:0:0:0:
64,192,389076,1,0,0:0:0:0:
448,192,389076,1,0,0:0:0:0:
64,192,389181,1,0,0:0:0:0:
192,192,389181,1,0,0:0:0:0:
320,192,389287,1,0,0:0:0:0:
448,192,389287,1,0,0:0:0:0:
192,192,389287,1,0,0:0:0:0:
320,192,389392,1,0,0:0:0:0:
448,192,389392,1,0,0:0:0:0:
192,192,389497,1,0,0:0:0:0:
64,192,389497,1,0,0:0:0:0:
320,192,389497,1,0,0:0:0:0:
192,192,389603,1,0,0:0:0:0:
64,192,389603,1,0,0:0:0:0:
64,192,389708,1,0,0:0:0:0:
448,192,389708,1,0,0:0:0:0:
192,192,389760,1,0,0:0:0:0:
448,192,389813,1,0,0:0:0:0:
64,192,389813,1,0,0:0:0:0:
320,192,389813,1,0,0:0:0:0:
448,192,389918,1,0,0:0:0:0:
320,192,389918,1,0,0:0:0:0:
64,192,389918,1,0,0:0:0:0:
448,192,390024,1,0,0:0:0:0:
320,192,390024,1,0,0:0:0:0:
320,192,390129,1,0,0:0:0:0:
64,192,390129,1,0,0:0:0:0:
192,192,390129,1,0,0:0:0:0:
192,192,390234,1,0,0:0:0:0:
64,192,390234,1,0,0:0:0:0:
192,192,390339,1,0,0:0:0:0:
320,192,390339,1,0,0:0:0:0:
448,192,390339,1,0,0:0:0:0:
320,192,390445,1,0,0:0:0:0:
448,192,390445,1,0,0:0:0:0:
320,192,390550,1,0,0:0:0:0:
448,192,390550,1,0,0:0:0:0:
64,192,390655,1,0,0:0:0:0:
192,192,390655,1,0,0:0:0:0:
320,192,390708,1,0,0:0:0:0:
192,192,390760,1,0,0:0:0:0:
64,192,390760,1,0,0:0:0:0:
448,192,390813,1,0,0:0:0:0:
64,192,390866,1,0,0:0:0:0:
320,192,390866,1,0,0:0:0:0:
192,192,390918,1,0,0:0:0:0:
64,192,390971,1,0,0:0:0:0:
448,192,390971,1,0,0:0:0:0:
192,192,391024,1,0,0:0:0:0:
448,192,391076,1,0,0:0:0:0:
320,192,391076,1,0,0:0:0:0:
64,192,391129,1,0,0:0:0:0:
320,192,391181,1,0,0:0:0:0:
448,192,391181,1,0,0:0:0:0:
192,192,391234,1,0,0:0:0:0:
64,192,391287,1,0,0:0:0:0:
320,192,391287,1,0,0:0:0:0:
448,192,391339,1,0,0:0:0:0:
192,192,391392,1,0,0:0:0:0:
320,192,391392,1,0,0:0:0:0:
448,192,391445,1,0,0:0:0:0:
64,192,391497,1,0,0:0:0:0:
192,192,391521,1,0,0:0:0:0:
320,192,391544,1,0,0:0:0:0:
448,192,391591,1,0,0:0:0:0:
192,192,391638,1,0,0:0:0:0:
64,192,391661,1,0,0:0:0:0:
320,192,391684,1,0,0:0:0:0:
448,192,391731,1,0,0:0:0:0:
64,192,391778,1,0,0:0:0:0:
192,192,391801,1,0,0:0:0:0:
320,192,391825,1,0,0:0:0:0:
64,192,391872,1,0,0:0:0:0:
448,192,391918,1,0,0:0:0:0:
192,192,391942,1,0,0:0:0:0:
320,192,391965,1,0,0:0:0:0:
64,192,392012,1,0,0:0:0:0:
192,192,392059,1,0,0:0:0:0:
448,192,392082,1,0,0:0:0:0:
320,192,392105,1,0,0:0:0:0:
64,192,392152,1,0,0:0:0:0:
448,192,392199,1,0,0:0:0:0:
192,192,392222,1,0,0:0:0:0:
320,192,392246,1,0,0:0:0:0:
448,192,392293,1,0,0:0:0:0:
192,192,392339,1,0,0:0:0:0:
64,192,392339,1,0,0:0:0:0:
192,192,392497,128,0,392813:0:0:0:0:
64,192,392524,128,0,392760:0:0:0:0:
320,192,392576,128,0,392866:0:0:0:0:
448,192,392760,128,0,392971:0:0:0:0:
64,192,392945,128,0,393181:0:0:0:0:
320,192,392971,128,0,393076:0:0:0:0:
448,192,393181,128,0,393339:0:0:0:0:
192,192,393181,1,0,0:0:0:0:
192,192,393287,1,0,0:0:0:0:
64,192,393392,128,0,393550:0:0:0:0:
448,192,393392,1,0,0:0:0:0:
448,192,393497,1,0,0:0:0:0:
320,192,393603,128,0,393655:0:0:0:0:
64,192,393603,1,0,0:0:0:0:
448,192,393708,128,0,393918:0:0:0:0:
64,192,393708,1,0,0:0:0:0:
64,192,393813,1,0,0:0:0:0:
64,192,393918,1,0,0:0:0:0:
192,192,394024,128,0,394129:0:0:0:0:
320,192,394024,128,0,394155:0:0:0:0:
448,192,394024,128,0,394181:0:0:0:0:
64,192,394181,1,0,0:0:0:0:
192,192,394221,1,0,0:0:0:0:
320,192,394260,1,0,0:0:0:0:
64,192,394300,1,0,0:0:0:0:
192,192,394339,128,0,394445:0:0:0:0:
320,192,394339,128,0,394471:0:0:0:0:
448,192,394339,128,0,394497:0:0:0:0:
64,192,394497,1,0,0:0:0:0:
320,192,394550,128,0,394603:0:0:0:0:
448,192,394603,128,0,394655:0:0:0:0:
320,192,394655,128,0,394760:0:0:0:0:
192,192,394655,128,0,394787:0:0:0:0:
64,192,394655,128,0,394813:0:0:0:0:
448,192,394813,128,0,394918:0:0:0:0:
192,192,394866,128,0,394918:0:0:0:0:
320,192,394971,128,0,395076:0:0:0:0:
192,192,394971,128,0,395103:0:0:0:0:
64,192,394971,128,0,395129:0:0:0:0:
448,192,395129,1,0,0:0:0:0:
320,192,395181,128,0,395234:0:0:0:0:
192,192,395181,128,0,395287:0:0:0:0:
64,192,395287,128,0,395339:0:0:0:0:
320,192,395287,128,0,395445:0:0:0:0:
448,192,395287,128,0,395418:0:0:0:0:
64,192,395392,1,0,0:0:0:0:
64,192,395497,128,0,395603:0:0:0:0:
320,192,395497,128,0,395655:0:0:0:0:
448,192,395497,128,0,395629:0:0:0:0:
64,192,395708,1,0,0:0:0:0:
192,192,395708,1,0,0:0:0:0:
448,192,395708,128,0,395813:0:0:0:0:
64,192,395813,1,0,0:0:0:0:
320,192,395813,1,0,0:0:0:0:
64,192,395918,1,0,0:0:0:0:
192,192,395918,1,0,0:0:0:0:
320,192,396024,1,0,0:0:0:0:
448,192,396024,1,0,0:0:0:0:
192,192,396024,128,0,396129:0:0:0:0:
448,192,396129,1,0,0:0:0:0:
64,192,396129,1,0,0:0:0:0:
320,192,396234,1,0,0:0:0:0:
448,192,396234,1,0,0:0:0:0:
64,192,396339,1,0,0:0:0:0:
192,192,396339,1,0,0:0:0:0:
320,192,396339,128,0,396445:0:0:0:0:
448,192,396445,1,0,0:0:0:0:
192,192,396445,1,0,0:0:0:0:
320,192,396550,1,0,0:0:0:0:
448,192,396550,1,0,0:0:0:0:
64,192,396550,1,0,0:0:0:0:
64,192,396655,1,0,0:0:0:0:
320,192,396655,1,0,0:0:0:0:
192,192,396760,1,0,0:0:0:0:
448,192,396760,1,0,0:0:0:0:
64,192,396760,128,0,396866:0:0:0:0:
320,192,396866,1,0,0:0:0:0:
448,192,396866,1,0,0:0:0:0:
320,192,396971,1,0,0:0:0:0:
192,192,396971,1,0,0:0:0:0:
448,192,396971,1,0,0:0:0:0:
64,192,397076,1,0,0:0:0:0:
192,192,397076,1,0,0:0:0:0:
192,192,397181,1,0,0:0:0:0:
320,192,397181,1,0,0:0:0:0:
64,192,397181,1,0,0:0:0:0:
320,192,397287,1,0,0:0:0:0:
448,192,397287,1,0,0:0:0:0:
192,192,397339,1,0,0:0:0:0:
448,192,397392,1,0,0:0:0:0:
64,192,397392,128,0,397445:0:0:0:0:
448,192,397497,1,0,0:0:0:0:
64,192,397497,128,0,397550:0:0:0:0:
320,192,397603,1,0,0:0:0:0:
64,192,397603,128,0,397813:0:0:0:0:
192,192,397708,128,0,397813:0:0:0:0:
320,192,397813,1,0,0:0:0:0:
448,192,397813,128,0,397866:0:0:0:0:
448,192,397918,1,0,0:0:0:0:
192,192,397918,128,0,397971:0:0:0:0:
320,192,397971,128,0,398024:0:0:0:0:
64,192,398024,1,0,0:0:0:0:
192,192,398024,128,0,398076:0:0:0:0:
320,192,398076,128,0,398129:0:0:0:0:
64,192,398129,128,0,398234:0:0:0:0:
192,192,398129,1,0,0:0:0:0:
448,192,398234,128,0,398287:0:0:0:0:
320,192,398234,1,0,0:0:0:0:
192,192,398287,128,0,398339:0:0:0:0:
320,192,398339,1,0,0:0:0:0:
448,192,398339,128,0,398392:0:0:0:0:
192,192,398392,128,0,398445:0:0:0:0:
64,192,398445,1,0,0:0:0:0:
320,192,398445,128,0,398550:0:0:0:0:
64,192,398550,128,0,398655:0:0:0:0:
448,192,398550,1,0,0:0:0:0:
192,192,398655,1,0,0:0:0:0:
448,192,398655,1,0,0:0:0:0:
320,192,398708,1,0,0:0:0:0:
192,192,398760,1,0,0:0:0:0:
320,192,398813,1,0,0:0:0:0:
64,192,398866,1,0,0:0:0:0:
448,192,398866,1,0,0:0:0:0:
192,192,398918,1,0,0:0:0:0:
320,192,398971,1,0,0:0:0:0:
64,192,399024,1,0,0:0:0:0:
320,192,399076,1,0,0:0:0:0:
448,192,399076,1,0,0:0:0:0:
192,192,399076,128,0,399181:0:0:0:0:
448,192,399181,1,0,0:0:0:0:
64,192,399181,1,0,0:0:0:0:
320,192,399287,1,0,0:0:0:0:
448,192,399287,1,0,0:0:0:0:
192,192,399392,1,0,0:0:0:0:
64,192,399392,1,0,0:0:0:0:
320,192,399392,128,0,399497:0:0:0:0:
192,192,399497,1,0,0:0:0:0:
448,192,399497,1,0,0:0:0:0:
192,192,399603,1,0,0:0:0:0:
64,192,399603,1,0,0:0:0:0:
448,192,399708,1,0,0:0:0:0:
320,192,399708,1,0,0:0:0:0:
64,192,399708,128,0,399813:0:0:0:0:
192,192,399813,1,0,0:0:0:0:
320,192,399813,1,0,0:0:0:0:
64,192,399918,1,0,0:0:0:0:
192,192,399918,1,0,0:0:0:0:
448,192,399918,1,0,0:0:0:0:
448,192,400024,1,0,0:0:0:0:
64,192,400024,1,0,0:0:0:0:
320,192,400129,1,0,0:0:0:0:
192,192,400129,1,0,0:0:0:0:
448,192,400129,128,0,400234:0:0:0:0:
64,192,400234,1,0,0:0:0:0:
192,192,400234,1,0,0:0:0:0:
64,192,400339,1,0,0:0:0:0:
320,192,400339,1,0,0:0:0:0:
192,192,400339,1,0,0:0:0:0:
448,192,400445,1,0,0:0:0:0:
320,192,400445,1,0,0:0:0:0:
320,192,400550,1,0,0:0:0:0:
64,192,400550,1,0,0:0:0:0:
448,192,400550,1,0,0:0:0:0:
64,192,400655,1,0,0:0:0:0:
192,192,400655,1,0,0:0:0:0:
320,192,400708,1,0,0:0:0:0:
192,192,400760,1,0,0:0:0:0:
448,192,400760,128,0,400813:0:0:0:0:
64,192,400813,128,0,400866:0:0:0:0:
320,192,400866,1,0,0:0:0:0:
448,192,400866,128,0,400918:0:0:0:0:
64,192,400918,128,0,400971:0:0:0:0:
320,192,400971,1,0,0:0:0:0:
448,192,400971,128,0,401024:0:0:0:0:
192,192,401024,128,0,401076:0:0:0:0:
320,192,401076,128,0,401181:0:0:0:0:
64,192,401076,1,0,0:0:0:0:
448,192,401129,1,0,0:0:0:0:
64,192,401181,1,0,0:0:0:0:
192,192,401181,1,0,0:0:0:0:
320,192,401234,1,0,0:0:0:0:
448,192,401287,1,0,0:0:0:0:
192,192,401322,1,0,0:0:0:0:
320,192,401357,1,0,0:0:0:0:
64,192,401392,128,0,401445:0:0:0:0:
448,192,401445,128,0,401497:0:0:0:0:
64,192,401497,128,0,401550:0:0:0:0:
192,192,401497,1,0,0:0:0:0:
320,192,401550,128,0,401603:0:0:0:0:
192,192,401603,1,0,0:0:0:0:
448,192,401603,1,0,0:0:0:0:
64,192,401655,1,0,0:0:0:0:
448,192,401708,1,0,0:0:0:0:
192,192,401760,1,0,0:0:0:0:
64,192,401813,1,0,0:0:0:0:
320,192,401813,1,0,0:0:0:0:
448,192,401866,1,0,0:0:0:0:
64,192,401918,1,0,0:0:0:0:
192,192,401971,1,0,0:0:0:0:
320,192,402024,1,0,0:0:0:0:
448,192,402024,1,0,0:0:0:0:
64,192,402076,1,0,0:0:0:0:
448,192,402129,1,0,0:0:0:0:
320,192,402129,1,0,0:0:0:0:
64,192,402181,1,0,0:0:0:0:
192,192,402234,1,0,0:0:0:0:
448,192,402234,1,0,0:0:0:0:
320,192,402287,1,0,0:0:0:0:
192,192,402339,1,0,0:0:0:0:
320,192,402392,1,0,0:0:0:0:
64,192,402445,1,0,0:0:0:0:
192,192,402445,1,0,0:0:0:0:
448,192,402445,128,0,402550:0:0:0:0:
64,192,402550,1,0,0:0:0:0:
320,192,402550,1,0,0:0:0:0:
64,192,402655,1,0,0:0:0:0:
192,192,402655,1,0,0:0:0:0:
320,192,402760,1,0,0:0:0:0:
448,192,402760,1,0,0:0:0:0:
192,192,402760,128,0,402866:0:0:0:0:
64,192,402813,1,0,0:0:0:0:
448,192,402866,1,0,0:0:0:0:
320,192,402866,1,0,0:0:0:0:
320,192,402971,1,0,0:0:0:0:
448,192,402971,1,0,0:0:0:0:
64,192,403076,1,0,0:0:0:0:
192,192,403076,1,0,0:0:0:0:
320,192,403076,128,0,403181:0:0:0:0:
448,192,403181,1,0,0:0:0:0:
192,192,403181,1,0,0:0:0:0:
320,192,403287,1,0,0:0:0:0:
448,192,403287,1,0,0:0:0:0:
64,192,403287,1,0,0:0:0:0:
64,192,403392,1,0,0:0:0:0:
192,192,403392,1,0,0:0:0:0:
320,192,403445,1,0,0:0:0:0:
192,192,403497,1,0,0:0:0:0:
448,192,403497,1,0,0:0:0:0:
64,192,403497,128,0,403603:0:0:0:0:
320,192,403603,1,0,0:0:0:0:
448,192,403603,1,0,0:0:0:0:
192,192,403655,1,0,0:0:0:0:
320,192,403708,1,0,0:0:0:0:
64,192,403743,1,0,0:0:0:0:
320,192,403778,1,0,0:0:0:0:
192,192,403813,1,0,0:0:0:0:
448,192,403848,1,0,0:0:0:0:
64,192,403883,1,0,0:0:0:0:
192,192,403918,1,0,0:0:0:0:
320,192,403971,1,0,0:0:0:0:
192,192,404024,1,0,0:0:0:0:
320,192,404076,1,0,0:0:0:0:
448,192,404129,1,0,0:0:0:0:
64,192,404129,128,0,404181:0:0:0:0:
448,192,404234,1,0,0:0:0:0:
64,192,404234,128,0,404287:0:0:0:0:
320,192,404339,1,0,0:0:0:0:
64,192,404339,128,0,404550:0:0:0:0:
192,192,404445,128,0,404550:0:0:0:0:
320,192,404550,1,0,0:0:0:0:
448,192,404550,128,0,404603:0:0:0:0:
64,192,404603,1,0,0:0:0:0:
448,192,404655,1,0,0:0:0:0:
192,192,404655,128,0,404708:0:0:0:0:
320,192,404708,128,0,404760:0:0:0:0:
64,192,404760,1,0,0:0:0:0:
192,192,404760,128,0,404813:0:0:0:0:
320,192,404813,128,0,404866:0:0:0:0:
64,192,404866,128,0,404971:0:0:0:0:
448,192,404866,1,0,0:0:0:0:
192,192,404918,1,0,0:0:0:0:
320,192,404971,1,0,0:0:0:0:
448,192,404971,1,0,0:0:0:0:
192,192,405041,1,0,0:0:0:0:
448,192,405041,1,0,0:0:0:0:
64,192,405111,1,0,0:0:0:0:
320,192,405111,1,0,0:0:0:0:
192,192,405181,1,0,0:0:0:0:
448,192,405181,1,0,0:0:0:0:
64,192,405252,1,0,0:0:0:0:
448,192,405287,1,0,0:0:0:0:
64,192,405322,1,0,0:0:0:0:
192,192,405392,1,0,0:0:0:0:
320,192,405392,1,0,0:0:0:0:
448,192,405497,1,0,0:0:0:0:
64,192,405524,1,0,0:0:0:0:
192,192,405550,1,0,0:0:0:0:
320,192,405576,1,0,0:0:0:0:
448,192,405603,1,0,0:0:0:0:
64,192,405655,1,0,0:0:0:0:
320,192,405708,1,0,0:0:0:0:
192,192,405743,1,0,0:0:0:0:
64,192,405778,1,0,0:0:0:0:
320,192,405813,1,0,0:0:0:0:
448,192,405813,1,0,0:0:0:0:
448,192,405892,1,0,0:0:0:0:
320,192,405971,1,0,0:0:0:0:
192,192,405971,1,0,0:0:0:0:
64,192,405971,1,0,0:0:0:0:
64,192,406050,1,0,0:0:0:0:
320,192,406129,1,0,0:0:0:0:
448,192,406129,1,0,0:0:0:0:
192,192,406129,1,0,0:0:0:0:
320,192,406208,1,0,0:0:0:0:
448,192,406287,1,0,0:0:0:0:
192,192,406287,1,0,0:0:0:0:
64,192,406287,1,0,0:0:0:0:
192,192,406366,1,0,0:0:0:0:
448,192,406445,1,0,0:0:0:0:
64,192,406487,1,0,0:0:0:0:
320,192,406529,1,0,0:0:0:0:
448,192,406571,1,0,0:0:0:0:
192,192,406613,1,0,0:0:0:0:
64,192,406655,1,0,0:0:0:0:
320,192,406655,1,0,0:0:0:0:
448,192,406655,1,0,0:0:0:0:
320,192,406734,1,0,0:0:0:0:
448,192,406813,1,0,0:0:0:0:
192,192,406813,1,0,0:0:0:0:
64,192,406813,1,0,0:0:0:0:
192,192,406892,1,0,0:0:0:0:
320,192,406971,1,0,0:0:0:0:
448,192,406971,1,0,0:0:0:0:
64,192,406971,1,0,0:0:0:0:
448,192,407050,1,0,0:0:0:0:
320,192,407129,1,0,0:0:0:0:
192,192,407129,1,0,0:0:0:0:
64,192,407129,1,0,0:0:0:0:
64,192,407208,1,0,0:0:0:0:
448,192,407287,128,0,407392:0:0:0:0:
448,192,407497,1,0,0:0:0:0:
192,192,407497,1,0,0:0:0:0:
64,192,407497,1,0,0:0:0:0:
64,192,407576,1,0,0:0:0:0:
448,192,407655,1,0,0:0:0:0:
192,192,407655,1,0,0:0:0:0:
320,192,407655,1,0,0:0:0:0:
448,192,407734,1,0,0:0:0:0:
192,192,407813,1,0,0:0:0:0:
64,192,407813,1,0,0:0:0:0:
320,192,407813,1,0,0:0:0:0:
192,192,407892,1,0,0:0:0:0:
448,192,407971,1,0,0:0:0:0:
64,192,407971,1,0,0:0:0:0:
320,192,407971,1,0,0:0:0:0:
320,192,408050,1,0,0:0:0:0:
448,192,408129,1,0,0:0:0:0:
192,192,408129,1,0,0:0:0:0:
64,192,408129,1,0,0:0:0:0:
64,192,408234,1,0,0:0:0:0:
192,192,408287,1,0,0:0:0:0:
320,192,408339,1,0,0:0:0:0:
448,192,408339,1,0,0:0:0:0:
448,192,408445,1,0,0:0:0:0:
64,192,408497,1,0,0:0:0:0:
320,192,408550,1,0,0:0:0:0:
192,192,408655,1,0,0:0:0:0:
448,192,408708,1,0,0:0:0:0:
192,192,408760,1,0,0:0:0:0:
448,192,408813,1,0,0:0:0:0:
192,192,408866,1,0,0:0:0:0:
448,192,408918,1,0,0:0:0:0:
192,192,408971,1,0,0:0:0:0:
320,192,409024,1,0,0:0:0:0:
64,192,409076,1,0,0:0:0:0:
192,192,409129,1,0,0:0:0:0:
320,192,409181,1,0,0:0:0:0:
448,192,409181,1,0,0:0:0:0:
64,192,409234,1,0,0:0:0:0:
448,192,409287,1,0,0:0:0:0:
64,192,409339,1,0,0:0:0:0:
192,192,409392,1,0,0:0:0:0:
448,192,409445,1,0,0:0:0:0:
320,192,409497,1,0,0:0:0:0:
64,192,409497,1,0,0:0:0:0:
448,192,409550,1,0,0:0:0:0:
192,192,409603,1,0,0:0:0:0:
64,192,409603,1,0,0:0:0:0:
320,192,409655,1,0,0:0:0:0:
192,192,409708,1,0,0:0:0:0:
320,192,409760,1,0,0:0:0:0:
448,192,409813,1,0,0:0:0:0:
192,192,409866,1,0,0:0:0:0:
320,192,409918,1,0,0:0:0:0:
64,192,409918,1,0,0:0:0:0:
192,192,409971,1,0,0:0:0:0:
320,192,410024,1,0,0:0:0:0:
448,192,410024,1,0,0:0:0:0:
64,192,410076,1,0,0:0:0:0:
192,192,410129,1,0,0:0:0:0:
320,192,410181,1,0,0:0:0:0:
192,192,410234,1,0,0:0:0:0:
448,192,410234,1,0,0:0:0:0:
64,192,410287,1,0,0:0:0:0:
320,192,410339,1,0,0:0:0:0:
448,192,410339,1,0,0:0:0:0:
64,192,410392,1,0,0:0:0:0:
320,192,410445,1,0,0:0:0:0:
192,192,410497,1,0,0:0:0:0:
448,192,410550,1,0,0:0:0:0:
320,192,410603,1,0,0:0:0:0:
64,192,410655,1,0,0:0:0:0:
192,192,410655,1,0,0:0:0:0:
448,192,410708,1,0,0:0:0:0:
192,192,410760,1,0,0:0:0:0:
320,192,410760,1,0,0:0:0:0:
448,192,410813,1,0,0:0:0:0:
192,192,410866,1,0,0:0:0:0:
64,192,410866,1,0,0:0:0:0:
320,192,410918,1,0,0:0:0:0:
64,192,410971,1,0,0:0:0:0:
320,192,411024,1,0,0:0:0:0:
448,192,411076,1,0,0:0:0:0:
64,192,411129,1,0,0:0:0:0:
192,192,411181,1,0,0:0:0:0:
320,192,411181,1,0,0:0:0:0:
64,192,411234,1,0,0:0:0:0:
448,192,411287,1,0,0:0:0:0:
320,192,411287,1,0,0:0:0:0:
192,192,411339,1,0,0:0:0:0:
448,192,411392,1,0,0:0:0:0:
192,192,411445,1,0,0:0:0:0:
64,192,411497,1,0,0:0:0:0:
448,192,411550,1,0,0:0:0:0:
192,192,411603,1,0,0:0:0:0:
320,192,411603,1,0,0:0:0:0:
448,192,411655,1,0,0:0:0:0:
192,192,411708,1,0,0:0:0:0:
64,192,411708,1,0,0:0:0:0:
320,192,411760,1,0,0:0:0:0:
448,192,411813,1,0,0:0:0:0:
192,192,411866,1,0,0:0:0:0:
448,192,411918,1,0,0:0:0:0:
64,192,411918,1,0,0:0:0:0:
320,192,411971,1,0,0:0:0:0:
192,192,412024,1,0,0:0:0:0:
64,192,412024,1,0,0:0:0:0:
320,192,412076,1,0,0:0:0:0:
192,192,412129,1,0,0:0:0:0:
448,192,412181,1,0,0:0:0:0:
64,192,412234,1,0,0:0:0:0:
320,192,412234,1,0,0:0:0:0:
192,192,412287,1,0,0:0:0:0:
320,192,412339,1,0,0:0:0:0:
448,192,412339,1,0,0:0:0:0:
64,192,412392,1,0,0:0:0:0:
448,192,412445,1,0,0:0:0:0:
192,192,412445,1,0,0:0:0:0:
64,192,412497,1,0,0:0:0:0:
320,192,412550,1,0,0:0:0:0:
448,192,412550,1,0,0:0:0:0:
192,192,412603,1,0,0:0:0:0:
320,192,412655,1,0,0:0:0:0:
192,192,412708,1,0,0:0:0:0:
64,192,412760,1,0,0:0:0:0:
320,192,412813,1,0,0:0:0:0:
448,192,412866,1,0,0:0:0:0:
192,192,412866,1,0,0:0:0:0:
320,192,412918,1,0,0:0:0:0:
64,192,412971,1,0,0:0:0:0:
192,192,412971,1,0,0:0:0:0:
448,192,413024,1,0,0:0:0:0:
64,192,413076,1,0,0:0:0:0:
448,192,413129,1,0,0:0:0:0:
320,192,413181,1,0,0:0:0:0:
64,192,413234,1,0,0:0:0:0:
448,192,413287,1,0,0:0:0:0:
192,192,413287,1,0,0:0:0:0:
64,192,413339,1,0,0:0:0:0:
448,192,413392,1,0,0:0:0:0:
320,192,413392,1,0,0:0:0:0:
192,192,413445,1,0,0:0:0:0:
64,192,413497,1,0,0:0:0:0:
448,192,413550,1,0,0:0:0:0:
64,192,413603,1,0,0:0:0:0:
320,192,413603,1,0,0:0:0:0:
192,192,413655,1,0,0:0:0:0:
448,192,413708,1,0,0:0:0:0:
320,192,413708,1,0,0:0:0:0:
192,192,413760,1,0,0:0:0:0:
448,192,413813,1,0,0:0:0:0:
64,192,413866,1,0,0:0:0:0:
192,192,413918,1,0,0:0:0:0:
320,192,413918,1,0,0:0:0:0:
64,192,413971,1,0,0:0:0:0:
320,192,414024,1,0,0:0:0:0:
448,192,414024,1,0,0:0:0:0:
192,192,414076,1,0,0:0:0:0:
64,192,414129,1,0,0:0:0:0:
448,192,414129,1,0,0:0:0:0:
320,192,414181,1,0,0:0:0:0:
192,192,414234,1,0,0:0:0:0:
64,192,414234,1,0,0:0:0:0:
448,192,414287,1,0,0:0:0:0:
192,192,414339,1,0,0:0:0:0:
448,192,414392,1,0,0:0:0:0:
320,192,414445,1,0,0:0:0:0:
192,192,414497,1,0,0:0:0:0:
64,192,414550,1,0,0:0:0:0:
448,192,414550,1,0,0:0:0:0:
192,192,414603,1,0,0:0:0:0:
320,192,414655,1,0,0:0:0:0:
448,192,414655,1,0,0:0:0:0:
64,192,414708,1,0,0:0:0:0:
320,192,414760,1,0,0:0:0:0:
192,192,414760,1,0,0:0:0:0:
64,192,414813,1,0,0:0:0:0:
448,192,414866,1,0,0:0:0:0:
320,192,414866,1,0,0:0:0:0:
192,192,414918,1,0,0:0:0:0:
64,192,414971,1,0,0:0:0:0:
448,192,414971,1,0,0:0:0:0:
320,192,415024,1,0,0:0:0:0:
64,192,415076,1,0,0:0:0:0:
192,192,415076,1,0,0:0:0:0:
320,192,415129,1,0,0:0:0:0:
448,192,415129,1,0,0:0:0:0:
192,192,415181,1,0,0:0:0:0:
64,192,415181,1,0,0:0:0:0:
320,192,415234,1,0,0:0:0:0:
448,192,415234,1,0,0:0:0:0:
192,192,415287,1,0,0:0:0:0:
64,192,415287,1,0,0:0:0:0:
448,192,415339,1,0,0:0:0:0:
320,192,415339,1,0,0:0:0:0:
192,192,415392,1,0,0:0:0:0:
64,192,415392,1,0,0:0:0:0:
320,192,415445,1,0,0:0:0:0:
448,192,415445,1,0,0:0:0:0:
64,192,415497,1,0,0:0:0:0:
192,192,415497,1,0,0:0:0:0:
320,192,415550,1,0,0:0:0:0:
448,192,415550,1,0,0:0:0:0:
192,192,415603,1,0,0:0:0:0:
64,192,415603,1,0,0:0:0:0:
448,192,415655,1,0,0:0:0:0:
320,192,415708,1,0,0:0:0:0:
192,192,415708,1,0,0:0:0:0:
64,192,415760,1,0,0:0:0:0:
192,192,415813,1,0,0:0:0:0:
448,192,415813,1,0,0:0:0:0:
320,192,415866,1,0,0:0:0:0:
64,192,415918,1,0,0:0:0:0:
448,192,415918,1,0,0:0:0:0:
192,192,415971,1,0,0:0:0:0:
448,192,416024,1,0,0:0:0:0:
192,192,416076,1,0,0:0:0:0:
64,192,416129,1,0,0:0:0:0:
448,192,416181,1,0,0:0:0:0:
320,192,416234,1,0,0:0:0:0:
192,192,416234,1,0,0:0:0:0:
448,192,416287,1,0,0:0:0:0:
64,192,416339,1,0,0:0:0:0:
192,192,416339,1,0,0:0:0:0:
320,192,416392,1,0,0:0:0:0:
64,192,416445,1,0,0:0:0:0:
320,192,416497,1,0,0:0:0:0:
448,192,416550,1,0,0:0:0:0:
64,192,416603,1,0,0:0:0:0:
320,192,416655,1,0,0:0:0:0:
192,192,416655,1,0,0:0:0:0:
64,192,416708,1,0,0:0:0:0:
320,192,416760,1,0,0:0:0:0:
448,192,416760,1,0,0:0:0:0:
192,192,416813,1,0,0:0:0:0:
64,192,416866,1,0,0:0:0:0:
320,192,416918,1,0,0:0:0:0:
64,192,416971,1,0,0:0:0:0:
448,192,416971,1,0,0:0:0:0:
192,192,417024,1,0,0:0:0:0:
320,192,417076,1,0,0:0:0:0:
448,192,417076,1,0,0:0:0:0:
192,192,417129,1,0,0:0:0:0:
320,192,417181,1,0,0:0:0:0:
64,192,417287,1,0,0:0:0:0:
448,192,417287,1,0,0:0:0:0:
192,192,417339,1,0,0:0:0:0:
320,192,417392,1,0,0:0:0:0:
448,192,417392,1,0,0:0:0:0:
192,192,417445,1,0,0:0:0:0:
320,192,417497,1,0,0:0:0:0:
64,192,417497,1,0,0:0:0:0:
192,192,417603,1,0,0:0:0:0:
64,192,417603,1,0,0:0:0:0:
448,192,417603,1,0,0:0:0:0:
320,192,417655,1,0,0:0:0:0:
192,192,417708,1,0,0:0:0:0:
320,192,417760,1,0,0:0:0:0:
448,192,417813,1,0,0:0:0:0:
192,192,417866,1,0,0:0:0:0:
64,192,417918,1,0,0:0:0:0:
320,192,417918,1,0,0:0:0:0:
192,192,417971,1,0,0:0:0:0:
448,192,418024,1,0,0:0:0:0:
320,192,418024,1,0,0:0:0:0:
64,192,418076,1,0,0:0:0:0:
448,192,418129,1,0,0:0:0:0:
64,192,418181,1,0,0:0:0:0:
192,192,418234,1,0,0:0:0:0:
448,192,418287,1,0,0:0:0:0:
64,192,418339,1,0,0:0:0:0:
320,192,418339,1,0,0:0:0:0:
448,192,418392,1,0,0:0:0:0:
64,192,418445,1,0,0:0:0:0:
192,192,418445,1,0,0:0:0:0:
320,192,418497,1,0,0:0:0:0:
448,192,418550,1,0,0:0:0:0:
64,192,418603,1,0,0:0:0:0:
448,192,418655,1,0,0:0:0:0:
192,192,418655,1,0,0:0:0:0:
320,192,418708,1,0,0:0:0:0:
64,192,418760,1,0,0:0:0:0:
192,192,418760,1,0,0:0:0:0:
320,192,418813,1,0,0:0:0:0:
64,192,418866,128,0,418971:0:0:0:0:
448,192,418866,128,0,418971:0:0:0:0:
64,192,419024,128,0,419129:0:0:0:0:
192,192,419024,128,0,419129:0:0:0:0:
320,192,419050,128,0,419129:0:0:0:0:
192,192,419181,128,0,419287:0:0:0:0:
448,192,419181,128,0,419234:0:0:0:0:
320,192,419287,1,0,0:0:0:0:
448,192,419287,1,0,0:0:0:0:
64,192,419339,1,0,0:0:0:0:
320,192,419392,1,0,0:0:0:0:
64,192,419445,1,0,0:0:0:0:
192,192,419497,1,0,0:0:0:0:
320,192,419550,1,0,0:0:0:0:
448,192,419603,1,0,0:0:0:0:
64,192,419603,1,0,0:0:0:0:
320,192,419655,1,0,0:0:0:0:
192,192,419708,1,0,0:0:0:0:
64,192,419708,1,0,0:0:0:0:
448,192,419760,1,0,0:0:0:0:
192,192,419813,1,0,0:0:0:0:
448,192,419866,1,0,0:0:0:0:
320,192,419918,1,0,0:0:0:0:
192,192,419971,1,0,0:0:0:0:
64,192,420024,1,0,0:0:0:0:
448,192,420024,1,0,0:0:0:0:
192,192,420076,1,0,0:0:0:0:
320,192,420129,1,0,0:0:0:0:
448,192,420129,128,0,420550:0:0:0:0:
192,192,420339,128,0,420550:0:0:0:0:
320,192,420445,128,0,420550:0:0:0:0:
64,192,420550,128,0,420760:0:0:0:0:
192,192,420655,128,0,420866:0:0:0:0:
320,192,420760,128,0,420866:0:0:0:0:
64,192,420866,128,0,420971:0:0:0:0:
320,192,420971,1,0,0:0:0:0:
448,192,420971,1,0,0:0:0:0:
192,192,420971,1,0,0:0:0:0:
64,192,421024,1,0,0:0:0:0:
320,192,421076,1,0,0:0:0:0:
448,192,421076,1,0,0:0:0:0:
192,192,421129,1,0,0:0:0:0:
320,192,421181,1,0,0:0:0:0:
192,192,421234,1,0,0:0:0:0:
64,192,421234,1,0,0:0:0:0:
448,192,421287,1,0,0:0:0:0:
64,192,421339,1,0,0:0:0:0:
192,192,421392,1,0,0:0:0:0:
448,192,421392,1,0,0:0:0:0:
320,192,421445,1,0,0:0:0:0:
192,192,421497,1,0,0:0:0:0:
64,192,421550,1,0,0:0:0:0:
320,192,421550,1,0,0:0:0:0:
448,192,421603,1,0,0:0:0:0:
64,192,421655,1,0,0:0:0:0:
192,192,421708,1,0,0:0:0:0:
448,192,421708,1,0,0:0:0:0:
320,192,421760,1,0,0:0:0:0:
192,192,421813,5,0,0:0:0:0:
64,192,421813,1,0,0:0:0:0:
448,192,421866,1,0,0:0:0:0:
192,192,421918,1,0,0:0:0:0:
64,192,421918,1,0,0:0:0:0:
448,192,421971,1,0,0:0:0:0:
320,192,422024,5,0,0:0:0:0:
64,192,422024,1,0,0:0:0:0:
192,192,422076,1,0,0:0:0:0:
320,192,422129,1,0,0:0:0:0:
448,192,422129,1,0,0:0:0:0:
192,192,422181,1,0,0:0:0:0:
64,192,422234,5,0,0:0:0:0:
320,192,422287,1,0,0:0:0:0:
64,192,422339,1,0,0:0:0:0:
320,192,422392,1,0,0:0:0:0:
64,192,422445,1,0,0:0:0:0:
320,192,422497,1,0,0:0:0:0:
64,192,422550,1,0,0:0:0:0:
320,192,422603,1,0,0:0:0:0:
192,192,422655,5,0,0:0:0:0:
448,192,422655,1,0,0:0:0:0:
64,192,422708,1,0,0:0:0:0:
192,192,422760,1,0,0:0:0:0:
448,192,422760,1,0,0:0:0:0:
64,192,422813,1,0,0:0:0:0:
448,192,422866,1,0,0:0:0:0:
320,192,422918,1,0,0:0:0:0:
64,192,422971,1,0,0:0:0:0:
192,192,422971,1,0,0:0:0:0:
448,192,423024,1,0,0:0:0:0:
320,192,423076,1,0,0:0:0:0:
448,192,423129,1,0,0:0:0:0:
64,192,423181,1,0,0:0:0:0:
192,192,423181,1,0,0:0:0:0:
320,192,423234,1,0,0:0:0:0:
64,192,423287,1,0,0:0:0:0:
192,192,423339,1,0,0:0:0:0:
320,192,423392,1,0,0:0:0:0:
448,192,423392,1,0,0:0:0:0:
64,192,423445,1,0,0:0:0:0:
320,192,423497,1,0,0:0:0:0:
192,192,423497,1,0,0:0:0:0:
448,192,423550,1,0,0:0:0:0:
320,192,423603,1,0,0:0:0:0:
192,192,423603,1,0,0:0:0:0:
448,192,423655,1,0,0:0:0:0:
192,192,423708,1,0,0:0:0:0:
64,192,423760,1,0,0:0:0:0:
320,192,423813,1,0,0:0:0:0:
448,192,423813,1,0,0:0:0:0:
192,192,423866,1,0,0:0:0:0:
64,192,423918,1,0,0:0:0:0:
192,192,423971,1,0,0:0:0:0:
320,192,424024,1,0,0:0:0:0:
448,192,424024,1,0,0:0:0:0:
64,192,424076,1,0,0:0:0:0:
448,192,424129,128,0,424181:0:0:0:0:
192,192,424181,128,0,424234:0:0:0:0:
448,192,424234,128,0,424339:0:0:0:0:
64,192,424339,1,0,0:0:0:0:
320,192,424339,1,0,0:0:0:0:
192,192,424392,1,0,0:0:0:0:
64,192,424445,1,0,0:0:0:0:
320,192,424445,1,0,0:0:0:0:
192,192,424497,1,0,0:0:0:0:
320,192,424550,1,0,0:0:0:0:
448,192,424603,1,0,0:0:0:0:
192,192,424655,1,0,0:0:0:0:
64,192,424655,1,0,0:0:0:0:
320,192,424708,1,0,0:0:0:0:
448,192,424760,1,0,0:0:0:0:
320,192,424813,1,0,0:0:0:0:
192,192,424866,1,0,0:0:0:0:
64,192,424866,1,0,0:0:0:0:
448,192,424918,1,0,0:0:0:0:
192,192,424971,1,0,0:0:0:0:
64,192,425024,1,0,0:0:0:0:
320,192,425076,1,0,0:0:0:0:
448,192,425076,1,0,0:0:0:0:
192,192,425129,1,0,0:0:0:0:
64,192,425181,1,0,0:0:0:0:
448,192,425181,1,0,0:0:0:0:
192,192,425234,1,0,0:0:0:0:
320,192,425287,1,0,0:0:0:0:
448,192,425287,1,0,0:0:0:0:
64,192,425339,1,0,0:0:0:0:
192,192,425392,1,0,0:0:0:0:
320,192,425392,1,0,0:0:0:0:
448,192,425445,1,0,0:0:0:0:
192,192,425497,1,0,0:0:0:0:
64,192,425497,1,0,0:0:0:0:
320,192,425550,1,0,0:0:0:0:
64,192,425603,1,0,0:0:0:0:
192,192,425603,1,0,0:0:0:0:
448,192,425655,1,0,0:0:0:0:
64,192,425708,1,0,0:0:0:0:
192,192,425760,1,0,0:0:0:0:
448,192,425813,128,0,425918:0:0:0:0:
320,192,425813,1,0,0:0:0:0:
64,192,425866,128,0,425971:0:0:0:0:
320,192,425918,128,0,426024:0:0:0:0:
192,192,426024,5,0,0:0:0:0:
448,192,426024,1,0,0:0:0:0:
64,192,426076,1,0,0:0:0:0:
192,192,426129,1,0,0:0:0:0:
448,192,426129,1,0,0:0:0:0:
64,192,426181,1,0,0:0:0:0:
448,192,426234,1,0,0:0:0:0:
320,192,426287,1,0,0:0:0:0:
64,192,426339,1,0,0:0:0:0:
192,192,426339,1,0,0:0:0:0:
448,192,426392,1,0,0:0:0:0:
320,192,426445,1,0,0:0:0:0:
448,192,426497,1,0,0:0:0:0:
64,192,426550,1,0,0:0:0:0:
192,192,426550,1,0,0:0:0:0:
320,192,426603,1,0,0:0:0:0:
64,192,426655,1,0,0:0:0:0:
192,192,426708,1,0,0:0:0:0:
320,192,426760,1,0,0:0:0:0:
448,192,426760,1,0,0:0:0:0:
64,192,426813,1,0,0:0:0:0:
320,192,426866,1,0,0:0:0:0:
192,192,426866,1,0,0:0:0:0:
448,192,426918,1,0,0:0:0:0:
320,192,426971,1,0,0:0:0:0:
192,192,426971,1,0,0:0:0:0:
448,192,427024,1,0,0:0:0:0:
192,192,427076,1,0,0:0:0:0:
64,192,427129,1,0,0:0:0:0:
320,192,427181,1,0,0:0:0:0:
448,192,427181,1,0,0:0:0:0:
192,192,427234,1,0,0:0:0:0:
64,192,427287,1,0,0:0:0:0:
192,192,427339,1,0,0:0:0:0:
320,192,427392,1,0,0:0:0:0:
448,192,427392,1,0,0:0:0:0:
64,192,427445,1,0,0:0:0:0:
320,192,427497,1,0,0:0:0:0:
320,192,427603,1,0,0:0:0:0:
448,192,427708,1,0,0:0:0:0:
64,192,427708,1,0,0:0:0:0:
192,192,427743,1,0,0:0:0:0:
320,192,427778,1,0,0:0:0:0:
64,192,427813,1,0,0:0:0:0:
448,192,427848,1,0,0:0:0:0:
192,192,427883,1,0,0:0:0:0:
64,192,427918,1,0,0:0:0:0:
448,192,427953,1,0,0:0:0:0:
320,192,427988,1,0,0:0:0:0:
192,192,428024,1,0,0:0:0:0:
448,192,428059,1,0,0:0:0:0:
64,192,428094,1,0,0:0:0:0:
320,192,428129,1,0,0:0:0:0:
448,192,428164,1,0,0:0:0:0:
192,192,428199,1,0,0:0:0:0:
320,192,428234,1,0,0:0:0:0:
64,192,428269,1,0,0:0:0:0:
448,192,428304,1,0,0:0:0:0:
320,192,428339,1,0,0:0:0:0:
64,192,428374,1,0,0:0:0:0:
192,192,428410,1,0,0:0:0:0:
448,192,428445,1,0,0:0:0:0:
64,192,428480,1,0,0:0:0:0:
320,192,428515,1,0,0:0:0:0:
192,192,428550,1,0,0:0:0:0:
192,192,428708,128,0,429024:0:0:0:0:
64,192,428734,128,0,428971:0:0:0:0:
320,192,428787,128,0,429076:0:0:0:0:
448,192,428971,128,0,429181:0:0:0:0:
64,192,429155,128,0,429392:0:0:0:0:
320,192,429181,128,0,429287:0:0:0:0:
192,192,429392,128,0,429497:0:0:0:0:
320,192,429392,128,0,429524:0:0:0:0:
448,192,429392,128,0,429550:0:0:0:0:
64,192,429550,1,0,0:0:0:0:
192,192,429589,1,0,0:0:0:0:
320,192,429629,1,0,0:0:0:0:
64,192,429668,1,0,0:0:0:0:
192,192,429708,128,0,429813:0:0:0:0:
320,192,429708,128,0,429839:0:0:0:0:
448,192,429708,128,0,429866:0:0:0:0:
64,192,429866,1,0,0:0:0:0:
320,192,429918,128,0,429971:0:0:0:0:
448,192,429971,128,0,430024:0:0:0:0:
320,192,430024,128,0,430129:0:0:0:0:
192,192,430024,128,0,430155:0:0:0:0:
64,192,430024,128,0,430181:0:0:0:0:
448,192,430181,128,0,430287:0:0:0:0:
192,192,430234,128,0,430287:0:0:0:0:
320,192,430339,128,0,430445:0:0:0:0:
192,192,430339,128,0,430471:0:0:0:0:
64,192,430339,128,0,430497:0:0:0:0:
448,192,430497,1,0,0:0:0:0:
320,192,430550,128,0,430603:0:0:0:0:
192,192,430550,128,0,430655:0:0:0:0:
64,192,430655,128,0,430708:0:0:0:0:
320,192,430655,128,0,430813:0:0:0:0:
448,192,430655,128,0,430787:0:0:0:0:
64,192,430760,1,0,0:0:0:0:
64,192,430866,128,0,430971:0:0:0:0:
320,192,430866,128,0,431024:0:0:0:0:
448,192,430866,128,0,430997:0:0:0:0:
192,192,431287,128,0,431392:0:0:0:0:
320,192,431287,128,0,431445:0:0:0:0:
448,192,431287,128,0,431497:0:0:0:0:
320,192,431497,128,0,431708:0:0:0:0:
192,192,431497,128,0,433603:0:0:0:0:
64,192,431497,128,0,436971:0:0:0:0:
