osu file format v14

[General]
AudioFilename: audio90.mp3
AudioLeadIn: 0
PreviewTime: 87909
Countdown: 0
SampleSet: Normal
StackLeniency: 0.7
Mode: 3
LetterboxInBreaks: 0
SpecialStyle: 0
WidescreenStoryboard: 0

[Editor]
DistanceSpacing: 1.3
BeatDivisor: 8
GridSize: 16
TimelineZoom: 1.8

[Metadata]
Title:Towards the Horizon
TitleUnicode:Towards the Horizon
Artist:Camellia
ArtistUnicode:Camellia
Creator:PianoLuigi
Version:Forgotten Past ~ 0.9x
Source:
Tags:
BeatmapID:1938933
BeatmapSetID:928269

[Difficulty]
HPDrainRate:7
CircleSize:7
OverallDifficulty:7
ApproachRate:5
SliderMultiplier:1.4
SliderTickRate:1

[Events]
//Background and Video events
0,0,"towards.jpg",0,0
//Break Periods
//Storyboard Layer 0 (Background)
//Storyboard Layer 1 (Fail)
//Storyboard Layer 2 (Pass)
//Storyboard Layer 3 (Foreground)
//Storyboard Sound Samples

[TimingPoints]
1257,431.834866347109,4,2,0,20,1,0

[HitObjects]
475,192,1041,5,0,0:0:0:0:
402,192,1113,1,0,0:0:0:0:
329,192,1185,1,0,0:0:0:0:
109,192,1257,1,0,0:0:0:0:
36,192,1257,128,0,2984:0:0:0:0:
256,192,1257,128,0,1904:0:0:0:0:
109,192,1904,1,0,0:0:0:0:
182,192,2012,1,0,0:0:0:0:
256,192,2120,1,0,0:0:0:0:
475,192,2228,1,0,0:0:0:0:
402,192,2336,1,0,0:0:0:0:
329,192,2444,1,0,0:0:0:0:
256,192,2552,1,0,0:0:0:0:
182,192,2660,1,0,0:0:0:0:
402,192,2768,1,0,0:0:0:0:
329,192,2876,1,0,0:0:0:0:
256,192,2984,1,0,0:0:0:0:
109,192,2984,1,0,0:0:0:0:
475,192,2984,128,0,3848:0:0:0:0:
182,192,3200,128,0,3416:0:0:0:0:
256,192,3308,128,0,3524:0:0:0:0:
329,192,3416,128,0,3632:0:0:0:0:
402,192,3524,128,0,3740:0:0:0:0:
182,192,3632,128,0,3848:0:0:0:0:
109,192,3740,128,0,3955:0:0:0:0:
36,192,3848,128,0,4711:0:0:0:0:
256,192,3848,1,0,0:0:0:0:
182,192,4063,1,0,0:0:0:0:
402,192,4063,1,0,0:0:0:0:
402,192,4279,1,0,0:0:0:0:
182,192,4279,1,0,0:0:0:0:
329,192,4495,128,0,4711:0:0:0:0:
109,192,4711,1,0,0:0:0:0:
256,192,4711,1,0,0:0:0:0:
475,192,4711,128,0,5575:0:0:0:0:
182,192,4927,128,0,5143:0:0:0:0:
109,192,5035,128,0,5251:0:0:0:0:
36,192,5143,128,0,5359:0:0:0:0:
402,192,5251,128,0,5467:0:0:0:0:
329,192,5359,128,0,5575:0:0:0:0:
256,192,5467,128,0,5683:0:0:0:0:
36,192,5575,1,0,0:0:0:0:
109,192,5575,128,0,6007:0:0:0:0:
402,192,5791,128,0,6331:0:0:0:0:
256,192,6007,1,0,0:0:0:0:
36,192,6223,128,0,6439:0:0:0:0:
109,192,6331,128,0,6546:0:0:0:0:
182,192,6439,128,0,7302:0:0:0:0:
402,192,6439,1,0,0:0:0:0:
475,192,6762,1,0,0:0:0:0:
329,192,6762,1,0,0:0:0:0:
329,192,6870,128,0,7734:0:0:0:0:
475,192,6870,128,0,8166:0:0:0:0:
36,192,7302,1,0,0:0:0:0:
182,192,7626,1,0,0:0:0:0:
182,192,7734,128,0,8598:0:0:0:0:
36,192,8166,1,0,0:0:0:0:
256,192,8166,1,0,0:0:0:0:
475,192,8382,1,0,0:0:0:0:
109,192,8598,1,0,0:0:0:0:
329,192,8598,1,0,0:0:0:0:
402,192,8814,1,0,0:0:0:0:
182,192,8958,1,0,0:0:0:0:
256,192,8994,1,0,0:0:0:0:
329,192,9030,1,0,0:0:0:0:
36,192,9030,1,0,0:0:0:0:
109,192,9245,1,0,0:0:0:0:
182,192,9461,1,0,0:0:0:0:
475,192,9461,1,0,0:0:0:0:
402,192,9533,1,0,0:0:0:0:
329,192,9605,1,0,0:0:0:0:
256,192,9677,1,0,0:0:0:0:
36,192,9677,128,0,9893:0:0:0:0:
109,192,9893,1,0,0:0:0:0:
475,192,9893,128,0,10757:0:0:0:0:
402,192,9893,1,0,0:0:0:0:
182,192,10109,128,0,10325:0:0:0:0:
256,192,10217,128,0,10433:0:0:0:0:
329,192,10325,128,0,10541:0:0:0:0:
402,192,10433,128,0,10649:0:0:0:0:
182,192,10541,128,0,10757:0:0:0:0:
109,192,10649,128,0,10865:0:0:0:0:
36,192,10757,128,0,11621:0:0:0:0:
256,192,10757,1,0,0:0:0:0:
182,192,10973,1,0,0:0:0:0:
402,192,10973,1,0,0:0:0:0:
182,192,11189,1,0,0:0:0:0:
402,192,11189,1,0,0:0:0:0:
329,192,11405,128,0,11621:0:0:0:0:
475,192,11621,128,0,12484:0:0:0:0:
109,192,11621,128,0,11836:0:0:0:0:
182,192,11728,128,0,11944:0:0:0:0:
256,192,11836,128,0,12052:0:0:0:0:
329,192,11944,128,0,12160:0:0:0:0:
402,192,12052,128,0,12268:0:0:0:0:
36,192,12160,128,0,12376:0:0:0:0:
109,192,12268,128,0,12484:0:0:0:0:
182,192,12376,128,0,12592:0:0:0:0:
402,192,12484,128,0,12700:0:0:0:0:
329,192,12592,128,0,12808:0:0:0:0:
256,192,12700,128,0,13240:0:0:0:0:
475,192,12916,1,0,0:0:0:0:
182,192,13132,128,0,13348:0:0:0:0:
109,192,13240,128,0,13456:0:0:0:0:
36,192,13348,128,0,14212:0:0:0:0:
402,192,13348,1,0,0:0:0:0:
329,192,13672,1,0,0:0:0:0:
475,192,13672,1,0,0:0:0:0:
329,192,13780,128,0,14643:0:0:0:0:
475,192,13780,128,0,15075:0:0:0:0:
256,192,14212,1,0,0:0:0:0:
182,192,14535,1,0,0:0:0:0:
182,192,14643,128,0,15507:0:0:0:0:
329,192,15075,1,0,0:0:0:0:
36,192,15075,1,0,0:0:0:0:
256,192,15291,1,0,0:0:0:0:
402,192,15507,1,0,0:0:0:0:
109,192,15507,1,0,0:0:0:0:
329,192,15723,1,0,0:0:0:0:
256,192,15831,1,0,0:0:0:0:
182,192,15939,128,0,16155:0:0:0:0:
475,192,15939,128,0,16803:0:0:0:0:
36,192,16155,128,0,16587:0:0:0:0:
182,192,16371,128,0,16803:0:0:0:0:
329,192,16587,128,0,16803:0:0:0:0:
36,192,16803,1,0,0:0:0:0:
109,192,16803,1,0,0:0:0:0:
402,192,16803,1,0,0:0:0:0:
329,192,17234,1,0,0:0:0:0:
475,192,17234,1,0,0:0:0:0:
36,192,17558,1,0,0:0:0:0:
109,192,17558,1,0,0:0:0:0:
109,192,17882,1,0,0:0:0:0:
36,192,17882,1,0,0:0:0:0:
329,192,18098,1,0,0:0:0:0:
475,192,18098,1,0,0:0:0:0:
182,192,18530,1,0,0:0:0:0:
36,192,18530,1,0,0:0:0:0:
329,192,18962,1,0,0:0:0:0:
402,192,18962,1,0,0:0:0:0:
36,192,19286,1,0,0:0:0:0:
182,192,19286,1,0,0:0:0:0:
36,192,19609,1,0,0:0:0:0:
182,192,19609,1,0,0:0:0:0:
402,192,19825,1,0,0:0:0:0:
475,192,19825,1,0,0:0:0:0:
36,192,20257,1,0,0:0:0:0:
109,192,20257,1,0,0:0:0:0:
256,192,20473,1,0,0:0:0:0:
182,192,20581,1,0,0:0:0:0:
329,192,20689,1,0,0:0:0:0:
475,192,20689,1,0,0:0:0:0:
109,192,20689,1,0,0:0:0:0:
402,192,20905,1,0,0:0:0:0:
36,192,21013,1,0,0:0:0:0:
182,192,21013,1,0,0:0:0:0:
329,192,21121,1,0,0:0:0:0:
256,192,21229,1,0,0:0:0:0:
36,192,21337,1,0,0:0:0:0:
182,192,21337,1,0,0:0:0:0:
475,192,21553,1,0,0:0:0:0:
256,192,21553,1,0,0:0:0:0:
402,192,21553,1,0,0:0:0:0:
329,192,21769,1,0,0:0:0:0:
402,192,21877,1,0,0:0:0:0:
36,192,21985,1,0,0:0:0:0:
109,192,21985,1,0,0:0:0:0:
475,192,21985,1,0,0:0:0:0:
256,192,22200,1,0,0:0:0:0:
182,192,22272,1,0,0:0:0:0:
109,192,22344,1,0,0:0:0:0:
329,192,22416,1,0,0:0:0:0:
475,192,22416,1,0,0:0:0:0:
36,192,22416,1,0,0:0:0:0:
256,192,22632,1,0,0:0:0:0:
36,192,22740,1,0,0:0:0:0:
109,192,22740,1,0,0:0:0:0:
329,192,22848,1,0,0:0:0:0:
109,192,22956,1,0,0:0:0:0:
36,192,22956,1,0,0:0:0:0:
402,192,23064,1,0,0:0:0:0:
36,192,23172,1,0,0:0:0:0:
109,192,23172,1,0,0:0:0:0:
475,192,23280,1,0,0:0:0:0:
329,192,23280,1,0,0:0:0:0:
256,192,23280,1,0,0:0:0:0:
109,192,23388,1,0,0:0:0:0:
36,192,23388,1,0,0:0:0:0:
402,192,23496,1,0,0:0:0:0:
329,192,23604,1,0,0:0:0:0:
256,192,23712,1,0,0:0:0:0:
182,192,23712,1,0,0:0:0:0:
36,192,23712,1,0,0:0:0:0:
475,192,23820,1,0,0:0:0:0:
402,192,23928,1,0,0:0:0:0:
329,192,24036,1,0,0:0:0:0:
475,192,24144,1,0,0:0:0:0:
256,192,24144,1,0,0:0:0:0:
109,192,24144,1,0,0:0:0:0:
329,192,24360,1,0,0:0:0:0:
36,192,24468,1,0,0:0:0:0:
182,192,24468,1,0,0:0:0:0:
329,192,24576,1,0,0:0:0:0:
402,192,24684,1,0,0:0:0:0:
182,192,24792,1,0,0:0:0:0:
36,192,24792,1,0,0:0:0:0:
256,192,24899,1,0,0:0:0:0:
475,192,25007,1,0,0:0:0:0:
329,192,25007,1,0,0:0:0:0:
109,192,25007,1,0,0:0:0:0:
182,192,25115,1,0,0:0:0:0:
402,192,25223,1,0,0:0:0:0:
329,192,25331,1,0,0:0:0:0:
36,192,25439,1,0,0:0:0:0:
256,192,25439,1,0,0:0:0:0:
109,192,25439,1,0,0:0:0:0:
182,192,25547,1,0,0:0:0:0:
402,192,25655,1,0,0:0:0:0:
329,192,25763,1,0,0:0:0:0:
475,192,25871,1,0,0:0:0:0:
36,192,25871,1,0,0:0:0:0:
256,192,25871,1,0,0:0:0:0:
109,192,25979,1,0,0:0:0:0:
182,192,26087,1,0,0:0:0:0:
256,192,26195,1,0,0:0:0:0:
402,192,26195,1,0,0:0:0:0:
36,192,26303,1,0,0:0:0:0:
109,192,26411,1,0,0:0:0:0:
182,192,26519,1,0,0:0:0:0:
475,192,26519,1,0,0:0:0:0:
402,192,26627,1,0,0:0:0:0:
109,192,26735,1,0,0:0:0:0:
329,192,26735,1,0,0:0:0:0:
36,192,26735,1,0,0:0:0:0:
256,192,26843,1,0,0:0:0:0:
182,192,26951,1,0,0:0:0:0:
109,192,27059,1,0,0:0:0:0:
256,192,27167,1,0,0:0:0:0:
402,192,27167,1,0,0:0:0:0:
475,192,27167,128,0,28894:0:0:0:0:
36,192,27167,1,0,0:0:0:0:
36,192,27383,128,0,27490:0:0:0:0:
109,192,27383,1,0,0:0:0:0:
402,192,27490,128,0,27598:0:0:0:0:
329,192,27490,1,0,0:0:0:0:
36,192,27598,128,0,27706:0:0:0:0:
109,192,27598,1,0,0:0:0:0:
329,192,27706,128,0,27814:0:0:0:0:
402,192,27706,1,0,0:0:0:0:
109,192,27814,128,0,27922:0:0:0:0:
182,192,27814,1,0,0:0:0:0:
402,192,27922,128,0,28030:0:0:0:0:
329,192,27922,1,0,0:0:0:0:
109,192,28030,128,0,28138:0:0:0:0:
182,192,28030,1,0,0:0:0:0:
329,192,28138,128,0,28246:0:0:0:0:
402,192,28138,1,0,0:0:0:0:
36,192,28246,128,0,28354:0:0:0:0:
109,192,28246,1,0,0:0:0:0:
402,192,28354,128,0,28462:0:0:0:0:
329,192,28354,1,0,0:0:0:0:
36,192,28462,128,0,28570:0:0:0:0:
109,192,28462,1,0,0:0:0:0:
329,192,28570,128,0,28678:0:0:0:0:
402,192,28570,1,0,0:0:0:0:
36,192,28678,1,0,0:0:0:0:
109,192,28732,1,0,0:0:0:0:
182,192,28786,1,0,0:0:0:0:
256,192,28840,1,0,0:0:0:0:
329,192,28894,1,0,0:0:0:0:
402,192,28894,1,0,0:0:0:0:
36,192,28894,1,0,0:0:0:0:
182,192,30621,128,0,30837:0:0:0:0:
36,192,30621,128,0,31053:0:0:0:0:
329,192,30621,128,0,30837:0:0:0:0:
475,192,30621,128,0,31053:0:0:0:0:
109,192,31053,1,0,0:0:0:0:
182,192,31053,1,0,0:0:0:0:
329,192,31053,1,0,0:0:0:0:
402,192,31053,1,0,0:0:0:0:
36,192,31269,128,0,31485:0:0:0:0:
182,192,31377,128,0,31593:0:0:0:0:
329,192,31485,128,0,31701:0:0:0:0:
475,192,31485,128,0,31701:0:0:0:0:
36,192,31593,1,0,0:0:0:0:
182,192,31701,1,0,0:0:0:0:
329,192,31809,1,0,0:0:0:0:
475,192,31809,1,0,0:0:0:0:
36,192,31917,1,0,0:0:0:0:
402,192,31917,1,0,0:0:0:0:
182,192,31917,128,0,32133:0:0:0:0:
256,192,32025,128,0,32241:0:0:0:0:
329,192,32133,128,0,32349:0:0:0:0:
402,192,32241,128,0,32457:0:0:0:0:
475,192,32349,128,0,32780:0:0:0:0:
182,192,32349,128,0,32565:0:0:0:0:
109,192,32349,128,0,32672:0:0:0:0:
36,192,32349,128,0,32780:0:0:0:0:
402,192,32780,1,0,0:0:0:0:
182,192,32780,1,0,0:0:0:0:
329,192,32780,1,0,0:0:0:0:
475,192,32996,128,0,33212:0:0:0:0:
329,192,33104,128,0,33320:0:0:0:0:
182,192,33212,128,0,33536:0:0:0:0:
36,192,33212,128,0,33428:0:0:0:0:
475,192,33320,128,0,33752:0:0:0:0:
329,192,33428,128,0,33644:0:0:0:0:
36,192,33644,128,0,33752:0:0:0:0:
109,192,33698,128,0,33806:0:0:0:0:
182,192,33752,128,0,33860:0:0:0:0:
256,192,33806,128,0,33914:0:0:0:0:
475,192,33860,1,0,0:0:0:0:
402,192,33914,1,0,0:0:0:0:
329,192,33968,1,0,0:0:0:0:
256,192,34022,1,0,0:0:0:0:
36,192,34076,128,0,34508:0:0:0:0:
182,192,34076,128,0,34292:0:0:0:0:
402,192,34076,128,0,34400:0:0:0:0:
475,192,34076,128,0,34508:0:0:0:0:
109,192,34508,1,0,0:0:0:0:
256,192,34508,1,0,0:0:0:0:
329,192,34508,1,0,0:0:0:0:
36,192,34724,128,0,34832:0:0:0:0:
182,192,34724,128,0,34940:0:0:0:0:
402,192,34832,1,0,0:0:0:0:
475,192,34832,1,0,0:0:0:0:
36,192,34940,128,0,35156:0:0:0:0:
182,192,35048,128,0,35263:0:0:0:0:
402,192,35156,1,0,0:0:0:0:
475,192,35156,1,0,0:0:0:0:
36,192,35263,128,0,35479:0:0:0:0:
182,192,35371,128,0,35479:0:0:0:0:
329,192,35371,1,0,0:0:0:0:
475,192,35371,1,0,0:0:0:0:
36,192,35587,128,0,36235:0:0:0:0:
402,192,35587,1,0,0:0:0:0:
109,192,35659,128,0,35803:0:0:0:0:
182,192,35731,128,0,35803:0:0:0:0:
329,192,35803,128,0,36127:0:0:0:0:
475,192,35803,128,0,36235:0:0:0:0:
256,192,35803,128,0,36019:0:0:0:0:
182,192,36019,1,0,0:0:0:0:
256,192,36127,1,0,0:0:0:0:
329,192,36235,1,0,0:0:0:0:
109,192,36235,1,0,0:0:0:0:
402,192,36235,1,0,0:0:0:0:
256,192,36451,1,0,0:0:0:0:
182,192,36559,1,0,0:0:0:0:
36,192,36559,1,0,0:0:0:0:
475,192,36559,1,0,0:0:0:0:
402,192,36667,1,0,0:0:0:0:
329,192,36775,1,0,0:0:0:0:
182,192,36775,1,0,0:0:0:0:
36,192,36775,1,0,0:0:0:0:
256,192,36883,1,0,0:0:0:0:
36,192,36991,1,0,0:0:0:0:
182,192,36991,1,0,0:0:0:0:
475,192,36991,1,0,0:0:0:0:
402,192,37099,1,0,0:0:0:0:
329,192,37099,1,0,0:0:0:0:
182,192,37207,1,0,0:0:0:0:
36,192,37207,1,0,0:0:0:0:
256,192,37315,1,0,0:0:0:0:
329,192,37423,1,0,0:0:0:0:
109,192,37531,128,0,37747:0:0:0:0:
36,192,37531,128,0,37962:0:0:0:0:
402,192,37531,128,0,37747:0:0:0:0:
475,192,37531,128,0,37962:0:0:0:0:
109,192,37962,1,0,0:0:0:0:
182,192,37962,1,0,0:0:0:0:
402,192,37962,1,0,0:0:0:0:
329,192,37962,1,0,0:0:0:0:
475,192,38178,128,0,38394:0:0:0:0:
329,192,38286,128,0,38502:0:0:0:0:
182,192,38394,128,0,38610:0:0:0:0:
36,192,38394,128,0,38610:0:0:0:0:
475,192,38502,1,0,0:0:0:0:
329,192,38610,1,0,0:0:0:0:
182,192,38718,1,0,0:0:0:0:
36,192,38718,1,0,0:0:0:0:
475,192,38826,1,0,0:0:0:0:
109,192,38826,1,0,0:0:0:0:
329,192,38826,128,0,39042:0:0:0:0:
256,192,38934,128,0,39150:0:0:0:0:
182,192,39042,128,0,39258:0:0:0:0:
109,192,39150,128,0,39366:0:0:0:0:
36,192,39258,128,0,39690:0:0:0:0:
329,192,39258,128,0,39474:0:0:0:0:
402,192,39258,128,0,39582:0:0:0:0:
475,192,39258,128,0,39690:0:0:0:0:
109,192,39690,1,0,0:0:0:0:
329,192,39690,1,0,0:0:0:0:
182,192,39690,1,0,0:0:0:0:
36,192,39906,128,0,40122:0:0:0:0:
182,192,40014,128,0,40230:0:0:0:0:
329,192,40122,128,0,40446:0:0:0:0:
475,192,40122,128,0,40338:0:0:0:0:
36,192,40230,128,0,40661:0:0:0:0:
182,192,40338,128,0,40553:0:0:0:0:
475,192,40553,128,0,40661:0:0:0:0:
402,192,40607,128,0,40715:0:0:0:0:
329,192,40661,128,0,40769:0:0:0:0:
256,192,40715,128,0,40823:0:0:0:0:
36,192,40769,1,0,0:0:0:0:
109,192,40823,1,0,0:0:0:0:
182,192,40877,1,0,0:0:0:0:
256,192,40931,1,0,0:0:0:0:
475,192,40985,128,0,41417:0:0:0:0:
329,192,40985,128,0,41201:0:0:0:0:
402,192,40985,128,0,41309:0:0:0:0:
36,192,40985,128,0,41417:0:0:0:0:
109,192,41417,1,0,0:0:0:0:
182,192,41417,1,0,0:0:0:0:
329,192,41417,1,0,0:0:0:0:
36,192,41633,128,0,42065:0:0:0:0:
256,192,41633,1,0,0:0:0:0:
329,192,41705,1,0,0:0:0:0:
402,192,41777,1,0,0:0:0:0:
475,192,41849,1,0,0:0:0:0:
182,192,41849,1,0,0:0:0:0:
109,192,41849,1,0,0:0:0:0:
256,192,42065,128,0,42281:0:0:0:0:
402,192,42065,128,0,42497:0:0:0:0:
36,192,42281,128,0,42713:0:0:0:0:
256,192,42497,128,0,42713:0:0:0:0:
402,192,42605,1,0,0:0:0:0:
475,192,42605,1,0,0:0:0:0:
402,192,42713,1,0,0:0:0:0:
475,192,42713,1,0,0:0:0:0:
109,192,42713,1,0,0:0:0:0:
256,192,42929,1,0,0:0:0:0:
109,192,43037,1,0,0:0:0:0:
402,192,43037,1,0,0:0:0:0:
475,192,43037,1,0,0:0:0:0:
256,192,43252,1,0,0:0:0:0:
109,192,43360,1,0,0:0:0:0:
182,192,43432,1,0,0:0:0:0:
256,192,43504,1,0,0:0:0:0:
329,192,43576,1,0,0:0:0:0:
36,192,43576,1,0,0:0:0:0:
475,192,43576,128,0,43792:0:0:0:0:
402,192,43684,128,0,43900:0:0:0:0:
182,192,43792,128,0,44116:0:0:0:0:
256,192,43900,128,0,44224:0:0:0:0:
329,192,44008,128,0,44332:0:0:0:0:
36,192,44116,128,0,45628:0:0:0:0:
402,192,44116,1,0,0:0:0:0:
475,192,44116,1,0,0:0:0:0:
109,192,44224,128,0,44440:0:0:0:0:
182,192,44332,128,0,44440:0:0:0:0:
402,192,44440,1,0,0:0:0:0:
475,192,44440,128,0,45304:0:0:0:0:
256,192,44440,1,0,0:0:0:0:
109,192,44656,128,0,44872:0:0:0:0:
182,192,44764,128,0,44980:0:0:0:0:
256,192,44872,128,0,45088:0:0:0:0:
329,192,44980,128,0,45196:0:0:0:0:
402,192,45088,128,0,45304:0:0:0:0:
182,192,45196,128,0,45412:0:0:0:0:
109,192,45304,128,0,45520:0:0:0:0:
329,192,45520,128,0,45628:0:0:0:0:
475,192,45520,128,0,45628:0:0:0:0:
329,192,45735,128,0,45843:0:0:0:0:
475,192,45735,128,0,45843:0:0:0:0:
256,192,45735,1,0,0:0:0:0:
36,192,45843,128,0,46059:0:0:0:0:
109,192,45951,128,0,46167:0:0:0:0:
182,192,46059,128,0,46275:0:0:0:0:
256,192,46167,1,0,0:0:0:0:
402,192,46167,1,0,0:0:0:0:
475,192,46167,128,0,47031:0:0:0:0:
329,192,46383,128,0,46599:0:0:0:0:
256,192,46491,128,0,46707:0:0:0:0:
182,192,46599,128,0,46815:0:0:0:0:
36,192,46599,128,0,47247:0:0:0:0:
109,192,46707,128,0,46923:0:0:0:0:
329,192,46815,128,0,47031:0:0:0:0:
256,192,46923,128,0,47139:0:0:0:0:
182,192,47031,128,0,47463:0:0:0:0:
402,192,47031,1,0,0:0:0:0:
329,192,47247,128,0,47679:0:0:0:0:
475,192,47247,128,0,47679:0:0:0:0:
36,192,47463,1,0,0:0:0:0:
182,192,47679,128,0,47895:0:0:0:0:
256,192,47787,128,0,48003:0:0:0:0:
329,192,47895,128,0,48758:0:0:0:0:
475,192,47895,128,0,48758:0:0:0:0:
402,192,47895,1,0,0:0:0:0:
109,192,48219,1,0,0:0:0:0:
36,192,48219,1,0,0:0:0:0:
36,192,48327,128,0,49622:0:0:0:0:
109,192,48327,128,0,49622:0:0:0:0:
182,192,48758,1,0,0:0:0:0:
475,192,49082,1,0,0:0:0:0:
329,192,49082,1,0,0:0:0:0:
329,192,49190,128,0,50054:0:0:0:0:
475,192,49190,128,0,50054:0:0:0:0:
182,192,49622,1,0,0:0:0:0:
36,192,50054,1,0,0:0:0:0:
256,192,50054,1,0,0:0:0:0:
109,192,50054,1,0,0:0:0:0:
329,192,50378,1,0,0:0:0:0:
475,192,50378,1,0,0:0:0:0:
109,192,50486,1,0,0:0:0:0:
329,192,50594,1,0,0:0:0:0:
475,192,50594,1,0,0:0:0:0:
182,192,50702,1,0,0:0:0:0:
475,192,50810,1,0,0:0:0:0:
329,192,50810,1,0,0:0:0:0:
36,192,50918,1,0,0:0:0:0:
109,192,50918,1,0,0:0:0:0:
256,192,50918,1,0,0:0:0:0:
329,192,51025,1,0,0:0:0:0:
475,192,51025,1,0,0:0:0:0:
182,192,51133,1,0,0:0:0:0:
109,192,51241,1,0,0:0:0:0:
402,192,51349,1,0,0:0:0:0:
36,192,51349,128,0,52537:0:0:0:0:
475,192,51349,128,0,51781:0:0:0:0:
109,192,51565,128,0,51781:0:0:0:0:
182,192,51673,128,0,51889:0:0:0:0:
256,192,51781,128,0,51997:0:0:0:0:
329,192,51889,128,0,52105:0:0:0:0:
402,192,51997,128,0,52213:0:0:0:0:
182,192,52105,128,0,52321:0:0:0:0:
109,192,52213,128,0,52429:0:0:0:0:
329,192,52429,128,0,52537:0:0:0:0:
475,192,52429,128,0,52537:0:0:0:0:
256,192,52645,1,0,0:0:0:0:
329,192,52645,128,0,52753:0:0:0:0:
475,192,52645,128,0,52753:0:0:0:0:
36,192,52753,128,0,52969:0:0:0:0:
109,192,52861,128,0,53077:0:0:0:0:
182,192,52969,128,0,53185:0:0:0:0:
475,192,53077,128,0,53940:0:0:0:0:
402,192,53077,128,0,53293:0:0:0:0:
329,192,53185,128,0,53401:0:0:0:0:
256,192,53293,128,0,53509:0:0:0:0:
182,192,53401,128,0,53616:0:0:0:0:
109,192,53509,128,0,53724:0:0:0:0:
36,192,53509,128,0,53832:0:0:0:0:
402,192,53616,128,0,53832:0:0:0:0:
329,192,53724,128,0,53940:0:0:0:0:
256,192,53832,128,0,54048:0:0:0:0:
36,192,53940,128,0,54156:0:0:0:0:
109,192,54048,128,0,54264:0:0:0:0:
182,192,54156,128,0,54372:0:0:0:0:
36,192,54372,1,0,0:0:0:0:
329,192,54372,128,0,54588:0:0:0:0:
475,192,54372,128,0,54588:0:0:0:0:
182,192,54588,128,0,54804:0:0:0:0:
109,192,54696,128,0,54804:0:0:0:0:
329,192,54804,128,0,55668:0:0:0:0:
475,192,54804,128,0,55668:0:0:0:0:
36,192,54804,1,0,0:0:0:0:
109,192,55128,1,0,0:0:0:0:
36,192,55128,1,0,0:0:0:0:
36,192,55236,128,0,56531:0:0:0:0:
109,192,55236,128,0,56531:0:0:0:0:
182,192,55668,1,0,0:0:0:0:
475,192,55992,1,0,0:0:0:0:
329,192,55992,1,0,0:0:0:0:
329,192,56100,128,0,56315:0:0:0:0:
475,192,56100,128,0,56207:0:0:0:0:
475,192,56315,1,0,0:0:0:0:
402,192,56387,1,0,0:0:0:0:
329,192,56459,1,0,0:0:0:0:
182,192,56531,1,0,0:0:0:0:
256,192,56531,1,0,0:0:0:0:
475,192,56531,1,0,0:0:0:0:
36,192,56747,1,0,0:0:0:0:
109,192,56747,1,0,0:0:0:0:
329,192,56747,1,0,0:0:0:0:
402,192,56747,1,0,0:0:0:0:
329,192,56855,1,0,0:0:0:0:
402,192,56855,1,0,0:0:0:0:
36,192,56855,1,0,0:0:0:0:
109,192,56855,1,0,0:0:0:0:
182,192,57179,1,0,0:0:0:0:
256,192,57179,1,0,0:0:0:0:
475,192,57179,1,0,0:0:0:0:
402,192,57395,1,0,0:0:0:0:
329,192,57395,1,0,0:0:0:0:
109,192,57395,1,0,0:0:0:0:
36,192,57395,1,0,0:0:0:0:
36,192,57503,1,0,0:0:0:0:
109,192,57503,1,0,0:0:0:0:
329,192,57503,1,0,0:0:0:0:
402,192,57503,1,0,0:0:0:0:
182,192,57827,1,0,0:0:0:0:
36,192,57827,1,0,0:0:0:0:
329,192,57827,1,0,0:0:0:0:
475,192,57827,1,0,0:0:0:0:
182,192,58043,1,0,0:0:0:0:
109,192,58043,1,0,0:0:0:0:
329,192,58043,1,0,0:0:0:0:
402,192,58043,1,0,0:0:0:0:
109,192,58259,1,0,0:0:0:0:
402,192,58259,1,0,0:0:0:0:
475,192,58259,1,0,0:0:0:0:
36,192,58259,128,0,59122:0:0:0:0:
182,192,58906,128,0,59122:0:0:0:0:
256,192,59014,128,0,59230:0:0:0:0:
329,192,59122,128,0,59338:0:0:0:0:
475,192,59122,128,0,59986:0:0:0:0:
402,192,59230,128,0,59446:0:0:0:0:
182,192,59338,128,0,59554:0:0:0:0:
109,192,59446,128,0,59662:0:0:0:0:
36,192,59554,128,0,59770:0:0:0:0:
329,192,59770,128,0,59986:0:0:0:0:
36,192,59986,128,0,60634:0:0:0:0:
182,192,60094,1,0,0:0:0:0:
256,192,60148,1,0,0:0:0:0:
329,192,60202,1,0,0:0:0:0:
402,192,60202,1,0,0:0:0:0:
329,192,60310,1,0,0:0:0:0:
402,192,60310,1,0,0:0:0:0:
402,192,60526,1,0,0:0:0:0:
329,192,60526,1,0,0:0:0:0:
182,192,60634,128,0,60742:0:0:0:0:
329,192,60742,1,0,0:0:0:0:
36,192,60742,128,0,61282:0:0:0:0:
475,192,60742,1,0,0:0:0:0:
182,192,60850,128,0,61066:0:0:0:0:
329,192,60850,1,0,0:0:0:0:
475,192,60850,128,0,61713:0:0:0:0:
402,192,61066,128,0,61497:0:0:0:0:
109,192,61066,1,0,0:0:0:0:
182,192,61282,128,0,61713:0:0:0:0:
36,192,61497,128,0,61713:0:0:0:0:
329,192,61713,1,0,0:0:0:0:
109,192,61713,128,0,62469:0:0:0:0:
402,192,61713,128,0,63441:0:0:0:0:
182,192,62361,1,0,0:0:0:0:
329,192,62361,1,0,0:0:0:0:
329,192,62469,1,0,0:0:0:0:
182,192,62469,1,0,0:0:0:0:
36,192,62577,1,0,0:0:0:0:
109,192,62577,1,0,0:0:0:0:
256,192,62577,1,0,0:0:0:0:
109,192,63441,128,0,63549:0:0:0:0:
36,192,63441,128,0,63657:0:0:0:0:
475,192,63441,1,0,0:0:0:0:
329,192,63441,1,0,0:0:0:0:
329,192,63765,1,0,0:0:0:0:
475,192,63765,1,0,0:0:0:0:
329,192,64088,1,0,0:0:0:0:
475,192,64088,1,0,0:0:0:0:
109,192,64304,128,0,64520:0:0:0:0:
182,192,64304,128,0,64412:0:0:0:0:
36,192,64304,1,0,0:0:0:0:
402,192,64412,1,0,0:0:0:0:
475,192,64412,1,0,0:0:0:0:
475,192,64520,1,0,0:0:0:0:
402,192,64520,1,0,0:0:0:0:
256,192,64736,1,0,0:0:0:0:
36,192,64736,1,0,0:0:0:0:
109,192,64844,1,0,0:0:0:0:
182,192,64952,1,0,0:0:0:0:
256,192,65060,1,0,0:0:0:0:
329,192,65168,1,0,0:0:0:0:
475,192,65168,1,0,0:0:0:0:
109,192,65600,1,0,0:0:0:0:
36,192,65600,128,0,66032:0:0:0:0:
182,192,65816,128,0,66032:0:0:0:0:
256,192,65924,128,0,66140:0:0:0:0:
475,192,66032,128,0,66895:0:0:0:0:
329,192,66032,128,0,66248:0:0:0:0:
402,192,66140,128,0,66356:0:0:0:0:
36,192,66248,128,0,66464:0:0:0:0:
109,192,66356,128,0,66572:0:0:0:0:
182,192,66464,128,0,66895:0:0:0:0:
329,192,66679,128,0,66895:0:0:0:0:
36,192,66895,128,0,67543:0:0:0:0:
182,192,67003,1,0,0:0:0:0:
256,192,67057,1,0,0:0:0:0:
329,192,67111,1,0,0:0:0:0:
402,192,67111,1,0,0:0:0:0:
329,192,67219,1,0,0:0:0:0:
402,192,67219,1,0,0:0:0:0:
402,192,67435,1,0,0:0:0:0:
329,192,67435,1,0,0:0:0:0:
182,192,67543,128,0,67651:0:0:0:0:
329,192,67651,1,0,0:0:0:0:
36,192,67651,128,0,68191:0:0:0:0:
475,192,67651,1,0,0:0:0:0:
182,192,67759,128,0,67975:0:0:0:0:
329,192,67759,1,0,0:0:0:0:
475,192,67759,128,0,68623:0:0:0:0:
402,192,67975,128,0,68407:0:0:0:0:
109,192,67975,1,0,0:0:0:0:
182,192,68191,128,0,68623:0:0:0:0:
36,192,68407,128,0,68623:0:0:0:0:
329,192,68623,1,0,0:0:0:0:
402,192,68623,128,0,69378:0:0:0:0:
109,192,68623,128,0,70350:0:0:0:0:
329,192,69270,1,0,0:0:0:0:
182,192,69270,1,0,0:0:0:0:
182,192,69378,1,0,0:0:0:0:
329,192,69378,1,0,0:0:0:0:
475,192,69486,1,0,0:0:0:0:
402,192,69486,1,0,0:0:0:0:
256,192,69486,1,0,0:0:0:0:
475,192,70134,128,0,70350:0:0:0:0:
402,192,70242,128,0,70458:0:0:0:0:
36,192,70350,1,0,0:0:0:0:
182,192,70350,1,0,0:0:0:0:
329,192,70350,128,0,71106:0:0:0:0:
36,192,70674,1,0,0:0:0:0:
182,192,70674,1,0,0:0:0:0:
256,192,70890,1,0,0:0:0:0:
182,192,70944,1,0,0:0:0:0:
109,192,70998,1,0,0:0:0:0:
36,192,70998,1,0,0:0:0:0:
36,192,71106,1,0,0:0:0:0:
109,192,71106,1,0,0:0:0:0:
182,192,71214,1,0,0:0:0:0:
329,192,71214,1,0,0:0:0:0:
475,192,71214,1,0,0:0:0:0:
36,192,71430,128,0,71646:0:0:0:0:
256,192,71430,1,0,0:0:0:0:
109,192,71538,128,0,71754:0:0:0:0:
329,192,71538,1,0,0:0:0:0:
475,192,71538,1,0,0:0:0:0:
182,192,71646,128,0,71862:0:0:0:0:
256,192,71754,128,0,71969:0:0:0:0:
329,192,71862,128,0,72077:0:0:0:0:
402,192,71969,128,0,72185:0:0:0:0:
109,192,72077,1,0,0:0:0:0:
36,192,72077,1,0,0:0:0:0:
475,192,72077,128,0,72941:0:0:0:0:
329,192,72725,128,0,72941:0:0:0:0:
256,192,72797,128,0,72941:0:0:0:0:
182,192,72869,128,0,72941:0:0:0:0:
36,192,72941,128,0,73805:0:0:0:0:
109,192,72941,1,0,0:0:0:0:
475,192,73373,1,0,0:0:0:0:
109,192,73805,1,0,0:0:0:0:
475,192,74021,128,0,74453:0:0:0:0:
329,192,74237,128,0,74453:0:0:0:0:
256,192,74309,128,0,74453:0:0:0:0:
182,192,74381,128,0,74453:0:0:0:0:
36,192,74453,128,0,75532:0:0:0:0:
182,192,74668,128,0,74776:0:0:0:0:
256,192,74884,128,0,74992:0:0:0:0:
329,192,75100,128,0,75208:0:0:0:0:
402,192,75316,128,0,75424:0:0:0:0:
182,192,75532,1,0,0:0:0:0:
109,192,75532,1,0,0:0:0:0:
475,192,75532,128,0,75964:0:0:0:0:
109,192,76180,128,0,76396:0:0:0:0:
256,192,76288,128,0,76504:0:0:0:0:
402,192,76396,128,0,77259:0:0:0:0:
36,192,76828,1,0,0:0:0:0:
329,192,77044,1,0,0:0:0:0:
182,192,77044,1,0,0:0:0:0:
36,192,77259,128,0,78555:0:0:0:0:
402,192,77691,1,0,0:0:0:0:
329,192,77907,1,0,0:0:0:0:
182,192,77907,1,0,0:0:0:0:
402,192,78123,1,0,0:0:0:0:
182,192,78555,128,0,78771:0:0:0:0:
256,192,78663,128,0,78879:0:0:0:0:
329,192,78771,128,0,78987:0:0:0:0:
402,192,78879,128,0,79095:0:0:0:0:
109,192,78987,1,0,0:0:0:0:
36,192,78987,1,0,0:0:0:0:
475,192,78987,128,0,79850:0:0:0:0:
329,192,79635,128,0,79850:0:0:0:0:
256,192,79707,128,0,79850:0:0:0:0:
182,192,79778,128,0,79850:0:0:0:0:
36,192,79850,128,0,80714:0:0:0:0:
109,192,79850,1,0,0:0:0:0:
475,192,80282,1,0,0:0:0:0:
109,192,80714,1,0,0:0:0:0:
475,192,80930,128,0,81362:0:0:0:0:
329,192,81146,128,0,81362:0:0:0:0:
256,192,81218,128,0,81362:0:0:0:0:
182,192,81290,128,0,81362:0:0:0:0:
36,192,81362,128,0,82441:0:0:0:0:
182,192,81578,128,0,81686:0:0:0:0:
256,192,81794,128,0,81902:0:0:0:0:
329,192,82010,128,0,82118:0:0:0:0:
402,192,82226,128,0,82333:0:0:0:0:
109,192,82441,1,0,0:0:0:0:
475,192,82441,128,0,82873:0:0:0:0:
182,192,82549,1,0,0:0:0:0:
256,192,82657,1,0,0:0:0:0:
329,192,82765,1,0,0:0:0:0:
36,192,82873,1,0,0:0:0:0:
109,192,82981,1,0,0:0:0:0:
182,192,83089,1,0,0:0:0:0:
256,192,83197,1,0,0:0:0:0:
329,192,83305,1,0,0:0:0:0:
402,192,83305,1,0,0:0:0:0:
36,192,83413,1,0,0:0:0:0:
109,192,83413,1,0,0:0:0:0:
402,192,83521,1,0,0:0:0:0:
475,192,83521,1,0,0:0:0:0:
109,192,83629,1,0,0:0:0:0:
36,192,83629,1,0,0:0:0:0:
329,192,83737,1,0,0:0:0:0:
402,192,83737,1,0,0:0:0:0:
182,192,83845,1,0,0:0:0:0:
109,192,83845,1,0,0:0:0:0:
402,192,83953,1,0,0:0:0:0:
475,192,83953,1,0,0:0:0:0:
182,192,84061,1,0,0:0:0:0:
109,192,84061,1,0,0:0:0:0:
475,192,84169,128,0,85896:0:0:0:0:
402,192,84169,1,0,0:0:0:0:
329,192,84169,128,0,84277:0:0:0:0:
36,192,84277,1,0,0:0:0:0:
109,192,84277,1,0,0:0:0:0:
329,192,84385,1,0,0:0:0:0:
402,192,84385,128,0,84493:0:0:0:0:
36,192,84493,1,0,0:0:0:0:
109,192,84493,1,0,0:0:0:0:
402,192,84601,1,0,0:0:0:0:
329,192,84601,128,0,84709:0:0:0:0:
182,192,84709,1,0,0:0:0:0:
109,192,84709,1,0,0:0:0:0:
329,192,84817,1,0,0:0:0:0:
402,192,84817,128,0,84925:0:0:0:0:
182,192,84925,1,0,0:0:0:0:
109,192,84925,1,0,0:0:0:0:
36,192,85032,128,0,85896:0:0:0:0:
402,192,85032,1,0,0:0:0:0:
329,192,85032,128,0,85140:0:0:0:0:
182,192,85140,1,0,0:0:0:0:
109,192,85140,128,0,85248:0:0:0:0:
329,192,85248,1,0,0:0:0:0:
402,192,85248,128,0,85356:0:0:0:0:
109,192,85356,1,0,0:0:0:0:
182,192,85356,128,0,85464:0:0:0:0:
329,192,85464,128,0,85572:0:0:0:0:
402,192,85464,128,0,85572:0:0:0:0:
109,192,85572,128,0,85680:0:0:0:0:
182,192,85572,128,0,85680:0:0:0:0:
402,192,85680,128,0,85788:0:0:0:0:
329,192,85680,128,0,85788:0:0:0:0:
182,192,85788,128,0,85896:0:0:0:0:
109,192,85788,128,0,85896:0:0:0:0:
329,192,85896,128,0,87192:0:0:0:0:
402,192,85896,128,0,87084:0:0:0:0:
36,192,86004,1,0,0:0:0:0:
109,192,86112,1,0,0:0:0:0:
182,192,86220,1,0,0:0:0:0:
256,192,86328,128,0,86436:0:0:0:0:
36,192,86436,128,0,86544:0:0:0:0:
109,192,86544,128,0,86652:0:0:0:0:
182,192,86652,128,0,86760:0:0:0:0:
256,192,86760,128,0,86868:0:0:0:0:
36,192,86868,128,0,87084:0:0:0:0:
109,192,86976,128,0,87192:0:0:0:0:
182,192,87084,128,0,87300:0:0:0:0:
475,192,87192,1,0,0:0:0:0:
402,192,87246,1,0,0:0:0:0:
329,192,87300,1,0,0:0:0:0:
36,192,87354,1,0,0:0:0:0:
109,192,87408,1,0,0:0:0:0:
182,192,87462,1,0,0:0:0:0:
256,192,87516,1,0,0:0:0:0:
329,192,87569,1,0,0:0:0:0:
402,192,87623,1,0,0:0:0:0:
475,192,87623,1,0,0:0:0:0:
36,192,87623,1,0,0:0:0:0:
36,192,88055,128,0,89135:0:0:0:0:
182,192,88055,128,0,89027:0:0:0:0:
329,192,88487,128,0,88919:0:0:0:0:
475,192,88487,128,0,88811:0:0:0:0:
475,192,88919,128,0,89243:0:0:0:0:
329,192,89027,128,0,89243:0:0:0:0:
182,192,89135,128,0,89351:0:0:0:0:
36,192,89243,128,0,89351:0:0:0:0:
109,192,89351,1,0,0:0:0:0:
475,192,89351,128,0,90214:0:0:0:0:
329,192,89351,1,0,0:0:0:0:
402,192,89351,128,0,89567:0:0:0:0:
36,192,89459,128,0,89675:0:0:0:0:
109,192,89567,128,0,89783:0:0:0:0:
182,192,89675,128,0,89891:0:0:0:0:
256,192,89783,128,0,89999:0:0:0:0:
36,192,89891,1,0,0:0:0:0:
402,192,89891,128,0,90107:0:0:0:0:
109,192,89999,1,0,0:0:0:0:
329,192,89999,128,0,90214:0:0:0:0:
182,192,90107,1,0,0:0:0:0:
256,192,90107,128,0,90322:0:0:0:0:
36,192,90214,128,0,91078:0:0:0:0:
109,192,90214,128,0,90430:0:0:0:0:
402,192,90214,1,0,0:0:0:0:
475,192,90322,128,0,90538:0:0:0:0:
402,192,90430,128,0,90646:0:0:0:0:
329,192,90538,128,0,90754:0:0:0:0:
256,192,90646,128,0,90862:0:0:0:0:
109,192,90754,128,0,90970:0:0:0:0:
475,192,90754,1,0,0:0:0:0:
182,192,90862,128,0,91078:0:0:0:0:
402,192,90862,1,0,0:0:0:0:
256,192,90970,128,0,91186:0:0:0:0:
329,192,90970,1,0,0:0:0:0:
109,192,91078,1,0,0:0:0:0:
402,192,91078,128,0,91294:0:0:0:0:
475,192,91078,128,0,91942:0:0:0:0:
36,192,91186,128,0,91402:0:0:0:0:
109,192,91294,128,0,91510:0:0:0:0:
182,192,91402,128,0,91618:0:0:0:0:
256,192,91510,128,0,91726:0:0:0:0:
329,192,91618,128,0,91834:0:0:0:0:
36,192,91618,1,0,0:0:0:0:
402,192,91726,128,0,91834:0:0:0:0:
109,192,91726,1,0,0:0:0:0:
182,192,91834,1,0,0:0:0:0:
256,192,91834,128,0,91942:0:0:0:0:
36,192,91942,128,0,92805:0:0:0:0:
402,192,91942,128,0,92050:0:0:0:0:
329,192,91942,1,0,0:0:0:0:
182,192,92050,1,0,0:0:0:0:
109,192,92050,128,0,92158:0:0:0:0:
475,192,92158,128,0,92266:0:0:0:0:
402,192,92158,1,0,0:0:0:0:
109,192,92266,1,0,0:0:0:0:
182,192,92266,128,0,92374:0:0:0:0:
402,192,92374,128,0,92482:0:0:0:0:
475,192,92374,128,0,92805:0:0:0:0:
329,192,92374,1,0,0:0:0:0:
182,192,92482,1,0,0:0:0:0:
109,192,92482,128,0,92590:0:0:0:0:
329,192,92590,128,0,92698:0:0:0:0:
256,192,92590,1,0,0:0:0:0:
109,192,92698,1,0,0:0:0:0:
182,192,92698,128,0,92805:0:0:0:0:
329,192,92805,128,0,93237:0:0:0:0:
402,192,92805,128,0,93237:0:0:0:0:
36,192,92913,128,0,93129:0:0:0:0:
109,192,93021,128,0,93237:0:0:0:0:
182,192,93129,128,0,93345:0:0:0:0:
256,192,93237,1,0,0:0:0:0:
475,192,93237,1,0,0:0:0:0:
402,192,93345,1,0,0:0:0:0:
329,192,93453,1,0,0:0:0:0:
36,192,93453,128,0,93885:0:0:0:0:
256,192,93561,1,0,0:0:0:0:
109,192,93669,128,0,93993:0:0:0:0:
475,192,93669,1,0,0:0:0:0:
329,192,93777,128,0,93993:0:0:0:0:
182,192,93885,128,0,94101:0:0:0:0:
402,192,93885,128,0,94101:0:0:0:0:
475,192,93993,128,0,94209:0:0:0:0:
36,192,94101,128,0,94317:0:0:0:0:
256,192,94101,1,0,0:0:0:0:
109,192,94209,128,0,94425:0:0:0:0:
329,192,94209,1,0,0:0:0:0:
182,192,94317,128,0,94533:0:0:0:0:
402,192,94317,1,0,0:0:0:0:
256,192,94425,128,0,94641:0:0:0:0:
475,192,94425,1,0,0:0:0:0:
329,192,94533,128,0,95397:0:0:0:0:
36,192,94533,1,0,0:0:0:0:
109,192,94641,1,0,0:0:0:0:
256,192,94749,1,0,0:0:0:0:
182,192,94857,1,0,0:0:0:0:
109,192,94965,1,0,0:0:0:0:
36,192,94965,128,0,95828:0:0:0:0:
475,192,94965,128,0,95289:0:0:0:0:
256,192,95073,1,0,0:0:0:0:
182,192,95181,128,0,95397:0:0:0:0:
109,192,95289,128,0,95397:0:0:0:0:
475,192,95397,128,0,95504:0:0:0:0:
402,192,95397,128,0,95504:0:0:0:0:
109,192,95504,1,0,0:0:0:0:
402,192,95612,128,0,95720:0:0:0:0:
182,192,95612,1,0,0:0:0:0:
329,192,95612,128,0,95720:0:0:0:0:
256,192,95720,1,0,0:0:0:0:
109,192,95828,1,0,0:0:0:0:
475,192,95828,128,0,95936:0:0:0:0:
402,192,95828,128,0,95936:0:0:0:0:
36,192,95936,128,0,96260:0:0:0:0:
329,192,96044,128,0,96152:0:0:0:0:
402,192,96044,128,0,96152:0:0:0:0:
182,192,96044,128,0,96260:0:0:0:0:
109,192,96152,128,0,96260:0:0:0:0:
475,192,96260,128,0,97124:0:0:0:0:
402,192,96260,128,0,96476:0:0:0:0:
256,192,96260,1,0,0:0:0:0:
36,192,96368,128,0,96584:0:0:0:0:
109,192,96476,128,0,96692:0:0:0:0:
182,192,96584,128,0,96800:0:0:0:0:
256,192,96692,128,0,96908:0:0:0:0:
36,192,96800,1,0,0:0:0:0:
402,192,96800,128,0,97016:0:0:0:0:
109,192,96908,1,0,0:0:0:0:
329,192,96908,128,0,97124:0:0:0:0:
182,192,97016,1,0,0:0:0:0:
256,192,97016,128,0,97232:0:0:0:0:
36,192,97124,128,0,97988:0:0:0:0:
109,192,97124,128,0,97340:0:0:0:0:
402,192,97124,1,0,0:0:0:0:
475,192,97232,128,0,97448:0:0:0:0:
402,192,97340,128,0,97556:0:0:0:0:
329,192,97448,128,0,97664:0:0:0:0:
256,192,97556,128,0,97772:0:0:0:0:
109,192,97664,128,0,97880:0:0:0:0:
475,192,97664,1,0,0:0:0:0:
182,192,97772,128,0,97988:0:0:0:0:
402,192,97772,1,0,0:0:0:0:
256,192,97880,128,0,98095:0:0:0:0:
329,192,97880,1,0,0:0:0:0:
109,192,97988,1,0,0:0:0:0:
402,192,97988,128,0,98203:0:0:0:0:
475,192,97988,128,0,98851:0:0:0:0:
36,192,98095,128,0,98311:0:0:0:0:
109,192,98203,128,0,98419:0:0:0:0:
182,192,98311,128,0,98527:0:0:0:0:
256,192,98419,128,0,98635:0:0:0:0:
329,192,98527,128,0,98743:0:0:0:0:
36,192,98527,1,0,0:0:0:0:
402,192,98635,128,0,98743:0:0:0:0:
109,192,98635,1,0,0:0:0:0:
182,192,98743,1,0,0:0:0:0:
256,192,98743,128,0,98851:0:0:0:0:
36,192,98851,128,0,99715:0:0:0:0:
402,192,98851,128,0,98959:0:0:0:0:
329,192,98851,1,0,0:0:0:0:
182,192,98959,1,0,0:0:0:0:
109,192,98959,128,0,99067:0:0:0:0:
475,192,99067,128,0,99175:0:0:0:0:
402,192,99067,1,0,0:0:0:0:
109,192,99175,1,0,0:0:0:0:
182,192,99175,128,0,99283:0:0:0:0:
402,192,99283,128,0,99391:0:0:0:0:
475,192,99283,128,0,99715:0:0:0:0:
329,192,99283,1,0,0:0:0:0:
182,192,99391,1,0,0:0:0:0:
109,192,99391,128,0,99499:0:0:0:0:
329,192,99499,128,0,99607:0:0:0:0:
256,192,99499,1,0,0:0:0:0:
109,192,99607,1,0,0:0:0:0:
182,192,99607,128,0,99715:0:0:0:0:
329,192,99715,128,0,100147:0:0:0:0:
402,192,99715,128,0,100147:0:0:0:0:
36,192,99823,128,0,100039:0:0:0:0:
109,192,99931,128,0,100147:0:0:0:0:
182,192,100039,128,0,100255:0:0:0:0:
256,192,100147,1,0,0:0:0:0:
475,192,100147,1,0,0:0:0:0:
402,192,100255,1,0,0:0:0:0:
329,192,100363,1,0,0:0:0:0:
36,192,100363,128,0,100579:0:0:0:0:
109,192,100471,128,0,100686:0:0:0:0:
182,192,100579,128,0,100794:0:0:0:0:
402,192,100579,128,0,100794:0:0:0:0:
475,192,100579,128,0,101010:0:0:0:0:
256,192,100686,128,0,100902:0:0:0:0:
329,192,100794,128,0,101010:0:0:0:0:
36,192,101010,128,0,101442:0:0:0:0:
109,192,101010,128,0,101334:0:0:0:0:
182,192,101010,128,0,101226:0:0:0:0:
475,192,101118,128,0,101334:0:0:0:0:
402,192,101226,128,0,101442:0:0:0:0:
329,192,101334,128,0,101442:0:0:0:0:
256,192,101442,128,0,102198:0:0:0:0:
36,192,101550,1,0,0:0:0:0:
182,192,101550,1,0,0:0:0:0:
475,192,101550,1,0,0:0:0:0:
329,192,101550,1,0,0:0:0:0:
109,192,101766,1,0,0:0:0:0:
402,192,101766,1,0,0:0:0:0:
329,192,101874,1,0,0:0:0:0:
182,192,101874,1,0,0:0:0:0:
36,192,101874,128,0,102198:0:0:0:0:
475,192,101874,128,0,102198:0:0:0:0:
109,192,102090,1,0,0:0:0:0:
402,192,102090,1,0,0:0:0:0:
182,192,102198,1,0,0:0:0:0:
329,192,102198,1,0,0:0:0:0:
36,192,102306,1,0,0:0:0:0:
256,192,102306,128,0,102522:0:0:0:0:
475,192,102306,128,0,102846:0:0:0:0:
182,192,102414,128,0,102630:0:0:0:0:
402,192,102414,128,0,102738:0:0:0:0:
109,192,102522,128,0,102738:0:0:0:0:
329,192,102522,1,0,0:0:0:0:
36,192,102630,128,0,102846:0:0:0:0:
256,192,102630,1,0,0:0:0:0:
182,192,102738,1,0,0:0:0:0:
256,192,102846,128,0,103062:0:0:0:0:
109,192,102846,1,0,0:0:0:0:
329,192,102954,128,0,103170:0:0:0:0:
36,192,102954,1,0,0:0:0:0:
402,192,103062,128,0,103277:0:0:0:0:
182,192,103062,1,0,0:0:0:0:
109,192,103170,1,0,0:0:0:0:
256,192,103170,1,0,0:0:0:0:
475,192,103170,128,0,104033:0:0:0:0:
36,192,103277,128,0,103493:0:0:0:0:
109,192,103385,128,0,103601:0:0:0:0:
182,192,103493,128,0,103709:0:0:0:0:
256,192,103601,128,0,103817:0:0:0:0:
36,192,103709,1,0,0:0:0:0:
402,192,103709,128,0,103925:0:0:0:0:
109,192,103817,1,0,0:0:0:0:
329,192,103817,128,0,104033:0:0:0:0:
182,192,103925,1,0,0:0:0:0:
256,192,103925,128,0,104141:0:0:0:0:
36,192,104033,128,0,104897:0:0:0:0:
109,192,104033,128,0,104249:0:0:0:0:
402,192,104033,1,0,0:0:0:0:
475,192,104141,128,0,104357:0:0:0:0:
402,192,104249,128,0,104465:0:0:0:0:
329,192,104357,128,0,104573:0:0:0:0:
256,192,104465,128,0,104681:0:0:0:0:
109,192,104573,128,0,104789:0:0:0:0:
475,192,104573,1,0,0:0:0:0:
182,192,104681,128,0,104897:0:0:0:0:
402,192,104681,1,0,0:0:0:0:
256,192,104789,128,0,105005:0:0:0:0:
329,192,104789,1,0,0:0:0:0:
109,192,104897,1,0,0:0:0:0:
402,192,104897,128,0,105113:0:0:0:0:
475,192,104897,128,0,105761:0:0:0:0:
36,192,105005,128,0,105221:0:0:0:0:
109,192,105113,128,0,105329:0:0:0:0:
182,192,105221,128,0,105437:0:0:0:0:
256,192,105329,128,0,105545:0:0:0:0:
329,192,105437,128,0,105653:0:0:0:0:
36,192,105437,1,0,0:0:0:0:
402,192,105545,128,0,105653:0:0:0:0:
109,192,105545,1,0,0:0:0:0:
182,192,105653,1,0,0:0:0:0:
256,192,105653,128,0,105761:0:0:0:0:
36,192,105761,128,0,106624:0:0:0:0:
402,192,105761,128,0,105868:0:0:0:0:
329,192,105761,1,0,0:0:0:0:
182,192,105868,1,0,0:0:0:0:
109,192,105868,128,0,105976:0:0:0:0:
475,192,105976,128,0,106084:0:0:0:0:
402,192,105976,1,0,0:0:0:0:
109,192,106084,1,0,0:0:0:0:
182,192,106084,128,0,106192:0:0:0:0:
402,192,106192,128,0,106300:0:0:0:0:
475,192,106192,128,0,106624:0:0:0:0:
329,192,106192,1,0,0:0:0:0:
182,192,106300,1,0,0:0:0:0:
109,192,106300,128,0,106408:0:0:0:0:
329,192,106408,128,0,106516:0:0:0:0:
256,192,106408,1,0,0:0:0:0:
109,192,106516,1,0,0:0:0:0:
182,192,106516,128,0,106624:0:0:0:0:
329,192,106624,128,0,107056:0:0:0:0:
402,192,106624,128,0,107056:0:0:0:0:
36,192,106732,128,0,106948:0:0:0:0:
109,192,106840,128,0,107056:0:0:0:0:
182,192,106948,128,0,107164:0:0:0:0:
256,192,107056,1,0,0:0:0:0:
475,192,107056,1,0,0:0:0:0:
402,192,107164,1,0,0:0:0:0:
329,192,107272,1,0,0:0:0:0:
36,192,107272,128,0,107704:0:0:0:0:
256,192,107380,1,0,0:0:0:0:
109,192,107488,128,0,107812:0:0:0:0:
475,192,107488,1,0,0:0:0:0:
329,192,107596,128,0,107812:0:0:0:0:
182,192,107704,128,0,107920:0:0:0:0:
402,192,107704,128,0,107920:0:0:0:0:
475,192,107812,128,0,108028:0:0:0:0:
36,192,107920,128,0,108136:0:0:0:0:
256,192,107920,1,0,0:0:0:0:
109,192,108028,128,0,108244:0:0:0:0:
329,192,108028,1,0,0:0:0:0:
182,192,108136,128,0,108352:0:0:0:0:
402,192,108136,1,0,0:0:0:0:
256,192,108244,128,0,108460:0:0:0:0:
475,192,108244,1,0,0:0:0:0:
329,192,108352,128,0,109215:0:0:0:0:
36,192,108352,1,0,0:0:0:0:
109,192,108460,1,0,0:0:0:0:
256,192,108567,1,0,0:0:0:0:
182,192,108675,1,0,0:0:0:0:
109,192,108783,1,0,0:0:0:0:
36,192,108783,128,0,109647:0:0:0:0:
475,192,108783,128,0,109107:0:0:0:0:
256,192,108891,1,0,0:0:0:0:
182,192,108999,128,0,109215:0:0:0:0:
109,192,109107,128,0,109215:0:0:0:0:
475,192,109215,128,0,109323:0:0:0:0:
402,192,109215,128,0,109323:0:0:0:0:
109,192,109323,1,0,0:0:0:0:
402,192,109431,128,0,109539:0:0:0:0:
182,192,109431,1,0,0:0:0:0:
329,192,109431,128,0,109539:0:0:0:0:
256,192,109539,1,0,0:0:0:0:
109,192,109647,1,0,0:0:0:0:
475,192,109647,128,0,109755:0:0:0:0:
402,192,109647,128,0,109755:0:0:0:0:
36,192,109755,128,0,110079:0:0:0:0:
329,192,109863,128,0,109971:0:0:0:0:
402,192,109863,128,0,109971:0:0:0:0:
182,192,109863,128,0,110079:0:0:0:0:
109,192,109971,128,0,110079:0:0:0:0:
329,192,110079,1,0,0:0:0:0:
402,192,110079,128,0,110943:0:0:0:0:
475,192,110079,128,0,110943:0:0:0:0:
36,192,110511,1,0,0:0:0:0:
182,192,110511,1,0,0:0:0:0:
329,192,110727,128,0,110943:0:0:0:0:
256,192,110835,128,0,111051:0:0:0:0:
36,192,110943,128,0,111806:0:0:0:0:
109,192,110943,128,0,111806:0:0:0:0:
182,192,110943,128,0,111158:0:0:0:0:
475,192,111158,1,0,0:0:0:0:
402,192,111158,1,0,0:0:0:0:
329,192,111374,1,0,0:0:0:0:
475,192,111374,1,0,0:0:0:0:
182,192,111590,1,0,0:0:0:0:
329,192,111806,128,0,112238:0:0:0:0:
475,192,111860,128,0,112670:0:0:0:0:
36,192,112238,1,0,0:0:0:0:
182,192,112238,1,0,0:0:0:0:
329,192,112454,128,0,112670:0:0:0:0:
256,192,112562,128,0,112778:0:0:0:0:
182,192,112670,128,0,112886:0:0:0:0:
36,192,112670,128,0,113318:0:0:0:0:
329,192,112886,1,0,0:0:0:0:
475,192,112886,1,0,0:0:0:0:
182,192,113102,128,0,113318:0:0:0:0:
402,192,113102,1,0,0:0:0:0:
475,192,113102,1,0,0:0:0:0:
329,192,113318,1,0,0:0:0:0:
109,192,113534,1,0,0:0:0:0:
182,192,113534,1,0,0:0:0:0:
36,192,113534,128,0,115261:0:0:0:0:
475,192,113534,128,0,115189:0:0:0:0:
329,192,113642,1,0,0:0:0:0:
402,192,113642,1,0,0:0:0:0:
182,192,113749,1,0,0:0:0:0:
109,192,113749,128,0,113821:0:0:0:0:
329,192,113821,1,0,0:0:0:0:
402,192,113821,128,0,113893:0:0:0:0:
182,192,113893,1,0,0:0:0:0:
109,192,113893,128,0,113965:0:0:0:0:
329,192,113965,1,0,0:0:0:0:
402,192,113965,128,0,114037:0:0:0:0:
182,192,114037,1,0,0:0:0:0:
109,192,114037,128,0,114109:0:0:0:0:
329,192,114109,1,0,0:0:0:0:
402,192,114109,128,0,114181:0:0:0:0:
182,192,114181,1,0,0:0:0:0:
109,192,114181,128,0,114253:0:0:0:0:
329,192,114253,1,0,0:0:0:0:
402,192,114253,128,0,114325:0:0:0:0:
182,192,114325,1,0,0:0:0:0:
109,192,114325,128,0,114397:0:0:0:0:
329,192,114397,1,0,0:0:0:0:
402,192,114397,128,0,114469:0:0:0:0:
182,192,114469,1,0,0:0:0:0:
109,192,114469,128,0,114541:0:0:0:0:
329,192,114541,1,0,0:0:0:0:
402,192,114541,128,0,114613:0:0:0:0:
109,192,114613,128,0,114685:0:0:0:0:
182,192,114613,1,0,0:0:0:0:
329,192,114685,1,0,0:0:0:0:
402,192,114685,128,0,114757:0:0:0:0:
109,192,114757,128,0,114829:0:0:0:0:
182,192,114757,1,0,0:0:0:0:
329,192,114829,1,0,0:0:0:0:
402,192,114829,128,0,114901:0:0:0:0:
109,192,114901,128,0,114973:0:0:0:0:
182,192,114901,1,0,0:0:0:0:
329,192,114973,1,0,0:0:0:0:
402,192,114973,128,0,115045:0:0:0:0:
109,192,115045,128,0,115117:0:0:0:0:
182,192,115045,1,0,0:0:0:0:
329,192,115117,1,0,0:0:0:0:
402,192,115117,128,0,115189:0:0:0:0:
109,192,115189,128,0,115261:0:0:0:0:
182,192,115189,1,0,0:0:0:0:
475,192,115261,1,0,0:0:0:0:
402,192,115261,1,0,0:0:0:0:
329,192,115261,1,0,0:0:0:0:
36,192,116988,128,0,117420:0:0:0:0:
182,192,116988,128,0,117204:0:0:0:0:
329,192,116988,128,0,117204:0:0:0:0:
475,192,116988,128,0,117420:0:0:0:0:
182,192,117420,128,0,117564:0:0:0:0:
256,192,117492,128,0,117636:0:0:0:0:
329,192,117564,128,0,117708:0:0:0:0:
402,192,117636,128,0,117780:0:0:0:0:
109,192,117708,128,0,117852:0:0:0:0:
182,192,117780,128,0,117924:0:0:0:0:
402,192,117852,1,0,0:0:0:0:
475,192,117852,1,0,0:0:0:0:
256,192,117852,128,0,117996:0:0:0:0:
36,192,117852,1,0,0:0:0:0:
329,192,118068,128,0,118212:0:0:0:0:
256,192,118140,128,0,118284:0:0:0:0:
182,192,118212,128,0,118356:0:0:0:0:
109,192,118284,128,0,118500:0:0:0:0:
329,192,118392,128,0,118716:0:0:0:0:
109,192,118608,128,0,118716:0:0:0:0:
36,192,118716,1,0,0:0:0:0:
182,192,118716,1,0,0:0:0:0:
402,192,118716,128,0,118932:0:0:0:0:
475,192,118716,128,0,119147:0:0:0:0:
36,192,119039,1,0,0:0:0:0:
182,192,119039,1,0,0:0:0:0:
329,192,119147,128,0,119291:0:0:0:0:
256,192,119219,128,0,119363:0:0:0:0:
182,192,119291,128,0,119435:0:0:0:0:
109,192,119363,128,0,119507:0:0:0:0:
402,192,119435,128,0,119579:0:0:0:0:
329,192,119507,128,0,119651:0:0:0:0:
256,192,119579,128,0,119723:0:0:0:0:
475,192,119579,1,0,0:0:0:0:
109,192,119579,1,0,0:0:0:0:
36,192,119579,1,0,0:0:0:0:
109,192,119795,128,0,120227:0:0:0:0:
182,192,119795,128,0,120227:0:0:0:0:
329,192,120011,128,0,120227:0:0:0:0:
402,192,120011,128,0,120227:0:0:0:0:
256,192,120227,128,0,120443:0:0:0:0:
36,192,120227,128,0,120659:0:0:0:0:
475,192,120227,128,0,120659:0:0:0:0:
109,192,120659,1,0,0:0:0:0:
402,192,120659,1,0,0:0:0:0:
329,192,120875,128,0,121091:0:0:0:0:
182,192,120983,128,0,121091:0:0:0:0:
36,192,120983,128,0,121091:0:0:0:0:
475,192,121091,1,0,0:0:0:0:
402,192,121145,1,0,0:0:0:0:
329,192,121199,1,0,0:0:0:0:
256,192,121253,1,0,0:0:0:0:
182,192,121307,1,0,0:0:0:0:
109,192,121307,1,0,0:0:0:0:
475,192,121307,128,0,121738:0:0:0:0:
36,192,121523,1,0,0:0:0:0:
109,192,121630,1,0,0:0:0:0:
182,192,121738,1,0,0:0:0:0:
402,192,121738,1,0,0:0:0:0:
329,192,121846,1,0,0:0:0:0:
256,192,121954,1,0,0:0:0:0:
182,192,122062,1,0,0:0:0:0:
109,192,122062,1,0,0:0:0:0:
182,192,122170,1,0,0:0:0:0:
109,192,122170,1,0,0:0:0:0:
402,192,122170,1,0,0:0:0:0:
475,192,122170,1,0,0:0:0:0:
256,192,122386,1,0,0:0:0:0:
182,192,122494,1,0,0:0:0:0:
109,192,122494,1,0,0:0:0:0:
402,192,122494,1,0,0:0:0:0:
475,192,122494,1,0,0:0:0:0:
256,192,122710,1,0,0:0:0:0:
475,192,122818,1,0,0:0:0:0:
36,192,122818,128,0,123034:0:0:0:0:
402,192,122890,1,0,0:0:0:0:
109,192,122926,128,0,123142:0:0:0:0:
329,192,122962,1,0,0:0:0:0:
182,192,123034,1,0,0:0:0:0:
256,192,123034,1,0,0:0:0:0:
475,192,123034,128,0,123250:0:0:0:0:
402,192,123142,128,0,123358:0:0:0:0:
329,192,123250,128,0,123466:0:0:0:0:
256,192,123358,128,0,123538:0:0:0:0:
109,192,123466,128,0,123682:0:0:0:0:
182,192,123574,128,0,123790:0:0:0:0:
402,192,123682,128,0,123898:0:0:0:0:
329,192,123790,128,0,123970:0:0:0:0:
109,192,123898,1,0,0:0:0:0:
36,192,123898,1,0,0:0:0:0:
256,192,123898,1,0,0:0:0:0:
475,192,123898,1,0,0:0:0:0:
36,192,124329,128,0,124761:0:0:0:0:
182,192,124329,128,0,124545:0:0:0:0:
475,192,124329,128,0,124761:0:0:0:0:
329,192,124329,128,0,124545:0:0:0:0:
109,192,124545,1,0,0:0:0:0:
182,192,124617,1,0,0:0:0:0:
256,192,124689,1,0,0:0:0:0:
329,192,124761,1,0,0:0:0:0:
402,192,124761,1,0,0:0:0:0:
109,192,124977,128,0,125121:0:0:0:0:
182,192,125049,128,0,125193:0:0:0:0:
256,192,125121,128,0,125265:0:0:0:0:
329,192,125193,128,0,125409:0:0:0:0:
109,192,125301,128,0,125625:0:0:0:0:
329,192,125517,128,0,125625:0:0:0:0:
402,192,125625,128,0,125841:0:0:0:0:
475,192,125625,128,0,126057:0:0:0:0:
182,192,125949,1,0,0:0:0:0:
36,192,125949,1,0,0:0:0:0:
329,192,126057,128,0,126201:0:0:0:0:
256,192,126129,128,0,126273:0:0:0:0:
182,192,126201,128,0,126345:0:0:0:0:
109,192,126273,128,0,126417:0:0:0:0:
402,192,126345,128,0,126489:0:0:0:0:
329,192,126417,128,0,126561:0:0:0:0:
475,192,126489,1,0,0:0:0:0:
256,192,126489,128,0,126633:0:0:0:0:
109,192,126489,1,0,0:0:0:0:
36,192,126489,1,0,0:0:0:0:
36,192,126705,1,0,0:0:0:0:
109,192,126705,1,0,0:0:0:0:
475,192,126705,1,0,0:0:0:0:
402,192,126920,128,0,127352:0:0:0:0:
329,192,126974,128,0,127352:0:0:0:0:
256,192,127028,128,0,127352:0:0:0:0:
182,192,127352,128,0,127460:0:0:0:0:
36,192,127352,128,0,127568:0:0:0:0:
109,192,127352,1,0,0:0:0:0:
475,192,127352,128,0,127568:0:0:0:0:
36,192,127676,128,0,127892:0:0:0:0:
182,192,127676,128,0,127784:0:0:0:0:
329,192,127676,1,0,0:0:0:0:
475,192,127676,128,0,127892:0:0:0:0:
256,192,128000,128,0,128216:0:0:0:0:
329,192,128108,128,0,128324:0:0:0:0:
402,192,128216,128,0,128432:0:0:0:0:
475,192,128216,128,0,129080:0:0:0:0:
182,192,128324,128,0,128540:0:0:0:0:
109,192,128432,128,0,128648:0:0:0:0:
36,192,128540,128,0,129080:0:0:0:0:
329,192,128648,128,0,128864:0:0:0:0:
256,192,128756,128,0,128972:0:0:0:0:
182,192,128864,128,0,129080:0:0:0:0:
109,192,128972,128,0,129080:0:0:0:0:
329,192,129080,1,0,0:0:0:0:
402,192,129080,1,0,0:0:0:0:
256,192,129296,1,0,0:0:0:0:
182,192,129403,1,0,0:0:0:0:
109,192,129403,1,0,0:0:0:0:
402,192,129403,1,0,0:0:0:0:
329,192,129403,1,0,0:0:0:0:
109,192,129511,1,0,0:0:0:0:
182,192,129511,1,0,0:0:0:0:
329,192,129511,1,0,0:0:0:0:
402,192,129511,1,0,0:0:0:0:
256,192,129727,1,0,0:0:0:0:
36,192,129727,128,0,133398:0:0:0:0:
475,192,129727,128,0,133398:0:0:0:0:
