osu file format v14

[General]
AudioFilename: audio.mp3
AudioLeadIn: 0
PreviewTime: 80373
Countdown: 1
SampleSet: None
StackLeniency: 0.7
Mode: 0
LetterboxInBreaks: 0
WidescreenStoryboard: 0

[Editor]
Bookmarks: 4683
DistanceSpacing: 0.9
BeatDivisor: 4
GridSize: 4
TimelineZoom: 1

[Metadata]
Title:Towards The Horizon
TitleUnicode:Towards The Horizon
Artist:Camellia
ArtistUnicode:かめりあ
Creator:yf_bmp
Version:Expert
Source:
Tags:lululu Mapping Cup #1
BeatmapID:1647659
BeatmapSetID:784850

[Difficulty]
HPDrainRate:2
CircleSize:5
OverallDifficulty:8
ApproachRate:9.7
SliderMultiplier:3
SliderTickRate:1

[Events]
//Background and Video events
0,0,"kaitan.jpg",0,0
//Break Periods
//Storyboard Layer 0 (Background)
//Storyboard Layer 1 (Fail)
//Storyboard Layer 2 (Pass)
//Storyboard Layer 3 (Foreground)
//Storyboard Sound Samples

[TimingPoints]
797,388.651379712398,4,2,1,50,1,0
2351,-133.333333333333,4,2,1,50,0,0
3906,-125,4,2,1,50,0,0
4877,-200,4,2,1,50,0,0
4975,-200,4,2,1,5,0,0
5072,-200,4,2,1,50,0,0
5169,-200,4,2,1,5,0,0
5266,-200,4,2,1,50,0,0
5363,-200,4,2,1,5,0,0
5460,-125,4,2,1,50,0,0
6432,-200,4,2,1,50,0,0
7015,-133.333333333333,4,2,1,50,0,0
7404,-200,4,2,1,50,0,0
10124,-125,4,2,1,50,0,0
11096,-200,4,2,1,50,0,0
11193,-200,4,2,1,5,0,0
11290,-200,4,2,1,50,0,0
11387,-200,4,2,1,5,0,0
11484,-200,4,2,1,50,0,0
11582,-200,4,2,1,5,0,0
11679,-125,4,2,1,50,0,0
12650,-200,4,2,1,50,0,0
15954,-200,4,2,1,50,0,0
16343,-100,4,2,1,50,0,0
22172,-66.6666666666667,4,2,1,50,0,0
22561,-100,4,2,1,50,0,0
27225,-200,4,2,1,50,0,0
27419,-133.333333333333,4,2,1,50,0,0
27613,-100,4,2,1,50,0,0
27808,-80,4,2,1,50,0,0
28002,-66.6666666666667,4,2,1,50,0,0
28779,-66.6666666666667,4,2,1,80,0,0
29362,-100,4,2,1,80,0,0
30334,-66.6666666666667,4,2,1,80,0,0
30917,-100,4,2,1,80,0,0
31500,-66.6666666666667,4,2,1,80,0,0
31889,-71.4285714285714,4,2,1,80,0,0
32472,-133.333333333333,4,2,1,80,0,0
33832,-100,4,2,1,80,0,0
34998,-66.6666666666667,4,2,1,80,0,0
35581,-100,4,2,1,80,0,0
36552,-66.6666666666667,4,2,1,80,0,0
36941,-100,4,2,1,80,0,0
37718,-66.6666666666667,4,2,1,80,0,0
38107,-71.4285714285714,4,2,1,80,0,0
38981,-133.333333333333,4,2,1,80,0,0
39662,-66.6666666666667,4,2,1,80,0,0
44714,-100,4,2,1,80,0,0
45103,-133.333333333333,4,2,1,80,0,0
46269,-66.6666666666667,4,2,1,80,0,0
50933,-100,4,2,1,80,0,0
51321,-133.333333333333,4,2,1,80,0,0
52487,-50,4,2,1,80,0,0
53167,-100,4,2,1,80,0,0
53653,-133.333333333333,4,2,1,80,0,0
56374,-200,4,2,1,80,0,0
56762,-133.333333333333,4,2,1,80,0,0
66090,-200,4,2,1,60,0,0
74640,-200,4,2,1,20,0,0
75418,-200,4,2,1,30,0,0
76195,-200,4,2,1,40,0,0
76972,-200,4,2,1,50,0,0
77749,-200,4,2,1,60,0,0
80859,-133.333333333333,4,2,1,60,0,0
81636,-133.333333333333,4,2,1,80,0,1
84745,-200,4,2,1,80,0,1
85523,-66.6666666666667,4,2,1,80,0,1
87466,-200,4,2,1,80,0,1
90964,-66.6666666666667,4,2,1,80,0,1
92518,-50,4,2,1,80,0,1
97182,-200,4,2,1,80,0,1
97959,-66.6666666666667,4,2,1,80,0,1
99903,-100,4,2,1,80,0,1
100097,-133.333333333333,4,2,1,80,0,1
100291,-133.333333333333,4,2,1,80,0,0
103400,-133.333333333333,4,2,1,60,0,0
104955,-200,4,2,1,80,0,0
105149,-133.333333333333,4,2,1,80,0,0
105344,-100,4,2,1,80,0,0
105538,-80,4,2,1,80,0,0
105732,-66.6666666666667,4,2,1,80,0,0
106510,-71.4285714285714,4,2,1,80,0,0
106898,-100,4,2,1,80,0,0
108064,-66.6666666666667,4,2,1,80,0,0
108453,-100,4,2,1,80,0,0
109230,-50,4,2,1,80,0,0
109425,-66.6666666666667,4,2,1,80,0,0
111173,-133.333333333333,4,2,1,80,0,0
112728,-66.6666666666667,4,2,1,80,0,0
113117,-71.4285714285714,4,2,1,80,0,0
113700,-100,4,2,1,80,0,0
114283,-66.6666666666667,4,2,1,80,0,0
114671,-100,4,2,1,80,0,0
115449,-66.6666666666667,4,2,1,80,0,0
117392,-100,4,2,1,80,0,0
121278,-100,4,2,1,5,0,0

[HitObjects]
16,64,2157,5,0,0:0:0:0:
28,68,2222,1,0,0:0:0:0:
32,56,2286,1,0,0:0:0:0:
20,52,2351,1,2,0:0:0:0:
484,20,2934,1,0,0:0:0:0:
440,12,3031,1,0,0:0:0:0:
396,8,3128,5,2,0:0:0:0:
412,52,3226,1,0,0:0:0:0:
396,92,3323,1,0,0:0:0:0:
404,132,3420,1,0,0:0:0:0:
392,168,3517,1,0,0:0:0:0:
400,200,3614,1,0,0:0:0:0:
392,228,3711,1,0,0:0:0:0:
396,252,3809,1,0,0:0:0:0:
396,264,3906,6,0,L|396:404,1,120,2|0,0:0|0:0,0:0:0:0:
416,368,4197,1,0,0:0:0:0:
320,376,4294,5,0,0:0:0:0:
300,332,4392,1,0,0:0:0:0:
256,316,4489,1,0,0:0:0:0:
212,332,4586,1,0,0:0:0:0:
192,376,4683,1,2,0:0:0:0:
256,229,4877,6,0,L|256:188,1,37.5
256,154,5072,6,0,L|256:192,1,37.5
256,229,5266,6,0,L|256:192,1,37.5
116,120,5460,6,2,L|116:-20,1,120,2|0,0:0|0:0,0:1:0:0:
96,16,5751,1,0,0:0:0:0:
192,8,5848,5,0,0:0:0:0:
212,52,5946,1,0,0:0:0:0:
256,68,6043,1,0,0:0:0:0:
300,52,6140,1,0,0:0:0:0:
320,8,6237,1,2,0:0:0:0:
244,264,6432,6,2,P|264:212|269:264,1,150,0|0,0:0|0:0,0:1:0:0:
204,152,6918,1,0,0:0:0:0:
204,152,7015,6,2,P|256:132|308:152,1,112.500004291535,2|0,0:2|0:1,0:1:0:0:
256,336,7306,1,0,0:0:0:0:
188,312,7404,6,0,B|133:292|137:336|79:317,1,112.5,2|0,0:1|0:0,0:0:0:0:
0,12,7792,1,2,3:2:0:0:
24,12,7792,1,2,3:2:0:0:
68,332,8181,6,0,L|56:212,1,112.5,2|0,0:0|0:0,0:0:0:0:
0,12,8570,1,2,3:2:0:0:
36,12,8570,1,2,3:2:0:0:
64,204,8764,1,0,0:0:0:0:
64,204,8958,6,0,B|64:220|48:232|48:232|0:220|20:156,1,112.5,2|0,0:0|0:0,0:0:0:0:
0,12,9347,1,2,3:2:0:0:
48,12,9347,1,2,3:2:0:0:
124,32,9541,1,0,0:0:0:0:
180,148,9735,1,0,0:0:0:0:
180,148,9800,1,0,0:0:0:0:
180,148,9865,1,0,0:0:0:0:
180,148,9930,1,0,0:0:0:0:
116,264,10124,6,0,L|116:404,1,120,2|0,0:0|0:0,0:0:0:0:
96,368,10415,1,0,0:0:0:0:
192,376,10512,5,0,0:0:0:0:
212,332,10610,1,0,0:0:0:0:
256,316,10707,1,0,0:0:0:0:
300,332,10804,1,0,0:0:0:0:
320,376,10901,1,2,0:0:0:0:
293,192,11096,6,0,L|256:192,1,37.5
218,192,11290,6,0,L|256:192,1,37.5
293,192,11484,6,0,L|256:192,1,37.5
396,120,11679,6,0,L|396:0,1,120,2|0,0:0|0:0,0:0:0:0:
304,116,11970,5,0,0:0:0:0:
320,72,12066,1,0,0:0:0:0:
300,28,12164,1,0,0:0:0:0:
256,12,12261,1,0,0:0:0:0:
212,28,12358,1,0,0:0:0:0:
192,72,12455,1,2,0:0:0:0:
208,116,12553,1,2,0:0:0:0:
268,184,12650,6,2,P|248:236|243:184,1,150,0|0,0:0|0:0,0:1:0:0:
308,304,13136,1,0,0:0:0:0:
308,304,13233,6,2,P|256:324|204:304,1,112.500004291535,2|0,0:0|0:0,0:1:0:0:
352,244,13622,6,0,B|407:224|403:268|461:249,1,112.5,2|0,0:1|0:0,0:0:0:0:
512,12,14011,1,2,3:2:0:0:
488,12,14011,1,2,3:2:0:0:
472,264,14399,6,0,P|497:227|484:144,1,112.5,2|0,0:0|0:0,0:0:0:0:
396,8,14788,1,2,3:2:0:0:
432,8,14788,1,2,3:2:0:0:
484,144,14982,1,0,0:0:0:0:
484,144,15176,6,0,B|493:156|487:176|487:176|441:194|420:131,1,112.5,2|0,0:0|0:0,0:0:0:0:
304,4,15565,1,2,3:2:0:0:
352,4,15565,1,2,3:2:0:0:
304,192,15759,1,0,0:0:0:0:
304,192,15954,2,0,B|272:192|256:216|256:216|240:192|208:192,1,112.5
128,200,16343,6,0,P|159:126|116:160,1,225,4|0,1:0|2:0,0:0:0:0:
164,100,16731,2,0,P|122:31|124:86,1,225,0|0,3:0|3:0,0:0:0:0:
117,158,17120,1,2,3:2:0:0:
264,112,17314,1,0,3:0:0:0:
40,84,17509,6,0,P|-40:129|60:116,1,225,0|0,3:0|0:0,0:0:0:0:
128,184,17897,6,0,P|159:258|116:224,1,225,2|0,3:2|2:0,0:0:0:0:
164,284,18285,2,0,P|122:353|124:298,1,225,0|0,3:0|3:0,0:0:0:0:
117,226,18674,1,2,3:2:0:0:
272,288,18868,1,0,3:0:0:0:
272,288,18934,1,0,0:0:0:0:
272,288,18998,1,0,0:0:0:0:
272,288,19063,6,0,P|352:333|252:320,1,225,2|0,3:2|0:0,0:0:0:0:
384,200,19452,6,0,P|353:126|396:160,1,225,2|0,3:2|2:0,0:0:0:0:
348,100,19840,6,0,P|390:31|388:86,1,225,0|0,3:0|3:0,0:0:0:0:
395,158,20229,1,2,3:2:0:0:
248,112,20423,1,0,3:0:0:0:
472,84,20618,6,0,P|552:129|452:116,1,225,0|0,3:0|0:0,0:0:0:0:
384,184,21006,6,0,P|353:258|396:224,1,225,2|0,3:2|2:0,0:0:0:0:
348,284,21395,6,0,P|390:353|388:298,1,225,0|0,1:0|3:0,0:0:0:0:
395,226,21783,1,2,3:2:0:0:
348,208,21881,1,0,3:0:0:0:
296,220,21978,1,0,3:0:0:0:
256,256,22075,1,0,3:0:0:0:
236,304,22172,6,0,P|155:259|256:272,1,225,0|0,1:0|0:0,0:0:0:0:
116,368,22464,1,2,0:0:0:0:
68,292,22561,6,0,P|68:240|104:184,1,75,0|0,3:0|3:0,0:0:0:0:
120,72,22755,2,0,P|130:107|127:145,1,75,0|0,3:0|3:0,0:0:0:0:
84,232,22950,2,0,L|-16:240,1,75,0|0,1:0|0:0,0:0:0:0:
116,136,23144,2,0,L|216:144,1,75,0|0,3:0|3:0,0:0:0:0:
376,24,23338,6,0,P|376:76|340:132,1,75,2|0,3:2|3:0,0:0:0:0:
368,312,23532,2,0,P|357:276|360:238,1,75,0|0,3:0|3:0,0:0:0:0:
384,108,23727,2,0,L|484:100,1,75,0|0,1:0|0:0,0:0:0:0:
344,228,23921,2,0,L|244:220,1,75,0|0,3:0|3:0,0:0:0:0:
112,256,24116,6,0,P|124:256|220:220,1,75,2|0,3:2|3:0,0:0:0:0:
440,308,24310,2,0,P|405:298|367:301,1,75,0|0,3:0|3:0,0:0:0:0:
224,308,24505,2,0,L|216:408,1,75,0|0,1:0|0:0,0:0:0:0:
344,228,24699,2,0,L|336:128,1,75,0|0,3:0|3:0,0:0:0:0:
28,76,24893,6,0,P|80:76|136:112,1,75,2|0,3:2|3:0,0:0:0:0:
432,72,25087,2,0,P|396:83|358:80,1,75,0|0,3:0|3:0,0:0:0:0:
172,256,25282,2,0,L|164:156,1,75,0|0,1:0|0:0,0:0:0:0:
288,0,25476,2,0,L|283:58,2,50,2|2|2,3:2|3:2|0:2,0:0:0:0:
252,156,25670,5,4,1:0:0:0:
260,228,25767,1,2,1:2:0:0:
285,170,25865,5,2,1:2:0:0:
226,213,25962,1,2,1:2:0:0:
289,206,26059,5,2,1:2:0:0:
222,177,26156,1,2,1:2:0:0:
264,273,26253,5,0,1:0:0:0:
245,108,26350,1,0,1:0:0:0:
188,241,26448,5,2,1:1:0:0:
323,142,26545,1,2,1:1:0:0:
179,158,26642,5,2,1:1:0:0:
333,225,26739,1,2,1:1:0:0:
239,65,26836,5,2,1:1:0:0:
268,313,26933,1,2,1:1:0:0:
382,175,27030,5,2,1:1:0:0:
134,204,27127,1,2,1:1:0:0:
256,192,27225,6,0,L|260:135,1,37.5,4|4,1:3|0:3,0:0:0:0:
256,192,27419,6,0,L|248:296,1,56.2500021457673,4|4,0:3|0:3,0:0:0:0:
256,192,27613,6,0,L|360:200,1,75,4|4,0:3|0:3,0:0:0:0:
256,192,27808,6,0,L|152:184,1,93.75,4|4,0:3|0:3,0:0:0:0:
256,192,28002,6,0,L|265:66,1,112.500004291535,4|4,0:3|0:3,0:0:0:0:
256,192,28196,6,0,L|251:257,2,56.2500021457673,0|0|0,1:3|1:3|1:0,0:0:0:0:
88,180,28391,5,0,1:0:0:0:
424,204,28585,5,0,1:0:0:0:
24,296,28779,6,2,B|-12:296|-32:332|-12:368|24:368|24:368|260:368,1,337.500012874604,4|0,1:0|0:0,0:1:0:0:
512,368,29168,1,0,1:0:0:0:
28,224,29362,6,0,L|-16:224,1,25,4|0,0:3|0:0,0:0:0:0:
100,28,29557,6,0,L|100:3,1,25,4|0,0:3|0:0,0:0:0:0:
28,28,29654,2,0,L|28:3,1,25,4|0,0:3|0:0,0:0:0:0:
64,136,29848,6,0,L|64:161,1,25,4|0,0:3|0:0,0:0:0:0:
28,224,29945,6,0,L|-16:224,1,25,4|0,1:3|0:0,0:0:0:0:
100,224,30043,2,0,L|144:224,1,25,4|0,0:3|0:0,0:0:0:0:
28,196,30140,6,0,L|-16:196,1,25,4|0,0:3|0:0,0:0:0:0:
100,196,30238,2,0,L|144:196,1,25,4|0,0:3|0:0,0:0:0:0:
24,296,30334,6,2,B|-12:296|-32:332|-12:368|24:368|24:368|64:368|64:368|100:368|100:332|100:332|100:176,1,337.500012874604,4|0,1:0|0:0,0:1:0:0:
100,3,30723,1,0,1:0:0:0:
256,356,30917,6,0,L|256:400,1,25,4|0,0:3|0:0,0:0:0:0:
392,284,31111,6,0,L|417:284,1,25,4|0,0:3|0:0,0:0:0:0:
392,356,31208,2,0,L|417:356,1,25,4|0,0:3|0:0,0:0:0:0:
92,224,31500,6,0,B|92:108|92:108|68:76|24:76|0:108|0:108|0:228,1,337.500012874604,0|0,1:0|0:0,0:1:0:0:
24,296,31889,6,2,B|-12:296|-32:332|-12:368|24:368|24:368|64:368|64:368|100:368|124:332|100:296|64:296|64:296|24:296,1,314.999990386963,4|0,1:0|0:0,0:1:0:0:
256,381,32277,5,0,1:0:0:0:
256,68,32472,5,2,0:0:0:0:
200,20,32666,5,2,2:0:0:0:
312,20,32763,2,0,L|196:20,1,112.500004291535,2|2,0:0|0:0,0:0:0:0:
312,20,33055,2,0,L|188:20,1,112.500004291535,2|2,1:2|0:0,0:0:0:0:
148,92,33314,1,2,0:0:0:0:
148,92,33378,1,2,0:0:0:0:
148,92,33443,6,0,B|176:92|176:92|188:104|188:104|188:140|188:140|200:152|200:152|220:152,1,112.500004291535,0|0,1:0|0:0,0:0:0:0:
252,224,33735,1,0,0:0:0:0:
252,224,33832,2,0,B|280:224|280:224|292:212|292:212|292:100,1,150,0|0,1:0|0:0,0:0:0:0:
72,72,34123,5,0,1:0:0:0:
72,96,34221,1,0,0:0:0:0:
72,168,34318,5,0,1:0:0:0:
72,192,34415,1,0,0:0:0:0:
72,264,34512,5,0,1:0:0:0:
172,264,34609,1,0,1:0:0:0:
172,364,34706,1,0,1:0:0:0:
272,364,34803,1,2,2:0:0:0:
440,40,34998,6,2,B|440:4|476:-16|512:4|512:40|512:40|512:276,1,337.500012874604,4|0,1:0|0:0,0:1:0:0:
256,288,35387,1,0,1:0:0:0:
384,372,35581,6,0,L|384:328,1,25,4|0,0:3|0:0,0:0:0:0:
168,108,35776,6,0,L|143:108,1,25,4|0,0:3|0:0,0:0:0:0:
168,36,35873,2,0,L|143:36,1,25,4|0,0:3|0:0,0:0:0:0:
276,72,36067,6,0,L|301:72,1,25,4|0,0:3|0:0,0:0:0:0:
364,36,36164,6,0,L|364:-8,1,25,4|0,1:3|0:0,0:0:0:0:
364,108,36262,2,0,L|364:152,1,25,4|0,0:3|0:0,0:0:0:0:
336,36,36358,6,0,L|336:-8,1,25,4|0,0:3|0:0,0:0:0:0:
336,108,36455,2,0,L|336:152,1,25,4|0,0:3|0:0,0:0:0:0:
440,40,36553,6,2,B|440:4|476:-16|512:4|512:40|512:40|512:80|512:80|512:116|476:116|476:116|320:116,1,337.500012874604,4|0,1:0|0:0,0:1:0:0:
256,288,36942,1,0,1:0:0:0:
256,28,37136,6,0,L|256:-16,1,25,4|0,0:3|0:0,0:0:0:0:
120,100,37330,6,0,L|95:100,1,25,4|0,0:3|0:0,0:0:0:0:
120,28,37427,2,0,L|95:28,1,25,4|0,0:3|0:0,0:0:0:0:
368,12,37719,6,0,B|252:12|252:12|220:36|220:80|252:104|252:104|372:104,1,337.500012874604,0|0,1:0|0:0,0:1:0:0:
440,40,38108,6,2,B|440:4|476:-16|512:4|512:40|512:40|512:80|512:80|512:116|476:140|440:116|440:80|440:80|440:40,1,314.999990386963,4|0,1:0|0:0,0:1:0:0:
256,3,38496,5,0,1:0:0:0:
256,316,38691,5,2,0:0:0:0:
312,364,38787,1,0,1:0:0:0:
312,364,38836,1,0,1:0:0:0:
312,364,38885,5,0,1:0:0:0:
200,364,38982,2,0,L|324:364,1,112.500004291535,0|2,1:2|0:0,0:0:0:0:
312,272,39273,2,0,L|199:272,1,112.500004291535,0|0,1:2|0:0,0:0:0:0:
48,268,39564,1,0,1:0:0:0:
48,268,39662,6,0,B|102:268|102:268|125:244|125:244|125:175|125:175|148:152|148:152|187:152,1,225.000008583069,0|0,1:0|0:0,0:0:0:0:
248,196,39954,1,0,1:0:0:0:
248,196,40051,2,0,B|289:196|289:196|306:178|306:178|305:131,1,112.500004291535,0|0,1:0|0:0,0:0:0:0:
168,0,40245,2,0,B|126:0|126:0|109:17|109:17|110:64,1,112.500004291535,0|0,1:0|1:0,0:0:0:0:
110,64,40390,1,0,1:0:0:0:
110,64,40439,5,0,1:0:0:0:
208,64,40537,1,2,2:0:0:0:
208,132,40633,5,0,0:0:0:0:
305,131,40731,1,2,2:0:0:0:
304,232,40828,5,0,0:0:0:0:
207,232,40926,1,6,1:2:0:0:
208,300,41022,5,0,0:0:0:0:
110,300,41120,1,2,2:0:0:0:
108,368,41216,6,0,P|128:212|88:160,1,225.000008583069,4|0,1:1|0:0,0:0:0:0:
0,132,41508,1,2,0:0:0:0:
24,272,41605,6,0,P|68:223|249:243,1,225.000008583069,8|0,1:0|0:0,0:0:0:0:
231,148,41896,2,0,P|256:66|282:147,1,225.000008583069,0|0,1:0|0:0,0:0:0:0:
292,219,42188,2,0,P|401:204|488:272,1,225.000008583069,0|8,1:0|1:0,0:0:0:0:
256,296,42577,1,2,2:0:0:0:
404,368,42771,6,0,P|384:212|424:160,1,225.000008583069,4|0,1:1|0:0,0:0:0:0:
512,132,43063,1,2,0:0:0:0:
412,248,43160,6,0,P|426:139|359:52,1,225.000008583069,8|0,1:0|0:0,0:0:0:0:
283,108,43451,2,0,P|258:189|231:108,1,225.000008583069,0|0,1:0|0:0,0:0:0:0:
99,247,43742,2,0,P|85:138|152:52,1,225.000008583069,0|8,1:0|1:0,0:0:0:0:
256,336,44131,1,0,0:0:0:0:
256,336,44228,1,0,1:0:0:0:
256,336,44325,6,0,B|200:324|204:364|145:348,2,112.500004291535,4|0|0,1:0|0:0|0:0,0:0:0:0:
474,362,44714,6,0,B|360:392|368:312|256:336,1,225,4|0,1:2|1:0,0:0:0:0:
172,268,45103,6,0,B|180:242|180:242|168:216,1,56.2500021457673,2|0,0:0|0:0,0:0:0:0:
28,228,45297,2,0,B|20:254|20:254|32:280,1,56.2500021457673,0|0,1:0|0:0,0:0:0:0:
100,248,45491,6,0,L|84:96,1,112.500004291535,8|0,1:0|0:0,0:0:0:0:
86,111,45751,6,0,L|82:71,2,37.5000014305115,4|4|0,0:3|0:3|1:3,0:0:0:0:
344,108,46172,1,0,1:0:0:0:
344,108,46220,1,0,1:0:0:0:
344,108,46269,6,0,B|344:68|300:52|300:52|248:76|244:152|304:176,1,225.000008583069,4|0,1:2|0:0,0:0:0:0:
356,280,46560,2,0,P|391:213|352:172,1,112.500004291535,0|0,1:0|0:0,0:0:0:0:
187,33,46755,5,0,1:0:0:0:
276,28,46852,2,0,L|408:20,1,112.500004291535,8|0,1:0|0:0,0:0:0:0:
377,187,47046,5,0,1:0:0:0:
287,182,47143,1,8,1:0:0:0:
196,176,47240,2,0,L|64:168,1,112.500004291535,0|0,1:0|0:0,0:0:0:0:
404,368,47435,6,0,P|384:212|424:160,1,225.000008583069,4|0,1:1|0:0,0:0:0:0:
512,132,47727,1,2,0:0:0:0:
492,272,47824,6,0,P|383:286|297:218,1,225.000008583069,8|0,1:0|0:0,0:0:0:0:
281,148,48115,2,0,P|256:66|230:147,1,225.000008583069,0|0,1:0|0:0,0:0:0:0:
214,218,48406,2,0,P|128:286|20:272,1,225.000008583069,0|8,1:0|1:0,0:0:0:0:
60,88,48796,1,2,2:0:0:0:
108,368,48990,6,0,P|128:212|88:160,1,225.000008583069,4|0,1:1|0:0,0:0:0:0:
0,132,49282,1,2,0:0:0:0:
20,4,49379,6,0,P|107:70|215:56,1,225.000008583069,8|0,1:0|0:0,0:0:0:0:
231,156,49670,2,0,P|256:237|283:156,1,225.000008583069,0|0,1:0|0:0,0:0:0:0:
492,4,49961,2,0,P|404:70|296:56,1,225.000008583069,0|8,1:0|1:0,0:0:0:0:
256,336,50350,1,0,0:0:0:0:
256,336,50447,1,0,1:0:0:0:
256,336,50544,6,0,B|312:324|308:364|367:348,2,112.500004291535,4|0|0,1:0|0:0|0:0,0:0:0:0:
39,362,50933,6,0,B|153:392|145:312|257:336,1,225,4|0,1:2|1:0,0:0:0:0:
372,264,51322,6,0,B|346:272|346:272|320:260,1,56.2500021457673,2|0,0:0|0:0,0:0:0:0:
332,120,51516,2,0,B|358:112|358:112|384:124,1,56.2500021457673,0|0,1:0|0:0,0:0:0:0:
352,192,51710,6,0,L|200:176,1,112.500004291535,8|0,1:0|0:0,0:0:0:0:
215,178,51970,6,0,L|175:174,2,37.5000014305115,4|4|0,0:3|0:3|1:3,0:0:0:0:
448,188,52293,5,0,1:0:0:0:
384,124,52390,1,0,1:0:0:0:
416,40,52488,6,0,B|432:-4|512:8|516:84|456:108,1,150,4|0,1:1|0:0,0:0:0:0:
380,226,52681,6,0,P|323:242|351:191,1,150,4|0,1:2|0:0,0:0:0:0:
384,352,52876,5,4,1:0:0:0:
256,300,52973,1,8,1:0:0:0:
128,352,53070,1,0,1:0:0:0:
432,296,53167,6,0,L|500:300,2,37.5,0|0|12,1:0|1:0|1:0,0:0:0:0:
256,288,53362,1,0,1:0:0:0:
80,296,53459,2,0,L|220:288,1,75,0|0,1:0|1:0,0:0:0:0:
512,232,53653,5,4,1:0:0:0:
464,172,54236,1,0,0:0:0:0:
460,152,54333,1,0,0:0:0:0:
464,132,54430,5,4,1:2:0:0:
392,20,54722,1,2,1:3:0:0:
276,92,55013,1,2,0:0:0:0:
276,92,55208,6,0,P|232:88|208:68,1,56.2500021457673,0|0,0:0|1:0,0:0:0:0:
208,72,55353,2,0,L|204:32,1,28.1250010728836,0|0,1:0|1:0,0:0:0:0:
148,8,55499,5,0,1:0:0:0:
88,40,55596,2,0,L|28:36,1,56.2500021457673,2|0,0:0|1:0,0:0:0:0:
64,216,55888,1,0,1:0:0:0:
80,148,55985,6,0,P|56:108|48:156,1,112.500004291535,4|0,1:2|1:0,0:0:0:0:
20,372,56374,6,0,P|78:385|140:352,1,112.500004291535,2|0,0:0|0:0,0:0:0:0:
140,348,56762,6,0,L|296:348,1,112.500004291535,0|0,1:0|0:0,0:0:0:0:
196,272,57345,5,0,1:0:0:0:
196,272,57442,1,0,1:0:0:0:
196,272,57540,2,0,L|352:272,1,112.500004291535,6|0,1:2|0:0,0:0:0:0:
220,244,57831,2,0,L|376:244,1,112.500004291535,0|0,3:3|2:0,0:0:0:0:
244,216,58123,2,0,L|316:216,1,56.2500021457673,0|0,3:2|2:0,0:0:0:0:
276,140,58317,6,0,L|468:140,2,168.750006437302,2|0|0,1:2|1:0|1:0,0:0:0:0:
108,27,59094,5,2,1:2:0:0:
132,27,59192,1,0,3:0:0:0:
204,27,59289,5,0,1:0:0:0:
228,27,59386,1,0,3:0:0:0:
300,27,59483,5,0,1:0:0:0:
324,27,59580,1,0,0:0:0:0:
348,27,59677,1,2,0:0:0:0:
372,27,59774,1,2,0:0:0:0:
444,27,59872,5,2,0:0:0:0:
0,152,60260,5,8,1:3:0:0:
48,212,60454,1,0,0:0:0:0:
52,232,60551,1,0,0:0:0:0:
48,252,60648,5,4,1:2:0:0:
120,364,60940,1,2,1:3:0:0:
236,292,61231,1,2,0:0:0:0:
236,292,61426,6,0,P|280:296|304:316,1,56.2500021457673,0|0,0:0|1:0,0:0:0:0:
304,312,61571,2,0,L|308:352,1,28.1250010728836,0|0,1:0|1:0,0:0:0:0:
364,376,61717,5,0,1:0:0:0:
424,344,61814,2,0,L|484:348,1,56.2500021457673,2|0,0:0|1:0,0:0:0:0:
448,168,62106,1,0,1:0:0:0:
432,236,62203,6,0,P|456:276|464:228,1,112.500004291535,4|0,1:2|1:0,0:0:0:0:
492,12,62592,6,0,P|434:-1|372:32,1,112.500004291535,2|0,0:0|0:0,0:0:0:0:
256,228,62980,6,0,L|256:96,1,112.500004291535,0|0,1:0|0:0,0:0:0:0:
176,288,63563,5,0,1:0:0:0:
176,288,63660,1,0,1:0:0:0:
176,288,63758,2,0,L|176:132,1,112.500004291535,6|0,1:2|0:0,0:0:0:0:
148,264,64049,2,0,L|148:108,1,112.500004291535,0|0,3:2|2:0,0:0:0:0:
120,240,64341,2,0,L|120:168,1,56.2500021457673,0|0,3:2|2:0,0:0:0:0:
44,208,64535,6,0,L|44:16,1,168.750006437302,2|0,1:2|1:0,0:0:0:0:
44,340,65021,1,0,1:0:0:0:
44,348,65070,1,0,1:0:0:0:
44,356,65118,5,0,1:0:0:0:
68,356,65215,1,0,1:0:0:0:
92,357,65312,1,0,1:0:0:0:
116,357,65410,1,0,3:0:0:0:
188,357,65507,5,0,1:0:0:0:
212,357,65604,1,0,3:0:0:0:
284,357,65701,5,0,1:0:0:0:
308,357,65798,1,0,0:0:0:0:
332,357,65895,1,2,1:2:0:0:
356,357,65992,1,2,1:2:0:0:
428,357,66090,5,4,1:0:0:0:
392,292,66284,1,0,0:0:0:0:
384,216,66479,1,0,0:0:0:0:
400,144,66673,2,0,L|436:136,2,25,2|2|2,0:0|0:0|0:0,0:0:0:0:
332,164,66867,5,0,0:0:0:0:
260,152,67062,1,0,0:0:0:0:
196,116,67256,1,0,0:0:0:0:
152,56,67450,1,0,0:0:0:0:
4,20,67645,5,0,0:0:0:0:
76,164,67839,1,2,0:0:0:0:
44,320,68033,2,0,L|8:328,2,25,2|2|2,0:0|0:0|0:0,0:0:0:0:
88,264,68228,1,2,0:0:0:0:
236,368,68422,5,2,0:0:0:0:
212,296,68616,1,0,0:0:0:0:
220,220,68810,1,2,0:0:0:0:
268,164,69005,1,2,0:0:0:0:
448,368,69199,6,2,P|377:389|300:340,1,150,2|0,0:0|0:0,0:1:0:0:
496,304,69782,1,2,0:0:0:0:
496,304,69879,1,2,0:0:0:0:
496,304,69976,6,2,L|476:120,1,150,6|0,0:0|0:0,0:1:0:0:
365,55,70559,1,2,0:0:0:0:
291,192,70754,2,0,P|250:203|215:186,1,75
221,192,71142,2,0,P|261:180|296:197,1,75,0|2,0:0|0:0,0:0:0:0:
228,27,71920,5,0,2:0:0:0:
204,27,72017,1,2,2:0:0:0:
180,27,72114,1,2,2:1:0:0:
156,27,72211,1,2,2:1:0:0:
84,27,72309,5,6,2:2:0:0:
120,92,72503,1,0,0:0:0:0:
128,168,72698,1,0,0:0:0:0:
112,240,72892,2,0,L|76:248,2,25,2|2|2,0:0|0:0|0:0,0:0:0:0:
180,220,73086,5,2,3:2:0:0:
252,232,73281,1,0,0:0:0:0:
316,268,73475,1,0,0:0:0:0:
360,328,73669,1,0,0:0:0:0:
508,364,73864,5,0,0:0:0:0:
436,220,74058,1,2,0:0:0:0:
468,64,74252,2,0,L|504:56,2,25,2|2|2,0:0|0:0|0:0,0:0:0:0:
424,120,74447,1,2,0:0:0:0:
276,16,74641,5,2,1:2:0:0:
292,48,74737,1,0,1:0:0:0:
300,84,74835,1,0,1:0:0:0:
300,120,74932,1,0,1:0:0:0:
292,156,75029,1,0,1:0:0:0:
276,188,75126,1,0,1:0:0:0:
248,212,75223,1,0,1:0:0:0:
212,228,75320,1,0,1:0:0:0:
300,228,75418,5,2,1:1:0:0:
264,212,75515,1,0,1:0:0:0:
236,188,75612,1,0,1:0:0:0:
220,156,75709,1,0,1:0:0:0:
212,120,75806,1,0,1:0:0:0:
212,84,75903,1,0,1:0:0:0:
220,48,76001,1,2,1:0:0:0:
236,16,76097,1,2,1:0:0:0:
368,88,76195,5,6,1:2:0:0:
320,136,76292,1,0,1:0:0:0:
256,160,76389,1,0,1:0:0:0:
188,168,76486,1,0,1:0:0:0:
120,156,76584,1,0,1:0:0:0:
64,116,76681,1,0,1:0:0:0:
40,52,76778,1,2,1:0:0:0:
92,8,76875,1,2,1:0:0:0:
144,88,76972,5,6,1:2:0:0:
192,136,77069,1,0,1:0:0:0:
256,160,77166,1,0,1:0:0:0:
324,168,77263,1,0,1:0:0:0:
392,156,77361,1,0,1:0:0:0:
448,116,77458,1,0,1:0:0:0:
472,52,77555,1,0,1:0:0:0:
420,8,77652,1,0,1:0:0:0:
368,88,77749,5,2,1:0:0:0:
392,156,77847,1,0,1:0:0:0:
120,156,77944,5,0,1:0:0:0:
144,88,78042,1,0,1:2:0:0:
344,224,78138,5,0,1:0:0:0:
328,332,78235,1,0,1:0:0:0:
184,332,78332,5,0,1:0:0:0:
168,224,78429,1,0,1:0:0:0:
256,312,78527,5,6,1:0:0:0:
256,192,78624,12,8,80081,0:3:0:0:
256,172,80470,6,2,L|256:48,1,112.5,2|0,0:0|1:0,0:1:0:0:
256,48,80810,1,0,1:0:0:0:
256,48,80859,6,0,L|316:48,1,56.2500021457673,2|0,1:1|1:0,0:0:0:0:
256,48,81053,2,0,L|192:48,1,56.2500021457673,0|0,0:0|3:0,0:0:0:0:
104,192,81247,6,0,L|40:192,1,56.2500021457673,8|2,0:0|3:1,0:0:0:0:
408,192,81442,2,0,L|472:192,1,56.2500021457673,2|2,0:0|3:1,0:0:0:0:
120,192,81636,5,4,1:0:0:0:
164,192,81733,1,2,0:1:0:0:
138,260,81830,5,2,0:0:0:0:
176,238,81927,1,2,0:1:0:0:
182,319,82025,5,8,1:2:0:0:
215,262,82122,1,2,0:0:0:0:
255,349,82219,5,2,0:0:0:0:
255,263,82316,1,0,1:0:0:0:
326,312,82413,5,2,0:0:0:0:
299,267,82510,1,2,0:1:0:0:
376,262,82607,5,0,1:0:0:0:
331,235,82704,1,2,0:1:0:0:
408,192,82802,5,8,1:2:0:0:
330,192,82899,1,2,0:1:0:0:
399,108,82996,5,0,0:0:0:0:
309,160,83093,1,2,0:0:0:0:
328,66,83191,5,2,1:1:0:0:
296,121,83288,1,2,0:0:0:0:
256,47,83385,5,0,0:0:0:0:
256,110,83482,1,2,0:0:0:0:
175,53,83580,5,8,1:2:0:0:
222,134,83677,1,2,0:1:0:0:
103,104,83774,5,2,0:0:0:0:
210,166,83871,1,0,1:1:0:0:
95,192,83968,5,2,0:1:0:0:
188,192,84065,1,2,0:0:0:0:
124,268,84162,5,0,1:0:0:0:
191,229,84259,1,2,0:1:0:0:
183,317,84357,5,8,1:2:0:0:
215,263,84454,1,0,0:0:0:0:
256,328,84551,5,2,0:0:0:0:
256,284,84648,1,2,0:0:0:0:
256,192,84745,6,2,B|180:172|184:212|107:194,1,150,4|0,1:0|1:0,0:1:0:0:
400,316,85328,1,2,0:0:0:0:
400,316,85393,1,2,0:0:0:0:
400,316,85458,1,2,0:0:0:0:
400,316,85523,6,0,P|354:346|301:331,1,112.500004291535,2|0,1:1|0:0,0:0:0:0:
112,316,85717,2,0,P|157:346|210:331,1,112.500004291535,4|0,1:2|0:0,0:0:0:0:
256,16,85911,5,0,1:0:0:0:
256,104,86008,1,4,1:2:0:0:
256,192,86105,2,0,L|256:324,1,112.500004291535,0|2,1:0|0:1,0:0:0:0:
380,240,86300,6,2,P|389:129|338:30,1,225.000008583069,2|0,1:0|2:1,0:1:0:0:
173,30,86559,1,2,0:0:0:0:
173,30,86624,1,2,0:0:0:0:
173,30,86688,2,2,P|122:129|132:240,1,225.000008583069,2|0,1:0|1:0,0:1:0:0:
256,288,86980,1,0,1:0:0:0:
230,161,87077,6,0,L|82:117,1,112.500004291535,6|0,1:2|1:0,0:0:0:0:
48,340,87271,2,0,P|100:355|151:333,1,112.500004291535,0|0,1:2|1:0,0:0:0:0:
132,239,87466,6,0,L|35:247,1,75,2|2,1:2|2:0,0:0:0:0:
392,192,87854,5,4,1:0:0:0:
348,192,87951,1,2,0:1:0:0:
374,260,88048,5,2,0:0:0:0:
336,238,88145,1,2,0:1:0:0:
330,319,88243,5,8,1:2:0:0:
297,262,88340,1,2,0:0:0:0:
257,349,88437,5,2,0:0:0:0:
257,263,88534,1,0,1:0:0:0:
186,312,88631,5,2,0:0:0:0:
213,267,88728,1,2,0:1:0:0:
136,262,88825,5,0,1:0:0:0:
181,235,88922,1,2,0:1:0:0:
104,192,89020,5,8,1:2:0:0:
182,192,89117,1,2,0:1:0:0:
113,108,89214,5,0,0:0:0:0:
203,160,89311,1,2,0:0:0:0:
184,66,89409,5,2,1:1:0:0:
216,121,89506,1,2,0:0:0:0:
256,47,89603,5,0,0:0:0:0:
256,110,89700,1,2,0:0:0:0:
337,53,89798,5,8,1:2:0:0:
290,134,89895,1,2,0:1:0:0:
409,104,89992,5,2,0:0:0:0:
302,166,90089,1,0,1:1:0:0:
417,192,90186,5,2,0:1:0:0:
324,192,90283,1,2,0:0:0:0:
388,268,90380,5,0,1:0:0:0:
321,229,90477,1,2,0:1:0:0:
329,317,90575,5,8,1:2:0:0:
297,263,90672,1,0,0:0:0:0:
256,343,90769,5,2,0:0:0:0:
256,268,90866,1,2,0:0:0:0:
256,192,90964,6,2,P|252:84|420:208,1,450.000017166138,4|0,1:0|1:0,0:1:0:0:
392,360,91546,1,2,0:0:0:0:
392,360,91611,1,2,0:0:0:0:
392,360,91676,1,2,0:0:0:0:
392,360,91741,6,0,P|340:384|292:360,1,112.500004291535,0|2,1:1|0:1,0:0:0:0:
296,96,91935,2,0,P|348:72|396:96,1,112.500004291535,4|2,1:2|0:1,0:0:0:0:
256,384,92129,5,0,1:0:0:0:
256,248,92226,1,4,1:2:0:0:
256,112,92323,2,0,L|256:-20,1,112.500004291535,0|2,1:0|0:1,0:0:0:0:
256,192,92518,6,2,P|245:293|413:169,1,450.000017166138,4|0,1:0|2:0,0:1:0:0:
256,192,92907,6,2,P|160:130|183:338,1,450.000017166138,4|0,1:0|1:0,0:1:0:0:
256,192,93296,6,2,P|351:141|160:57,1,450.000017166138,4|0,1:0|1:0,0:1:0:0:
256,192,93684,5,0,1:0:0:0:
392,192,93879,5,0,1:0:0:0:
256,192,93976,1,0,1:0:0:0:
120,192,94073,5,4,1:0:0:0:
164,192,94170,1,2,0:1:0:0:
138,124,94267,5,2,0:0:0:0:
176,146,94364,1,2,0:1:0:0:
182,65,94462,5,8,1:2:0:0:
215,122,94559,1,2,0:0:0:0:
255,35,94656,5,2,0:0:0:0:
255,121,94753,1,0,1:0:0:0:
299,117,94850,5,2,0:2:0:0:
326,72,94947,1,2,0:1:0:0:
331,149,95044,5,0,1:1:0:0:
376,122,95141,1,2,0:1:0:0:
330,192,95239,5,8,1:2:0:0:
408,192,95336,1,0,2:0:0:0:
309,224,95433,5,0,0:0:0:0:
399,276,95530,1,2,0:0:0:0:
328,318,95628,5,2,1:1:0:0:
296,263,95725,1,2,0:0:0:0:
256,337,95822,5,0,0:0:0:0:
256,274,95919,1,2,0:0:0:0:
175,331,96017,5,8,1:2:0:0:
222,250,96114,1,2,0:1:0:0:
103,280,96211,5,2,0:0:0:0:
210,218,96308,1,0,1:1:0:0:
188,192,96405,5,2,0:1:0:0:
95,192,96502,1,2,0:2:0:0:
191,155,96599,5,0,1:1:0:0:
124,116,96696,1,2,0:1:0:0:
215,121,96794,5,8,1:2:0:0:
183,67,96891,1,0,0:0:0:0:
256,100,96988,5,2,0:0:0:0:
256,56,97085,1,2,0:0:0:0:
256,192,97182,6,2,B|332:212|328:172|405:190,1,150,4|0,1:0|1:0,0:1:0:0:
112,316,97765,1,2,0:0:0:0:
112,316,97830,1,2,0:0:0:0:
112,316,97895,1,2,0:0:0:0:
112,316,97960,6,0,P|158:346|211:331,1,112.500004291535,2|0,1:1|0:0,0:0:0:0:
400,316,98154,2,0,P|355:346|302:331,1,112.500004291535,4|0,1:2|0:0,0:0:0:0:
256,16,98348,5,0,1:0:0:0:
256,104,98445,1,4,1:2:0:0:
256,192,98542,2,0,L|256:324,1,112.500004291535,0|2,1:0|0:1,0:0:0:0:
132,240,98737,6,2,P|123:129|174:30,1,225.000008583069,2|0,1:0|2:1,0:1:0:0:
339,30,98996,1,2,0:0:0:0:
339,30,99061,1,2,0:0:0:0:
339,30,99125,2,2,P|390:129|380:240,1,225.000008583069,2|0,1:0|1:0,0:1:0:0:
256,288,99417,1,0,1:0:0:0:
324,172,99514,6,0,L|468:156,1,112.500004291535,6|0,1:2|1:0,0:0:0:0:
464,340,99708,2,0,P|412:355|361:333,1,112.500004291535,0|0,1:2|1:0,0:0:0:0:
256,288,99903,6,0,L|256:192,1,75,2|2,1:2|2:0,0:0:0:0:
256,136,100097,6,0,L|256:40,1,56.2500021457673,2|2,2:2|2:0,0:0:0:0:
256,32,100291,5,4,1:0:0:0:
0,356,100680,5,0,1:0:0:0:
40,228,100971,5,0,3:0:0:0:
80,356,101069,1,0,3:0:0:0:
160,356,101263,5,0,3:0:0:0:
240,356,101457,2,0,P|260:296|224:240,1,112.500004291535,0|2,1:0|0:0,0:0:0:0:
256,32,101846,5,0,3:0:0:0:
512,356,102235,5,0,1:0:0:0:
472,228,102526,5,0,3:0:0:0:
432,356,102624,1,0,3:0:0:0:
352,356,102818,5,0,3:0:0:0:
312,228,102915,1,0,3:0:0:0:
272,356,103012,2,0,P|252:296|288:240,1,112.500004291535,0|2,1:0|0:0,0:0:0:0:
260,228,103303,1,0,1:0:0:0:
260,228,103400,5,2,1:2:0:0:
252,156,103497,1,2,1:2:0:0:
227,214,103595,5,2,1:2:0:0:
286,171,103692,1,2,1:2:0:0:
223,178,103789,5,2,1:2:0:0:
290,207,103886,1,2,1:2:0:0:
248,111,103983,5,2,1:2:0:0:
267,276,104080,1,2,1:2:0:0:
324,143,104178,5,2,1:1:0:0:
189,242,104275,1,2,1:1:0:0:
333,226,104372,5,2,1:1:0:0:
179,159,104469,1,2,1:1:0:0:
273,319,104566,5,2,1:1:0:0:
244,71,104663,1,2,1:1:0:0:
130,209,104760,5,2,1:1:0:0:
378,180,104857,1,2,1:1:0:0:
256,192,104955,6,0,L|251:125,1,37.5,4|4,0:3|0:3,0:0:0:0:
256,192,105149,6,0,L|260:258,1,56.2500021457673,4|4,0:3|0:3,0:0:0:0:
256,192,105344,6,0,L|139:200,1,75,4|4,0:3|0:3,0:0:0:0:
256,192,105538,6,0,L|373:184,1,93.75,4|4,0:3|0:3,0:0:0:0:
256,192,105732,6,0,L|245:39,1,112.500004291535,4|4,0:3|0:3,0:0:0:0:
256,192,105927,6,0,L|260:252,2,56.2500021457673,4|4|0,3:3|3:3|3:0,0:0:0:0:
436,180,106121,5,0,3:0:0:0:
88,204,106315,5,0,3:0:0:0:
480,296,106510,6,2,B|516:296|536:332|516:368|480:368|480:368|440:368|440:368|404:368|380:332|404:296|440:296|440:296|480:296,1,314.999990386963,4|0,1:0|0:0,0:1:0:0:
512,224,106898,6,0,L|456:224,1,37.5,4|4,0:3|0:3,0:0:0:0:
440,224,106995,2,0,L|400:224,1,37.5,4|0,0:3|0:0,0:0:0:0:
512,152,107093,6,0,L|472:152,1,37.5,4|4,0:3|0:3,0:0:0:0:
440,152,107190,2,0,L|400:152,1,37.5,4|4,1:3|1:3,0:0:0:0:
364,160,107288,6,0,L|364:80,1,75,0|4,1:3|0:3,0:0:0:0:
335,224,107481,6,0,P|314:235|291:229,1,50,4|4,0:3|0:3,0:0:0:0:
176,224,107611,2,0,P|197:235|220:229,1,50,4|4,0:3|0:3,0:0:0:0:
317,309,107774,6,0,P|255:345|194:308,1,150,4|0,0:3|1:0,0:0:0:0:
32,296,108065,6,2,B|-4:296|-24:332|-4:368|32:368|32:368|72:368|72:368|108:368|108:332|108:332|108:176,1,337.500012874604,4|0,1:0|1:0,0:1:0:0:
16,120,108453,6,0,L|80:120,2,50,4|4|4,0:3|0:3|0:3,0:0:0:0:
144,140,108647,6,0,L|144:60,1,75,0|0,1:3|1:3,0:0:0:0:
144,44,108793,1,0,1:0:0:0:
144,44,108842,6,0,B|110:40|110:40|140:-4|140:-4|236:56,1,150,0|0,1:0|0:0,0:0:0:0:
332,236,109230,6,0,B|328:202|328:202|284:232|284:232|317:285,1,150,0|0,1:0|0:0,0:0:0:0:
480,296,109425,6,2,B|480:332|444:352|408:332|408:296|408:296|408:60,1,337.500012874604,4|0,1:0|0:0,0:1:0:0:
360,16,109813,6,0,B|306:16|306:16|283:40|283:40|283:109|283:109|260:132|260:132|221:132,1,225.000008583069,0|0,1:0|0:0,0:0:0:0:
160,88,110105,1,0,1:0:0:0:
160,88,110202,2,0,B|119:88|119:88|102:106|102:106|103:153,1,112.500004291535,0|0,1:0|0:0,0:0:0:0:
104,176,110348,1,0,0:0:0:0:
104,176,110396,2,0,B|105:223|105:223|88:240|88:240|46:240,1,112.500004291535,4|0,1:2|2:0,0:0:0:0:
48,316,110591,6,0,B|90:316|90:316|107:333|107:333|106:380,1,112.500004291535,2|0,2:2|2:0,0:0:0:0:
184,316,110785,2,0,B|184:364|184:364|208:388|208:388|268:388|268:388|292:364|292:364|292:312,1,225.000008583069,0|0,1:0|1:0,0:0:0:0:
292,236,111076,1,0,1:0:0:0:
292,236,111173,6,0,L|404:236,1,112.500004291535,0|0,1:0|0:0,0:0:0:0:
292,160,111465,2,0,L|460:160,1,168.750006437302,0|0,1:0|1:0,0:0:0:0:
464,84,111854,5,0,1:0:0:0:
464,84,111902,1,0,1:0:0:0:
464,84,111951,2,0,L|352:84,1,112.500004291535,0|0,2:0|0:0,0:0:0:0:
464,8,112242,6,0,L|372:8,1,56.2500021457673,0|0,1:0|0:0,0:0:0:0:
256,8,112437,2,0,L|256:52,1,28.1250010728836,4|0,1:2|0:0,0:0:0:0:
256,384,112728,5,0,1:0:0:0:
32,88,113117,6,2,B|-4:88|-24:52|-4:16|32:16|32:16|72:16|72:16|108:16|132:52|108:88|72:88|72:88|32:88,1,314.999990386963,4|0,1:0|1:0,0:1:0:0:
0,160,113506,6,0,L|116:160,1,104.999996795654,0|4,1:3|0:3,0:0:0:0:
177,160,113700,6,0,P|198:149|221:155,1,50,4|4,0:3|0:3,0:0:0:0:
336,160,113829,2,0,P|315:149|292:155,1,50,4|4,0:3|0:3,0:0:0:0:
195,75,113992,6,0,P|257:39|318:76,1,150,4|0,0:3|1:0,0:0:0:0:
480,88,114283,6,2,B|516:88|536:52|516:16|480:16|480:16|440:16|440:16|404:16|404:52|404:52|404:208,1,337.500012874604,4|0,1:0|1:0,0:1:0:0:
496,264,114671,6,0,L|432:264,2,50,4|4|4,0:3|0:3|0:3,0:0:0:0:
368,232,114865,6,0,L|368:312,1,75,0|0,1:3|1:3,0:0:0:0:
368,328,115011,1,0,1:0:0:0:
368,328,115060,6,0,B|402:332|402:332|372:376|372:376|276:316,1,150,0|0,1:0|1:0,0:0:0:0:
32,88,115449,6,2,B|32:52|68:32|104:52|104:88|104:88|104:324,1,337.500012874604,4|0,1:0|0:0,0:1:0:0:
48,384,115837,6,0,B|102:384|102:384|125:360|125:360|125:291|125:291|148:268|148:268|187:268,1,225.000008583069,4|0,1:2|0:0,0:0:0:0:
327,268,116129,2,0,B|364:268|364:268|387:291|387:291|387:360|387:360|410:384|410:384|464:384,1,225.000008583069,4|0,1:2|1:0,0:0:0:0:
256,384,116420,1,0,1:0:0:0:
360,8,116614,6,0,B|360:161|360:161|343:178|343:178|296:177,1,225.000008583069,4|0,1:2|2:0,0:0:0:0:
216,177,116906,2,0,B|169:178|169:178|152:161|152:161|152:8,1,225.000008583069,4|0,1:2|1:0,0:0:0:0:
256,248,117198,1,0,1:0:0:0:
67,308,117392,6,0,B|67:280|67:280|79:268|79:268|191:268,1,150,6|0,1:2|0:0,0:0:0:0:
327,268,117683,1,0,1:0:0:0:
402,268,117781,2,0,L|327:268,1,75,0|0,1:0|0:0,0:0:0:0:
256,384,117975,5,4,1:2:0:0:
256,192,118072,12,0,121278,0:0:0:0:
