osu file format v14

[General]
AudioFilename: audio.mp3
AudioLeadIn: 0
PreviewTime: 80848
Countdown: 0
SampleSet: Normal
StackLeniency: 0.7
Mode: 1
LetterboxInBreaks: 0
WidescreenStoryboard: 1

[Editor]
DistanceSpacing: 1.9
BeatDivisor: 4
GridSize: 32
TimelineZoom: 1.95

[Metadata]
Title:Towards The Horizon
TitleUnicode:Towards The Horizon
Artist:Camellia
ArtistUnicode:かめりあ
Creator:duski
Version:Oni
Source:REFLEC BEAT 悠久のリフレシア
Tags:Ayyri rb illusiya イルシヤ 6th konami arcade championship kac bemani the reflesia of eternity
BeatmapID:1313438
BeatmapSetID:619639

[Difficulty]
HPDrainRate:6
CircleSize:2
OverallDifficulty:5.5
ApproachRate:8
SliderMultiplier:1.4
SliderTickRate:1

[Events]
//Background and Video events
0,0,"towards the horizon.jpg",0,0
//Break Periods
//Storyboard Layer 0 (Background)
//Storyboard Layer 1 (Fail)
//Storyboard Layer 2 (Pass)
//Storyboard Layer 3 (Foreground)
//Storyboard Sound Samples

[TimingPoints]
797,388.60103626943,4,1,0,75,1,0
797,-100,4,1,0,75,0,0
28776,-100,4,1,0,75,0,0
41211,-100,4,1,0,75,0,1
53646,-100,4,1,0,75,0,0
66664,-100,4,1,0,75,0,0
81626,-100,4,1,0,75,0,1
100278,-100,4,1,0,75,0,0
106496,-100,4,1,0,75,0,0

[HitObjects]
256,192,3905,5,0,0:0:0:0:
256,192,4100,1,0,0:0:0:0:
256,192,4197,1,0,0:0:0:0:
256,192,4294,1,8,0:0:0:0:
256,192,4488,1,8,0:0:0:0:
256,192,4585,1,0,0:0:0:0:
256,192,4683,1,0,0:0:0:0:
256,192,4877,1,0,0:0:0:0:
256,192,5071,1,0,0:0:0:0:
256,192,5265,1,8,0:0:0:0:
256,192,5460,1,8,0:0:0:0:
256,192,5654,1,8,0:0:0:0:
256,192,5751,1,8,0:0:0:0:
256,192,5848,1,0,0:0:0:0:
256,192,6043,1,8,0:0:0:0:
256,192,6140,1,0,0:0:0:0:
256,192,6237,1,8,0:0:0:0:
256,192,6431,1,0,0:0:0:0:
256,192,6820,1,8,0:0:0:0:
256,192,7014,1,0,0:0:0:0:
256,192,7306,1,8,0:0:0:0:
256,192,7403,1,8,0:0:0:0:
256,192,7597,12,8,9734,0:0:0:0:
256,192,10123,5,0,0:0:0:0:
256,192,10318,1,8,0:0:0:0:
256,192,10415,1,0,0:0:0:0:
256,192,10512,1,8,0:0:0:0:
256,192,10706,1,0,0:0:0:0:
256,192,10803,1,8,0:0:0:0:
256,192,10900,1,0,0:0:0:0:
256,192,11095,1,0,0:0:0:0:
256,192,11289,1,0,0:0:0:0:
256,192,11483,1,8,0:0:0:0:
256,192,11678,1,8,0:0:0:0:
256,192,11774,1,0,0:0:0:0:
256,192,11872,1,0,0:0:0:0:
256,192,12066,1,0,0:0:0:0:
256,192,12261,1,8,0:0:0:0:
256,192,12358,1,0,0:0:0:0:
256,192,12455,1,8,0:0:0:0:
256,192,12649,1,0,0:0:0:0:
256,192,13037,1,0,0:0:0:0:
256,192,13135,1,0,0:0:0:0:
256,192,13232,1,0,0:0:0:0:
256,192,13523,1,8,0:0:0:0:
256,192,13620,1,8,0:0:0:0:
256,192,13815,12,8,16146,0:0:0:0:
256,192,16341,5,4,0:0:0:0:
256,192,16729,1,8,0:0:0:0:
256,192,17021,1,8,0:0:0:0:
256,192,17118,1,0,0:0:0:0:
256,192,17312,1,0,0:0:0:0:
256,192,17506,1,8,0:0:0:0:
256,192,17895,1,0,0:0:0:0:
256,192,18284,1,8,0:0:0:0:
256,192,18575,1,8,0:0:0:0:
256,192,18672,1,0,0:0:0:0:
256,192,18866,1,0,0:0:0:0:
256,192,19061,1,8,0:0:0:0:
256,192,19255,1,0,0:0:0:0:
256,192,19449,1,0,0:0:0:0:
256,192,19838,1,8,0:0:0:0:
256,192,20129,1,8,0:0:0:0:
256,192,20227,1,0,0:0:0:0:
256,192,20421,1,0,0:0:0:0:
256,192,20615,1,8,0:0:0:0:
256,192,21004,1,0,0:0:0:0:
256,192,21392,1,8,0:0:0:0:
256,192,21684,1,0,0:0:0:0:
256,192,21878,1,0,0:0:0:0:
256,192,22072,1,0,0:0:0:0:
256,192,22170,1,8,0:0:0:0:
256,192,22267,1,0,0:0:0:0:
256,192,22558,1,0,0:0:0:0:
256,192,22947,1,8,0:0:0:0:
256,192,23238,1,0,0:0:0:0:
256,192,23335,1,0,0:0:0:0:
256,192,23530,1,0,0:0:0:0:
256,192,23724,1,8,0:0:0:0:
256,192,24113,1,0,0:0:0:0:
256,192,24307,1,0,0:0:0:0:
256,192,24404,1,0,0:0:0:0:
256,192,24501,1,8,0:0:0:0:
256,192,24695,1,0,0:0:0:0:
256,192,24890,1,8,0:0:0:0:
256,192,24987,1,8,0:0:0:0:
256,192,25084,1,8,0:0:0:0:
256,192,25181,1,8,0:0:0:0:
256,192,25278,1,0,0:0:0:0:
256,192,25473,1,0,0:0:0:0:
256,192,25667,1,8,0:0:0:0:
256,192,25764,1,0,0:0:0:0:
256,192,25861,1,0,0:0:0:0:
256,192,25959,1,0,0:0:0:0:
256,192,26056,1,8,0:0:0:0:
256,192,26250,1,0,0:0:0:0:
256,192,26445,1,8,0:0:0:0:
256,192,26541,1,8,0:0:0:0:
256,192,26638,1,0,0:0:0:0:
256,192,26736,1,0,0:0:0:0:
256,192,26833,1,8,0:0:0:0:
256,192,27027,1,0,0:0:0:0:
256,192,27124,1,0,0:0:0:0:
256,192,27222,1,8,0:0:0:0:
256,192,28776,5,4,0:0:0:0:
256,192,29164,1,0,0:0:0:0:
256,192,29359,1,8,0:0:0:0:
256,192,29553,1,0,0:0:0:0:
256,192,29650,1,8,0:0:0:0:
256,192,29844,1,0,0:0:0:0:
256,192,29942,1,8,0:0:0:0:
256,192,30136,1,8,0:0:0:0:
256,192,30330,1,4,0:0:0:0:
256,192,30719,1,8,0:0:0:0:
256,192,30913,1,0,0:0:0:0:
256,192,31107,1,8,0:0:0:0:
256,192,31205,1,0,0:0:0:0:
256,192,31399,1,8,0:0:0:0:
256,192,31496,1,0,0:0:0:0:
256,192,31593,1,8,0:0:0:0:
256,192,31690,1,0,0:0:0:0:
256,192,31787,1,8,0:0:0:0:
256,192,31885,1,0,0:0:0:0:
256,192,32273,1,0,0:0:0:0:
256,192,32467,1,8,0:0:0:0:
256,192,32662,1,0,0:0:0:0:
256,192,32759,1,8,0:0:0:0:
256,192,32953,1,0,0:0:0:0:
256,192,33050,1,8,0:0:0:0:
256,192,33245,1,8,0:0:0:0:
256,192,33439,1,0,0:0:0:0:
256,192,33633,1,0,0:0:0:0:
256,192,33730,1,0,0:0:0:0:
256,192,33828,1,8,0:0:0:0:
256,192,34022,1,0,0:0:0:0:
256,192,34216,1,8,0:0:0:0:
256,192,34313,1,0,0:0:0:0:
256,192,34410,1,0,0:0:0:0:
256,192,34508,1,8,0:0:0:0:
256,192,34605,1,8,0:0:0:0:
256,192,34799,1,0,0:0:0:0:
256,192,34993,1,4,0:0:0:0:
256,192,35381,1,8,0:0:0:0:
256,192,35576,1,0,0:0:0:0:
256,192,35770,1,8,0:0:0:0:
256,192,35867,1,0,0:0:0:0:
256,192,36061,1,8,0:0:0:0:
256,192,36159,1,0,0:0:0:0:
256,192,36353,1,8,0:0:0:0:
256,192,36548,1,4,0:0:0:0:
256,192,36936,1,8,0:0:0:0:
256,192,37130,1,0,0:0:0:0:
256,192,37324,1,8,0:0:0:0:
256,192,37422,1,0,0:0:0:0:
256,192,37616,1,8,0:0:0:0:
256,192,37713,1,0,0:0:0:0:
256,192,37810,1,8,0:0:0:0:
256,192,37907,1,8,0:0:0:0:
256,192,38004,1,8,0:0:0:0:
256,192,38102,1,4,0:0:0:0:
256,192,38491,1,8,0:0:0:0:
256,192,38685,1,0,0:0:0:0:
256,192,38782,1,0,0:0:0:0:
256,192,38879,1,8,0:0:0:0:
256,192,39074,1,0,0:0:0:0:
256,192,39268,1,0,0:0:0:0:
256,192,39462,1,8,0:0:0:0:
256,192,39559,1,8,0:0:0:0:
256,192,39657,1,0,0:0:0:0:
256,192,39851,1,0,0:0:0:0:
256,192,39948,1,0,0:0:0:0:
256,192,40046,1,8,0:0:0:0:
256,192,40239,1,8,0:0:0:0:
256,192,40336,1,0,0:0:0:0:
256,192,40433,1,8,0:0:0:0:
256,192,40530,1,0,0:0:0:0:
256,192,40627,1,0,0:0:0:0:
256,192,40822,1,8,0:0:0:0:
256,192,40920,1,8,0:0:0:0:
256,192,41016,1,8,0:0:0:0:
256,192,41113,1,8,0:0:0:0:
256,192,41211,1,0,0:0:0:0:
256,192,41405,1,0,0:0:0:0:
256,192,41502,1,0,0:0:0:0:
256,192,41600,1,8,0:0:0:0:
256,192,41794,1,8,0:0:0:0:
256,192,41891,1,0,0:0:0:0:
256,192,41988,1,8,0:0:0:0:
256,192,42183,1,0,0:0:0:0:
256,192,42377,1,8,0:0:0:0:
256,192,42571,1,8,0:0:0:0:
256,192,42765,1,0,0:0:0:0:
256,192,42960,1,0,0:0:0:0:
256,192,43057,1,0,0:0:0:0:
256,192,43154,1,8,0:0:0:0:
256,192,43348,1,8,0:0:0:0:
256,192,43445,1,0,0:0:0:0:
256,192,43543,1,0,0:0:0:0:
256,192,43737,1,0,0:0:0:0:
256,192,43931,1,8,0:0:0:0:
256,192,44320,1,0,0:0:0:0:
256,192,44611,1,0,0:0:0:0:
256,192,44708,1,8,0:0:0:0:
256,192,44903,1,0,0:0:0:0:
256,192,45097,1,0,0:0:0:0:
256,192,45194,1,8,0:0:0:0:
256,192,45388,1,8,0:0:0:0:
256,192,45486,1,0,0:0:0:0:
256,192,45680,1,8,0:0:0:0:
256,192,45874,1,0,0:0:0:0:
256,192,46069,1,0,0:0:0:0:
256,192,46166,1,0,0:0:0:0:
256,192,46263,1,8,0:0:0:0:
256,192,46457,1,8,0:0:0:0:
256,192,46554,1,0,0:0:0:0:
256,192,46749,1,0,0:0:0:0:
256,192,46846,1,0,0:0:0:0:
256,192,46943,1,0,0:0:0:0:
256,192,47040,1,8,0:0:0:0:
256,192,47234,1,8,0:0:0:0:
256,192,47429,1,0,0:0:0:0:
256,192,47623,1,0,0:0:0:0:
256,192,47720,1,0,0:0:0:0:
256,192,47818,1,8,0:0:0:0:
256,192,48012,1,8,0:0:0:0:
256,192,48109,1,0,0:0:0:0:
256,192,48206,1,8,0:0:0:0:
256,192,48401,1,0,0:0:0:0:
256,192,48595,1,8,0:0:0:0:
256,192,48789,1,8,0:0:0:0:
256,192,48983,1,0,0:0:0:0:
256,192,49177,1,0,0:0:0:0:
256,192,49274,1,0,0:0:0:0:
256,192,49372,1,8,0:0:0:0:
256,192,49566,1,8,0:0:0:0:
256,192,49663,1,8,0:0:0:0:
256,192,49760,1,0,0:0:0:0:
256,192,49955,1,0,0:0:0:0:
256,192,50149,1,8,0:0:0:0:
256,192,50538,1,0,0:0:0:0:
256,192,50829,1,0,0:0:0:0:
256,192,50926,1,8,0:0:0:0:
256,192,51121,1,0,0:0:0:0:
256,192,51315,1,0,0:0:0:0:
256,192,51412,1,8,0:0:0:0:
256,192,51606,1,8,0:0:0:0:
256,192,51704,1,0,0:0:0:0:
256,192,51898,1,8,0:0:0:0:
256,192,52092,1,8,0:0:0:0:
256,192,52287,1,0,0:0:0:0:
256,192,52384,1,0,0:0:0:0:
256,192,52675,1,8,0:0:0:0:
256,192,52869,1,0,0:0:0:0:
256,192,52966,1,0,0:0:0:0:
256,192,53064,1,0,0:0:0:0:
256,192,53160,1,0,0:0:0:0:
256,192,53258,1,8,0:0:0:0:
256,192,53452,1,8,0:0:0:0:
256,192,53646,1,4,0:0:0:0:
256,192,54423,1,8,0:0:0:0:
256,192,55298,1,0,0:0:0:0:
256,192,55395,1,0,0:0:0:0:
256,192,55492,1,0,0:0:0:0:
256,192,55686,1,0,0:0:0:0:
256,192,55881,1,0,0:0:0:0:
256,192,55978,1,8,0:0:0:0:
256,192,56172,1,0,0:0:0:0:
256,192,56755,1,4,0:0:0:0:
256,192,57338,1,0,0:0:0:0:
256,192,57435,1,0,0:0:0:0:
256,192,57532,1,8,0:0:0:0:
256,192,58309,1,0,0:0:0:0:
256,192,58601,1,0,0:0:0:0:
256,192,58892,1,0,0:0:0:0:
256,192,59087,1,8,0:0:0:0:
256,192,59184,1,0,0:0:0:0:
256,192,59281,1,0,0:0:0:0:
256,192,59475,1,8,0:0:0:0:
256,192,60252,1,4,0:0:0:0:
256,192,60641,1,8,0:0:0:0:
256,192,61515,1,0,0:0:0:0:
256,192,61612,1,0,0:0:0:0:
256,192,61709,1,0,0:0:0:0:
256,192,61903,1,0,0:0:0:0:
256,192,62098,1,0,0:0:0:0:
256,192,62195,1,8,0:0:0:0:
256,192,62389,1,0,0:0:0:0:
256,192,62972,1,4,0:0:0:0:
256,192,63555,1,0,0:0:0:0:
256,192,63652,1,0,0:0:0:0:
256,192,63749,1,8,0:0:0:0:
256,192,64526,1,0,0:0:0:0:
256,192,64818,1,0,0:0:0:0:
256,192,65109,1,0,0:0:0:0:
256,192,65304,1,8,0:0:0:0:
256,192,65401,1,0,0:0:0:0:
256,192,65498,1,0,0:0:0:0:
256,192,65693,1,0,0:0:0:0:
256,192,65791,1,0,0:0:0:0:
256,192,65888,1,8,0:0:0:0:
256,192,65985,1,0,0:0:0:0:
256,192,66082,1,8,0:0:0:0:
256,192,66664,1,8,0:0:0:0:
256,192,66762,1,0,0:0:0:0:
256,192,66859,1,0,0:0:0:0:
256,192,67247,1,8,0:0:0:0:
256,192,67636,1,0,0:0:0:0:
256,192,67830,1,8,0:0:0:0:
256,192,68024,1,8,0:0:0:0:
256,192,68122,1,8,0:0:0:0:
256,192,68219,1,0,0:0:0:0:
256,192,68413,1,0,0:0:0:0:
256,192,68607,1,8,0:0:0:0:
256,192,68802,1,8,0:0:0:0:
256,192,68996,1,8,0:0:0:0:
256,192,69190,1,8,0:0:0:0:
256,192,69773,1,0,0:0:0:0:
256,192,69870,1,0,0:0:0:0:
256,192,69967,1,8,0:0:0:0:
256,192,70356,1,8,0:0:0:0:
256,192,71133,1,8,0:0:0:0:
256,192,71910,1,0,0:0:0:0:
256,192,72008,1,0,0:0:0:0:
256,192,72105,1,8,0:0:0:0:
256,192,72202,1,0,0:0:0:0:
256,192,72299,1,8,0:0:0:0:
256,192,72882,1,8,0:0:0:0:
256,192,72979,1,8,0:0:0:0:
256,192,73076,1,0,0:0:0:0:
256,192,73465,1,8,0:0:0:0:
256,192,74048,1,8,0:0:0:0:
256,192,74242,1,8,0:0:0:0:
256,192,74339,1,8,0:0:0:0:
256,192,74436,1,0,0:0:0:0:
256,192,74631,1,0,0:0:0:0:
256,192,74825,1,8,0:0:0:0:
256,192,75019,1,8,0:0:0:0:
256,192,75214,1,0,0:0:0:0:
256,192,75408,5,8,0:0:0:0:
256,192,75602,1,0,0:0:0:0:
256,192,75796,1,8,0:0:0:0:
256,192,75991,1,0,0:0:0:0:
256,192,76088,1,8,0:0:0:0:
256,192,76185,1,8,0:0:0:0:
256,192,76379,1,0,0:0:0:0:
256,192,76477,1,0,0:0:0:0:
256,192,76574,1,8,0:0:0:0:
256,192,76671,1,8,0:0:0:0:
256,192,76768,1,0,0:0:0:0:
256,192,76865,1,0,0:0:0:0:
256,192,76962,1,8,0:0:0:0:
256,192,77157,1,0,0:0:0:0:
256,192,77351,1,8,0:0:0:0:
256,192,77448,1,8,0:0:0:0:
256,192,77545,1,0,0:0:0:0:
256,192,77642,1,0,0:0:0:0:
256,192,77740,1,8,0:0:0:0:
256,192,77934,1,0,0:0:0:0:
256,192,78128,1,8,0:0:0:0:
256,192,78517,12,8,79683,0:0:0:0:
256,192,80071,5,4,0:0:0:0:
256,192,80460,1,0,0:0:0:0:
256,192,80848,1,8,0:0:0:0:
256,192,81237,1,0,0:0:0:0:
256,192,81626,5,12,0:0:0:0:
256,192,81820,1,0,0:0:0:0:
256,192,81917,1,8,0:0:0:0:
256,192,82014,1,0,0:0:0:0:
256,192,82208,1,8,0:0:0:0:
256,192,82403,1,8,0:0:0:0:
256,192,82500,1,0,0:0:0:0:
256,192,82597,1,0,0:0:0:0:
256,192,82694,1,8,0:0:0:0:
256,192,82791,1,0,0:0:0:0:
256,224,82986,1,8,0:0:0:0:
256,192,83180,1,8,0:0:0:0:
256,192,83374,1,0,0:0:0:0:
256,192,83471,1,8,0:0:0:0:
256,192,83569,1,8,0:0:0:0:
256,192,83763,1,8,0:0:0:0:
256,192,83860,1,0,0:0:0:0:
256,192,83957,1,8,0:0:0:0:
256,192,84151,1,0,0:0:0:0:
256,192,84346,1,8,0:0:0:0:
256,192,84540,1,0,0:0:0:0:
256,192,84734,1,0,0:0:0:0:
256,192,85123,1,8,0:0:0:0:
256,192,85414,1,0,0:0:0:0:
256,192,85706,1,0,0:0:0:0:
256,192,85900,1,8,0:0:0:0:
256,192,85997,1,8,0:0:0:0:
256,192,86094,1,0,0:0:0:0:
256,192,86192,1,8,0:0:0:0:
256,192,86289,1,0,0:0:0:0:
256,192,86483,1,0,0:0:0:0:
256,192,86677,1,8,0:0:0:0:
256,192,86872,1,0,0:0:0:0:
256,192,86969,1,0,0:0:0:0:
256,192,87066,1,8,0:0:0:0:
256,192,87260,1,8,0:0:0:0:
256,192,87455,1,0,0:0:0:0:
256,192,87843,1,12,0:0:0:0:
256,192,88037,1,0,0:0:0:0:
256,192,88134,1,8,0:0:0:0:
256,192,88231,1,0,0:0:0:0:
256,192,88426,1,8,0:0:0:0:
256,192,88620,1,8,0:0:0:0:
256,192,88717,1,0,0:0:0:0:
256,192,88814,1,0,0:0:0:0:
256,192,88911,1,8,0:0:0:0:
256,192,89008,1,0,0:0:0:0:
256,192,89203,1,8,0:0:0:0:
256,192,89398,1,8,0:0:0:0:
256,192,89591,1,0,0:0:0:0:
256,192,89688,1,8,0:0:0:0:
256,192,89786,1,8,0:0:0:0:
256,192,89980,1,8,0:0:0:0:
256,192,90077,1,0,0:0:0:0:
256,192,90174,1,8,0:0:0:0:
256,192,90368,1,0,0:0:0:0:
256,192,90563,1,8,0:0:0:0:
256,192,90757,1,0,0:0:0:0:
256,192,90952,1,12,0:0:0:0:
256,192,91340,1,8,0:0:0:0:
256,192,91631,1,0,0:0:0:0:
256,192,91923,1,0,0:0:0:0:
256,192,92117,1,8,0:0:0:0:
256,192,92214,1,8,0:0:0:0:
256,192,92311,1,0,0:0:0:0:
256,192,92409,1,8,0:0:0:0:
256,192,92506,1,0,0:0:0:0:
256,192,92894,1,8,0:0:0:0:
256,192,93089,1,0,0:0:0:0:
256,192,93186,1,0,0:0:0:0:
256,192,93283,1,8,0:0:0:0:
256,192,93478,1,8,0:0:0:0:
256,192,93672,1,0,0:0:0:0:
256,192,93866,1,0,0:0:0:0:
256,192,94061,1,12,0:0:0:0:
256,192,94255,1,0,0:0:0:0:
256,192,94352,1,8,0:0:0:0:
256,192,94449,1,0,0:0:0:0:
256,192,94643,1,8,0:0:0:0:
256,192,94838,1,8,0:0:0:0:
256,192,94935,1,0,0:0:0:0:
256,192,95032,1,0,0:0:0:0:
256,192,95129,1,8,0:0:0:0:
256,192,95226,1,0,0:0:0:0:
256,192,95421,1,8,0:0:0:0:
256,192,95615,1,8,0:0:0:0:
256,192,95809,1,0,0:0:0:0:
256,192,95906,1,8,0:0:0:0:
256,192,96004,1,8,0:0:0:0:
256,192,96198,1,8,0:0:0:0:
256,192,96295,1,0,0:0:0:0:
256,192,96392,1,8,0:0:0:0:
256,192,96586,1,0,0:0:0:0:
256,192,96781,1,8,0:0:0:0:
256,192,96975,1,0,0:0:0:0:
256,192,97169,1,0,0:0:0:0:
256,192,97558,1,8,0:0:0:0:
256,192,97752,1,8,0:0:0:0:
256,192,97850,1,0,0:0:0:0:
256,192,97947,1,8,0:0:0:0:
256,192,98141,1,0,0:0:0:0:
256,192,98335,1,8,0:0:0:0:
256,192,98432,1,8,0:0:0:0:
256,192,98529,1,0,0:0:0:0:
256,192,98627,1,8,0:0:0:0:
256,192,98724,1,0,0:0:0:0:
256,192,98918,1,0,0:0:0:0:
256,192,99015,1,8,0:0:0:0:
256,192,99112,1,8,0:0:0:0:
256,192,99307,1,0,0:0:0:0:
256,192,99404,1,0,0:0:0:0:
256,192,99501,1,8,0:0:0:0:
256,192,99695,1,8,0:0:0:0:
256,192,99890,1,0,0:0:0:0:
256,192,100084,1,0,0:0:0:0:
256,192,100278,1,4,0:0:0:0:
256,192,100667,1,8,0:0:0:0:
256,192,100958,1,8,0:0:0:0:
256,192,101056,1,0,0:0:0:0:
256,192,101250,1,0,0:0:0:0:
256,192,101444,1,8,0:0:0:0:
256,192,101833,1,0,0:0:0:0:
256,192,102221,1,8,0:0:0:0:
256,192,102513,1,0,0:0:0:0:
256,192,102804,1,0,0:0:0:0:
256,192,102999,1,8,0:0:0:0:
256,192,103193,1,0,0:0:0:0:
256,192,103387,12,0,104942,0:0:0:0:
256,192,106496,5,4,0:0:0:0:
256,192,106885,1,0,0:0:0:0:
256,192,107079,1,0,0:0:0:0:
256,192,107176,1,0,0:0:0:0:
256,192,107273,1,8,0:0:0:0:
256,192,107467,1,8,0:0:0:0:
256,192,107565,1,8,0:0:0:0:
256,192,107662,1,0,0:0:0:0:
256,192,107759,1,0,0:0:0:0:
256,192,107953,1,0,0:0:0:0:
256,192,108050,1,0,0:0:0:0:
256,192,108342,1,0,0:0:0:0:
256,192,108439,1,8,0:0:0:0:
256,192,108633,1,0,0:0:0:0:
256,192,108730,1,0,0:0:0:0:
256,192,108828,1,8,0:0:0:0:
256,192,109410,1,12,0:0:0:0:
256,192,109799,1,0,0:0:0:0:
256,192,110091,1,0,0:0:0:0:
256,192,110285,1,0,0:0:0:0:
256,192,110382,1,8,0:0:0:0:
256,192,110965,1,8,0:0:0:0:
256,192,111062,1,8,0:0:0:0:
256,192,111159,1,0,0:0:0:0:
256,192,111451,1,0,0:0:0:0:
256,192,111742,1,0,0:0:0:0:
256,192,111839,1,8,0:0:0:0:
256,192,111936,1,8,0:0:0:0:
256,192,112034,1,0,0:0:0:0:
256,192,112131,1,8,0:0:0:0:
256,192,112228,1,0,0:0:0:0:
256,192,112325,1,0,0:0:0:0:
256,192,112422,1,0,0:0:0:0:
256,192,112714,1,0,0:0:0:0:
256,192,113102,1,12,0:0:0:0:
256,192,113394,1,0,0:0:0:0:
256,192,113491,1,8,0:0:0:0:
256,192,113685,1,8,0:0:0:0:
256,192,113782,1,0,0:0:0:0:
256,192,113879,1,0,0:0:0:0:
256,192,113977,1,8,0:0:0:0:
256,192,114171,1,8,0:0:0:0:
256,192,114268,1,0,0:0:0:0:
256,192,114559,1,0,0:0:0:0:
256,192,114851,1,0,0:0:0:0:
256,192,114948,1,0,0:0:0:0:
256,192,115045,1,8,0:0:0:0:
256,192,115240,1,8,0:0:0:0:
256,192,115434,1,0,0:0:0:0:
256,192,115822,1,4,0:0:0:0:
256,192,116114,1,4,0:0:0:0:
256,192,116308,1,8,0:0:0:0:
256,192,116405,1,8,0:0:0:0:
256,192,116600,1,4,0:0:0:0:
256,192,116891,1,4,0:0:0:0:
256,192,117085,1,8,0:0:0:0:
256,192,117183,1,8,0:0:0:0:
256,192,117377,1,4,0:0:0:0:
256,192,117668,1,8,0:0:0:0:
256,192,117765,1,8,0:0:0:0:
256,192,117960,1,4,0:0:0:0:
256,192,118154,12,0,121263,0:0:0:0:
