osu file format v14

[General]
AudioFilename: audio.mp3
AudioLeadIn: 0
PreviewTime: 80848
Countdown: 0
SampleSet: Normal
StackLeniency: 0.7
Mode: 1
LetterboxInBreaks: 0
WidescreenStoryboard: 1

[Editor]
DistanceSpacing: 1.9
BeatDivisor: 4
GridSize: 32
TimelineZoom: 1.25

[Metadata]
Title:Towards The Horizon
TitleUnicode:Towards The Horizon
Artist:Camellia
ArtistUnicode:かめりあ
Creator:duski
Version:Kantan
Source:REFLEC BEAT 悠久のリフレシア
Tags:Ayyri rb illusiya イルシヤ 6th konami arcade championship kac bemani the reflesia of eternity
BeatmapID:1314575
BeatmapSetID:619639

[Difficulty]
HPDrainRate:8
CircleSize:2
OverallDifficulty:4
ApproachRate:5
SliderMultiplier:1.4
SliderTickRate:1

[Events]
//Background and Video events
0,0,"towards the horizon.jpg",0,0
//Break Periods
//Storyboard Layer 0 (Background)
//Storyboard Layer 1 (Fail)
//Storyboard Layer 2 (Pass)
//Storyboard Layer 3 (Foreground)
//Storyboard Sound Samples

[TimingPoints]
797,388.60103626943,4,1,0,75,1,0
41211,-100,4,1,0,75,0,1
53646,-100,4,1,0,75,0,0
81626,-100,4,1,0,75,0,1
100278,-100,4,1,0,75,0,0

[HitObjects]
256,192,3905,5,0,0:0:0:0:
256,192,4683,1,8,0:0:0:0:
256,192,5460,1,0,0:0:0:0:
256,192,6237,1,8,0:0:0:0:
256,192,7014,1,0,0:0:0:0:
256,192,7791,1,8,0:0:0:0:
256,192,10123,1,0,0:0:0:0:
256,192,10900,1,8,0:0:0:0:
256,192,11678,1,0,0:0:0:0:
256,192,12455,1,0,0:0:0:0:
256,192,13232,1,8,0:0:0:0:
256,192,14009,12,0,15952,0:0:0:0:
256,192,16341,5,4,0:0:0:0:
256,192,17118,1,8,0:0:0:0:
256,192,17895,1,0,0:0:0:0:
256,192,18284,1,0,0:0:0:0:
256,192,18672,1,8,0:0:0:0:
256,192,19449,1,0,0:0:0:0:
256,192,20227,1,8,0:0:0:0:
256,192,21004,1,0,0:0:0:0:
256,192,21392,1,8,0:0:0:0:
256,192,21781,1,8,0:0:0:0:
256,192,22558,1,0,0:0:0:0:
256,192,23335,1,8,0:0:0:0:
256,192,24113,1,0,0:0:0:0:
256,192,24501,1,8,0:0:0:0:
256,192,24890,1,0,0:0:0:0:
256,192,25278,1,8,0:0:0:0:
256,192,25667,1,8,0:0:0:0:
256,192,25861,12,0,27221,0:0:0:0:
256,192,28776,5,4,0:0:0:0:
256,192,29553,1,8,0:0:0:0:
256,192,29942,1,8,0:0:0:0:
256,192,30330,1,0,0:0:0:0:
256,192,31107,1,8,0:0:0:0:
256,192,31885,1,4,0:0:0:0:
256,192,32662,1,0,0:0:0:0:
256,192,33050,1,0,0:0:0:0:
256,192,33439,1,8,0:0:0:0:
256,192,34216,1,8,0:0:0:0:
256,192,34993,1,4,0:0:0:0:
256,192,35771,1,8,0:0:0:0:
256,192,36159,1,8,0:0:0:0:
256,192,36548,1,0,0:0:0:0:
256,192,37325,1,8,0:0:0:0:
256,192,38102,1,4,0:0:0:0:
256,192,38879,1,8,0:0:0:0:
256,192,39657,1,0,0:0:0:0:
256,192,41211,1,4,0:0:0:0:
256,192,41988,1,8,0:0:0:0:
256,192,42377,1,8,0:0:0:0:
256,192,42765,1,0,0:0:0:0:
256,192,43543,1,8,0:0:0:0:
256,192,44320,1,0,0:0:0:0:
256,192,44708,1,0,0:0:0:0:
256,192,45097,1,8,0:0:0:0:
256,192,45874,1,0,0:0:0:0:
256,192,46651,1,0,0:0:0:0:
256,192,47040,1,8,0:0:0:0:
256,192,47429,1,0,0:0:0:0:
256,192,48206,1,8,0:0:0:0:
256,192,48983,1,0,0:0:0:0:
256,192,49372,1,8,0:0:0:0:
256,192,49760,1,8,0:0:0:0:
256,192,50537,1,0,0:0:0:0:
256,192,51315,1,0,0:0:0:0:
256,192,51703,1,8,0:0:0:0:
256,192,52092,1,8,0:0:0:0:
256,192,52869,1,0,0:0:0:0:
256,192,53258,1,8,0:0:0:0:
256,192,53646,1,4,0:0:0:0:
256,192,54423,1,8,0:0:0:0:
256,192,55978,1,8,0:0:0:0:
256,192,56755,1,0,0:0:0:0:
256,192,57532,1,8,0:0:0:0:
256,192,58309,1,0,0:0:0:0:
256,192,59087,1,8,0:0:0:0:
256,192,60641,1,8,0:0:0:0:
256,192,61418,1,0,0:0:0:0:
256,192,62195,1,8,0:0:0:0:
256,192,62973,1,0,0:0:0:0:
256,192,63750,1,8,0:0:0:0:
256,192,64527,1,0,0:0:0:0:
256,192,66081,1,8,0:0:0:0:
256,192,66859,1,0,0:0:0:0:
256,192,68413,1,8,0:0:0:0:
256,192,69190,1,8,0:0:0:0:
256,192,69967,1,8,0:0:0:0:
256,192,70745,1,8,0:0:0:0:
256,192,72299,1,8,0:0:0:0:
256,192,73076,1,0,0:0:0:0:
256,192,74631,1,8,0:0:0:0:
256,192,75408,12,0,78517,0:0:0:0:
256,192,80071,5,0,0:0:0:0:
256,192,81626,1,4,0:0:0:0:
256,192,82014,1,8,0:0:0:0:
256,192,82403,1,0,0:0:0:0:
256,192,83180,1,8,0:0:0:0:
256,192,83957,1,8,0:0:0:0:
256,192,84734,1,0,0:0:0:0:
256,192,85512,1,8,0:0:0:0:
256,192,85900,1,0,0:0:0:0:
256,192,86289,1,8,0:0:0:0:
256,192,87066,1,8,0:0:0:0:
256,192,87455,1,0,0:0:0:0:
256,192,87843,1,0,0:0:0:0:
256,192,88620,1,8,0:0:0:0:
256,192,89398,1,0,0:0:0:0:
256,192,89786,1,0,0:0:0:0:
256,192,90174,1,8,0:0:0:0:
256,192,90952,1,8,0:0:0:0:
256,192,92506,1,8,0:0:0:0:
256,192,93284,1,0,0:0:0:0:
256,192,93672,1,8,0:0:0:0:
256,192,94061,1,4,0:0:0:0:
256,192,94838,1,8,0:0:0:0:
256,192,95615,1,0,0:0:0:0:
256,192,96004,1,0,0:0:0:0:
256,192,96392,1,8,0:0:0:0:
256,192,97170,1,0,0:0:0:0:
256,192,97947,1,8,0:0:0:0:
256,192,98335,1,8,0:0:0:0:
256,192,98724,1,0,0:0:0:0:
256,192,99501,1,0,0:0:0:0:
256,192,99890,1,8,0:0:0:0:
256,192,100278,1,4,0:0:0:0:
256,192,101056,1,8,0:0:0:0:
256,192,101833,1,0,0:0:0:0:
256,192,102610,1,8,0:0:0:0:
256,192,103387,12,0,104942,0:0:0:0:
256,192,106496,5,4,0:0:0:0:
256,192,107273,1,8,0:0:0:0:
256,192,108050,1,0,0:0:0:0:
256,192,108439,1,0,0:0:0:0:
256,192,108828,1,8,0:0:0:0:
256,192,109410,1,4,0:0:0:0:
256,192,110382,1,8,0:0:0:0:
256,192,111159,1,0,0:0:0:0:
256,192,111548,1,0,0:0:0:0:
256,192,111936,1,8,0:0:0:0:
256,192,113102,1,4,0:0:0:0:
256,192,113491,1,8,0:0:0:0:
256,192,114268,1,0,0:0:0:0:
256,192,114657,1,0,0:0:0:0:
256,192,115045,1,8,0:0:0:0:
256,192,115822,1,4,0:0:0:0:
256,192,116600,1,4,0:0:0:0:
256,192,117377,1,4,0:0:0:0:
256,192,117960,1,4,0:0:0:0:
256,192,118154,12,0,121263,0:0:0:0:
