osu file format v14

[General]
AudioFilename: audio.mp3
AudioLeadIn: 0
PreviewTime: 80848
Countdown: 0
SampleSet: Normal
StackLeniency: 0.7
Mode: 1
LetterboxInBreaks: 0
WidescreenStoryboard: 0

[Editor]
DistanceSpacing: 1.9
BeatDivisor: 6
GridSize: 32
TimelineZoom: 3.1

[Metadata]
Title:Towards The Horizon
TitleUnicode:Towards The Horizon
Artist:Camellia
ArtistUnicode:かめりあ
Creator:duski
Version:Inner Oni
Source:REFLEC BEAT 悠久のリフレシア
Tags:Ayyri rb illusiya イルシヤ 6th konami arcade championship kac bemani the reflesia of eternity
BeatmapID:1306091
BeatmapSetID:619639

[Difficulty]
HPDrainRate:6
CircleSize:2
OverallDifficulty:6
ApproachRate:8
SliderMultiplier:1.4
SliderTickRate:1

[Events]
//Background and Video events
0,0,"towards the horizon.jpg",0,0
//Break Periods
//Storyboard Layer 0 (Background)
//Storyboard Layer 1 (Fail)
//Storyboard Layer 2 (Pass)
//Storyboard Layer 3 (Foreground)
//Storyboard Sound Samples

[TimingPoints]
797,388.60103626943,4,1,0,75,1,0
2351,-95.2380952380952,4,1,0,50,0,0
16243,-95.2380952380952,4,1,0,50,0,0
20178,-94.3396226415094,4,1,0,50,0,0
20372,-93.4579439252336,4,1,0,50,0,0
20567,-92.5925925925926,4,1,0,50,0,0
20955,-91.743119266055,4,1,0,60,0,0
21344,-90.9090909090909,4,1,0,60,0,0
21635,-90.0900900900901,4,1,0,60,0,0
21830,-89.2857142857143,4,1,0,60,0,0
22024,-88.4955752212389,4,1,0,60,0,0
22121,-87.719298245614,4,1,0,60,0,0
22218,-86.9565217391304,4,1,0,60,0,0
22510,-86.2068965517241,4,1,0,60,0,0
22704,-85.4700854700855,4,1,0,60,0,0
22801,-84.7457627118644,4,1,0,60,0,0
22898,-84.0336134453781,4,1,0,60,0,0
23092,-83.3333333333333,4,1,0,60,0,0
23190,-82.6446280991736,4,1,0,60,0,0
23287,-81.9672131147541,4,1,0,70,0,0
23384,-81.3008130081301,4,1,0,70,0,0
23481,-80.6451612903226,4,1,0,70,0,0
23578,-80,4,1,0,70,0,0
23675,-79.3650793650794,4,1,0,70,0,0
23870,-78.7401574803149,4,1,0,70,0,0
24064,-78.125,4,1,0,80,0,0
24161,-77.5193798449612,4,1,0,80,0,0
24258,-76.9230769230769,4,1,0,80,0,0
24355,-76.3358778625954,4,1,0,80,0,0
24453,-75.7575757575758,4,1,0,80,0,0
24550,-75.187969924812,4,1,0,80,0,0
24647,-74.6268656716418,4,1,0,80,0,0
24744,-74.0740740740741,4,1,0,80,0,0
24841,-73.5294117647059,4,1,0,80,0,0
24938,-72.992700729927,4,1,0,80,0,0
25035,-72.463768115942,4,1,0,80,0,0
25133,-71.9424460431655,4,1,0,80,0,0
25230,-71.4285714285714,4,1,0,80,0,0
25327,-70.9219858156028,4,1,0,80,0,0
25424,-70.4225352112676,4,1,0,80,0,0
25505,-69.9300699300699,4,1,0,80,0,0
25570,-69.4444444444444,4,1,0,80,0,0
25635,-68.9655172413793,4,1,0,80,0,0
28776,-80,4,1,0,85,0,0
40822,-79.3650793650794,4,1,0,85,0,0
40920,-78.7401574803149,4,1,0,85,0,0
41017,-78.125,4,1,0,85,0,0
41114,-77.5193798449612,4,1,0,85,0,0
41211,-76.9230769230769,4,1,0,85,0,1
53136,-77.5193798449612,4,1,0,85,0,1
53185,-78.125,4,1,0,85,0,1
53233,-78.7401574803149,4,1,0,85,0,1
53403,-79.3650793650794,4,1,0,85,0,1
53646,-80,4,1,0,70,0,0
65547,-80.6451612903226,4,1,0,70,0,0
65741,-81.3008130081301,4,1,0,70,0,0
65839,-81.9672131147541,4,1,0,70,0,0
65936,-82.6446280991736,4,1,0,70,0,0
66033,-83.3333333333333,4,1,0,70,0,0
66179,-83.3333333333333,4,1,0,60,0,0
75359,-82.6446280991736,4,1,0,75,0,0
75456,-81.9672131147541,4,1,0,60,0,0
75554,-81.3008130081301,4,1,0,60,0,0
75651,-80.6451612903226,4,1,0,60,0,0
75748,-80,4,1,0,60,0,0
75845,-79.3650793650794,4,1,0,60,0,0
75942,-78.7401574803149,4,1,0,60,0,0
76039,-78.125,4,1,0,60,0,0
76137,-77.5193798449612,4,1,0,60,0,0
76234,-76.9230769230769,4,1,0,60,0,0
76331,-76.3358778625954,4,1,0,60,0,0
81237,-75.7575757575758,4,1,0,70,0,0
81334,-75.187969924812,4,1,0,70,0,0
81431,-74.6268656716418,4,1,0,70,0,0
81528,-74.0740740740741,4,1,0,70,0,0
81626,-74.0740740740741,4,1,0,85,0,1
99695,-75.187969924812,4,1,0,85,0,1
99793,-76.3358778625954,4,1,0,85,0,1
99890,-77.5193798449612,4,1,0,85,0,1
99987,-78.7401574803149,4,1,0,85,0,1
100084,-80,4,1,0,85,0,1
100181,-81.9672131147541,4,1,0,85,0,1
100278,-83.3333333333333,4,1,0,70,0,0

[HitObjects]
256,192,3905,5,0,0:0:0:0:
256,192,4100,1,0,0:0:0:0:
256,192,4197,1,0,0:0:0:0:
256,192,4294,1,8,0:0:0:0:
256,192,4391,1,0,0:0:0:0:
256,192,4488,1,8,0:0:0:0:
256,192,4585,1,8,0:0:0:0:
256,192,4683,1,0,0:0:0:0:
256,192,4877,1,0,0:0:0:0:
256,192,5071,1,8,0:0:0:0:
256,192,5265,1,8,0:0:0:0:
256,192,5460,1,0,0:0:0:0:
256,192,5654,1,0,0:0:0:0:
256,192,5751,1,0,0:0:0:0:
256,192,5849,1,8,0:0:0:0:
256,192,5945,1,8,0:0:0:0:
256,192,6043,1,0,0:0:0:0:
256,192,6140,1,8,0:0:0:0:
256,192,6237,1,0,0:0:0:0:
256,192,6431,1,8,0:0:0:0:
256,192,6626,1,8,0:0:0:0:
256,192,6820,1,0,0:0:0:0:
256,192,7014,1,0,0:0:0:0:
256,192,7306,1,8,0:0:0:0:
256,192,7403,1,8,0:0:0:0:
256,192,7791,1,0,0:0:0:0:
256,192,8083,1,8,0:0:0:0:
256,192,8180,1,8,0:0:0:0:
256,192,8569,1,8,0:0:0:0:
256,192,8957,1,0,0:0:0:0:
256,192,9346,1,8,0:0:0:0:
256,192,9734,1,0,0:0:0:0:
256,192,10123,1,0,0:0:0:0:
256,192,10317,1,0,0:0:0:0:
256,192,10415,1,0,0:0:0:0:
256,192,10512,1,8,0:0:0:0:
256,192,10609,1,8,0:0:0:0:
256,192,10706,1,0,0:0:0:0:
256,192,10803,1,8,0:0:0:0:
256,192,10900,1,0,0:0:0:0:
256,192,11095,1,0,0:0:0:0:
256,192,11289,1,0,0:0:0:0:
256,192,11483,1,8,0:0:0:0:
256,192,11678,1,8,0:0:0:0:
256,192,11774,1,8,0:0:0:0:
256,192,11872,1,0,0:0:0:0:
256,192,11969,1,8,0:0:0:0:
256,192,12066,1,8,0:0:0:0:
256,192,12163,1,0,0:0:0:0:
256,192,12260,1,0,0:0:0:0:
256,192,12358,1,8,0:0:0:0:
256,192,12455,1,8,0:0:0:0:
256,192,12552,1,8,0:0:0:0:
256,192,12649,1,0,0:0:0:0:
256,192,13038,1,8,0:0:0:0:
256,192,13135,1,8,0:0:0:0:
256,192,13232,1,0,0:0:0:0:
256,192,13523,1,8,0:0:0:0:
256,192,13621,1,8,0:0:0:0:
256,192,14009,1,0,0:0:0:0:
256,192,14300,1,8,0:0:0:0:
256,192,14398,1,8,0:0:0:0:
256,192,14786,1,8,0:0:0:0:
256,192,15175,1,0,0:0:0:0:
256,192,15369,1,8,0:0:0:0:
256,192,15466,1,8,0:0:0:0:
256,192,15563,1,0,0:0:0:0:
256,192,15952,1,8,0:0:0:0:
256,192,16341,1,4,0:0:0:0:
256,192,16729,1,8,0:0:0:0:
256,192,17021,1,8,0:0:0:0:
256,192,17118,1,0,0:0:0:0:
256,192,17312,1,0,0:0:0:0:
256,192,17507,1,8,0:0:0:0:
256,192,17895,1,0,0:0:0:0:
256,192,18284,1,8,0:0:0:0:
256,192,18575,1,8,0:0:0:0:
256,192,18672,1,0,0:0:0:0:
256,192,18866,1,0,0:0:0:0:
256,192,19061,1,8,0:0:0:0:
256,192,19255,1,8,0:0:0:0:
256,192,19352,1,8,0:0:0:0:
256,192,19450,1,0,0:0:0:0:
256,192,19838,1,8,0:0:0:0:
256,192,20130,1,8,0:0:0:0:
256,192,20227,1,0,0:0:0:0:
256,192,20421,1,0,0:0:0:0:
256,192,20615,1,8,0:0:0:0:
256,192,21004,1,0,0:0:0:0:
256,192,21393,1,8,0:0:0:0:
256,192,21684,1,0,0:0:0:0:
256,192,21878,1,0,0:0:0:0:
256,192,22072,1,0,0:0:0:0:
256,192,22170,1,8,0:0:0:0:
256,192,22267,1,0,0:0:0:0:
256,192,22558,1,0,0:0:0:0:
256,192,22752,1,0,0:0:0:0:
256,192,22850,1,0,0:0:0:0:
256,192,22947,1,8,0:0:0:0:
256,192,23141,1,0,0:0:0:0:
256,192,23238,1,8,0:0:0:0:
256,192,23336,1,0,0:0:0:0:
256,192,23433,1,8,0:0:0:0:
256,192,23530,1,0,0:0:0:0:
256,192,23627,1,0,0:0:0:0:
256,192,23724,1,8,0:0:0:0:
256,192,23918,1,0,0:0:0:0:
256,192,24113,1,0,0:0:0:0:
256,192,24210,1,0,0:0:0:0:
256,192,24307,1,0,0:0:0:0:
256,192,24404,1,0,0:0:0:0:
256,192,24501,1,8,0:0:0:0:
256,192,24598,1,0,0:0:0:0:
256,192,24695,1,8,0:0:0:0:
256,192,24793,1,0,0:0:0:0:
256,192,24890,1,8,0:0:0:0:
256,192,24987,1,0,0:0:0:0:
256,192,25084,1,0,0:0:0:0:
256,192,25181,1,8,0:0:0:0:
256,192,25278,1,8,0:0:0:0:
256,192,25376,1,0,0:0:0:0:
256,192,25473,1,8,0:0:0:0:
256,192,25537,1,0,0:0:0:0:
256,192,25602,1,0,0:0:0:0:
256,192,25667,1,8,0:0:0:0:
256,192,25764,1,8,0:0:0:0:
256,192,25861,1,8,0:0:0:0:
256,192,25959,1,0,0:0:0:0:
256,192,26056,1,8,0:0:0:0:
256,192,26153,1,8,0:0:0:0:
256,192,26250,1,0,0:0:0:0:
256,192,26347,1,0,0:0:0:0:
256,192,26445,1,8,0:0:0:0:
256,192,26541,1,8,0:0:0:0:
256,192,26638,1,0,0:0:0:0:
256,192,26736,1,0,0:0:0:0:
256,192,26833,1,8,0:0:0:0:
256,192,26930,1,0,0:0:0:0:
256,192,27027,1,0,0:0:0:0:
256,192,27124,1,0,0:0:0:0:
256,192,27222,1,8,0:0:0:0:
256,192,27416,12,0,28387,0:0:0:0:
256,192,28776,5,4,0:0:0:0:
256,192,29165,1,8,0:0:0:0:
256,192,29359,1,8,0:0:0:0:
256,192,29456,1,0,0:0:0:0:
256,192,29553,1,8,0:0:0:0:
256,192,29650,1,0,0:0:0:0:
256,192,29747,1,0,0:0:0:0:
256,192,29845,1,8,0:0:0:0:
256,192,29942,1,8,0:0:0:0:
256,192,30039,1,0,0:0:0:0:
256,192,30136,1,8,0:0:0:0:
256,192,30233,1,8,0:0:0:0:
256,192,30330,1,0,0:0:0:0:
256,192,30524,1,0,0:0:0:0:
256,192,30719,1,8,0:0:0:0:
256,192,30913,1,8,0:0:0:0:
256,192,31010,1,0,0:0:0:0:
256,192,31107,1,8,0:0:0:0:
256,192,31205,1,8,0:0:0:0:
256,192,31302,1,0,0:0:0:0:
256,192,31496,1,8,0:0:0:0:
256,192,31690,1,0,0:0:0:0:
256,192,31885,1,4,0:0:0:0:
256,192,32273,1,8,0:0:0:0:
256,192,32467,1,0,0:0:0:0:
256,192,32662,1,8,0:0:0:0:
256,192,32759,1,0,0:0:0:0:
256,192,32953,1,8,0:0:0:0:
256,192,33050,1,0,0:0:0:0:
256,192,33245,1,8,0:0:0:0:
256,192,33309,1,0,0:0:0:0:
256,192,33374,1,0,0:0:0:0:
256,192,33439,1,0,0:0:0:0:
256,192,33633,1,0,0:0:0:0:
256,192,33730,1,0,0:0:0:0:
256,192,33828,1,8,0:0:0:0:
256,192,34022,1,0,0:0:0:0:
256,192,34119,1,0,0:0:0:0:
256,192,34216,1,8,0:0:0:0:
256,192,34313,1,8,0:0:0:0:
256,192,34410,1,0,0:0:0:0:
256,192,34508,1,0,0:0:0:0:
256,192,34605,1,8,0:0:0:0:
256,192,34702,1,0,0:0:0:0:
256,192,34799,1,8,0:0:0:0:
256,192,34896,1,8,0:0:0:0:
256,192,34994,1,4,0:0:0:0:
256,192,35382,1,8,0:0:0:0:
256,192,35576,1,8,0:0:0:0:
256,192,35673,1,0,0:0:0:0:
256,192,35771,1,8,0:0:0:0:
256,192,35868,1,8,0:0:0:0:
256,192,35965,1,0,0:0:0:0:
256,192,36062,1,8,0:0:0:0:
256,192,36159,1,8,0:0:0:0:
256,192,36256,1,0,0:0:0:0:
256,192,36353,1,0,0:0:0:0:
256,192,36451,1,8,0:0:0:0:
256,192,36548,1,0,0:0:0:0:
256,192,36742,1,8,0:0:0:0:
256,192,36936,1,8,0:0:0:0:
256,192,37131,1,8,0:0:0:0:
256,192,37228,1,0,0:0:0:0:
256,192,37325,1,8,0:0:0:0:
256,192,37422,1,0,0:0:0:0:
256,192,37519,1,0,0:0:0:0:
256,192,37714,1,0,0:0:0:0:
256,192,37811,1,8,0:0:0:0:
256,192,37908,1,8,0:0:0:0:
256,192,38005,1,8,0:0:0:0:
256,192,38102,1,4,0:0:0:0:
256,192,38491,1,8,0:0:0:0:
256,192,38782,1,0,0:0:0:0:
256,192,38831,1,0,0:0:0:0:
256,192,38879,1,8,0:0:0:0:
256,192,39074,1,8,0:0:0:0:
256,192,39268,1,8,0:0:0:0:
256,192,39365,1,8,0:0:0:0:
256,192,39462,1,0,0:0:0:0:
256,192,39559,1,0,0:0:0:0:
256,192,39657,1,0,0:0:0:0:
256,192,39851,1,8,0:0:0:0:
256,192,39948,1,0,0:0:0:0:
256,192,40240,1,0,0:0:0:0:
256,192,40304,1,0,0:0:0:0:
256,192,40369,1,0,0:0:0:0:
256,192,40434,1,8,0:0:0:0:
256,192,40531,1,8,0:0:0:0:
256,192,40628,1,0,0:0:0:0:
256,192,40725,1,0,0:0:0:0:
256,192,40822,1,8,0:0:0:0:
256,192,40920,1,8,0:0:0:0:
256,192,41017,1,0,0:0:0:0:
256,192,41114,1,8,0:0:0:0:
256,192,41211,1,4,0:0:0:0:
256,192,41405,1,0,0:0:0:0:
256,192,41502,1,8,0:0:0:0:
256,192,41600,1,8,0:0:0:0:
256,192,41697,1,8,0:0:0:0:
256,192,41794,1,0,0:0:0:0:
256,192,41891,1,0,0:0:0:0:
256,192,41988,1,8,0:0:0:0:
256,192,42183,1,0,0:0:0:0:
256,192,42377,1,8,0:0:0:0:
256,192,42571,1,8,0:0:0:0:
256,192,42765,1,0,0:0:0:0:
256,192,42960,1,0,0:0:0:0:
256,192,43057,1,8,0:0:0:0:
256,192,43154,1,0,0:0:0:0:
256,192,43251,1,8,0:0:0:0:
256,192,43348,1,8,0:0:0:0:
256,192,43445,1,0,0:0:0:0:
256,192,43543,1,8,0:0:0:0:
256,192,43737,1,0,0:0:0:0:
256,192,43834,1,0,0:0:0:0:
256,192,43931,1,8,0:0:0:0:
256,192,44126,1,0,0:0:0:0:
256,192,44320,1,0,0:0:0:0:
256,192,44611,1,0,0:0:0:0:
256,192,44708,1,8,0:0:0:0:
256,192,45000,1,0,0:0:0:0:
256,192,45291,1,0,0:0:0:0:
256,192,45486,1,8,0:0:0:0:
256,192,45874,1,0,0:0:0:0:
256,192,46069,1,0,0:0:0:0:
256,192,46166,1,0,0:0:0:0:
256,192,46263,1,8,0:0:0:0:
256,192,46554,1,0,0:0:0:0:
256,192,46749,1,0,0:0:0:0:
256,192,46943,1,0,0:0:0:0:
256,192,47040,1,8,0:0:0:0:
256,192,47137,1,0,0:0:0:0:
256,192,47429,1,4,0:0:0:0:
256,192,47623,1,0,0:0:0:0:
256,192,47720,1,0,0:0:0:0:
256,192,47817,1,8,0:0:0:0:
256,192,47914,1,8,0:0:0:0:
256,192,48012,1,8,0:0:0:0:
256,192,48109,1,0,0:0:0:0:
256,192,48206,1,8,0:0:0:0:
256,192,48400,1,0,0:0:0:0:
256,192,48594,1,8,0:0:0:0:
256,192,48789,1,8,0:0:0:0:
256,192,48983,1,8,0:0:0:0:
256,192,49080,1,0,0:0:0:0:
256,192,49177,1,0,0:0:0:0:
256,192,49274,1,8,0:0:0:0:
256,192,49372,1,0,0:0:0:0:
256,192,49469,1,8,0:0:0:0:
256,192,49566,1,8,0:0:0:0:
256,192,49663,1,0,0:0:0:0:
256,192,49760,1,8,0:0:0:0:
256,192,49857,1,8,0:0:0:0:
256,192,49955,1,0,0:0:0:0:
256,192,50149,1,8,0:0:0:0:
256,192,50537,1,0,0:0:0:0:
256,192,50829,1,8,0:0:0:0:
256,192,50926,1,8,0:0:0:0:
256,192,51217,1,0,0:0:0:0:
256,192,51509,1,0,0:0:0:0:
256,192,51703,1,12,0:0:0:0:
256,192,52092,1,8,0:0:0:0:
256,192,52286,1,0,0:0:0:0:
256,192,52383,1,0,0:0:0:0:
256,192,52675,1,8,0:0:0:0:
256,192,52869,1,0,0:0:0:0:
256,192,52966,1,0,0:0:0:0:
256,192,53160,1,0,0:0:0:0:
256,192,53209,1,0,0:0:0:0:
256,192,53258,1,8,0:0:0:0:
256,192,53452,1,8,0:0:0:0:
256,192,53646,1,0,0:0:0:0:
256,192,54423,1,8,0:0:0:0:
256,192,54715,1,8,0:0:0:0:
256,192,55006,1,8,0:0:0:0:
256,192,55298,1,0,0:0:0:0:
256,192,55346,1,0,0:0:0:0:
256,192,55395,1,0,0:0:0:0:
256,192,55492,1,0,0:0:0:0:
256,192,55686,1,0,0:0:0:0:
256,192,55881,1,0,0:0:0:0:
256,192,55978,1,8,0:0:0:0:
256,192,56172,1,0,0:0:0:0:
256,192,56561,1,8,0:0:0:0:
256,192,56755,1,0,0:0:0:0:
256,192,56949,1,8,0:0:0:0:
256,192,57338,1,0,0:0:0:0:
256,192,57435,1,0,0:0:0:0:
256,192,57532,1,8,0:0:0:0:
256,192,57824,1,8,0:0:0:0:
256,192,58115,1,8,0:0:0:0:
256,192,58309,1,0,0:0:0:0:
256,192,58601,1,0,0:0:0:0:
256,192,58892,1,0,0:0:0:0:
256,192,59087,1,8,0:0:0:0:
256,192,59184,1,0,0:0:0:0:
256,192,59281,1,0,0:0:0:0:
256,192,59378,1,0,0:0:0:0:
256,192,59475,1,8,0:0:0:0:
256,192,59864,1,8,0:0:0:0:
256,192,60252,1,0,0:0:0:0:
256,192,60641,1,8,0:0:0:0:
256,192,60933,1,8,0:0:0:0:
256,192,61224,1,8,0:0:0:0:
256,192,61515,1,0,0:0:0:0:
256,192,61564,1,0,0:0:0:0:
256,192,61613,1,0,0:0:0:0:
256,192,61710,1,0,0:0:0:0:
256,192,61904,1,0,0:0:0:0:
256,192,62098,1,0,0:0:0:0:
256,192,62195,1,8,0:0:0:0:
256,192,62390,1,0,0:0:0:0:
256,192,62778,1,8,0:0:0:0:
256,192,62973,1,0,0:0:0:0:
256,192,63167,1,8,0:0:0:0:
256,192,63556,1,0,0:0:0:0:
256,192,63653,1,0,0:0:0:0:
256,192,63750,1,8,0:0:0:0:
256,192,64041,1,0,0:0:0:0:
256,192,64333,1,8,0:0:0:0:
256,192,64527,1,0,0:0:0:0:
256,192,64819,1,0,0:0:0:0:
256,192,65013,1,0,0:0:0:0:
256,192,65061,1,0,0:0:0:0:
256,192,65110,1,0,0:0:0:0:
256,192,65207,1,0,0:0:0:0:
256,192,65304,1,8,0:0:0:0:
256,192,65499,1,0,0:0:0:0:
256,192,65596,1,8,0:0:0:0:
256,192,65790,1,0,0:0:0:0:
256,192,65887,1,8,0:0:0:0:
256,192,65984,1,8,0:0:0:0:
256,192,66081,1,0,0:0:0:0:
256,192,66664,1,8,0:0:0:0:
256,192,66729,1,8,0:0:0:0:
256,192,66794,1,0,0:0:0:0:
256,192,66859,1,0,0:0:0:0:
256,192,67247,1,8,0:0:0:0:
256,192,67830,1,8,0:0:0:0:
256,192,68024,1,8,0:0:0:0:
256,192,68089,1,8,0:0:0:0:
256,192,68154,1,0,0:0:0:0:
256,192,68219,1,0,0:0:0:0:
256,192,68413,1,0,0:0:0:0:
256,192,68607,1,8,0:0:0:0:
256,192,68802,1,8,0:0:0:0:
256,192,68996,1,8,0:0:0:0:
256,192,69190,1,8,0:0:0:0:
256,192,69773,1,0,0:0:0:0:
256,192,69870,1,0,0:0:0:0:
256,192,69967,1,8,0:0:0:0:
256,192,70356,1,8,0:0:0:0:
256,192,70745,1,0,0:0:0:0:
256,192,71133,1,8,0:0:0:0:
256,192,71522,1,0,0:0:0:0:
256,192,71910,1,0,0:0:0:0:
256,192,72008,1,8,0:0:0:0:
256,192,72105,1,8,0:0:0:0:
256,192,72202,1,0,0:0:0:0:
256,192,72299,1,8,0:0:0:0:
256,192,72882,1,8,0:0:0:0:
256,192,72947,1,8,0:0:0:0:
256,192,73012,1,0,0:0:0:0:
256,192,73076,1,0,0:0:0:0:
256,192,73465,1,8,0:0:0:0:
256,192,73853,1,0,0:0:0:0:
256,192,74048,1,8,0:0:0:0:
256,192,74242,1,8,0:0:0:0:
256,192,74307,1,8,0:0:0:0:
256,192,74372,1,0,0:0:0:0:
256,192,74436,1,0,0:0:0:0:
256,192,74631,1,0,0:0:0:0:
256,192,74825,1,8,0:0:0:0:
256,192,75019,1,8,0:0:0:0:
256,192,75214,1,0,0:0:0:0:
256,192,75408,1,8,0:0:0:0:
256,192,75505,1,8,0:0:0:0:
256,192,75602,1,8,0:0:0:0:
256,192,75699,1,8,0:0:0:0:
256,192,75796,1,0,0:0:0:0:
256,192,75894,1,0,0:0:0:0:
256,192,75991,1,8,0:0:0:0:
256,192,76088,1,0,0:0:0:0:
256,192,76185,1,8,0:0:0:0:
256,192,76282,1,8,0:0:0:0:
256,192,76379,1,8,0:0:0:0:
256,192,76477,1,8,0:0:0:0:
256,192,76574,1,0,0:0:0:0:
256,192,76671,1,0,0:0:0:0:
256,192,76768,1,8,0:0:0:0:
256,192,76865,1,0,0:0:0:0:
256,192,76962,1,8,0:0:0:0:
256,192,77059,1,8,0:0:0:0:
256,192,77157,1,8,0:0:0:0:
256,192,77254,1,8,0:0:0:0:
256,192,77351,1,0,0:0:0:0:
256,192,77448,1,0,0:0:0:0:
256,192,77545,1,8,0:0:0:0:
256,192,77642,1,8,0:0:0:0:
256,192,77740,1,0,0:0:0:0:
256,192,77837,1,0,0:0:0:0:
256,192,77934,1,8,0:0:0:0:
256,192,78031,1,0,0:0:0:0:
256,192,78128,1,8,0:0:0:0:
256,192,78225,1,8,0:0:0:0:
256,192,78322,1,0,0:0:0:0:
256,192,78420,1,0,0:0:0:0:
256,192,78517,1,8,0:0:0:0:
256,192,80071,1,4,0:0:0:0:
256,192,80363,1,0,0:0:0:0:
256,192,80654,1,0,0:0:0:0:
256,192,80719,1,0,0:0:0:0:
256,192,80784,1,0,0:0:0:0:
256,192,80848,1,8,0:0:0:0:
256,192,80945,1,8,0:0:0:0:
256,192,81043,1,0,0:0:0:0:
256,192,81107,1,0,0:0:0:0:
256,192,81172,1,0,0:0:0:0:
256,192,81237,1,8,0:0:0:0:
256,192,81334,1,8,0:0:0:0:
256,192,81431,1,0,0:0:0:0:
256,192,81528,1,0,0:0:0:0:
256,192,81626,1,8,0:0:0:0:
256,192,81723,1,0,0:0:0:0:
256,192,81820,1,0,0:0:0:0:
256,192,81917,1,8,0:0:0:0:
256,192,82014,1,0,0:0:0:0:
256,192,82111,1,0,0:0:0:0:
256,192,82208,1,8,0:0:0:0:
256,192,82306,1,0,0:0:0:0:
256,192,82403,1,8,0:0:0:0:
256,192,82500,1,0,0:0:0:0:
256,192,82597,1,0,0:0:0:0:
256,192,82694,1,8,0:0:0:0:
256,192,82791,1,0,0:0:0:0:
256,192,82888,1,8,0:0:0:0:
256,192,82986,1,8,0:0:0:0:
256,192,83083,1,0,0:0:0:0:
256,192,83180,1,8,0:0:0:0:
256,192,83277,1,0,0:0:0:0:
256,192,83374,1,0,0:0:0:0:
256,192,83471,1,8,0:0:0:0:
256,192,83569,1,8,0:0:0:0:
256,192,83666,1,8,0:0:0:0:
256,192,83763,1,0,0:0:0:0:
256,192,83860,1,0,0:0:0:0:
256,192,83957,1,8,0:0:0:0:
256,192,84054,1,0,0:0:0:0:
256,192,84151,1,8,0:0:0:0:
256,192,84249,1,0,0:0:0:0:
256,192,84346,1,8,0:0:0:0:
256,192,84443,1,8,0:0:0:0:
256,192,84540,1,0,0:0:0:0:
256,192,84637,1,0,0:0:0:0:
256,192,84734,1,8,0:0:0:0:
256,192,85123,1,8,0:0:0:0:
256,192,85317,1,0,0:0:0:0:
256,192,85414,1,8,0:0:0:0:
256,192,85512,1,0,0:0:0:0:
256,192,85706,1,0,0:0:0:0:
256,192,85900,1,0,0:0:0:0:
256,192,85997,1,0,0:0:0:0:
256,192,86094,1,8,0:0:0:0:
256,192,86192,1,0,0:0:0:0:
256,192,86289,1,8,0:0:0:0:
256,192,86483,1,0,0:0:0:0:
256,192,86548,1,8,0:0:0:0:
256,192,86613,1,8,0:0:0:0:
256,192,86677,1,0,0:0:0:0:
256,192,86872,1,8,0:0:0:0:
256,192,86969,1,8,0:0:0:0:
256,192,87066,1,0,0:0:0:0:
256,192,87260,1,8,0:0:0:0:
256,192,87455,1,8,0:0:0:0:
256,192,87649,1,0,0:0:0:0:
256,192,87843,1,8,0:0:0:0:
256,192,87940,1,0,0:0:0:0:
256,192,88037,1,0,0:0:0:0:
256,192,88134,1,8,0:0:0:0:
256,192,88231,1,0,0:0:0:0:
256,192,88328,1,0,0:0:0:0:
256,192,88425,1,8,0:0:0:0:
256,192,88523,1,0,0:0:0:0:
256,192,88620,1,8,0:0:0:0:
256,192,88717,1,0,0:0:0:0:
256,192,88814,1,0,0:0:0:0:
256,192,88911,1,8,0:0:0:0:
256,192,89008,1,0,0:0:0:0:
256,192,89105,1,8,0:0:0:0:
256,192,89203,1,8,0:0:0:0:
256,192,89300,1,0,0:0:0:0:
256,192,89397,1,8,0:0:0:0:
256,192,89494,1,0,0:0:0:0:
256,192,89591,1,0,0:0:0:0:
256,192,89688,1,8,0:0:0:0:
256,192,89786,1,8,0:0:0:0:
256,192,89883,1,8,0:0:0:0:
256,192,89980,1,0,0:0:0:0:
256,192,90077,1,0,0:0:0:0:
256,192,90174,1,8,0:0:0:0:
256,192,90271,1,0,0:0:0:0:
256,192,90368,1,8,0:0:0:0:
256,192,90466,1,0,0:0:0:0:
256,192,90563,1,8,0:0:0:0:
256,192,90660,1,0,0:0:0:0:
256,192,90757,1,0,0:0:0:0:
256,192,90854,1,8,0:0:0:0:
256,192,90951,1,8,0:0:0:0:
256,192,91341,1,8,0:0:0:0:
256,192,91535,1,0,0:0:0:0:
256,192,91632,1,0,0:0:0:0:
256,192,91729,1,8,0:0:0:0:
256,192,91826,1,0,0:0:0:0:
256,192,91923,1,0,0:0:0:0:
256,192,92020,1,8,0:0:0:0:
256,192,92118,1,8,0:0:0:0:
256,192,92215,1,8,0:0:0:0:
256,192,92312,1,0,0:0:0:0:
256,192,92409,1,8,0:0:0:0:
256,192,92506,1,8,0:0:0:0:
256,192,92603,1,0,0:0:0:0:
256,192,92798,1,0,0:0:0:0:
256,192,92895,1,8,0:0:0:0:
256,192,93089,1,0,0:0:0:0:
256,192,93186,1,0,0:0:0:0:
256,192,93284,1,8,0:0:0:0:
256,192,93381,1,8,0:0:0:0:
256,192,93478,1,0,0:0:0:0:
256,192,93575,1,8,0:0:0:0:
256,192,93672,1,8,0:0:0:0:
256,192,93769,1,0,0:0:0:0:
256,192,93866,1,8,0:0:0:0:
256,192,93964,1,0,0:0:0:0:
256,192,94061,1,8,0:0:0:0:
256,192,94158,1,0,0:0:0:0:
256,192,94255,1,0,0:0:0:0:
256,192,94352,1,8,0:0:0:0:
256,192,94449,1,0,0:0:0:0:
256,192,94546,1,0,0:0:0:0:
256,192,94643,1,8,0:0:0:0:
256,192,94741,1,0,0:0:0:0:
256,192,94838,1,8,0:0:0:0:
256,192,94935,1,0,0:0:0:0:
256,192,95032,1,0,0:0:0:0:
256,192,95129,1,8,0:0:0:0:
256,192,95226,1,0,0:0:0:0:
256,192,95324,1,8,0:0:0:0:
256,192,95421,1,8,0:0:0:0:
256,192,95518,1,0,0:0:0:0:
256,192,95615,1,8,0:0:0:0:
256,192,95712,1,0,0:0:0:0:
256,192,95809,1,0,0:0:0:0:
256,192,95906,1,8,0:0:0:0:
256,192,96004,1,8,0:0:0:0:
256,192,96101,1,8,0:0:0:0:
256,192,96198,1,0,0:0:0:0:
256,192,96295,1,0,0:0:0:0:
256,192,96392,1,8,0:0:0:0:
256,192,96489,1,0,0:0:0:0:
256,192,96586,1,8,0:0:0:0:
256,192,96684,1,0,0:0:0:0:
256,192,96781,1,8,0:0:0:0:
256,192,96878,1,8,0:0:0:0:
256,192,96975,1,0,0:0:0:0:
256,192,97072,1,0,0:0:0:0:
256,192,97169,1,8,0:0:0:0:
256,192,97558,1,8,0:0:0:0:
256,192,97752,1,8,0:0:0:0:
256,192,97850,1,0,0:0:0:0:
256,192,97947,1,8,0:0:0:0:
256,192,98141,1,8,0:0:0:0:
256,192,98335,1,0,0:0:0:0:
256,192,98433,1,0,0:0:0:0:
256,192,98530,1,8,0:0:0:0:
256,192,98627,1,0,0:0:0:0:
256,192,98724,1,8,0:0:0:0:
256,192,98918,1,8,0:0:0:0:
256,192,98983,1,8,0:0:0:0:
256,192,99048,1,8,0:0:0:0:
256,192,99113,1,0,0:0:0:0:
256,192,99307,1,0,0:0:0:0:
256,192,99404,1,8,0:0:0:0:
256,192,99501,1,8,0:0:0:0:
256,192,99695,1,0,0:0:0:0:
256,192,99793,1,8,0:0:0:0:
256,192,99890,1,8,0:0:0:0:
256,192,99987,1,8,0:0:0:0:
256,192,100084,1,0,0:0:0:0:
256,192,100181,1,0,0:0:0:0:
256,192,100278,1,12,0:0:0:0:
256,192,100667,1,8,0:0:0:0:
256,192,100861,1,0,0:0:0:0:
256,192,100958,1,0,0:0:0:0:
256,192,101056,1,8,0:0:0:0:
256,192,101250,1,0,0:0:0:0:
256,192,101444,1,8,0:0:0:0:
256,192,101638,1,0,0:0:0:0:
256,192,101833,1,4,0:0:0:0:
256,192,102221,1,8,0:0:0:0:
256,192,102416,1,0,0:0:0:0:
256,192,102513,1,0,0:0:0:0:
256,192,102610,1,8,0:0:0:0:
256,192,102707,1,8,0:0:0:0:
256,192,102804,1,0,0:0:0:0:
256,192,102999,1,0,0:0:0:0:
256,192,103193,1,8,0:0:0:0:
256,192,103387,1,8,0:0:0:0:
256,192,103484,1,0,0:0:0:0:
256,192,103581,1,8,0:0:0:0:
256,192,103679,1,0,0:0:0:0:
256,192,103776,1,8,0:0:0:0:
256,192,103873,1,8,0:0:0:0:
256,192,103970,1,0,0:0:0:0:
256,192,104067,1,0,0:0:0:0:
256,192,104164,1,8,0:0:0:0:
256,192,104262,1,0,0:0:0:0:
256,192,104359,1,8,0:0:0:0:
256,192,104456,1,0,0:0:0:0:
256,192,104553,1,8,0:0:0:0:
256,192,104650,1,8,0:0:0:0:
256,192,104747,1,0,0:0:0:0:
256,192,104812,1,0,0:0:0:0:
256,192,104877,1,0,0:0:0:0:
256,192,104942,1,8,0:0:0:0:
256,192,105136,8,0,106107,0:0:0:0:
256,192,106496,5,4,0:0:0:0:
256,192,106885,1,8,0:0:0:0:
256,192,106949,1,8,0:0:0:0:
256,192,107014,1,8,0:0:0:0:
256,192,107079,1,8,0:0:0:0:
256,192,107144,1,0,0:0:0:0:
256,192,107208,1,0,0:0:0:0:
256,192,107273,1,8,0:0:0:0:
256,192,107467,1,8,0:0:0:0:
256,192,107532,1,8,0:0:0:0:
256,192,107597,1,8,0:0:0:0:
256,192,107662,1,8,0:0:0:0:
256,192,107759,1,0,0:0:0:0:
256,192,107953,1,8,0:0:0:0:
256,192,108050,1,0,0:0:0:0:
256,192,108245,1,8,0:0:0:0:
256,192,108342,1,0,0:0:0:0:
256,192,108439,1,8,0:0:0:0:
256,192,108504,1,8,0:0:0:0:
256,192,108569,1,8,0:0:0:0:
256,192,108633,1,0,0:0:0:0:
256,192,108698,1,0,0:0:0:0:
256,192,108763,1,0,0:0:0:0:
256,192,108828,1,8,0:0:0:0:
256,192,109022,1,0,0:0:0:0:
256,192,109216,1,8,0:0:0:0:
256,192,109410,1,4,0:0:0:0:
256,192,109799,1,0,0:0:0:0:
256,192,110091,1,0,0:0:0:0:
256,192,110285,1,0,0:0:0:0:
256,192,110382,1,8,0:0:0:0:
256,192,110576,1,8,0:0:0:0:
256,192,110771,1,8,0:0:0:0:
256,192,110965,1,8,0:0:0:0:
256,192,111062,1,0,0:0:0:0:
256,192,111159,1,0,0:0:0:0:
256,192,111353,1,8,0:0:0:0:
256,192,111451,1,0,0:0:0:0:
256,192,111742,1,0,0:0:0:0:
256,192,111839,1,0,0:0:0:0:
256,192,111936,1,8,0:0:0:0:
256,192,112034,1,8,0:0:0:0:
256,192,112131,1,0,0:0:0:0:
256,192,112228,1,8,0:0:0:0:
256,192,112325,1,8,0:0:0:0:
256,192,112422,1,0,0:0:0:0:
256,192,112714,1,0,0:0:0:0:
256,192,112811,1,0,0:0:0:0:
256,192,112908,1,8,0:0:0:0:
256,192,112973,1,8,0:0:0:0:
256,192,113037,1,8,0:0:0:0:
256,192,113102,1,0,0:0:0:0:
256,192,113394,1,0,0:0:0:0:
256,192,113491,1,8,0:0:0:0:
256,192,113685,1,8,0:0:0:0:
256,192,113750,1,8,0:0:0:0:
256,192,113815,1,8,0:0:0:0:
256,192,113879,1,8,0:0:0:0:
256,192,113977,1,0,0:0:0:0:
256,192,114171,1,8,0:0:0:0:
256,192,114268,1,0,0:0:0:0:
256,192,114559,1,0,0:0:0:0:
256,192,114657,1,8,0:0:0:0:
256,192,114721,1,8,0:0:0:0:
256,192,114786,1,8,0:0:0:0:
256,192,114851,1,0,0:0:0:0:
256,192,114916,1,0,0:0:0:0:
256,192,114980,1,0,0:0:0:0:
256,192,115045,1,8,0:0:0:0:
256,192,115240,1,8,0:0:0:0:
256,192,115434,1,0,0:0:0:0:
256,192,115822,1,4,0:0:0:0:
256,192,116114,1,4,0:0:0:0:
256,192,116308,1,8,0:0:0:0:
256,192,116405,1,8,0:0:0:0:
256,192,116600,1,4,0:0:0:0:
256,192,116891,1,4,0:0:0:0:
256,192,117085,1,8,0:0:0:0:
256,192,117183,1,8,0:0:0:0:
256,192,117377,1,4,0:0:0:0:
256,192,117668,1,0,0:0:0:0:
256,192,117765,1,8,0:0:0:0:
256,192,117960,1,4,0:0:0:0:
256,192,118154,12,0,121263,0:0:0:0:
