osu file format v14

[General]
AudioFilename: audio.mp3
AudioLeadIn: 0
PreviewTime: 80848
Countdown: 0
SampleSet: Normal
StackLeniency: 0.7
Mode: 1
LetterboxInBreaks: 0
WidescreenStoryboard: 1

[Editor]
DistanceSpacing: 1.9
BeatDivisor: 4
GridSize: 32
TimelineZoom: 1.55

[Metadata]
Title:Towards The Horizon
TitleUnicode:Towards The Horizon
Artist:Camellia
ArtistUnicode:かめりあ
Creator:duski
Version:Futsuu
Source:REFLEC BEAT 悠久のリフレシア
Tags:Ayyri rb illusiya イルシヤ 6th konami arcade championship kac bemani the reflesia of eternity
BeatmapID:1306381
BeatmapSetID:619639

[Difficulty]
HPDrainRate:7
CircleSize:2
OverallDifficulty:4
ApproachRate:5
SliderMultiplier:1.4
SliderTickRate:1

[Events]
//Background and Video events
0,0,"towards the horizon.jpg",0,0
//Break Periods
//Storyboard Layer 0 (Background)
//Storyboard Layer 1 (Fail)
//Storyboard Layer 2 (Pass)
//Storyboard Layer 3 (Foreground)
//Storyboard Sound Samples

[TimingPoints]
797,388.60103626943,4,1,0,75,1,0
28776,-100,4,1,0,75,0,0
41211,-100,4,1,0,75,0,1
53646,-100,4,1,0,75,0,0
81626,-100,4,1,0,75,0,1
100278,-100,4,1,0,75,0,0

[HitObjects]
256,192,3905,5,0,0:0:0:0:
256,192,4294,1,0,0:0:0:0:
256,192,4683,1,8,0:0:0:0:
256,192,5460,1,0,0:0:0:0:
256,192,6237,1,8,0:0:0:0:
256,192,7014,1,0,0:0:0:0:
256,192,7403,1,8,0:0:0:0:
256,192,8569,1,8,0:0:0:0:
256,192,9346,1,8,0:0:0:0:
256,192,10123,1,0,0:0:0:0:
256,192,10512,1,0,0:0:0:0:
256,192,10900,1,8,0:0:0:0:
256,192,11678,1,8,0:0:0:0:
256,192,12066,1,0,0:0:0:0:
256,192,12455,1,8,0:0:0:0:
256,192,13232,1,0,0:0:0:0:
256,192,13621,1,8,0:0:0:0:
256,192,14009,12,0,15952,0:0:0:0:
256,192,16341,5,4,0:0:0:0:
256,192,16729,1,8,0:0:0:0:
256,192,17118,1,0,0:0:0:0:
256,192,17895,1,0,0:0:0:0:
256,192,18284,1,8,0:0:0:0:
256,192,18672,1,0,0:0:0:0:
256,192,18866,1,0,0:0:0:0:
256,192,19061,1,8,0:0:0:0:
256,192,19449,1,0,0:0:0:0:
256,192,19838,1,8,0:0:0:0:
256,192,20227,1,0,0:0:0:0:
256,192,21004,1,0,0:0:0:0:
256,192,21392,1,8,0:0:0:0:
256,192,21781,1,0,0:0:0:0:
256,192,21975,1,0,0:0:0:0:
256,192,22170,1,8,0:0:0:0:
256,192,22558,1,0,0:0:0:0:
256,192,22947,1,8,0:0:0:0:
256,192,23335,1,0,0:0:0:0:
256,192,24113,1,0,0:0:0:0:
256,192,24307,1,0,0:0:0:0:
256,192,24501,1,8,0:0:0:0:
256,192,24890,1,0,0:0:0:0:
256,192,25084,1,8,0:0:0:0:
256,192,25279,1,8,0:0:0:0:
256,192,25667,1,0,0:0:0:0:
256,192,26056,1,8,0:0:0:0:
256,192,26444,1,0,0:0:0:0:
256,192,26638,1,0,0:0:0:0:
256,192,26833,1,8,0:0:0:0:
256,192,27027,1,8,0:0:0:0:
256,192,27221,1,0,0:0:0:0:
256,192,28776,5,4,0:0:0:0:
256,192,29165,1,8,0:0:0:0:
256,192,29359,1,0,0:0:0:0:
256,192,29553,1,8,0:0:0:0:
256,192,29942,1,8,0:0:0:0:
256,192,30330,1,0,0:0:0:0:
256,192,30719,1,8,0:0:0:0:
256,192,30913,1,0,0:0:0:0:
256,192,31107,1,0,0:0:0:0:
256,192,31496,1,8,0:0:0:0:
256,192,31885,1,0,0:0:0:0:
256,192,32273,1,8,0:0:0:0:
256,192,32662,1,0,0:0:0:0:
256,192,32856,1,0,0:0:0:0:
256,192,33051,1,8,0:0:0:0:
256,192,33439,1,0,0:0:0:0:
256,192,33828,1,8,0:0:0:0:
256,192,34410,1,0,0:0:0:0:
256,192,34605,1,8,0:0:0:0:
256,192,34994,1,4,0:0:0:0:
256,192,35382,1,8,0:0:0:0:
256,192,35576,1,0,0:0:0:0:
256,192,35771,1,8,0:0:0:0:
256,192,36159,1,8,0:0:0:0:
256,192,36548,1,0,0:0:0:0:
256,192,36936,1,0,0:0:0:0:
256,192,37131,1,0,0:0:0:0:
256,192,37325,1,8,0:0:0:0:
256,192,37714,1,8,0:0:0:0:
256,192,38102,1,0,0:0:0:0:
256,192,38491,1,0,0:0:0:0:
256,192,38879,1,8,0:0:0:0:
256,192,39657,1,0,0:0:0:0:
256,192,40045,1,0,0:0:0:0:
256,192,40434,1,8,0:0:0:0:
256,192,40822,1,8,0:0:0:0:
256,192,41211,1,0,0:0:0:0:
256,192,41600,1,8,0:0:0:0:
256,192,41988,1,0,0:0:0:0:
256,192,42183,1,0,0:0:0:0:
256,192,42377,1,8,0:0:0:0:
256,192,42765,1,0,0:0:0:0:
256,192,43154,1,8,0:0:0:0:
256,192,43543,1,8,0:0:0:0:
256,192,43737,1,0,0:0:0:0:
256,192,43931,1,8,0:0:0:0:
256,192,44320,1,0,0:0:0:0:
256,192,44708,1,8,0:0:0:0:
256,192,45291,1,0,0:0:0:0:
256,192,45486,1,8,0:0:0:0:
256,192,45874,1,0,0:0:0:0:
256,192,46263,1,8,0:0:0:0:
256,192,46846,1,0,0:0:0:0:
256,192,47040,1,8,0:0:0:0:
256,192,47429,1,0,0:0:0:0:
256,192,47817,1,8,0:0:0:0:
256,192,48206,1,0,0:0:0:0:
256,192,48400,1,8,0:0:0:0:
256,192,48594,1,8,0:0:0:0:
256,192,48983,1,0,0:0:0:0:
256,192,49372,1,8,0:0:0:0:
256,192,49760,1,8,0:0:0:0:
256,192,49955,1,0,0:0:0:0:
256,192,50149,1,8,0:0:0:0:
256,192,50537,1,0,0:0:0:0:
256,192,50926,1,8,0:0:0:0:
256,192,51509,1,0,0:0:0:0:
256,192,51703,1,8,0:0:0:0:
256,192,52092,1,8,0:0:0:0:
256,192,52675,1,8,0:0:0:0:
256,192,53258,1,8,0:0:0:0:
256,192,53646,1,4,0:0:0:0:
256,192,54423,1,8,0:0:0:0:
256,192,55201,1,0,0:0:0:0:
256,192,55978,1,8,0:0:0:0:
256,192,56755,1,0,0:0:0:0:
256,192,57338,1,0,0:0:0:0:
256,192,57532,1,8,0:0:0:0:
256,192,58309,1,0,0:0:0:0:
256,192,58892,1,0,0:0:0:0:
256,192,59087,1,8,0:0:0:0:
256,192,59281,1,0,0:0:0:0:
256,192,59475,1,8,0:0:0:0:
256,192,60252,1,0,0:0:0:0:
256,192,60641,1,8,0:0:0:0:
256,192,61418,1,0,0:0:0:0:
256,192,62195,1,8,0:0:0:0:
256,192,62973,1,0,0:0:0:0:
256,192,63556,1,0,0:0:0:0:
256,192,63750,1,8,0:0:0:0:
256,192,64527,1,0,0:0:0:0:
256,192,64819,1,0,0:0:0:0:
256,192,65110,1,0,0:0:0:0:
256,192,65304,1,8,0:0:0:0:
256,192,65693,1,8,0:0:0:0:
256,192,66081,1,0,0:0:0:0:
256,192,66859,1,0,0:0:0:0:
256,192,67636,1,0,0:0:0:0:
256,192,68024,1,8,0:0:0:0:
256,192,68413,1,0,0:0:0:0:
256,192,68802,1,0,0:0:0:0:
256,192,69190,1,8,0:0:0:0:
256,192,69967,1,8,0:0:0:0:
256,192,70745,1,0,0:0:0:0:
256,192,71133,1,8,0:0:0:0:
256,192,71522,1,0,0:0:0:0:
256,192,72299,1,8,0:0:0:0:
256,192,73076,1,0,0:0:0:0:
256,192,73853,1,0,0:0:0:0:
256,192,74242,1,0,0:0:0:0:
256,192,74631,1,8,0:0:0:0:
256,192,75019,1,8,0:0:0:0:
256,192,75408,1,0,0:0:0:0:
256,192,75796,1,8,0:0:0:0:
256,192,76185,1,0,0:0:0:0:
256,192,76574,1,8,0:0:0:0:
256,192,76962,1,0,0:0:0:0:
256,192,77351,1,0,0:0:0:0:
256,192,77740,1,8,0:0:0:0:
256,192,78128,1,8,0:0:0:0:
256,192,78517,12,8,79683,0:0:0:0:
256,192,80071,5,0,0:0:0:0:
256,192,81626,1,4,0:0:0:0:
256,192,82014,1,8,0:0:0:0:
256,192,82403,1,0,0:0:0:0:
256,192,82597,1,0,0:0:0:0:
256,192,82791,1,8,0:0:0:0:
256,192,83180,1,0,0:0:0:0:
256,192,83569,1,8,0:0:0:0:
256,192,83957,1,8,0:0:0:0:
256,192,84151,1,0,0:0:0:0:
256,192,84346,1,8,0:0:0:0:
256,192,84734,1,0,0:0:0:0:
256,192,85123,1,8,0:0:0:0:
256,192,85512,1,0,0:0:0:0:
256,192,85706,1,0,0:0:0:0:
256,192,85900,1,8,0:0:0:0:
256,192,86289,1,0,0:0:0:0:
256,192,86677,1,8,0:0:0:0:
256,192,87066,1,0,0:0:0:0:
256,192,87455,1,8,0:0:0:0:
256,192,87649,1,8,0:0:0:0:
256,192,87843,1,0,0:0:0:0:
256,192,88232,1,8,0:0:0:0:
256,192,88620,1,0,0:0:0:0:
256,192,88815,1,0,0:0:0:0:
256,192,89009,1,8,0:0:0:0:
256,192,89398,1,0,0:0:0:0:
256,192,89786,1,8,0:0:0:0:
256,192,90174,1,8,0:0:0:0:
256,192,90369,1,0,0:0:0:0:
256,192,90563,1,8,0:0:0:0:
256,192,90952,1,0,0:0:0:0:
256,192,91341,1,8,0:0:0:0:
256,192,91729,1,0,0:0:0:0:
256,192,91923,1,0,0:0:0:0:
256,192,92118,1,8,0:0:0:0:
256,192,92506,1,8,0:0:0:0:
256,192,93284,1,8,0:0:0:0:
256,192,93672,1,0,0:0:0:0:
256,192,94061,1,4,0:0:0:0:
256,192,94449,1,8,0:0:0:0:
256,192,94838,1,0,0:0:0:0:
256,192,95032,1,0,0:0:0:0:
256,192,95226,1,8,0:0:0:0:
256,192,95615,1,0,0:0:0:0:
256,192,96004,1,8,0:0:0:0:
256,192,96392,1,8,0:0:0:0:
256,192,96586,1,0,0:0:0:0:
256,192,96781,1,8,0:0:0:0:
256,192,97169,1,0,0:0:0:0:
256,192,97558,1,8,0:0:0:0:
256,192,97947,1,0,0:0:0:0:
256,192,98141,1,0,0:0:0:0:
256,192,98335,1,8,0:0:0:0:
256,192,98724,1,0,0:0:0:0:
256,192,99112,1,8,0:0:0:0:
256,192,99501,1,0,0:0:0:0:
256,192,99890,1,8,0:0:0:0:
256,192,100084,1,8,0:0:0:0:
256,192,100278,1,4,0:0:0:0:
256,192,100667,1,8,0:0:0:0:
256,192,101444,1,8,0:0:0:0:
256,192,102221,1,8,0:0:0:0:
256,192,102999,1,8,0:0:0:0:
256,192,103387,1,0,0:0:0:0:
256,192,103776,1,0,0:0:0:0:
256,192,104164,1,0,0:0:0:0:
256,192,104359,1,0,0:0:0:0:
256,192,104553,1,0,0:0:0:0:
256,192,104942,1,8,0:0:0:0:
256,192,106496,1,4,0:0:0:0:
256,192,106885,1,8,0:0:0:0:
256,192,107079,1,0,0:0:0:0:
256,192,107273,1,8,0:0:0:0:
256,192,108050,1,0,0:0:0:0:
256,192,108439,1,0,0:0:0:0:
256,192,108828,1,8,0:0:0:0:
256,192,109410,1,4,0:0:0:0:
256,192,109993,1,0,0:0:0:0:
256,192,110188,1,0,0:0:0:0:
256,192,110382,1,8,0:0:0:0:
256,192,111159,1,0,0:0:0:0:
256,192,111548,1,0,0:0:0:0:
256,192,111742,1,0,0:0:0:0:
256,192,111936,1,8,0:0:0:0:
256,192,112325,1,8,0:0:0:0:
256,192,112714,1,0,0:0:0:0:
256,192,113102,1,12,0:0:0:0:
256,192,113491,1,8,0:0:0:0:
256,192,114268,1,0,0:0:0:0:
256,192,114657,1,0,0:0:0:0:
256,192,115045,1,8,0:0:0:0:
256,192,115240,1,8,0:0:0:0:
256,192,115434,1,0,0:0:0:0:
256,192,115822,1,4,0:0:0:0:
256,192,116114,1,0,0:0:0:0:
256,192,116600,1,4,0:0:0:0:
256,192,116891,1,0,0:0:0:0:
256,192,117377,1,4,0:0:0:0:
256,192,117960,1,0,0:0:0:0:
256,192,118154,12,0,121263,0:0:0:0:
