osu file format v14

[General]
AudioFilename: audio.mp3
AudioLeadIn: 0
PreviewTime: 80848
Countdown: 0
SampleSet: Normal
StackLeniency: 0.7
Mode: 1
LetterboxInBreaks: 0
WidescreenStoryboard: 0

[Editor]
Bookmarks: 796,3905,10123,16341,22558,28776,34993,41211,46651,47429,53646,60252,66081,72299,81626,93284,94061,100278,106496,113102,118154,121263
DistanceSpacing: 1.9
BeatDivisor: 4
GridSize: 32
TimelineZoom: 3.25

[Metadata]
Title:Towards The Horizon
TitleUnicode:Towards The Horizon
Artist:Camellia
ArtistUnicode:かめりあ
Creator:duski
Version:Ayyri's Muzukashii
Source:REFLEC BEAT 悠久のリフレシア
Tags:Ayyri rb illusiya イルシヤ 6th konami arcade championship kac bemani the reflesia of eternity
BeatmapID:1361689
BeatmapSetID:619639

[Difficulty]
HPDrainRate:6
CircleSize:2
OverallDifficulty:5
ApproachRate:10
SliderMultiplier:1.4
SliderTickRate:1

[Events]
//Background and Video events
0,0,"towards the horizon.jpg",0,0
//Break Periods
//Storyboard Layer 0 (Background)
//Storyboard Layer 1 (Fail)
//Storyboard Layer 2 (Pass)
//Storyboard Layer 3 (Foreground)
//Storyboard Sound Samples

[TimingPoints]
797,388.60103626943,4,1,0,75,1,0
41211,-100,4,1,0,75,0,1
46651,-100,4,1,0,75,0,0
47429,-100,4,1,0,75,0,1
53646,-100,4,1,0,75,0,0
81626,-100,4,1,0,75,0,1
93284,-100,4,1,0,75,0,0
94061,-100,4,1,0,75,0,1
100278,-100,4,1,0,75,0,0
121263,-100,4,1,0,25,0,0

[HitObjects]
256,192,3905,5,0,0:0:0:0:
256,192,4100,1,8,0:0:0:0:
256,192,4294,1,8,0:0:0:0:
256,192,4488,1,0,0:0:0:0:
256,192,4683,1,8,0:0:0:0:
256,192,4877,1,0,0:0:0:0:
256,192,5071,1,8,0:0:0:0:
256,192,5460,1,8,0:0:0:0:
256,192,5654,1,0,0:0:0:0:
256,192,5848,1,0,0:0:0:0:
256,192,6043,1,8,0:0:0:0:
256,192,6237,1,8,0:0:0:0:
256,192,6431,1,0,0:0:0:0:
256,192,6820,1,0,0:0:0:0:
256,192,7014,1,8,0:0:0:0:
256,192,7306,1,8,0:0:0:0:
256,192,7403,1,8,0:0:0:0:
256,192,7791,1,0,0:0:0:0:
256,192,8083,1,8,0:0:0:0:
256,192,8180,1,8,0:0:0:0:
256,192,8569,1,0,0:0:0:0:
256,192,8957,1,8,0:0:0:0:
256,192,9346,1,0,0:0:0:0:
256,192,10123,1,0,0:0:0:0:
256,192,10318,1,8,0:0:0:0:
256,192,10512,1,8,0:0:0:0:
256,192,10706,1,0,0:0:0:0:
256,192,10901,1,8,0:0:0:0:
256,192,11095,1,0,0:0:0:0:
256,192,11289,1,8,0:0:0:0:
256,192,11678,1,8,0:0:0:0:
256,192,11774,1,8,0:0:0:0:
256,192,11872,1,8,0:0:0:0:
256,192,12066,1,0,0:0:0:0:
256,192,12261,1,0,0:0:0:0:
256,192,12455,1,8,0:0:0:0:
256,192,12649,1,0,0:0:0:0:
256,192,13038,1,0,0:0:0:0:
256,192,13232,1,8,0:0:0:0:
256,192,13524,1,8,0:0:0:0:
256,192,13621,1,8,0:0:0:0:
256,192,14009,1,0,0:0:0:0:
256,192,14301,1,8,0:0:0:0:
256,192,14398,1,8,0:0:0:0:
256,192,14787,1,0,0:0:0:0:
256,192,15175,1,8,0:0:0:0:
256,192,15564,1,0,0:0:0:0:
256,192,16341,1,4,0:0:0:0:
256,192,16729,1,8,0:0:0:0:
256,192,17312,1,0,0:0:0:0:
256,192,17506,1,8,0:0:0:0:
256,192,17895,1,0,0:0:0:0:
256,192,18284,1,8,0:0:0:0:
256,192,18672,1,0,0:0:0:0:
256,192,18866,1,0,0:0:0:0:
256,192,19061,1,8,0:0:0:0:
256,192,19449,1,0,0:0:0:0:
256,192,19838,1,8,0:0:0:0:
256,192,20129,1,0,0:0:0:0:
256,192,20227,1,0,0:0:0:0:
256,192,20421,1,0,0:0:0:0:
256,192,20615,1,8,0:0:0:0:
256,192,21004,1,0,0:0:0:0:
256,192,21392,1,8,0:0:0:0:
256,192,21684,1,0,0:0:0:0:
256,192,21878,1,0,0:0:0:0:
256,192,22072,1,0,0:0:0:0:
256,192,22170,1,0,0:0:0:0:
256,192,22267,1,0,0:0:0:0:
256,192,22558,1,0,0:0:0:0:
256,192,22947,1,8,0:0:0:0:
256,192,23238,1,0,0:0:0:0:
256,192,23335,1,0,0:0:0:0:
256,192,23530,1,0,0:0:0:0:
256,192,23724,1,8,0:0:0:0:
256,192,24113,1,0,0:0:0:0:
256,192,24307,1,0,0:0:0:0:
256,192,24501,1,8,0:0:0:0:
256,192,24793,1,0,0:0:0:0:
256,192,24890,1,0,0:0:0:0:
256,192,25084,1,0,0:0:0:0:
256,192,25278,1,8,0:0:0:0:
256,192,25473,1,8,0:0:0:0:
256,192,25570,1,8,0:0:0:0:
256,192,25667,1,8,0:0:0:0:
256,192,26056,1,8,0:0:0:0:
256,192,26250,1,0,0:0:0:0:
256,192,26444,1,0,0:0:0:0:
256,192,26541,1,0,0:0:0:0:
256,192,26638,1,0,0:0:0:0:
256,192,26833,1,0,0:0:0:0:
256,192,27027,1,8,0:0:0:0:
256,192,27124,1,8,0:0:0:0:
256,192,27222,1,8,0:0:0:0:
256,192,28776,1,4,0:0:0:0:
256,192,29164,1,8,0:0:0:0:
256,192,29553,1,8,0:0:0:0:
256,192,29650,1,8,0:0:0:0:
256,192,29844,1,8,0:0:0:0:
256,192,29942,1,8,0:0:0:0:
256,192,30136,1,8,0:0:0:0:
256,192,30330,1,4,0:0:0:0:
256,192,30719,1,8,0:0:0:0:
256,192,31107,1,8,0:0:0:0:
256,192,31205,1,8,0:0:0:0:
256,192,31399,1,8,0:0:0:0:
256,192,31496,1,8,0:0:0:0:
256,192,31690,1,8,0:0:0:0:
256,192,31885,1,4,0:0:0:0:
256,192,32273,1,8,0:0:0:0:
256,192,32662,1,0,0:0:0:0:
256,192,32759,1,0,0:0:0:0:
256,192,32953,1,0,0:0:0:0:
256,192,33050,1,0,0:0:0:0:
256,192,33245,1,8,0:0:0:0:
256,192,33439,1,4,0:0:0:0:
256,192,33828,1,8,0:0:0:0:
256,192,34022,1,0,0:0:0:0:
256,192,34216,1,8,0:0:0:0:
256,192,34410,1,8,0:0:0:0:
256,192,34605,1,0,0:0:0:0:
256,192,34702,1,0,0:0:0:0:
256,192,34799,1,0,0:0:0:0:
256,192,34993,1,12,0:0:0:0:
256,192,35381,1,8,0:0:0:0:
256,192,35770,1,8,0:0:0:0:
256,192,35867,1,8,0:0:0:0:
256,192,36061,1,8,0:0:0:0:
256,192,36159,1,8,0:0:0:0:
256,192,36353,1,8,0:0:0:0:
256,192,36547,1,4,0:0:0:0:
256,192,36936,1,8,0:0:0:0:
256,192,37324,1,8,0:0:0:0:
256,192,37422,1,8,0:0:0:0:
256,192,37616,1,8,0:0:0:0:
256,192,37713,1,8,0:0:0:0:
256,192,37907,1,0,0:0:0:0:
256,192,38102,1,12,0:0:0:0:
256,192,38490,1,8,0:0:0:0:
256,192,38684,1,0,0:0:0:0:
256,192,38782,1,0,0:0:0:0:
256,192,38879,1,0,0:0:0:0:
256,192,39074,1,0,0:0:0:0:
256,192,39267,1,8,0:0:0:0:
256,192,39656,1,4,0:0:0:0:
256,192,39851,1,0,0:0:0:0:
256,192,40045,1,8,0:0:0:0:
256,192,40239,1,8,0:0:0:0:
256,192,40337,1,8,0:0:0:0:
256,192,40433,1,8,0:0:0:0:
256,192,40627,1,0,0:0:0:0:
256,192,40822,1,8,0:0:0:0:
256,192,41211,1,4,0:0:0:0:
256,192,41405,1,0,0:0:0:0:
256,192,41600,1,8,0:0:0:0:
256,192,41697,1,8,0:0:0:0:
256,192,41794,1,8,0:0:0:0:
256,192,41988,1,0,0:0:0:0:
256,192,42183,1,0,0:0:0:0:
256,192,42377,1,8,0:0:0:0:
256,192,42765,1,0,0:0:0:0:
256,192,42960,1,0,0:0:0:0:
256,192,43057,1,0,0:0:0:0:
256,192,43154,1,0,0:0:0:0:
256,192,43348,1,8,0:0:0:0:
256,192,43543,1,0,0:0:0:0:
256,192,43737,1,8,0:0:0:0:
256,192,44126,1,0,0:0:0:0:
256,192,44320,1,8,0:0:0:0:
256,192,44611,1,8,0:0:0:0:
256,192,44708,1,8,0:0:0:0:
256,192,45097,1,0,0:0:0:0:
256,192,45388,1,8,0:0:0:0:
256,192,45486,1,8,0:0:0:0:
256,192,45874,1,0,0:0:0:0:
256,192,46069,1,8,0:0:0:0:
256,192,46166,1,8,0:0:0:0:
256,192,46263,1,8,0:0:0:0:
256,192,46457,1,8,0:0:0:0:
256,192,46651,1,0,0:0:0:0:
256,192,46846,1,0,0:0:0:0:
256,192,47040,1,8,0:0:0:0:
256,192,47429,1,8,0:0:0:0:
256,192,47623,1,0,0:0:0:0:
256,192,47818,1,8,0:0:0:0:
256,192,47914,1,8,0:0:0:0:
256,192,48012,1,8,0:0:0:0:
256,192,48206,1,0,0:0:0:0:
256,192,48401,1,0,0:0:0:0:
256,192,48595,1,8,0:0:0:0:
256,192,48789,1,0,0:0:0:0:
256,192,48983,1,8,0:0:0:0:
256,192,49080,1,8,0:0:0:0:
256,192,49177,1,8,0:0:0:0:
256,192,49372,1,0,0:0:0:0:
256,192,49761,1,8,0:0:0:0:
256,192,49857,1,8,0:0:0:0:
256,192,49955,1,8,0:0:0:0:
256,192,50149,1,8,0:0:0:0:
256,192,50343,1,0,0:0:0:0:
256,192,50538,1,0,0:0:0:0:
256,192,50829,1,8,0:0:0:0:
256,192,50926,1,8,0:0:0:0:
256,192,51315,1,0,0:0:0:0:
256,192,51606,1,8,0:0:0:0:
256,192,51704,1,8,0:0:0:0:
256,192,52092,1,0,0:0:0:0:
256,192,52286,1,0,0:0:0:0:
256,192,52383,1,0,0:0:0:0:
256,192,52480,1,0,0:0:0:0:
256,192,52675,1,0,0:0:0:0:
256,192,52869,1,8,0:0:0:0:
256,192,53063,1,0,0:0:0:0:
256,192,53258,1,8,0:0:0:0:
256,192,53452,1,8,0:0:0:0:
256,192,53646,1,4,0:0:0:0:
256,192,54423,1,8,0:0:0:0:
256,192,55201,1,0,0:0:0:0:
256,192,55978,1,8,0:0:0:0:
256,192,56755,1,0,0:0:0:0:
256,192,57338,1,0,0:0:0:0:
256,192,57532,1,8,0:0:0:0:
256,192,58309,1,0,0:0:0:0:
256,192,58892,1,0,0:0:0:0:
256,192,59087,1,8,0:0:0:0:
256,192,59475,1,8,0:0:0:0:
256,192,59864,1,0,0:0:0:0:
256,192,60252,1,4,0:0:0:0:
256,192,60641,1,8,0:0:0:0:
256,192,61418,1,0,0:0:0:0:
256,192,62195,1,8,0:0:0:0:
256,192,62972,1,0,0:0:0:0:
256,192,63556,1,0,0:0:0:0:
256,192,63749,1,8,0:0:0:0:
256,192,64526,1,0,0:0:0:0:
256,192,65304,1,8,0:0:0:0:
256,192,65596,1,0,0:0:0:0:
256,192,65693,1,0,0:0:0:0:
256,192,65887,1,0,0:0:0:0:
256,192,66082,1,12,0:0:0:0:
256,192,66664,1,8,0:0:0:0:
256,192,66859,1,0,0:0:0:0:
256,192,67247,1,8,0:0:0:0:
256,192,67830,1,8,0:0:0:0:
256,192,68024,1,0,0:0:0:0:
256,192,68122,1,0,0:0:0:0:
256,192,68219,1,0,0:0:0:0:
256,192,68413,1,8,0:0:0:0:
256,192,68607,1,0,0:0:0:0:
256,192,68802,1,8,0:0:0:0:
256,192,68996,1,8,0:0:0:0:
256,192,69190,1,8,0:0:0:0:
256,192,69773,1,0,0:0:0:0:
256,192,69967,1,8,0:0:0:0:
256,192,70356,1,0,0:0:0:0:
256,192,70550,1,8,0:0:0:0:
256,192,70745,1,0,0:0:0:0:
256,192,71133,1,0,0:0:0:0:
256,192,71328,1,8,0:0:0:0:
256,192,71910,1,0,0:0:0:0:
256,192,72105,1,0,0:0:0:0:
256,192,72299,1,8,0:0:0:0:
256,192,72882,1,8,0:0:0:0:
256,192,73076,1,0,0:0:0:0:
256,192,73465,1,8,0:0:0:0:
256,192,74048,1,8,0:0:0:0:
256,192,74242,1,0,0:0:0:0:
256,192,74436,1,0,0:0:0:0:
256,192,74631,1,8,0:0:0:0:
256,192,74825,1,0,0:0:0:0:
256,192,75019,1,8,0:0:0:0:
256,192,75214,1,8,0:0:0:0:
256,192,75408,1,8,0:0:0:0:
256,192,75796,1,8,0:0:0:0:
256,192,75991,1,0,0:0:0:0:
256,192,76185,1,8,0:0:0:0:
256,192,76379,1,8,0:0:0:0:
256,192,76574,1,0,0:0:0:0:
256,192,76768,1,0,0:0:0:0:
256,192,76865,1,0,0:0:0:0:
256,192,76962,1,0,0:0:0:0:
256,192,77157,1,0,0:0:0:0:
256,192,77351,1,8,0:0:0:0:
256,192,77740,1,0,0:0:0:0:
256,192,77934,1,0,0:0:0:0:
256,192,78128,1,8,0:0:0:0:
256,192,78322,1,8,0:0:0:0:
256,192,78420,1,8,0:0:0:0:
256,192,78517,1,8,0:0:0:0:
256,192,78711,8,0,80071,0:0:0:0:
256,192,81237,5,12,0:0:0:0:
256,192,81626,1,4,0:0:0:0:
256,192,81917,1,8,0:0:0:0:
256,192,82208,1,8,0:0:0:0:
256,192,82403,1,0,0:0:0:0:
256,192,82500,1,0,0:0:0:0:
256,192,82597,1,0,0:0:0:0:
256,192,82791,1,8,0:0:0:0:
256,192,83180,1,0,0:0:0:0:
256,192,83471,1,8,0:0:0:0:
256,192,83763,1,8,0:0:0:0:
256,192,83957,1,0,0:0:0:0:
256,192,84054,1,0,0:0:0:0:
256,192,84151,1,0,0:0:0:0:
256,192,84346,1,8,0:0:0:0:
256,192,84540,1,8,0:0:0:0:
256,192,84734,1,0,0:0:0:0:
256,192,85317,1,0,0:0:0:0:
256,192,85512,1,8,0:0:0:0:
256,192,85706,1,8,0:0:0:0:
256,192,85900,1,0,0:0:0:0:
256,192,86289,1,8,0:0:0:0:
256,192,86483,1,0,0:0:0:0:
256,192,86580,1,0,0:0:0:0:
256,192,86677,1,0,0:0:0:0:
256,192,86872,1,8,0:0:0:0:
256,192,87066,1,8,0:0:0:0:
256,192,87260,1,0,0:0:0:0:
256,192,87455,1,8,0:0:0:0:
256,192,87649,1,8,0:0:0:0:
256,192,87843,1,0,0:0:0:0:
256,192,88134,1,8,0:0:0:0:
256,192,88425,1,8,0:0:0:0:
256,192,88620,1,0,0:0:0:0:
256,192,89008,1,8,0:0:0:0:
256,192,89397,1,0,0:0:0:0:
256,192,89688,1,8,0:0:0:0:
256,192,89980,1,8,0:0:0:0:
256,192,90174,1,0,0:0:0:0:
256,192,90272,1,0,0:0:0:0:
256,192,90369,1,0,0:0:0:0:
256,192,90563,1,8,0:0:0:0:
256,192,90660,1,8,0:0:0:0:
256,192,90758,1,8,0:0:0:0:
256,192,90951,1,0,0:0:0:0:
256,192,91534,1,0,0:0:0:0:
256,192,91729,1,8,0:0:0:0:
256,192,91923,1,8,0:0:0:0:
256,192,92021,1,8,0:0:0:0:
256,192,92117,1,8,0:0:0:0:
256,192,92312,1,0,0:0:0:0:
256,192,92506,1,8,0:0:0:0:
256,192,92894,1,0,0:0:0:0:
256,192,93283,1,8,0:0:0:0:
256,192,93381,1,8,0:0:0:0:
256,192,93477,1,8,0:0:0:0:
256,192,93672,1,0,0:0:0:0:
256,192,93769,1,0,0:0:0:0:
256,192,93866,1,0,0:0:0:0:
256,192,94061,1,4,0:0:0:0:
256,192,94352,1,8,0:0:0:0:
256,192,94643,1,8,0:0:0:0:
256,192,94838,1,0,0:0:0:0:
256,192,94935,1,0,0:0:0:0:
256,192,95032,1,0,0:0:0:0:
256,192,95226,1,8,0:0:0:0:
256,192,95615,1,0,0:0:0:0:
256,192,95906,1,8,0:0:0:0:
256,192,96198,1,8,0:0:0:0:
256,192,96392,1,0,0:0:0:0:
256,192,96490,1,0,0:0:0:0:
256,192,96587,1,0,0:0:0:0:
256,192,96781,1,8,0:0:0:0:
256,192,96975,1,8,0:0:0:0:
256,192,97169,1,0,0:0:0:0:
256,192,97558,1,8,0:0:0:0:
256,192,97752,1,0,0:0:0:0:
256,192,97947,1,8,0:0:0:0:
256,192,98141,1,8,0:0:0:0:
256,192,98335,1,0,0:0:0:0:
256,192,98724,1,8,0:0:0:0:
256,192,98918,1,0,0:0:0:0:
256,192,99015,1,0,0:0:0:0:
256,192,99112,1,0,0:0:0:0:
256,192,99307,1,8,0:0:0:0:
256,192,99501,1,8,0:0:0:0:
256,192,99695,1,0,0:0:0:0:
256,192,99890,1,8,0:0:0:0:
256,192,100084,1,8,0:0:0:0:
256,192,100278,1,4,0:0:0:0:
256,192,100861,1,0,0:0:0:0:
256,192,101056,1,8,0:0:0:0:
256,192,101250,1,8,0:0:0:0:
256,192,101444,1,0,0:0:0:0:
256,192,101638,1,8,0:0:0:0:
256,192,101833,1,4,0:0:0:0:
256,192,102416,1,0,0:0:0:0:
256,192,102610,1,8,0:0:0:0:
256,192,102804,1,0,0:0:0:0:
256,192,102999,1,8,0:0:0:0:
256,192,103193,1,8,0:0:0:0:
256,192,103387,1,0,0:0:0:0:
256,192,103581,1,0,0:0:0:0:
256,192,103776,1,8,0:0:0:0:
256,192,104164,1,0,0:0:0:0:
256,192,104359,1,0,0:0:0:0:
256,192,104553,1,8,0:0:0:0:
256,192,104747,1,8,0:0:0:0:
256,192,104844,1,8,0:0:0:0:
256,192,104942,1,8,0:0:0:0:
256,192,106496,1,4,0:0:0:0:
256,192,106885,1,8,0:0:0:0:
256,192,107079,1,0,0:0:0:0:
256,192,107273,1,8,0:0:0:0:
256,192,108050,1,4,0:0:0:0:
256,192,108342,1,0,0:0:0:0:
256,192,108633,1,0,0:0:0:0:
256,192,108828,1,8,0:0:0:0:
256,192,109410,1,12,0:0:0:0:
256,192,109799,1,0,0:0:0:0:
256,192,110091,1,0,0:0:0:0:
256,192,110382,1,12,0:0:0:0:
256,192,110965,1,8,0:0:0:0:
256,192,111159,1,4,0:0:0:0:
256,192,111451,1,0,0:0:0:0:
256,192,111742,1,0,0:0:0:0:
256,192,111936,1,8,0:0:0:0:
256,192,112131,1,8,0:0:0:0:
256,192,112325,1,0,0:0:0:0:
256,192,112519,1,0,0:0:0:0:
256,192,112714,1,8,0:0:0:0:
256,192,112908,1,0,0:0:0:0:
256,192,113102,1,12,0:0:0:0:
256,192,113491,1,8,0:0:0:0:
256,192,113685,1,0,0:0:0:0:
256,192,113879,1,8,0:0:0:0:
256,192,114268,1,4,0:0:0:0:
256,192,114657,1,0,0:0:0:0:
256,192,114948,1,8,0:0:0:0:
256,192,115045,1,8,0:0:0:0:
256,192,115240,1,8,0:0:0:0:
256,192,115434,1,4,0:0:0:0:
256,192,115822,1,12,0:0:0:0:
256,192,116114,1,12,0:0:0:0:
256,192,116405,1,0,0:0:0:0:
256,192,116600,1,12,0:0:0:0:
256,192,116891,1,12,0:0:0:0:
256,192,117183,1,0,0:0:0:0:
256,192,117377,1,12,0:0:0:0:
256,192,117668,1,8,0:0:0:0:
256,192,117765,1,8,0:0:0:0:
256,192,117960,1,4,0:0:0:0:
256,192,118154,8,0,121263,0:0:0:0:
