osu file format v14

[General]
AudioFilename: audio.mp3
AudioLeadIn: 0
PreviewTime: 78954
Countdown: 0
SampleSet: Soft
StackLeniency: 0.7
Mode: 0
LetterboxInBreaks: 0
WidescreenStoryboard: 1

[Editor]
Bookmarks: 120340
DistanceSpacing: 1
BeatDivisor: 12
GridSize: 32
TimelineZoom: 1

[Metadata]
Title:Towards The Horizon
TitleUnicode:Towards The Horizon
Artist:Camellia
ArtistUnicode:かめりあ
Creator:Seolv
Version:Normal
Source:REFLEC BEAT 悠久のリフレシア
Tags:The Reflesia of Eternity 6th KONAMI Arcade Championship kac BEMANI Illusiya イルシヤ Regou electronic wub dubstep lukas [_l_u_k_a_s_]
BeatmapID:2006331
BeatmapSetID:705022

[Difficulty]
HPDrainRate:4
CircleSize:3.5
OverallDifficulty:5
ApproachRate:6
SliderMultiplier:1.2
SliderTickRate:1

[Events]
//Background and Video events
0,0,"audio.jpg",0,0
//Break Periods
//Storyboard Layer 0 (Background)
//Storyboard Layer 1 (Fail)
//Storyboard Layer 2 (Pass)
//Storyboard Layer 3 (Foreground)
//Storyboard Layer 4 (Overlay)
//Storyboard Sound Samples

[TimingPoints]
1040,388.651379712398,4,2,2,60,1,0
15029,-100,4,2,1,60,0,0
26881,-100,4,2,1,40,0,0
27468,-90.9090909090909,4,2,1,80,0,1
36791,-100,4,2,1,70,0,1
39905,-100,4,2,1,80,0,0
52335,-100,4,2,1,60,0,0
64770,-111.111111111111,4,2,2,60,0,0
75651,-100,4,2,1,40,0,0
76428,-100,4,2,1,60,0,0
77205,-100,4,2,1,70,0,0
77302,-100,4,2,1,50,0,0
79926,-100,4,2,1,20,0,0
80023,-100,4,2,1,60,0,0
80324,-90.9090909090909,4,2,1,80,0,1
98980,-100,4,2,1,60,0,0
102076,-100,4,2,1,40,0,0
102853,-100,4,2,1,60,0,0
103630,-100,4,2,1,40,0,0
105198,-90.9090909090909,4,2,1,80,0,1
111402,-90.9090909090909,4,2,1,70,0,1
111791,-90.9090909090909,4,2,1,90,0,1
111985,-90.9090909090909,4,2,1,80,0,1
114511,-90.9090909090909,4,2,1,60,0,1
116663,-100,4,2,1,100,0,0
116745,-100,4,2,1,50,0,0
118203,-100,4,2,1,38,0,0
118786,-100,4,2,1,26,0,0
119174,-100,4,2,1,14,0,0
119563,-100,4,2,1,5,0,0

[Colours]
Combo1 : 250,139,133
Combo2 : 255,36,36
Combo3 : 202,149,255
Combo4 : 102,255,102

[HitObjects]
487,34,1040,6,0,B|388:32|388:32|343:140|343:140|188:137,1,360,2|0,0:0|0:0,0:0:0:0:
74,94,2594,6,0,P|108:153|97:226,1,120,2|0,0:0|0:0,0:0:0:0:
86,259,3177,1,0,0:0:0:0:
86,259,3371,2,0,L|219:238,1,120,10|0,0:0|0:0,0:0:0:0:
323,227,4149,2,0,L|330:98,1,120,2|0,0:0|0:0,0:0:0:0:
427,36,4926,2,0,L|450:267,1,180,2|0,0:0|0:0,0:0:0:0:
451,275,5703,5,2,0:0:0:0:
343,328,6092,2,0,B|269:239|269:239|144:291,1,240,0|0,0:0|0:0,0:0:0:0:
46,340,7258,2,0,P|35:281|54:224,1,120,2|0,0:0|0:0,0:0:0:0:
169,193,8035,2,0,P|187:136|177:77,1,120,2|0,0:0|0:0,0:0:0:0:
65,33,8813,6,0,L|206:19,1,120,2|0,0:0|0:0,0:0:0:0:
244,22,9396,1,0,0:0:0:0:
244,22,9590,2,0,P|224:115|238:163,1,120,10|0,0:2|0:0,0:0:0:0:
307,227,10367,2,0,L|317:97,1,120,2|0,0:0|0:0,0:0:0:0:
324,47,10950,1,0,0:0:0:0:
324,47,11144,2,0,P|417:67|465:53,1,120,2|0,0:0|0:0,0:0:0:0:
499,166,11922,5,2,0:0:0:0:
436,268,12310,2,0,P|273:296|197:262,1,240,0|0,0:0|0:0,0:0:0:0:
148,165,13476,2,0,P|166:227|134:370,1,180,2|0,0:0|0:0,0:0:0:0:
101,374,14254,2,0,P|143:356|230:371,1,120,10|0,0:0|0:0,0:0:0:0:
335,367,15031,6,0,B|312:283|312:283|377:100,1,240,0|0,3:0|0:0,0:0:0:0:
338,21,16197,1,8,0:0:0:0:
218,10,16586,2,0,L|93:19,1,120,2|8,3:2|0:0,0:0:0:0:
8,97,17363,2,0,L|133:106,1,120,0|8,0:0|0:0,0:0:0:0:
245,126,18140,6,0,B|294:261|201:224|251:389,1,240,2|0,3:2|0:0,0:0:0:0:
362,373,19306,1,8,0:0:0:0:
466,314,19695,2,0,P|419:264|262:298,1,240,2|0,3:2|0:0,0:0:0:0:
161,343,20861,1,8,0:0:0:0:
63,273,21249,6,0,B|38:217|38:217|77:31,1,240,2|0,3:2|0:0,0:0:0:0:
189,6,22415,1,8,0:0:0:0:
289,70,22804,2,0,P|330:91|431:57,1,120,2|8,3:2|0:0,0:0:0:0:
457,59,23387,1,0,0:0:0:0:
457,59,23581,2,0,L|446:204,1,120,0|2,0:0|0:0,0:0:0:0:
423,295,24359,6,0,L|288:282,1,120,0|0,3:0|3:0,0:0:0:0:
260,242,24942,1,0,3:0:0:0:
260,242,25136,2,0,L|199:249,1,60,0|0,3:0|3:0,0:0:0:0:
156,289,25525,2,0,L|96:282,1,60,0|0,3:0|3:0,0:0:0:0:
36,272,25913,1,0,3:0:0:0:
36,272,27468,6,0,P|16:187|31:133,1,132.00000402832,4|8,3:2|0:0,0:0:0:0:
66,92,28051,1,2,0:0:0:0:
66,92,28245,2,0,L|223:78,1,132.00000402832,2|10,0:0|0:0,0:0:0:0:
318,26,29022,2,0,P|338:111|323:165,1,132.00000402832,0|8,3:3|0:0,0:0:0:0:
288,206,29605,1,2,0:0:0:0:
288,206,29800,2,0,L|131:220,1,132.00000402832,2|8,0:0|0:0,0:0:0:0:
76,322,30577,6,0,L|219:319,1,132.00000402832,0|8,3:0|0:0,0:0:0:0:
329,371,31354,2,0,P|330:326|349:291,1,66.0000020141602,2|0,0:3|0:0,0:0:0:0:
398,279,31743,2,0,P|396:234|378:199,1,66.0000020141602,10|2,0:3|0:3,0:0:0:0:
338,171,32132,2,0,L|486:155,1,132.00000402832,0|8,3:0|0:0,0:0:0:0:
457,25,32909,2,0,L|325:39,1,132.00000402832,0|8,0:0|0:0,0:0:0:0:
195,16,33686,6,0,P|215:101|200:155,1,132.00000402832,4|8,3:2|0:0,0:0:0:0:
185,206,34269,1,2,0:0:0:0:
185,206,34464,2,0,L|342:192,1,132.00000402832,2|10,0:0|0:0,0:0:0:0:
423,116,35241,2,0,P|443:201|428:255,1,132.00000402832,0|8,3:0|0:0,0:0:0:0:
400,300,35824,1,2,0:0:0:0:
400,300,36018,2,0,L|243:314,1,132.00000402832,2|8,0:0|0:0,0:0:0:0:
149,326,36795,5,0,3:0:0:0:
64,241,37184,2,0,P|57:180|61:114,2,120,0|8|0,0:0|0:0|0:0,0:0:0:0:
178,205,38350,2,0,P|190:130|165:71,1,120,0|0,3:0|0:0,0:0:0:0:
144,38,38933,1,0,3:0:0:0:
144,38,39127,2,0,L|283:24,1,120,10|2,0:0|0:0,0:0:0:0:
383,16,39905,6,0,P|400:67|386:172,1,120,4|8,3:2|0:0,0:0:0:0:
287,176,40682,2,0,P|270:227|284:332,1,120,2|10,0:3|0:3,0:0:0:0:
387,323,41459,2,0,L|136:352,1,240,0|0,3:0|0:0,0:0:0:0:
44,290,42625,1,8,0:0:0:0:
83,176,43014,6,0,B|157:165|157:165|226:197,1,120,0|8,3:0|0:0,0:0:0:0:
240,296,43791,2,0,B|314:307|314:307|383:275,1,120,2|10,0:3|0:3,0:0:0:0:
428,192,44568,2,0,P|402:138|441:35,1,120,0|8,3:0|0:0,0:0:0:0:
439,28,45151,1,0,0:0:0:0:
439,28,45346,2,0,L|292:42,1,120,0|8,0:0|0:0,0:0:0:0:
199,28,46123,6,0,P|216:79|202:184,1,120,4|8,3:2|0:0,0:0:0:0:
132,231,46900,2,0,P|75:213|15:215,1,120,2|10,0:3|0:3,0:0:0:0:
31,334,47678,2,0,L|269:306,1,240,0|0,3:0|0:0,0:0:0:0:
389,301,48844,1,8,0:0:0:0:
389,181,49232,6,0,B|403:43,1,120,0|8,3:0|0:0,0:0:0:0:
287,14,50010,2,0,B|277:133,1,120,2|10,0:3|0:3,0:0:0:0:
230,243,50787,2,0,P|171:237|117:262,1,120,8|8,0:0|0:0,0:0:0:0:
81,311,51370,1,8,0:0:0:0:
81,311,51564,2,0,L|67:164,1,120,0|8,3:0|0:0,0:0:0:0:
137,91,52341,5,4,3:2:0:0:
225,313,53119,2,0,L|425:297,1,180,10|0,0:0|0:0,0:0:0:0:
462,281,53896,2,0,P|476:202|432:131,1,120,0|0,0:0|0:0,0:0:0:0:
369,91,54673,1,10,0:0:0:0:
258,304,55451,6,0,B|162:353|174:272|85:315,1,180,2|0,3:2|3:0,0:0:0:0:
46,360,56228,2,0,L|30:217,1,120,8|0,0:0|0:0,0:0:0:0:
18,121,57005,2,0,P|105:82|248:153,1,240,0|8,3:0|0:0,0:0:0:0:
324,210,58171,1,8,0:0:0:0:
379,103,58560,1,2,0:0:0:0:
254,329,59337,6,0,L|468:314,1,180,10|0,0:0|0:0,0:0:0:0:
493,313,60115,2,0,P|461:250|485:174,1,120,0|0,0:0|0:0,0:0:0:0:
501,87,60892,1,10,0:0:0:0:
264,45,61669,6,0,B|215:13|215:13|93:18,1,180,2|0,3:2|3:0,0:0:0:0:
33,20,62446,2,0,L|53:159,1,120,8|0,0:0|0:0,0:0:0:0:
17,254,63224,2,0,P|95:236|177:295,1,180,0|0,3:0|3:0,0:0:0:0:
210,336,64001,2,0,P|254:336|335:299,1,120,8|0,0:0|0:0,0:0:0:0:
386,220,64778,6,0,L|369:5,2,215.999993408203,10|0|0,0:0|0:0|0:0,0:0:0:0:
209,344,67110,2,0,L|219:195,1,107.999996704102,2|2,0:0|0:0,0:0:0:0:
222,182,67693,1,0,0:0:0:0:
222,182,67888,6,0,B|121:162|152:256|4:218,2,215.999993408203,2|10|0,0:0|0:0|0:0,0:0:0:0:
499,39,70997,6,0,P|404:55|334:157,2,215.999993408203,10|2|0,0:0|0:0|0:0,0:0:0:0:
454,250,73329,2,0,L|338:244,1,107.999996704102,2|2,0:0|0:0,0:0:0:0:
291,244,73912,1,0,0:0:0:0:
291,244,74106,2,0,L|305:43,1,161.999995056153,10|2,0:0|0:0,0:0:0:0:
306,28,74883,2,0,P|345:45|440:27,1,107.999996704102,10|0,0:0|0:0,0:0:0:0:
256,192,75661,12,2,77215,0:0:0:0:
34,175,78770,5,0,3:0:0:0:
87,67,79158,2,0,P|127:48|231:68,2,120,2|2|6,0:2|0:2|0:2,0:0:0:0:
124,193,80324,6,0,L|314:171,1,132.00000402832,4|10,3:2|0:2,0:0:0:0:
320,168,80907,1,2,0:2:0:0:
320,168,81102,2,0,P|291:234|310:324,1,132.00000402832,0|10,0:2|0:0,0:0:0:0:
405,366,81879,1,0,3:2:0:0:
490,266,82268,2,0,L|495:173,1,66.0000020141602,8|0,0:2|0:2,0:0:0:0:
496,133,82656,2,0,P|459:177|347:160,1,132.00000402832,2|10,0:2|0:2,0:0:0:0:
276,115,83434,6,0,L|263:286,2,132.00000402832,0|10|0,3:2|0:2|0:2,0:0:0:0:
159,52,84600,1,10,0:2:0:0:
65,145,84988,2,0,B|37:176|37:176|50:325,1,132.00000402832,2|10,0:2|0:2,0:0:0:0:
156,338,85766,2,0,B|128:306|128:306|141:157,1,132.00000402832,2|10,0:2|0:2,0:0:0:0:
138,84,86543,6,0,L|328:62,1,132.00000402832,4|10,3:2|0:2,0:0:0:0:
334,59,87126,1,2,0:2:0:0:
334,59,87320,2,0,B|301:109|301:109|324:215,1,132.00000402832,0|8,0:2|0:2,0:0:0:0:
408,274,88097,1,0,3:2:0:0:
288,329,88486,2,0,L|222:325,1,66.0000020141602,10|2,0:2|0:2,0:0:0:0:
155,328,88875,2,0,P|169:258|140:203,1,132.00000402832,2|10,0:2|0:2,0:0:0:0:
50,112,89652,6,0,L|230:93,1,132.00000402832,0|8,3:2|0:2,0:0:0:0:
312,82,90429,2,0,L|306:170,1,66.0000020141602,2|0,0:2|3:2,0:0:0:0:
262,195,90818,2,0,L|268:283,1,66.0000020141602,10|0,0:2|0:2,0:0:0:0:
278,326,91207,2,0,P|238:309|137:317,1,132.00000402832,2|10,3:2|0:2,0:0:0:0:
60,215,91984,2,0,P|125:221|187:200,1,132.00000402832,10|0,0:2|3:2,0:0:0:0:
291,119,92761,6,0,L|313:309,1,132.00000402832,4|10,3:2|0:2,0:0:0:0:
316,315,93344,1,2,0:2:0:0:
316,315,93539,2,0,P|250:286|160:305,1,132.00000402832,0|10,0:2|0:2,0:0:0:0:
71,345,94316,1,0,3:2:0:0:
50,214,94704,2,0,L|55:121,1,66.0000020141602,8|2,0:0|0:2,0:0:0:0:
52,81,95093,2,0,P|95:128|159:134,1,132.00000402832,2|10,0:2|0:2,0:0:0:0:
283,86,95870,6,0,L|270:257,1,132.00000402832,2|10,3:2|0:2,0:0:0:0:
299,278,96453,1,2,0:2:0:0:
299,278,96648,2,0,P|377:262|390:262,1,66.0000020141602,0|0,0:2|3:2,0:0:0:0:
416,302,97036,1,10,0:2:0:0:
469,181,97425,2,0,L|481:49,2,132.00000402832,2|10|2,3:2|0:2|0:2,0:0:0:0:
502,308,98591,1,8,0:0:0:0:
256,192,98980,12,0,103643,3:0:0:0:
77,152,105198,6,0,P|154:123|262:199,1,198.000006042481,4|0,3:2|0:2,0:0:0:0:
298,242,105975,1,8,3:2:0:0:
298,242,106170,2,0,L|290:320,1,66.0000020141602,0|0,0:0|0:2,0:0:0:0:
426,336,106753,2,0,P|438:265|402:202,1,132.00000402832,0|2,3:2|0:2,0:0:0:0:
346,83,107530,6,0,L|207:76,1,132.00000402832,10|2,0:2|0:3,0:0:0:0:
151,39,108113,1,4,3:2:0:0:
98,160,108502,1,0,3:2:0:0:
98,160,108696,2,0,L|87:257,1,66.0000020141602,2|2,0:3|0:3,0:0:0:0:
87,291,109085,2,0,P|151:280|216:292,1,132.00000402832,8|2,0:2|0:3,0:0:0:0:
333,352,109862,2,0,L|321:216,1,132.00000402832,0|0,3:2|0:2,0:0:0:0:
312,154,110445,1,0,3:2:0:0:
312,154,110639,2,0,P|363:177|443:165,1,132.00000402832,8|0,0:2|0:0,0:0:0:0:
211,30,111805,5,4,3:2:0:0:
91,85,112194,2,0,P|125:140|126:206,1,132.00000402832,8|0,0:2|0:2,0:0:0:0:
167,331,112971,2,0,L|298:341,1,132.00000402832,0|2,3:2|0:2,0:0:0:0:
363,350,113554,1,0,3:2:0:0:
363,350,113748,2,0,P|391:273|380:199,1,132.00000402832,8|0,0:0|3:2,0:0:0:0:
365,93,114526,6,0,L|168:65,1,198.000006042481,4|8,3:2|0:2,0:0:0:0:
107,39,115303,2,0,L|92:187,1,132.00000402832,4|0,3:2|0:2,0:0:0:0:
72,300,116080,2,0,P|131:271|207:305,1,132.00000402832,4|8,3:2|0:2,0:0:0:0:
231,334,116663,5,4,0:2:0:0:
256,192,116858,12,0,119966,0:0:0:0:
