osu file format v14

[General]
AudioFilename: audio.mp3
AudioLeadIn: 0
PreviewTime: 78954
Countdown: 0
SampleSet: Soft
StackLeniency: 0.4
Mode: 0
LetterboxInBreaks: 0
WidescreenStoryboard: 1

[Editor]
Bookmarks: 120340
DistanceSpacing: 1.2
BeatDivisor: 4
GridSize: 16
TimelineZoom: 3.699999

[Metadata]
Title:Towards The Horizon
TitleUnicode:Towards The Horizon
Artist:Camellia
ArtistUnicode:かめりあ
Creator:Seolv
Version:Insane
Source:REFLEC BEAT 悠久のリフレシア
Tags:The Reflesia of Eternity 6th KONAMI Arcade Championship kac BEMANI Illusiya イルシヤ Regou electronic wub dubstep lukas [_l_u_k_a_s_]
BeatmapID:1965755
BeatmapSetID:705022

[Difficulty]
HPDrainRate:5.5
CircleSize:3.2
OverallDifficulty:7
ApproachRate:9
SliderMultiplier:1.7
SliderTickRate:1

[Events]
//Background and Video events
0,0,"audio.jpg",0,0
//Break Periods
//Storyboard Layer 0 (Background)
//Storyboard Layer 1 (Fail)
//Storyboard Layer 2 (Pass)
//Storyboard Layer 3 (Foreground)
//Storyboard Layer 4 (Overlay)
//Storyboard Sound Samples

[TimingPoints]
1040,388.651379712398,4,2,2,60,1,0
2594,-90.9090909090909,4,2,2,60,0,0
3371,-125,4,2,2,60,0,0
4148,-90.9090909090909,4,2,2,60,0,0
4925,-125,4,2,2,60,0,0
5703,-90.9090909090909,4,2,2,60,0,0
6091,-125,4,2,2,60,0,0
8812,-90.9090909090909,4,2,2,60,0,0
9589,-125,4,2,2,60,0,0
10366,-90.9090909090909,4,2,2,60,0,0
11143,-125,4,2,2,60,0,0
11921,-90.9090909090909,4,2,2,60,0,0
12309,-125,4,2,2,60,0,0
15029,-166.666666666667,4,2,1,60,0,0
22801,-100,4,2,1,60,0,0
25327,-83.3333333333333,4,2,1,60,0,0
25521,-71.4285714285714,4,2,1,60,0,0
25716,-83.3333333333333,4,2,1,60,0,0
26881,-83.3333333333333,4,2,1,40,0,0
27270,-133.333333333333,4,2,1,40,0,0
27468,-66.6666666666667,4,2,1,80,0,1
36791,-66.6666666666667,4,2,1,70,0,1
39905,-83.3333333333333,4,2,1,80,0,0
52335,-111.111111111111,4,2,1,60,0,0
64770,-133.333333333333,4,2,2,60,0,0
74874,-105.263157894737,4,2,2,60,0,0
75651,-83.3333333333333,4,2,1,40,0,0
76428,-83.3333333333333,4,2,1,60,0,0
77205,-133.333333333333,4,2,1,70,0,0
77302,-133.333333333333,4,2,1,50,0,0
79926,-133.333333333333,4,2,1,20,0,0
80023,-133.333333333333,4,2,1,60,0,0
80324,-62.5,4,2,1,80,0,1
98980,-90.9090909090909,4,2,1,60,0,0
102076,-90.9090909090909,4,2,1,40,0,0
102853,-90.9090909090909,4,2,1,60,0,0
103630,-90.9090909090909,4,2,1,40,0,0
105198,-100,4,2,1,80,0,1
105573,-66.6666666666667,4,2,1,80,0,1
108099,-58.8235294117647,4,2,1,80,0,1
111402,-58.8235294117647,4,2,1,70,0,1
111596,-133.333333333333,4,2,1,70,0,1
111791,-66.6666666666667,4,2,1,90,0,1
111985,-66.6666666666667,4,2,1,80,0,1
113345,-62.5,4,2,1,80,0,1
114122,-100,4,2,1,80,0,1
114511,-58.8235294117647,4,2,1,60,0,1
116663,-133.333333333333,4,2,1,100,0,0
116745,-133.333333333333,4,2,1,50,0,0
118203,-133.333333333333,4,2,1,38,0,0
118786,-133.333333333333,4,2,1,26,0,0
119174,-133.333333333333,4,2,1,14,0,0
119563,-133.333333333333,4,2,1,5,0,0

[Colours]
Combo1 : 250,139,133
Combo2 : 255,36,36
Combo3 : 202,149,255
Combo4 : 102,255,102

[HitObjects]
332,315,1040,6,0,B|403:311|441:271|452:195|406:125|330:113|268:144|234:191|265:267|265:267|291:232|343:234,1,510,2|0,0:0|0:0,0:0:0:0:
124,347,2594,6,0,P|107:296|123:201,1,140.25000428009,2|0,0:0|0:0,0:0:0:0:
132,161,2983,2,0,L|82:170,1,46.7500014266968,0|0,0:0|0:0,0:0:0:0:
77,65,3177,2,0,L|127:74,1,46.7500014266968,0|0,0:0|0:0,0:0:0:0:
204,109,3371,5,10,0:0:0:0:
290,72,3566,1,0,0:0:0:0:
211,105,3760,1,0,0:0:0:0:
247,300,3954,1,0,0:0:0:0:
386,254,4149,6,0,L|400:104,1,140.25000428009,2|0,0:0|0:0,0:0:0:0:
400,62,4537,2,0,L|456:57,1,46.7500014266968,0|0,0:0|0:0,0:0:0:0:
323,92,4732,2,0,L|267:87,1,46.7500014266968,0|0,0:0|0:0,0:0:0:0:
439,198,4926,5,2,0:0:0:0:
297,227,5120,2,0,B|247:231|247:231|224:253|224:253|162:254,1,136,0|0,0:0|0:0,0:0:0:0:
91,252,5703,1,2,0:0:0:0:
34,35,5995,5,0,0:0:0:0:
34,35,6092,2,0,P|116:21|46:117,1,272,0|0,0:0|0:0,0:0:0:0:
243,26,7258,6,0,B|263:103|230:181|150:217|150:217|189:238,1,272,2|2,0:0|0:0,0:0:0:0:
512,286,8813,6,0,P|461:297|399:363,1,140.25000428009,2|0,0:0|0:0,0:0:0:0:
352,376,9201,2,0,L|290:367,1,46.7500014266968,0|0,0:0|0:0,0:0:0:0:
266,296,9396,2,0,L|328:287,1,46.7500014266968,0|0,0:0|0:0,0:0:0:0:
221,362,9590,5,10,0:2:0:0:
112,303,9784,1,0,0:0:0:0:
144,176,9978,1,0,0:0:0:0:
221,362,10173,1,0,0:0:0:0:
21,231,10367,6,0,L|16:175,3,46.7500014266968,2|0|0|0,0:0|0:0|0:0|0:0,0:0:0:0:
108,252,10756,2,0,L|103:196,3,46.7500014266968,0|0|0|0,0:0|0:0|0:0|0:0,0:0:0:0:
198,268,11144,5,2,0:0:0:0:
198,268,11242,1,0,0:0:0:0:
198,268,11339,2,0,L|339:248,1,136,0|0,0:0|0:0,0:0:0:0:
406,171,11922,1,2,0:0:0:0:
161,347,12213,5,0,0:0:0:0:
161,347,12310,2,0,B|227:320|252:259|230:195|175:180|141:201|122:234|125:266,1,272,0|0,0:0|0:0,0:0:0:0:
381,62,13476,6,0,P|301:86|208:167,1,204,2|0,0:0|0:0,0:0:0:0:
194,188,14156,1,0,0:0:0:0:
194,188,14254,2,0,P|142:177|122:180,1,68,10|0,0:0|0:0,0:0:0:0:
328,218,14642,2,0,P|361:218|394:208,1,68,0|0,0:0|0:0,0:0:0:0:
237,366,15031,6,0,P|248:306|243:261,1,101.999996887207,0|8,3:0|0:0,0:0:0:0:
158,39,15614,2,0,L|205:32,2,25.4999992218018,0|0|0,0:0|0:0|0:0,0:0:0:0:
13,224,16197,2,0,P|89:225|123:238,1,101.999996887207,8|2,0:0|3:2,0:0:0:0:
244,182,16780,6,0,L|240:229,2,25.4999992218018,0|0|8,0:0|0:0|0:0,0:0:0:0:
328,121,17169,1,0,0:0:0:0:
201,75,17363,2,0,L|195:24,1,50.9999984436036,0|0,0:0|3:0,0:0:0:0:
226,4,17622,6,0,L|256:-2,2,16.9999994812012,0|0|8,0:0|0:0|0:0,0:0:0:0:
109,84,17946,1,0,0:0:0:0:
201,239,18140,6,0,B|296:249|245:188|352:198,1,152.999995330811,2|0,3:2|0:0,0:0:0:0:
380,203,18820,1,0,3:0:0:0:
380,203,18917,2,0,P|337:185|301:123,1,101.999996887207,0|8,0:0|0:0,0:0:0:0:
108,42,19695,6,0,B|132:102|132:102|117:251,1,203.999993774414,2|0,3:2|0:0,0:0:0:0:
484,342,21055,5,0,0:0:0:0:
484,342,21152,1,0,0:0:0:0:
484,342,21249,2,0,P|402:317|365:317,1,101.999996887207,2|8,3:2|0:0,0:0:0:0:
196,346,21832,2,0,L|187:305,1,25.4999992218018,0|0,0:0|0:0,0:0:0:0:
123,274,22027,2,0,L|140:160,1,101.999996887207,0|8,0:0|0:0,0:0:0:0:
479,174,22804,6,0,L|363:175,1,85,2|0,3:2|0:0,0:0:0:0:
369,199,23095,1,0,0:0:0:0:
369,199,23193,1,8,0:0:0:0:
250,348,23387,1,0,0:0:0:0:
250,348,23484,1,0,0:0:0:0:
250,348,23581,2,0,L|303:340,1,42.5,0|0,0:0|0:0,0:0:0:0:
373,278,23776,2,0,L|320:270,1,42.5,0|0,0:0|0:0,0:0:0:0:
203,241,23970,2,0,L|256:233,1,42.5,2|0,0:0|0:0,0:0:0:0:
364,173,24164,2,0,L|311:165,1,42.5,0|0,0:0|0:0,0:0:0:0:
140,51,24359,5,0,3:0:0:0:
145,66,24456,1,0,3:0:0:0:
168,82,24553,5,0,3:0:0:0:
173,97,24650,1,0,3:0:0:0:
194,121,24747,6,0,L|263:113,1,42.5,0|0,3:0|3:0,0:0:0:0:
364,173,24942,2,0,L|321:177,1,42.5,0|0,3:0|3:0,0:0:0:0:
160,245,25136,6,0,L|233:238,1,42.5,0|0,3:0|3:0,0:0:0:0:
390,318,25330,6,0,L|299:312,1,50.9999984436036,0|0,3:0|3:0,0:0:0:0:
335,27,25525,6,0,L|343:85,1,59.4999981842042,0|0,3:0|3:0,0:0:0:0:
247,384,25719,6,0,L|252:314,1,50.9999984436036,0|0,3:0|3:0,0:0:0:0:
236,116,25913,5,0,3:0:0:0:
236,116,26108,6,0,L|232:65,6,50.9999984436036,0|0|0|0|0|0|0,0:0|0:0|0:0|0:0|0:0|0:0|0:0,0:0:0:0:
313,166,26885,6,0,L|317:202,8,25.4999992218018,0|0|0|0|8|0|0|0|0,3:0|0:0|0:0|0:0|0:0|0:0|0:0|0:0|3:0,0:0:0:0:
103,49,27468,6,0,B|94:122|94:122|110:156|110:156|103:249,1,191.250007295609,4|0,3:2|0:0,0:0:0:0:
99,262,27856,2,0,L|180:246,1,63.7500024318696,8|0,0:0|0:0,0:0:0:0:
228,320,28051,2,0,P|247:272|225:177,1,127.500004863739,2|2,0:0|0:0,0:0:0:0:
280,183,28342,2,8,P|247:142|154:114,1,127.500004863739,0|2,0:0|0:0,0:0:0:0:
148,82,28634,2,0,P|195:88|230:82,1,63.7500024318696,10|2,0:0|0:0,0:0:0:0:
309,83,28828,2,0,P|337:45|350:11,1,63.7500024318696,2|2,0:0|0:0,0:0:0:0:
457,13,29022,6,0,L|455:66,6,31.8750012159348,0|0|0|0|0|0|0,3:3|0:0|0:0|0:0|0:0|0:0|0:3,0:0:0:0:
396,120,29411,2,0,L|404:205,1,63.7500024318696,8|0,0:0|0:0,0:0:0:0:
477,227,29605,2,0,B|411:228|411:228|346:275,1,127.500004863739,2|2,0:0|0:0,0:0:0:0:
317,332,29897,2,0,B|316:266|316:266|269:201,1,127.500004863739,0|0,0:0|0:0,0:0:0:0:
244,133,30188,2,0,L|297:140,6,31.8750012159348,8|0|0|0|0|0|0,0:0|0:0|0:0|0:0|0:0|0:0|0:0,0:0:0:0:
175,93,30577,6,0,B|282:84|226:159|359:141,1,191.250007295609,0|0,3:0|0:0,0:0:0:0:
414,138,30966,2,0,P|369:137|324:152,1,63.7500024318696,8|0,0:0|0:0,0:0:0:0:
476,203,31160,2,8,P|499:164|508:118,1,63.7500024318696,2|0,0:3|0:0,0:0:0:0:
393,230,31354,1,2,0:3:0:0:
393,230,31451,2,0,P|360:301|385:368,1,127.500004863739,2|2,0:3|0:3,0:0:0:0:
323,384,31743,2,0,P|331:321|300:267,1,127.500004863739,10|2,0:3|0:3,0:0:0:0:
269,214,32002,6,0,L|329:204,2,42.5000016212464,2|2|0,0:3|0:3|3:0,0:0:0:0:
105,105,32326,6,0,P|92:72|96:18,1,63.7500024318696,0|0,3:0|3:0,0:0:0:0:
177,145,32520,2,0,L|2:138,1,127.500004863739,8|0,0:0|0:0,0:0:0:0:
15,169,32812,1,0,3:0:0:0:
15,169,32909,2,0,L|26:233,3,63.7500024318696,0|0|0|0,0:0|3:0|0:0|3:0,0:0:0:0:
67,272,33298,2,0,L|57:335,3,63.7500024318696,8|0|0|0,0:0|3:0|0:0|0:0,0:0:0:0:
85,359,33686,6,0,L|318:326,1,191.250007295609,4|0,3:2|0:0,0:0:0:0:
314,323,34075,2,0,L|301:260,1,63.7500024318696,8|0,0:0|0:0,0:0:0:0:
373,175,34269,2,0,P|325:156|230:178,1,127.500004863739,2|2,0:0|0:0,0:0:0:0:
252,115,34561,2,0,P|204:134|109:112,1,127.500004863739,0|2,0:0|0:0,0:0:0:0:
89,100,34852,2,0,P|61:138|48:172,1,63.7500024318696,10|2,0:0|0:0,0:0:0:0:
9,236,35046,2,0,P|55:241|91:235,1,63.7500024318696,2|2,0:0|0:0,0:0:0:0:
189,166,35241,6,0,L|187:219,6,31.8750012159348,0|0|0|0|0|0|0,3:0|0:0|0:0|0:0|0:0|0:0|0:0,0:0:0:0:
166,234,35629,2,0,L|174:319,1,63.7500024318696,8|0,0:0|0:0,0:0:0:0:
275,330,35824,2,0,B|324:293|324:293|390:292,1,127.500004863739,2|2,0:0|0:0,0:0:0:0:
436,128,36115,2,0,B|370:129|370:129|305:176,1,127.500004863739,0|0,0:0|0:0,0:0:0:0:
289,179,36407,2,0,L|293:147,6,31.8750012159348,8|0|0|0|0|0|0,0:0|0:0|0:0|0:0|0:0|0:0|0:0,0:0:0:0:
240,244,36795,5,0,3:0:0:0:
240,244,37184,2,0,P|196:231|101:282,1,127.500004863739,0|0,0:0|0:0,0:0:0:0:
94,291,37476,1,0,3:0:0:0:
94,291,37573,1,8,0:0:0:0:
211,124,37767,1,0,0:0:0:0:
205,335,37961,1,0,0:0:0:0:
211,124,38156,1,0,0:0:0:0:
329,328,38350,5,0,3:0:0:0:
329,328,38544,2,0,L|412:318,1,63.7500024318696,0|0,0:0|3:0,0:0:0:0:
479,101,38739,2,0,B|444:154|444:154|464:261,1,127.500004863739,0|0,0:0|3:0,0:0:0:0:
468,254,39030,1,0,3:0:0:0:
468,254,39127,2,0,L|316:242,1,127.500004863739,10|0,0:0|0:0,0:0:0:0:
284,133,39516,1,2,0:0:0:0:
284,133,39613,2,0,L|220:139,1,63.7500024318696,2|0,3:2|0:0,0:0:0:0:
0,9,39905,6,0,P|29:81|28:140,1,101.999996887207,4|0,3:2|0:0,0:0:0:0:
30,146,40196,1,0,0:0:0:0:
30,146,40293,2,0,L|118:135,1,50.9999984436036,8|0,0:0|0:0,0:0:0:0:
147,63,40488,2,0,L|197:69,1,50.9999984436036,0|0,0:0|3:0,0:0:0:0:
304,137,40682,2,0,P|325:81|307:30,1,101.999996887207,2|0,0:3|3:0,0:0:0:0:
208,211,41071,2,0,P|198:260|218:306,1,101.999996887207,10|2,0:3|0:3,0:0:0:0:
496,287,41459,5,0,3:0:0:0:
496,287,41654,2,0,L|429:277,1,50.9999984436036,0|0,0:0|0:0,0:0:0:0:
337,368,41848,2,0,L|404:358,3,50.9999984436036,8|0|0|0,0:0|0:0|0:0|3:0,0:0:0:0:
414,359,42237,1,0,0:0:0:0:
371,76,42431,2,0,P|406:163|377:254,1,152.999995330811,0|0,3:0|0:0,0:0:0:0:
381,256,42820,2,0,L|313:249,1,50.9999984436036,0|0,0:0|0:0,0:0:0:0:
142,140,43014,6,0,B|231:127|207:187|326:159,1,152.999995330811,0|0,3:0|0:0,0:0:0:0:
315,145,43403,1,8,0:0:0:0:
175,239,43597,1,2,0:3:0:0:
190,46,43791,1,2,0:3:0:0:
190,46,43888,2,0,P|282:30|312:44,1,101.999996887207,2|2,0:3|0:3,0:0:0:0:
313,56,44180,2,0,P|363:60|410:41,1,101.999996887207,10|2,0:3|0:3,0:0:0:0:
456,33,44439,6,0,L|460:-7,2,33.9999989624024,2|2|0,0:3|0:3|3:0,0:0:0:0:
436,285,44763,6,0,L|378:277,1,50.9999984436036,0|0,0:0|3:0,0:0:0:0:
291,236,44957,2,0,P|388:228|451:177,2,152.999995330811,8|0|0,0:0|3:0|0:0,0:0:0:0:
180,128,45734,1,8,0:0:0:0:
180,128,45832,2,0,L|189:202,1,50.9999984436036,0|0,0:0|0:0,0:0:0:0:
97,59,46123,6,0,P|169:30|228:31,1,101.999996887207,4|0,3:2|0:0,0:0:0:0:
244,43,46415,1,0,0:0:0:0:
244,43,46512,2,0,L|255:131,1,50.9999984436036,8|0,0:0|0:0,0:0:0:0:
334,146,46706,2,0,L|328:196,1,50.9999984436036,0|0,0:0|3:0,0:0:0:0:
233,273,46900,1,2,0:3:0:0:
233,273,46998,1,2,0:3:0:0:
233,273,47095,1,0,3:0:0:0:
449,361,47289,2,0,P|459:312|439:266,1,101.999996887207,10|2,0:3|0:3,0:0:0:0:
210,383,47678,6,0,L|160:375,3,50.9999984436036,0|0|0|0,3:0|0:0|0:0|0:0,0:0:0:0:
125,352,48066,2,0,L|4:371,1,101.999996887207,8|0,0:0|0:0,0:0:0:0:
40,243,48455,2,0,B|38:245|56:244|128:226,1,50.9999984436036,0|0,0:0|0:0,0:0:0:0:
171,270,48649,2,0,P|130:177|133:76,1,203.999993774414,0|0,3:0|0:0,0:0:0:0:
244,0,49232,6,0,B|321:-11|321:-11|428:19,1,152.999995330811,0|0,3:0|0:0,0:0:0:0:
470,50,49621,1,8,0:0:0:0:
219,165,49815,1,2,0:3:0:0:
374,212,50010,1,2,0:3:0:0:
374,212,50107,2,0,P|466:196|496:210,1,101.999996887207,2|2,0:3|0:3,0:0:0:0:
472,219,50398,2,0,P|425:238|374:234,1,101.999996887207,10|2,0:3|0:3,0:0:0:0:
342,195,50657,6,0,L|347:149,2,33.9999989624024,2|2|8,0:3|0:3|0:0,0:0:0:0:
151,311,50981,6,0,L|209:319,1,50.9999984436036,0|0,3:0|3:0,0:0:0:0:
264,366,51176,1,8,0:0:0:0:
169,188,51370,2,0,B|108:189|108:189|15:235,1,152.999995330811,8|0,0:0|3:0,0:0:0:0:
264,125,51953,2,0,L|272:23,1,101.999996887207,8|8,0:0|0:0,0:0:0:0:
327,225,52341,5,4,3:2:0:0:
327,225,52924,2,0,L|395:219,1,38.2499988327027,2|0,0:0|0:0,0:0:0:0:
368,73,53119,1,10,0:0:0:0:
368,73,53313,1,0,0:0:0:0:
368,73,53507,1,0,0:0:0:0:
368,73,53702,1,0,0:0:0:0:
288,327,53896,6,0,L|295:212,1,114.749996498108,0|0,0:0|3:0,0:0:0:0:
121,21,54479,1,0,0:0:0:0:
141,33,54576,1,0,3:0:0:0:
166,27,54673,1,10,0:0:0:0:
106,149,54868,1,0,3:0:0:0:
106,149,55062,1,2,0:0:0:0:
106,149,55256,1,0,0:0:0:0:
325,179,55451,6,0,P|269:225|212:298,1,152.999995330811,2|0,3:2|0:0,0:0:0:0:
63,373,56034,1,0,3:0:0:0:
0,234,56228,2,0,L|113:220,1,114.749996498108,8|8,0:0|0:0,0:0:0:0:
488,330,57005,5,0,3:0:0:0:
271,241,57297,1,0,3:0:0:0:
486,196,57588,1,0,3:0:0:0:
279,374,57783,2,0,L|275:310,1,38.2499988327027,8|0,0:0|3:0,0:0:0:0:
241,312,57977,2,0,L|245:248,1,38.2499988327027,0|0,3:0|0:0,0:0:0:0:
257,171,58171,2,0,P|193:206|99:173,1,152.999995330811,8|2,0:0|0:0,0:0:0:0:
407,43,59143,6,0,L|399:113,1,38.2499988327027,2|0,0:0|0:0,0:0:0:0:
320,113,59337,2,0,L|309:14,1,76.4999976654053,10|0,0:0|0:0,0:0:0:0:
403,179,59726,1,2,0:0:0:0:
278,264,59920,1,0,0:0:0:0:
164,155,60115,2,0,L|182:0,1,152.999995330811,0|0,0:0|0:0,0:0:0:0:
82,239,60697,5,0,0:0:0:0:
82,239,60795,1,0,3:0:0:0:
82,239,60892,1,10,0:0:0:0:
20,18,61086,1,0,0:0:0:0:
81,79,61280,1,2,0:0:0:0:
29,158,61475,1,0,0:0:0:0:
222,225,61669,6,0,P|168:206|71:252,1,152.999995330811,2|0,3:2|0:0,0:0:0:0:
153,345,62252,2,0,L|157:293,1,38.2499988327027,0|0,3:0|3:0,0:0:0:0:
222,225,62446,2,0,L|249:372,1,114.749996498108,8|8,0:0|0:0,0:0:0:0:
437,294,63224,6,0,P|452:241|452:197,1,76.4999976654053,0|0,3:0|0:0,0:0:0:0:
425,190,63515,2,0,P|410:137|410:93,1,76.4999976654053,0|0,3:0|3:0,0:0:0:0:
420,77,63807,1,0,3:0:0:0:
214,30,64001,5,8,0:0:0:0:
314,95,64195,1,0,0:0:0:0:
314,95,64293,1,8,0:0:0:0:
154,123,64487,1,0,3:0:0:0:
154,123,64584,1,10,0:0:0:0:
154,123,64681,1,10,0:0:0:0:
154,123,64778,1,10,0:0:0:0:
430,322,65361,6,0,L|435:284,3,21.2500008106232,0|0|0|0,0:0|0:0|0:0|0:0,0:0:0:0:
363,185,65944,1,0,0:0:0:0:
115,321,66527,6,0,P|164:318|191:329,1,63.7500024318696,2|2,0:0|0:0,0:0:0:0:
215,341,66786,2,0,L|221:309,2,21.2500008106232
315,103,67110,1,2,0:0:0:0:
271,104,67305,1,0,0:0:0:0:
125,174,67499,1,2,0:0:0:0:
63,62,67693,1,0,0:0:0:0:
215,204,67888,6,0,L|210:288,1,63.7500024318696,2|0,0:0|0:0,0:0:0:0:
215,204,68471,2,0,L|217:172,1,31.8750012159348,0|0,0:0|0:0,0:0:0:0:
257,63,68665,2,0,L|278:324,1,255.000009727478,10|0,0:0|0:0,0:0:0:0:
408,362,69831,1,0,0:0:0:0:
408,362,70608,6,0,L|348:358,1,31.8750012159348,0|0,0:0|0:0,0:0:0:0:
303,300,70802,2,0,L|243:296,1,31.8750012159348,0|0,0:0|0:0,0:0:0:0:
384,268,70997,6,0,P|395:219|358:134,1,127.500004863739,10|0,0:0|0:0,0:0:0:0:
269,27,71580,2,0,L|302:24,3,21.2500008106232,0|0|0|2,0:0|0:0|0:0|0:0,0:0:0:0:
146,189,72163,1,0,0:0:0:0:
231,375,72746,6,0,L|235:293,1,63.7500024318696,2|2,0:0|0:0,0:0:0:0:
237,276,73005,2,0,L|272:273,2,21.2500008106232,2|0|0,0:0|0:0|0:0,0:0:0:0:
344,139,73329,6,0,L|352:183,1,31.8750012159348,2|0,0:0|0:0,0:0:0:0:
415,214,73523,2,0,L|423:258,1,31.8750012159348,0|0,0:0|0:0,0:0:0:0:
405,337,73717,1,2,0:0:0:0:
405,337,73912,1,0,0:0:0:0:
228,227,74106,6,0,L|219:179,5,31.8750012159348,10|0|0|0|0|0,0:0|0:0|0:0|0:0|0:0|0:0,0:0:0:0:
195,170,74689,2,0,L|139:180,1,31.8750012159348,2|2,0:0|0:0,0:0:0:0:
48,132,74883,5,10,0:0:0:0:
48,132,74980,1,0,0:0:0:0:
48,132,75078,1,0,0:0:0:0:
48,132,75175,1,0,0:0:0:0:
48,132,75272,2,0,L|106:125,2,40.3749989218712,0|0|2,0:0|0:0|0:0,0:0:0:0:
125,49,75661,5,10,0:0:0:0:
157,78,75758,1,0,0:0:0:0:
176,117,75855,1,0,0:0:0:0:
182,161,75952,1,0,0:0:0:0:
171,203,76049,2,0,L|228:197,1,50.9999984436036,0|0,0:0|0:0,0:0:0:0:
263,130,76244,2,0,L|313:134,1,50.9999984436036,0|0,0:0|0:0,0:0:0:0:
438,96,76438,5,10,0:0:0:0:
438,139,76535,1,0,0:0:0:0:
440,181,76632,1,0,0:0:0:0:
441,224,76729,1,0,0:0:0:0:
442,266,76827,2,0,L|389:272,1,50.9999984436036,8|0,0:0|0:0,0:0:0:0:
330,328,77021,2,0,L|260:338,1,50.9999984436036,8|0,0:0|0:0,0:0:0:0:
184,308,77215,5,2,0:0:0:0:
219,117,77409,2,0,P|246:171|257:216,4,95.6250036478044,0|0|0|0|0,0:0|0:0|0:0|0:0|0:0,0:0:0:0:
323,264,78770,5,0,3:0:0:0:
323,264,78867,2,0,L|427:250,1,95.6250036478044,0|2,0:0|0:2,0:0:0:0:
417,251,79547,1,2,0:2:0:0:
211,371,79936,6,0,L|203:324,1,31.8750012159348,6|0,0:2|0:2,0:0:0:0:
149,286,80130,2,0,L|157:239,1,31.8750012159348,2|0,0:2|0:2,0:0:0:0:
26,163,80324,6,0,L|254:145,1,204,4|0,3:2|0:2,0:0:0:0:
229,146,80713,2,0,P|231:107|214:56,1,68,10|0,0:2|0:2,0:0:0:0:
302,236,80907,2,0,L|394:224,1,68,2|0,0:2|3:2,0:0:0:0:
512,62,81102,6,0,P|415:123|312:85,1,204,0|0,0:2|0:0,0:0:0:0:
333,102,81490,2,0,L|265:94,1,68,10|0,0:0|0:2,0:0:0:0:
115,182,81685,2,0,L|182:173,1,68,2|0,0:2|0:2,0:0:0:0:
204,6,81879,6,0,L|-45:40,1,204,0|2,3:2|0:2,0:0:0:0:
2,34,82268,2,0,P|1:67|11:100,1,68,8|0,0:2|0:0,0:0:0:0:
115,182,82462,2,0,P|124:217|123:249,1,68,0|0,0:2|3:2,0:0:0:0:
26,350,82656,5,2,0:2:0:0:
231,198,82851,1,2,3:2:0:0:
39,368,83045,1,10,0:2:0:0:
252,216,83239,1,2,0:2:0:0:
103,269,83434,6,0,L|403:249,1,272,0|10,3:2|0:2,0:0:0:0:
422,53,84017,2,0,L|430:120,1,68,2|0,0:2|3:2,0:0:0:0:
490,335,84211,2,0,L|509:190,1,136,0|0,0:2|3:2,0:0:0:0:
252,38,84600,5,10,0:2:0:0:
252,38,84697,1,0,3:2:0:0:
252,38,84794,1,0,0:2:0:0:
252,38,84891,1,2,0:2:0:0:
252,38,84988,1,2,0:2:0:0:
133,146,85183,6,0,L|66:132,3,45.3333333333333,2|2|2|10,0:2|0:2|0:2|0:2,0:0:0:0:
374,299,85571,6,0,L|362:210,1,68,0|0,0:0|0:0,0:0:0:0:
358,189,85766,5,2,0:2:0:0:
172,332,85960,1,2,0:2:0:0:
371,106,86154,5,10,0:2:0:0:
300,305,86348,1,10,3:2:0:0:
71,115,86543,6,0,P|164:73|290:122,1,204,4|0,3:2|0:0,0:0:0:0:
259,96,86931,2,0,P|261:57|244:6,1,68,10|0,0:2|0:2,0:0:0:0:
332,212,87126,2,0,L|399:203,1,68,2|0,0:2|3:2,0:0:0:0:
227,182,87320,6,0,B|198:241|198:241|220:380,1,204,0|2,0:2|0:2,0:0:0:0:
220,378,87709,2,0,L|152:370,1,68,8|0,0:2|0:2,0:0:0:0:
242,286,87903,2,0,L|309:277,1,68,2|0,0:2|0:2,0:0:0:0:
398,366,88097,6,0,P|421:247|368:166,1,204,0|0,3:2|0:2,0:0:0:0:
382,179,88486,2,0,P|417:169|449:170,1,68,10|0,0:2|0:0,0:0:0:0:
350,99,88680,2,0,P|314:108|282:107,1,68,2|0,0:2|3:2,0:0:0:0:
229,30,88875,5,2,0:2:0:0:
206,249,89069,1,2,3:2:0:0:
17,112,89263,1,10,0:2:0:0:
170,124,89458,1,0,0:2:0:0:
36,384,89652,6,0,L|17:112,1,272,0|8,3:2|0:2,0:0:0:0:
166,23,90235,2,0,L|174:90,1,68,0|0,0:2|3:2,0:0:0:0:
267,309,90429,6,0,L|276:230,3,68,2|0|0|0,0:2|0:2|3:2|0:2,0:0:0:0:
312,198,90818,2,0,L|303:119,3,68,10|0|0|0,0:2|0:2|0:2|0:2,0:0:0:0:
327,84,91207,5,2,3:2:0:0:
327,84,91304,2,0,L|461:62,1,136,8|0,0:2|0:2,0:0:0:0:
512,47,91595,1,10,0:2:0:0:
291,194,91887,5,0,0:0:0:0:
291,194,91984,2,0,L|204:176,3,68,10|0|0|10,0:2|3:2|3:2|0:2,0:0:0:0:
189,151,92373,2,0,L|123:165,3,68,0|0|8|8,3:2|3:2|0:2|0:2,0:0:0:0:
70,166,92761,6,0,P|106:256|86:369,1,204,4|0,3:2|0:2,0:0:0:0:
90,359,93150,2,0,P|123:352|157:354,1,68,10|0,0:2|0:2,0:0:0:0:
327,375,93344,2,0,L|235:387,1,68,2|0,0:2|3:2,0:0:0:0:
249,289,93539,6,0,P|307:208|289:110,1,204,0|0,0:2|0:2,0:0:0:0:
289,110,93927,2,0,L|356:101,1,68,10|0,0:2|0:2,0:0:0:0:
207,187,94122,2,0,L|139:195,1,68,2|0,0:2|0:2,0:0:0:0:
3,82,94316,6,0,L|30:284,1,204,0|0,3:2|0:0,0:0:0:0:
30,284,94704,2,0,P|66:274|98:275,1,68,8|0,0:0|0:0,0:0:0:0:
216,318,94899,2,0,P|225:353|224:385,1,68,2|0,0:2|3:2,0:0:0:0:
187,208,95093,5,2,0:2:0:0:
392,279,95287,1,2,3:2:0:0:
180,195,95482,1,10,0:2:0:0:
375,48,95676,1,2,0:2:0:0:
461,354,95870,6,0,P|347:294|189:336,1,272,2|10,3:2|0:2,0:0:0:0:
66,50,96453,2,0,L|74:117,1,68,2|0,0:2|3:2,0:0:0:0:
71,333,96648,2,0,L|90:188,1,136,0|0,0:2|3:2,0:0:0:0:
311,38,97036,5,10,0:2:0:0:
311,38,97134,1,0,0:2:0:0:
311,38,97231,1,2,0:2:0:0:
311,38,97328,1,0,0:2:0:0:
311,38,97425,1,2,3:2:0:0:
436,148,97619,6,0,L|445:103,3,45.3333333333333,2|2|2|10,0:2|0:2|0:2|0:2,0:0:0:0:
313,304,98008,5,0,0:0:0:0:
313,304,98105,1,0,0:0:0:0:
313,304,98202,1,2,0:2:0:0:
433,283,98397,1,2,0:2:0:0:
129,151,98591,6,0,L|197:155,1,68,8|0,0:0|0:0,0:0:0:0:
271,200,98785,2,0,L|339:196,1,68,0|0,0:0|0:0,0:0:0:0:
392,116,98980,5,2,3:2:0:0:
256,192,99077,12,0,103643,3:0:0:0:
210,48,103838,6,0,L|215:121,8,46.7500014266968,0|0|0|0|0|0|0|0|0,0:0|0:0|0:0|0:0|0:0|0:0|0:0|0:0|3:0,0:0:0:0:
90,15,105198,5,4,3:2:0:0:
90,15,105587,2,0,L|131:8,4,42.5000016212464,2|0|0|0|0,0:2|0:0|0:0|0:2|0:0,0:0:0:0:
20,81,105975,1,8,3:2:0:0:
140,164,106170,5,0,0:0:0:0:
144,144,106234,2,0,L|140:97,3,42.5000016212464,0|0|0|0,0:0|0:0|0:2|0:0,0:0:0:0:
262,262,106656,5,0,3:2:0:0:
289,283,106753,2,0,L|458:267,1,127.500004863739,0|0,3:2|0:0,0:0:0:0:
412,67,107141,6,0,L|459:63,2,42.5000016212464,2|0|0,0:2|0:0|0:0,0:0:0:0:
342,125,107336,1,0,0:0:0:0:
342,125,107530,6,0,P|317:63|261:10,1,127.500004863739,10|0,0:2|0:0,0:0:0:0:
238,115,107919,1,2,0:3:0:0:
60,199,108113,6,0,B|174:210|174:210|208:239|208:239|397:241,1,289.000005512238,4|0,3:2|3:2,0:0:0:0:
457,36,108696,1,2,0:3:0:0:
337,240,108890,2,0,L|265:249,1,72.2500013780594,2|0,0:3|3:2,0:0:0:0:
298,156,109085,6,0,L|503:173,1,144.500002756119,8|2,0:2|0:3,0:0:0:0:
245,364,109473,2,0,L|88:374,1,144.500002756119,2|2,0:3|0:3,0:0:0:0:
71,365,109765,1,0,3:2:0:0:
71,365,109862,1,0,3:2:0:0:
151,118,110056,6,0,L|160:198,1,72.2500013780594,0|0,0:2|3:2,0:0:0:0:
237,224,110251,2,0,P|150:272|90:246,1,144.500002756119,0|0,0:2|3:2,0:0:0:0:
151,118,110639,6,2,L|387:134,1,216.750004134178,8|0,0:2|0:0,0:0:0:0:
511,127,111125,2,0,P|402:169|361:282,1,216.750004134178,0|2,3:2|3:3,0:0:0:0:
374,277,111514,1,2,0:3:0:0:
394,289,111611,2,0,L|430:276,1,31.8750012159348,0|0,0:0|0:0,0:0:0:0:
375,363,111805,6,0,B|184:341,1,191.250007295609,4|0,3:2|3:2,0:0:0:0:
143,341,112194,1,8,0:2:0:0:
81,172,112388,6,0,L|34:176,3,42.5000016212464,2|0|2|0,0:2|0:2|0:2|0:2,0:0:0:0:
126,101,112680,2,0,L|136:229,1,127.500004863739
220,258,112971,2,0,B|278:243|278:243|373:256,1,127.500004863739,0|0,3:2|0:0,0:0:0:0:
343,262,113360,6,0,L|347:307,2,45.3333333333333,2|0|0,0:2|0:0|0:0,0:0:0:0:
399,177,113554,2,0,L|390:98,1,68,0|0,3:2|3:2,0:0:0:0:
294,58,113748,6,0,P|226:58|255:119,1,136,8|8,0:0|0:2,0:0:0:0:
32,368,114137,6,0,L|42:284,1,85,0|0,3:2|0:0,0:0:0:0:
42,283,114526,6,0,B|79:258|122:258|122:258|115:188|83:115|29:99,1,216.750004134178,4|12,3:2|3:2,0:0:0:0:
78,135,114914,2,0,P|109:132|167:94,1,96.3333351707459,0|0,0:0|0:0,0:0:0:0:
228,12,115109,1,8,0:2:0:0:
367,157,115303,6,0,L|351:8,1,144.500002756119,4|0,3:2|0:2,0:0:0:0:
396,17,115594,2,0,L|411:160,1,144.500002756119,4|8,3:2|0:2,0:0:0:0:
448,177,115886,1,8,0:2:0:0:
261,298,116080,5,4,3:2:0:0:
261,298,116372,2,0,L|337:287,1,72.2500013780594,8|8,0:2|0:2,0:0:0:0:
197,177,116663,5,4,0:2:0:0:
256,192,116760,12,0,119966,0:0:0:0:
