osu file format v14

[General]
AudioFilename: audio.mp3
AudioLeadIn: 0
PreviewTime: 80470
Countdown: 0
SampleSet: Soft
StackLeniency: 0.2
Mode: 0
LetterboxInBreaks: 0
WidescreenStoryboard: 1

[Editor]
Bookmarks: 16341,28776,53646,66081
DistanceSpacing: 1.2
BeatDivisor: 4
GridSize: 4
TimelineZoom: 2

[Metadata]
Title:Towards The Horizon
TitleUnicode:Towards The Horizon
Artist:Camellia
ArtistUnicode:かめりあ
Creator:Pho
Version:Yauxo's Insane
Source:REFLEC BEAT 悠久のリフレシア
Tags:RB Illusiya イルシヤ 6th KONAMI Arcade Championship KAC bemani The Reflesia of Eternity asaiga underdogs yauxo sahuang chaoslitz chaoz
BeatmapID:1493901
BeatmapSetID:636393

[Difficulty]
HPDrainRate:5
CircleSize:3.8
OverallDifficulty:6
ApproachRate:8.6
SliderMultiplier:1.69
SliderTickRate:1

[Events]
//Background and Video events
0,0,"kaitan.jpg",0,0
//Break Periods
2,66290,77868
//Storyboard Layer 0 (Background)
//Storyboard Layer 1 (Fail)
//Storyboard Layer 2 (Pass)
//Storyboard Layer 3 (Foreground)
//Storyboard Sound Samples

[TimingPoints]
797,388.65103626943,4,2,1,60,1,0
7208,-100,4,2,1,10,0,0
7306,-100,4,2,1,60,0,0
16632,-100,4,2,1,10,0,0
16729,-100,4,2,1,60,0,0
18186,-100,4,2,1,10,0,0
18284,-100,4,2,1,60,0,0
19741,-100,4,2,1,10,0,0
19838,-100,4,2,1,60,0,0
22850,-100,4,2,1,10,0,0
22947,-100,4,2,1,60,0,0
28391,-100,4,2,1,10,0,0
28776,-100,4,2,1,60,0,0
29067,-100,4,2,1,10,0,0
29164,-100,4,2,1,60,0,0
30622,-100,4,2,1,10,0,0
30719,-100,4,2,1,60,0,0
32176,-100,4,2,1,10,0,0
32273,-100,4,2,1,60,0,0
35285,-100,4,2,1,10,0,0
35382,-100,4,2,1,60,0,0
36839,-100,4,2,1,10,0,0
36936,-100,4,2,1,60,0,0
38394,-100,4,2,1,10,0,0
38491,-100,4,2,1,60,0,0
58504,-100,4,2,1,10,0,0
58601,-100,4,2,1,60,0,0
58698,-100,4,2,1,10,0,0
58892,-100,4,2,1,60,0,0
64721,-100,4,2,1,10,0,0
64819,-100,4,2,1,60,0,0
80460,-133.333333333333,4,2,1,60,0,0
80751,-133.333333333333,4,2,1,10,0,0
80848,-111.111111111111,4,2,1,60,0,0
81140,-111.111111111111,4,2,1,10,0,0
81237,-100,4,2,1,60,0,0
81636,-90.9090909090909,4,2,1,60,0,1
81917,-90.9090909090909,4,2,1,10,0,1
82014,-90.9090909090909,4,2,1,60,0,1
85026,-90.9090909090909,4,2,1,10,0,1
85123,-90.9090909090909,4,2,1,60,0,1
91243,-90.9090909090909,4,2,1,10,0,1
91341,-90.9090909090909,4,2,1,60,0,1
97461,-90.9090909090909,4,2,1,10,0,1
97558,-90.9090909090909,4,2,1,60,0,1
100291,-100,4,2,1,60,0,0
100570,-100,4,2,1,10,0,0
100667,-100,4,2,1,60,0,0
102124,-100,4,2,1,10,0,0
102221,-100,4,2,1,60,0,0
103484,-100,4,2,1,10,0,0
103581,-100,4,2,1,60,0,0
103679,-100,4,2,1,10,0,0
103776,-100,4,2,1,60,0,0
103873,-100,4,2,1,10,0,0
103970,-100,4,2,1,60,0,0
104067,-100,4,2,1,10,0,0
104164,-100,4,2,1,60,0,0
104262,-100,4,2,1,10,0,0
104359,-100,4,2,1,60,0,0
104456,-100,4,2,1,10,0,0
104553,-100,4,2,1,60,0,0
106315,-100,4,2,1,5,0,0
106496,-100,4,2,1,60,0,0
106787,-100,4,2,1,10,0,0
106885,-100,4,2,1,60,0,0
108245,-100,4,2,1,10,0,0
108342,-100,4,2,1,60,0,0
108536,-100,4,2,1,10,0,0
108633,-100,4,2,1,60,0,0
113005,-100,4,2,1,10,0,0
113102,-100,4,2,1,60,0,0
114462,-100,4,2,1,10,0,0
114559,-100,4,2,1,60,0,0
114754,-100,4,2,1,10,0,0
114851,-100,4,2,1,60,0,0
115725,-100,4,2,1,10,0,0
115822,-100,4,2,1,60,0,0
121278,-100,4,2,1,5,0,0

[Colours]
Combo1 : 223,223,223
Combo2 : 255,47,47
Combo3 : 255,148,40
Combo4 : 254,228,82
Combo5 : 0,255,128
Combo6 : 101,206,233
Combo7 : 210,0,210
Combo8 : 161,161,161

[HitObjects]
268,44,3906,6,0,L|352:33,1,84.5,0|0,0:0|0:0,0:0:0:0:
393,13,4197,1,0,0:0:0:0:
393,13,4294,2,0,L|386:54,1,42.25,0|0,0:0|0:0,0:0:0:0:
333,121,4489,2,0,L|339:162,1,42.25,0|0,0:0|0:0,0:0:0:0:
393,229,4683,1,2,0:0:0:0:
309,269,4877,1,0,0:0:0:0:
225,309,5072,1,0,0:0:0:0:
317,275,5266,5,0,0:0:0:0:
173,237,5460,6,0,L|161:153,1,84.5,0|0,0:0|0:0,0:0:0:0:
141,112,5752,1,0,0:0:0:0:
141,112,5849,2,0,L|182:118,1,42.25,0|0,0:0|0:0,0:0:0:0:
297,169,6043,2,0,L|255:175,1,42.25,0|0,0:0|0:0,0:0:0:0:
173,237,6238,2,0,L|89:225,1,84.5,2|0,0:0|0:0,0:0:0:0:
89,225,6821,5,0,0:0:0:0:
81,231,6918,1,0,0:0:0:0:
73,237,7015,2,0,L|156:248,1,84.5,0|0,0:0|0:0,0:0:0:0:
237,309,7306,1,0,0:0:0:0:
237,309,7404,6,0,B|265:265|265:217|240:180|208:164|208:164|233:133|281:117|341:117|389:145|417:185|425:229|413:273|349:277|329:253,1,507
336,259,9347,5,2,0:0:0:0:
453,165,9930,1,0,0:0:0:0:
444,170,10027,1,0,0:0:0:0:
436,176,10124,6,0,L|447:92,1,84.5,0|0,0:0|0:0,0:0:0:0:
467,51,10416,1,0,0:0:0:0:
467,51,10513,2,0,L|426:58,1,42.25,0|0,0:0|0:0,0:0:0:0:
359,111,10707,2,0,L|318:105,1,42.25,0|0,0:0|0:0,0:0:0:0:
251,51,10901,1,2,0:0:0:0:
211,135,11096,1,0,0:0:0:0:
171,219,11290,1,0,0:0:0:0:
205,127,11484,5,0,0:0:0:0:
243,271,11679,6,0,L|327:283,1,84.5,0|0,0:0|0:0,0:0:0:0:
368,302,11970,1,0,0:0:0:0:
368,302,12067,2,0,L|409:295,2,42.25,0|0|0,0:0|0:0|0:0,0:0:0:0:
292,368,12359,1,0,0:0:0:0:
292,368,12456,2,0,L|251:361,2,42.25,2|0|0,0:0|0:0|0:0,0:0:0:0:
148,156,13039,5,0,0:0:0:0:
139,151,13136,1,0,0:0:0:0:
131,145,13233,1,0,0:0:0:0:
52,220,13525,1,0,0:0:0:0:
52,220,13622,6,0,B|33:278|80:289|107:325|110:361|110:361|117:321|122:285|158:247|199:241|199:241|237:234|268:250|288:288|275:334|238:342|206:333,1,507,0|0,0:0|0:0,0:0:0:0:
206,333,15371,5,0,0:0:0:0:
215,338,15468,1,0,0:0:0:0:
223,344,15565,1,2,0:0:0:0:
303,297,15760,1,0,0:0:0:0:
383,344,15954,1,0,0:0:0:0:
463,297,16148,1,0,0:0:0:0:
377,352,16343,6,0,L|356:201,1,126.75,0|0,3:0|0:0,0:0:0:0:
356,201,16731,1,8,0:0:0:0:
252,268,16926,1,0,0:0:0:0:
252,268,17023,2,0,L|273:117,1,126.75,0|0,3:0|3:0,0:0:0:0:
280,52,17508,1,8,0:0:0:0:
280,52,17897,6,0,B|384:40|384:40|354:75,1,126.75,0|0,3:0|0:0,0:0:0:0:
368,84,18286,1,8,0:0:0:0:
284,152,18480,1,0,0:0:0:0:
284,152,18577,2,0,L|133:131,1,126.75,0|0,3:0|3:0,0:0:0:0:
96,64,19063,1,8,0:0:0:0:
56,148,19257,1,0,0:0:0:0:
16,232,19452,6,0,L|167:253,1,126.75,0|0,3:0|0:0,0:0:0:0:
167,253,19840,1,8,0:0:0:0:
100,357,20035,1,0,0:0:0:0:
100,357,20132,2,0,L|251:336,1,126.75,0|0,3:0|3:0,0:0:0:0:
316,329,20618,1,8,0:0:0:0:
316,329,21006,6,0,P|364:288|301:298,1,169,0|8,3:0|0:0,0:0:0:0:
168,264,21589,5,0,0:0:0:0:
159,269,21686,1,0,3:0:0:0:
151,275,21784,2,0,P|103:316|165:305,1,169,0|8,3:0|0:0,0:0:0:0:
299,318,22367,5,0,0:0:0:0:
308,323,22464,1,0,0:0:0:0:
316,329,22561,6,0,L|295:178,1,126.75,0|0,3:0|0:0,0:0:0:0:
295,178,22950,2,0,L|302:137,2,42.25,8|0|0,0:0|0:0|0:0,0:0:0:0:
216,216,23241,1,0,3:0:0:0:
216,216,23338,2,0,L|204:300,1,84.5,0|0,0:0|3:0,0:0:0:0:
116,352,23727,2,0,L|104:268,1,84.5,8|0,0:0|0:0,0:0:0:0:
100,156,24116,5,0,3:0:0:0:
109,161,24213,1,0,0:0:0:0:
117,167,24310,1,0,0:0:0:0:
200,212,24504,1,8,0:0:0:0:
209,207,24601,1,0,0:0:0:0:
217,201,24699,1,0,0:0:0:0:
300,156,24893,1,0,0:0:0:0:
309,161,24990,1,0,0:0:0:0:
317,167,25087,1,0,3:0:0:0:
326,172,25184,1,0,0:0:0:0:
334,178,25282,2,0,L|375:171,3,42.25,8|0|0|0,0:0|0:0|0:0|0:0,0:0:0:0:
217,201,25670,5,0,3:0:0:0:
296,288,25864,1,0,3:0:0:0:
108,252,26059,1,0,3:0:0:0:
209,195,26253,1,0,3:0:0:0:
100,246,26447,6,0,L|107:287,3,42.25,0|0|0|0,3:0|0:0|3:0|0:0,0:0:0:0:
217,201,26836,2,0,L|224:160,3,42.25,0|0|0|0,3:0|0:0|3:0|0:0,0:0:0:0:
304,294,27225,5,0,0:0:0:0:
256,192,27322,12,0,28390,0:0:0:0:
304,280,28779,6,0,L|283:129,1,126.75,4|0,3:2|0:0,0:0:0:0:
284,130,29168,1,8,0:0:0:0:
384,166,29362,1,2,0:0:0:0:
208,230,29557,1,0,0:0:0:0:
208,230,29654,2,0,L|124:218,1,84.5,2|0,0:0|0:0,0:0:0:0:
96,218,29945,2,0,L|103:259,1,42.25,10|0,0:0|0:0,0:0:0:0:
96,338,30140,2,0,L|89:297,1,42.25,2|0,0:0|0:0,0:0:0:0:
20,174,30334,6,0,B|8:70|8:70|43:100,1,126.75,0|0,3:0|0:0,0:0:0:0:
44,106,30723,1,8,0:0:0:0:
124,46,30917,1,2,0:0:0:0:
196,233,31111,1,0,0:0:0:0:
196,233,31208,2,0,L|184:149,1,84.5,2|0,0:0|0:0,0:0:0:0:
184,121,31500,6,0,L|225:128,1,42.25,8|0,0:0|0:0,0:0:0:0:
96,186,31694,2,0,L|55:193,1,42.25,0|0,0:0|0:0,0:0:0:0:
196,233,31889,6,0,L|347:254,1,126.75,0|0,3:0|0:0,0:0:0:0:
346,253,32277,1,8,0:0:0:0:
310,153,32472,1,2,0:0:0:0:
148,322,32666,1,0,0:0:0:0:
148,322,32763,2,0,L|232:334,1,84.5,2|0,0:0|0:0,0:0:0:0:
268,338,33055,2,0,L|352:350,1,84.5,8|2,0:0|0:0,0:0:0:0:
376,334,33346,1,0,0:0:0:0:
376,334,33443,5,0,3:0:0:0:
328,234,33638,1,0,0:0:0:0:
319,239,33735,1,0,0:0:0:0:
311,245,33832,1,0,0:0:0:0:
432,250,34026,1,2,0:0:0:0:
437,241,34123,1,0,3:0:0:0:
443,233,34220,1,0,0:0:0:0:
448,224,34318,1,0,3:0:0:0:
454,216,34415,1,0,0:0:0:0:
459,207,34512,1,0,3:0:0:0:
465,199,34609,2,0,L|458:158,3,42.25,8|0|0|8,0:0|3:0|0:0|0:0,0:0:0:0:
476,294,34998,6,0,L|325:273,1,126.75,4|0,3:2|0:0,0:0:0:0:
326,274,35386,1,8,0:0:0:0:
362,374,35581,1,2,0:0:0:0:
168,340,35775,1,0,0:0:0:0:
168,340,35872,2,0,L|252:352,1,84.5,2|0,0:0|0:0,0:0:0:0:
280,352,36164,2,0,L|273:311,1,42.25,8|0,0:0|0:0,0:0:0:0:
280,232,36358,2,0,L|287:273,1,42.25,2|0,0:0|0:0,0:0:0:0:
384,336,36552,6,0,B|488:348|488:348|458:313,1,126.75,0|0,3:0|0:0,0:0:0:0:
452,312,36941,1,8,0:0:0:0:
384,236,37135,1,2,0:0:0:0:
488,72,37330,1,0,0:0:0:0:
488,72,37427,2,0,L|500:156,1,84.5,2|0,0:0|0:0,0:0:0:0:
500,184,37718,6,0,L|459:177,1,42.25,8|0,0:0|0:0,0:0:0:0:
376,120,37913,2,0,L|335:127,1,42.25,0|0,0:0|0:0,0:0:0:0:
252,184,38107,6,0,L|101:163,1,126.75,0|0,3:0|0:0,0:0:0:0:
102,164,38496,1,0,0:0:0:0:
32,232,38690,1,0,0:0:0:0:
37,241,38787,1,0,0:0:0:0:
43,249,38884,2,0,L|220:276,1,169,8|0,0:0|0:0,0:0:0:0:
312,276,39467,1,0,0:0:0:0:
318,268,39564,1,0,0:0:0:0:
323,259,39662,1,0,3:0:0:0:
412,192,39856,6,0,L|371:185,1,42.25,0|0,0:0|3:0,0:0:0:0:
296,156,40050,2,0,L|337:149,1,42.25,0|0,0:0|0:0,0:0:0:0:
304,252,40245,5,0,3:0:0:0:
299,261,40342,1,0,0:0:0:0:
293,269,40439,1,8,0:0:0:0:
288,278,40536,1,0,0:0:0:0:
283,287,40633,1,0,0:0:0:0:
277,295,40730,1,0,0:0:0:0:
272,304,40828,2,0,L|279:345,3,42.25,2|0|0|2,0:0|3:0|0:0|0:0,0:0:0:0:
164,248,41216,6,0,L|153:164,1,84.5,4|0,3:2|0:0,0:0:0:0:
133,123,41508,1,0,0:0:0:0:
133,123,41605,2,0,L|174:130,1,42.25,8|0,0:0|0:0,0:0:0:0:
252,192,41799,2,0,L|293:186,1,42.25,0|0,0:0|3:0,0:0:0:0:
369,123,41994,1,2,0:0:0:0:
409,207,42188,1,0,3:0:0:0:
449,291,42382,1,8,0:0:0:0:
415,199,42576,5,2,0:0:0:0:
368,336,42771,6,0,L|284:348,1,84.5,0|0,3:0|0:0,0:0:0:0:
243,368,43062,1,0,0:0:0:0:
243,368,43159,2,0,L|249:327,1,42.25,8|0,0:0|0:0,0:0:0:0:
178,257,43354,2,0,L|172:216,1,42.25,0|0,0:0|3:0,0:0:0:0:
243,146,43548,2,0,L|255:62,2,84.5,2|0|8,0:0|3:0|0:0,0:0:0:0:
328,224,44131,1,0,0:0:0:0:
336,230,44228,1,0,0:0:0:0:
344,236,44325,6,0,L|261:247,1,84.5,0|0,3:0|0:0,0:0:0:0:
219,227,44617,1,0,0:0:0:0:
219,227,44714,1,8,0:0:0:0:
132,260,44908,1,0,0:0:0:0:
44,292,45103,1,2,0:0:0:0:
44,292,45200,2,0,L|55:209,1,84.5,0|0,0:0|0:0,0:0:0:0:
35,163,45491,2,0,B|18:182|18:182|118:170,1,126.75,8|0,0:0|0:0,0:0:0:0:
147,167,45880,5,0,3:0:0:0:
147,167,46463,5,0,0:0:0:0:
152,176,46560,1,0,3:0:0:0:
158,184,46657,2,0,L|152:225,3,42.25,0|0|0|0,0:0|3:0|0:0|0:0,0:0:0:0:
239,127,47046,2,0,L|245:86,3,42.25,8|0|0|0,0:0|0:0|0:0|0:0,0:0:0:0:
295,203,47435,6,0,L|379:214,1,84.5,0|0,3:0|0:0,0:0:0:0:
420,234,47726,1,0,0:0:0:0:
420,234,47823,2,0,L|413:193,1,42.25,8|0,0:0|0:0,0:0:0:0:
361,70,48018,2,0,L|355:111,1,42.25,0|0,0:0|3:0,0:0:0:0:
295,203,48212,1,2,0:0:0:0:
335,287,48406,1,0,3:0:0:0:
375,371,48601,1,8,0:0:0:0:
341,279,48795,5,2,0:0:0:0:
232,360,48989,6,0,L|148:348,1,84.5,0|0,3:0|0:0,0:0:0:0:
107,329,49281,1,0,0:0:0:0:
107,329,49378,2,0,L|66:336,2,42.25,8|0|0,0:0|0:0|0:0,0:0:0:0:
183,263,49669,1,0,3:0:0:0:
183,263,49767,2,0,L|224:270,2,42.25,2|0|0,0:0|0:0|3:0,0:0:0:0:
107,197,50155,1,8,0:0:0:0:
208,60,50350,1,2,0:0:0:0:
202,52,50447,1,0,0:0:0:0:
196,44,50544,6,0,L|185:127,1,84.5,0|0,3:0|0:0,0:0:0:0:
205,169,50835,1,0,0:0:0:0:
205,169,50932,1,8,0:0:0:0:
107,197,51127,1,0,0:0:0:0:
276,236,51321,1,0,0:0:0:0:
276,236,51418,2,0,L|359:225,1,84.5,0|0,0:0|0:0,0:0:0:0:
400,220,51710,2,0,L|256:200,1,126.75,8|0,0:0|0:0,0:0:0:0:
244,196,52098,5,8,0:0:0:0:
336,120,52293,1,0,3:0:0:0:
336,120,52390,1,0,3:0:0:0:
204,104,52681,5,8,0:0:0:0:
400,220,52876,1,0,3:0:0:0:
400,220,52973,2,0,L|288:204,1,84.5,0|0,3:0|3:0,0:0:0:0:
288,204,53264,5,8,0:0:0:0:
204,244,53459,1,8,0:0:0:0:
64,192,53653,6,0,P|32:156|128:192,1,338,4|8,3:2|0:0,0:0:0:0:
149,175,55305,6,0,L|190:169,1,42.25,0|0,0:0|0:0,0:0:0:0:
216,152,55499,2,0,L|300:164,2,84.5,0|0|0,3:0|3:0|3:0,0:0:0:0:
191,168,55985,2,0,L|107:180,1,84.5,8|0,0:0|3:0,0:0:0:0:
107,180,56762,6,0,B|287:153|287:153|223:205,1,253.5,0|0,3:0|3:0,0:0:0:0:
212,216,57442,1,0,3:0:0:0:
212,216,57540,1,8,0:0:0:0:
212,216,58317,6,0,L|200:300,1,84.5,0|0,3:0|0:0,0:0:0:0:
196,328,58608,2,0,L|155:334,1,42.25,0|0,3:0|0:0,0:0:0:0:
288,312,58900,1,0,3:0:0:0:
372,344,59094,5,8,0:0:0:0:
393,340,59191,1,0,3:0:0:0:
414,337,59288,1,0,3:0:0:0:
504,268,59483,1,8,0:0:0:0:
483,264,59580,1,0,0:0:0:0:
462,261,59677,1,0,0:0:0:0:
441,257,59774,1,0,0:0:0:0:
420,254,59871,6,0,P|407:191|446:242,1,169,2|0,0:0|3:0,0:0:0:0:
388,160,60649,6,0,P|356:196|452:160,1,338,8|0,0:0|0:0,0:0:0:0:
460,152,61523,6,0,L|466:111,1,42.25,0|0,0:0|3:0,0:0:0:0:
483,85,61718,2,0,L|471:1,2,84.5,0|0|0,0:0|3:0|3:0,0:0:0:0:
467,110,62203,2,0,L|455:194,1,84.5,8|0,0:0|3:0,0:0:0:0:
456,193,62981,6,0,B|276:166|276:166|340:218,1,253.5,0|0,0:0|3:0,0:0:0:0:
352,230,63661,1,0,3:0:0:0:
352,230,63758,1,8,0:0:0:0:
352,230,64535,6,0,L|340:146,1,84.5,0|0,3:0|0:0,0:0:0:0:
336,118,64827,1,0,3:0:0:0:
252,156,65021,2,0,L|246:115,2,42.25,0|0|0,0:0|3:0|3:0,0:0:0:0:
255,185,65313,5,8,0:0:0:0:
171,223,65507,1,0,3:0:0:0:
171,223,65604,1,8,0:0:0:0:
87,261,65798,1,0,3:0:0:0:
80,264,65896,1,8,0:0:0:0:
72,267,65993,1,8,0:0:0:0:
64,271,66090,5,0,3:0:0:0:
256,192,78527,12,2,80081,0:0:0:0:
272,52,80470,6,0,P|308:48|376:68,1,95.0625036263467,0|0,0:0|0:0,0:0:0:0:
440,108,80859,6,0,P|404:104|320:140,1,114.074996518707,0|0,0:0|0:0,0:0:0:0:
275,223,81247,6,0,P|297:223|317:220,1,42.25,2|2,0:0|0:0,0:0:0:0:
448,212,81442,2,0,P|429:202|408:196,1,42.25,2|0,0:0|0:0,0:0:0:0:
236,136,81636,6,0,L|80:159,1,139.425004254913,4|0,3:2|0:0,0:0:0:0:
68,160,82025,1,8,0:0:0:0:
164,248,82219,1,2,0:0:0:0:
196,243,82316,1,0,3:0:0:0:
228,239,82413,2,0,B|336:224|336:224|295:198,1,139.425004254913,2|0,0:0|0:0,0:0:0:0:
284,188,82802,2,0,L|212:200,1,46.4750014183045,8|0,0:0|0:0,0:0:0:0:
116,308,82996,2,0,L|162:301,1,46.4750014183045,2|0,0:0|0:0,0:0:0:0:
340,272,83191,1,2,3:2:0:0:
352,284,83482,5,0,0:0:0:0:
319,279,83579,1,8,0:0:0:0:
287,274,83676,1,0,0:0:0:0:
255,269,83773,1,2,0:0:0:0:
223,265,83871,1,0,3:0:0:0:
191,260,83968,6,0,L|119:272,1,46.4750014183045,2|0,0:0|0:0,0:0:0:0:
28,220,84162,2,0,L|100:208,1,46.4750014183045,0|2,3:0|0:0,0:0:0:0:
208,164,84356,6,0,L|136:176,1,46.4750014183045,8|0,0:0|0:0,0:0:0:0:
11,316,84551,2,0,L|83:304,1,46.4750014183045,2|0,0:0|0:0,0:0:0:0:
232,284,84745,6,0,L|388:261,1,139.425004254913,2|0,3:2|0:0,0:0:0:0:
400,260,85134,1,8,0:0:0:0:
288,104,85328,1,2,0:0:0:0:
283,136,85425,1,0,3:0:0:0:
276,176,85522,2,0,L|388:160,1,92.950002836609,2|0,0:0|3:0,0:0:0:0:
497,245,85911,5,8,0:0:0:0:
464,250,86008,1,0,0:0:0:0:
432,255,86105,1,2,0:0:0:0:
400,260,86203,1,0,0:0:0:0:
368,264,86300,2,0,L|275:277,1,92.950002836609,2|0,3:2|0:0,0:0:0:0:
244,264,86591,1,0,0:0:0:0:
244,264,86688,1,8,0:0:0:0:
152,328,86883,1,2,0:0:0:0:
152,328,86980,1,0,3:0:0:0:
152,328,87077,5,2,0:0:0:0:
112,220,87271,1,0,0:0:0:0:
56,300,87466,5,10,0:0:0:0:
100,208,87660,1,0,3:0:0:0:
152,328,87854,5,4,3:2:0:0:
152,328,87951,2,0,L|244:314,1,92.950002836609,0|0,0:0|0:0,0:0:0:0:
274,310,88243,1,8,0:0:0:0:
452,240,88437,1,2,0:0:0:0:
420,235,88534,1,0,3:0:0:0:
388,231,88632,2,0,L|232:208,1,139.425004254913,2|0,0:0|0:0,0:0:0:0:
216,204,89020,2,0,L|144:192,1,46.4750014183045,8|0,0:0|0:0,0:0:0:0:
280,120,89215,2,0,L|352:132,1,46.4750014183045,2|0,0:0|0:0,0:0:0:0:
492,152,89409,1,2,3:2:0:0:
504,148,89700,5,0,0:0:0:0:
499,181,89798,1,8,0:0:0:0:
494,213,89895,1,0,0:0:0:0:
489,245,89992,1,2,0:0:0:0:
485,277,90089,1,0,3:0:0:0:
480,309,90186,6,0,L|492:381,1,46.4750014183045,2|0,0:0|0:0,0:0:0:0:
392,260,90381,2,0,L|399:214,1,46.4750014183045,0|0,3:0|0:0,0:0:0:0:
504,148,90575,6,0,L|492:220,1,46.4750014183045,8|0,0:0|0:0,0:0:0:0:
320,124,90769,2,0,L|312:169,1,46.4750014183045,2|0,0:0|0:0,0:0:0:0:
392,260,90964,6,0,L|415:104,1,139.425004254913,0|0,3:0|0:0,0:0:0:0:
419,88,91352,1,8,0:0:0:0:
431,84,91644,5,0,3:0:0:0:
426,117,91741,1,2,0:0:0:0:
421,149,91838,1,0,0:0:0:0:
416,181,91935,1,0,3:0:0:0:
412,213,92032,1,0,0:0:0:0:
388,228,92129,5,10,0:0:0:0:
393,261,92227,1,0,0:0:0:0:
398,293,92324,1,0,0:0:0:0:
403,325,92421,1,2,0:0:0:0:
427,340,92518,5,0,3:0:0:0:
422,373,92615,2,0,L|330:359,1,92.950002836609,8|0,0:0|0:0,0:0:0:0:
264,292,92907,2,0,B|156:307|156:307|197:333,1,139.425004254913,8|8,0:0|0:0,0:0:0:0:
212,332,93295,5,8,0:0:0:0:
217,299,93393,1,0,3:0:0:0:
222,267,93490,1,0,3:0:0:0:
227,235,93587,1,8,0:0:0:0:
251,220,93684,5,0,3:0:0:0:
246,187,93781,1,0,3:0:0:0:
241,155,93878,1,8,0:0:0:0:
236,123,93976,1,0,3:0:0:0:
212,108,94073,5,4,3:2:0:0:
200,120,94364,5,0,0:0:0:0:
232,115,94461,1,8,0:0:0:0:
264,110,94559,1,0,0:0:0:0:
296,105,94656,1,2,0:0:0:0:
328,100,94753,1,0,0:0:0:0:
360,96,94850,2,0,B|468:111|468:111|427:137,1,139.425004254913,2|0,0:0|0:0,0:0:0:0:
416,147,95239,2,0,L|344:135,1,46.4750014183045,8|0,0:0|0:0,0:0:0:0:
248,27,95433,2,0,L|294:34,1,46.4750014183045,2|0,0:0|0:0,0:0:0:0:
472,63,95627,1,2,3:2:0:0:
484,51,95919,5,0,0:0:0:0:
451,56,96016,1,8,0:0:0:0:
419,61,96113,1,0,0:0:0:0:
387,66,96210,1,2,0:0:0:0:
355,70,96307,1,0,3:0:0:0:
323,74,96405,6,0,L|311:146,1,46.4750014183045,2|0,0:0|0:0,0:0:0:0:
363,237,96599,2,0,L|375:165,1,46.4750014183045,0|2,3:0|0:0,0:0:0:0:
419,61,96793,6,0,L|407:133,1,46.4750014183045,8|0,0:0|0:0,0:0:0:0:
267,258,96988,2,0,L|279:186,1,46.4750014183045,2|0,0:0|0:0,0:0:0:0:
440,364,97182,6,0,L|463:208,1,139.425004254913,0|0,3:0|0:0,0:0:0:0:
467,192,97571,1,8,0:0:0:0:
288,264,97765,1,2,0:0:0:0:
320,269,97862,1,0,3:0:0:0:
360,276,97959,2,0,L|344:164,1,92.950002836609,2|0,0:0|3:0,0:0:0:0:
412,84,98348,5,8,0:0:0:0:
379,79,98445,1,0,0:0:0:0:
347,74,98542,1,2,0:0:0:0:
315,69,98639,1,0,0:0:0:0:
283,65,98737,2,0,L|190:52,1,92.950002836609,2|0,3:2|0:0,0:0:0:0:
168,28,99028,1,0,0:0:0:0:
168,28,99125,1,8,0:0:0:0:
104,120,99320,1,2,0:0:0:0:
104,120,99417,1,0,3:0:0:0:
104,120,99514,5,2,0:0:0:0:
212,160,99708,1,0,3:0:0:0:
132,216,99903,5,10,0:0:0:0:
224,172,100097,1,2,0:0:0:0:
104,120,100291,6,0,L|255:141,1,126.75,0|0,3:0|0:0,0:0:0:0:
255,141,100680,1,8,0:0:0:0:
188,245,100874,1,0,0:0:0:0:
188,245,100971,2,0,L|339:224,1,126.75,0|0,3:0|3:0,0:0:0:0:
404,217,101457,1,8,0:0:0:0:
404,217,101846,6,0,L|253:238,1,126.75,0|0,3:0|0:0,0:0:0:0:
253,238,102234,1,8,0:0:0:0:
320,342,102429,1,0,0:0:0:0:
320,342,102526,2,0,L|169:321,1,126.75,0|0,3:0|0:0,0:0:0:0:
104,314,103012,1,8,0:0:0:0:
64,230,103206,1,0,0:0:0:0:
24,146,103400,6,0,L|65:139,1,42.25,0|0,3:0|0:0,0:0:0:0:
72,112,103595,2,0,L|113:119,1,42.25,0|0,3:0|0:0,0:0:0:0:
164,192,103789,6,0,L|205:199,1,42.25,0|0,3:0|0:0,0:0:0:0:
228,228,103983,2,0,L|269:221,1,42.25,0|0,3:0|0:0,0:0:0:0:
316,136,104178,6,0,L|357:129,1,42.25,0|0,3:0|0:0,0:0:0:0:
392,92,104372,2,0,L|433:99,1,42.25,0|0,3:0|0:0,0:0:0:0:
500,216,104566,6,0,L|417:205,1,84.5,0|0,3:0|3:0,0:0:0:0:
388,216,104858,1,0,3:0:0:0:
388,216,104955,1,0,3:0:0:0:
256,192,105052,12,0,106315,0:0:0:0:
344,128,106510,6,0,L|193:107,1,126.75,4|0,3:2|0:0,0:0:0:0:
188,108,106898,6,0,L|181:149,1,42.25,2|0,0:0|0:0,0:0:0:0:
188,228,107093,2,0,L|195:187,2,42.25,2|0|0,0:0|0:0|0:0,0:0:0:0:
116,296,107481,5,2,0:0:0:0:
95,300,107578,1,0,0:0:0:0:
74,303,107676,1,0,0:0:0:0:
220,340,107967,1,0,3:0:0:0:
199,337,108064,6,0,L|282:326,1,84.5,0|0,3:0|0:0,0:0:0:0:
304,344,108356,2,0,L|387:333,1,84.5,0|0,0:0|0:0,0:0:0:0:
404,300,108647,1,0,3:0:0:0:
425,304,108744,1,0,3:0:0:0:
446,307,108841,5,8,0:0:0:0:
332,236,109036,1,0,0:0:0:0:
428,208,109230,1,8,0:0:0:0:
304,344,109424,1,4,3:0:0:0:
304,344,109813,6,0,L|293:261,1,84.5,0|0,3:0|0:0,0:0:0:0:
240,172,110202,1,0,0:0:0:0:
244,151,110299,1,0,3:0:0:0:
247,130,110396,2,0,L|254:89,2,42.25,10|0|0,0:0|0:0|0:0,0:0:0:0:
352,176,110785,2,0,L|345:135,3,42.25,0|0|2|2,0:0|0:0|0:0|0:0,0:0:0:0:
356,204,111173,5,0,3:0:0:0:
432,288,111368,2,0,L|391:281,1,42.25,0|0,0:0|3:0,0:0:0:0:
312,288,111562,2,0,L|353:295,1,42.25,0|0,0:0|0:0,0:0:0:0:
240,336,111756,5,0,3:0:0:0:
219,340,111854,1,0,0:0:0:0:
204,352,111951,5,8,0:0:0:0:
183,348,112048,1,0,0:0:0:0:
162,345,112145,1,0,3:0:0:0:
141,341,112242,1,8,0:0:0:0:
120,338,112339,1,0,3:0:0:0:
99,334,112437,1,8,0:0:0:0:
78,331,112534,1,0,0:0:0:0:
57,327,112631,1,0,0:0:0:0:
36,324,112728,6,0,P|64:288|16:304,1,126.75,0|0,3:0|0:0,0:0:0:0:
15,252,113117,6,0,P|75:254|95:311,1,126.75,4|0,3:0|0:0,0:0:0:0:
176,340,113505,6,0,L|217:347,1,42.25,8|0,0:0|0:0,0:0:0:0:
296,340,113700,2,0,L|255:333,2,42.25,2|0|0,0:0|0:0|0:0,0:0:0:0:
448,348,114185,1,0,3:0:0:0:
445,369,114283,6,0,L|434:286,1,84.5,0|0,3:0|0:0,0:0:0:0:
452,264,114574,2,0,L|441:181,1,84.5,0|0,3:0|0:0,0:0:0:0:
408,164,114866,1,0,3:0:0:0:
412,143,114963,1,0,3:0:0:0:
415,122,115060,6,0,L|422:81,1,42.25,8|0,0:0|0:0,0:0:0:0:
320,144,115254,2,0,L|327:103,1,42.25,8|0,0:0|0:0,0:0:0:0:
225,166,115449,2,0,L|252:24,1,126.75,0|0,3:0|0:0,0:0:0:0:
232,16,115837,5,4,3:2:0:0:
320,144,116129,1,0,3:0:0:0:
320,144,116226,6,0,L|313:185,1,42.25,0|8,0:0|0:0,0:0:0:0:
415,122,116420,2,0,L|408:163,1,42.25,8|0,0:0|0:0,0:0:0:0:
468,244,116615,5,4,3:2:0:0:
447,248,116712,1,0,0:0:0:0:
426,251,116809,1,0,0:0:0:0:
405,255,116906,1,0,3:0:0:0:
384,258,117003,1,0,0:0:0:0:
363,262,117100,1,8,0:0:0:0:
342,266,117197,1,8,0:0:0:0:
321,269,117295,1,0,0:0:0:0:
300,273,117392,5,4,3:2:0:0:
152,236,117683,1,8,0:0:0:0:
152,236,117780,1,8,0:0:0:0:
168,336,117975,5,4,3:1:0:0:
256,192,118072,12,0,121278,0:0:0:0:
