osu file format v14

[General]
AudioFilename: audio.mp3
AudioLeadIn: 0
PreviewTime: 80470
Countdown: 0
SampleSet: Soft
StackLeniency: 0
Mode: 0
LetterboxInBreaks: 0
WidescreenStoryboard: 1

[Editor]
Bookmarks: 3905,8083,16341,28776,41211,53646,66081,78517,81626,94061,104942,106496,117960
DistanceSpacing: 1
BeatDivisor: 4
GridSize: 32
TimelineZoom: 2

[Metadata]
Title:Towards The Horizon
TitleUnicode:Towards The Horizon
Artist:Camellia
ArtistUnicode:かめりあ
Creator:Pho
Version:White Extra
Source:REFLEC BEAT 悠久のリフレシア
Tags:RB Illusiya イルシヤ 6th KONAMI Arcade Championship KAC bemani The Reflesia of Eternity asaiga underdogs yauxo sahuang chaoslitz chaoz
BeatmapID:1350353
BeatmapSetID:636393

[Difficulty]
HPDrainRate:6
CircleSize:3.5
OverallDifficulty:8
ApproachRate:9.5
SliderMultiplier:3
SliderTickRate:1

[Events]
//Background and Video events
0,0,"kaitan.jpg",0,0
//Break Periods
2,66290,71522
//Storyboard Layer 0 (Background)
//Storyboard Layer 1 (Fail)
//Storyboard Layer 2 (Pass)
//Storyboard Layer 3 (Foreground)
//Storyboard Sound Samples

[TimingPoints]
797,388.65103626943,4,2,1,40,1,0
2351,-200,4,2,1,40,0,0
2740,-100,4,2,1,5,0,0
2934,-100,4,2,1,40,0,0
3517,-111.111111111111,4,2,1,40,0,0
3711,-125,4,2,1,40,0,0
3905,-200,4,2,1,40,0,0
4197,-133.333333333333,4,2,1,40,0,0
6383,-133.333333333333,4,2,1,5,0,0
6432,-133.333333333333,4,2,1,40,0,0
7015,-166.666666666667,4,2,1,40,0,0
9541,-133.333333333333,4,2,1,40,0,0
16343,-166.666666666667,4,2,1,60,0,0
22561,-125,4,2,1,60,0,0
24893,-111.111111111111,4,2,1,60,0,0
25282,-71.4285714285714,4,2,1,60,0,0
25670,-100,4,2,1,60,0,0
25864,-86.9565217391304,4,2,1,60,0,0
26059,-76.9230769230769,4,2,1,60,0,0
26253,-68.9655172413793,4,2,1,60,0,0
26447,-71.4285714285714,4,2,1,60,0,0
28196,-133.333333333333,4,2,1,60,0,0
28779,-55.5555555555556,4,2,1,80,0,1
28877,-66.6666666666667,4,2,1,80,0,0
29362,-57.1428571428571,4,2,1,80,0,0
30334,-66.6666666666667,4,2,1,80,0,0
33249,-100,4,2,1,80,0,0
33443,-66.6666666666667,4,2,1,80,0,0
34026,-100,4,2,1,80,0,0
34998,-55.5555555555556,4,2,1,80,0,0
35289,-66.6666666666667,4,2,1,80,0,0
36552,-55.5555555555556,4,2,1,80,0,0
36747,-66.6666666666667,4,2,1,80,0,0
38107,-83.3333333333333,4,2,1,80,0,0
38496,-133.333333333333,4,2,1,80,0,0
38884,-83.3333333333333,4,2,1,80,0,0
39662,-100,4,2,1,80,0,0
40633,-66.6666666666667,4,2,1,80,0,0
40925,-66.6666666666667,4,2,1,80,0,0
41216,-83.3333333333333,4,2,1,80,0,0
41605,-66.6666666666667,4,2,1,80,0,0
46026,-66.6666666666667,4,2,1,5,0,0
46074,-66.6666666666667,4,2,1,80,0,0
47046,-100,4,2,1,80,0,0
47240,-66.6666666666667,4,2,1,80,0,0
49135,-66.6666666666667,4,2,1,5,0,0
49184,-66.6666666666667,4,2,1,80,0,0
50155,-55.5555555555556,4,2,1,80,0,0
50544,-66.6666666666667,4,2,1,80,0,0
52973,-76.9230769230769,4,2,1,80,0,0
53167,-66.6666666666667,4,2,1,80,0,0
53646,-200,4,2,1,50,0,0
58317,-153.846153846153,4,2,1,50,0,0
58706,-200,4,2,1,50,0,0
59774,-200,4,2,1,5,0,0
59871,-200,4,2,1,50,0,0
60163,-200,4,2,1,5,0,0
60260,-153.846153846153,4,2,1,50,0,0
60552,-200,4,2,1,5,0,0
60649,-200,4,2,1,50,0,0
61620,-100,4,2,1,50,0,0
61718,-200,4,2,1,50,0,0
63758,-166.666666666667,4,2,1,50,0,0
64535,-200,4,2,1,50,0,0
65118,-66.6666666666667,4,2,1,60,0,0
72308,-166.666666666667,4,2,1,40,0,0
72988,-166.666666666667,4,2,1,5,0,0
73086,-125,4,2,1,40,0,0
73766,-166.666666666667,4,2,1,5,0,0
73863,-142.857142857143,4,2,1,20,0,0
74543,-166.666666666667,4,2,1,5,0,0
74640,-133.333333333333,4,2,1,20,0,0
75029,-100,4,2,1,25,0,0
75417,-83.3333333333333,4,2,1,30,0,0
75806,-76.9230769230769,4,2,1,40,0,0
76195,-71.4285714285714,4,2,1,50,0,0
76583,-66.6666666666667,4,2,1,60,0,0
76972,-66.6666666666667,4,2,1,65,0,0
77749,-66.6666666666667,4,2,1,70,0,0
78527,-66.6666666666667,4,2,1,80,0,0
78624,-66.6666666666667,4,2,1,70,0,0
80460,-133.333333333333,4,2,1,60,0,0
80751,-133.333333333333,4,2,1,5,0,0
80848,-100,4,2,1,60,0,0
81140,-100,4,2,1,5,0,0
81237,-83.3333333333333,4,2,1,70,0,0
81636,-55.5555555555556,4,2,1,90,0,1
100291,-133.333333333333,4,2,1,50,0,0
103387,-66.6666666666667,4,2,1,60,0,0
103581,-66.6666666666667,4,2,1,65,0,0
103776,-66.6666666666667,4,2,1,70,0,0
103970,-66.6666666666667,4,2,1,75,0,0
104164,-66.6666666666667,4,2,1,80,0,0
104359,-66.6666666666667,4,2,1,85,0,0
104553,-66.6666666666667,4,2,1,90,0,0
104747,-100,4,2,1,95,0,0
104990,-200,4,2,1,50,0,0
105732,-200,4,2,1,5,0,0
105913,-200,4,2,1,40,0,0
106510,-55.5555555555556,4,2,1,80,0,1
106607,-100,4,2,1,80,0,0
108050,-76.9230769230769,4,2,1,80,0,0
108439,-100,4,2,1,80,0,0
109410,-66.6666666666667,4,2,1,80,0,0
109799,-100,4,2,1,80,0,0
110771,-83.3333333333333,4,2,1,80,0,0
111159,-100,4,2,1,80,0,0
112228,-83.3333333333333,4,2,1,80,0,0
112422,-100,4,2,1,80,0,0
113102,-66.6666666666667,4,2,1,80,0,0
113394,-100,4,2,1,80,0,0
114268,-71.4285714285714,4,2,1,80,0,0
114462,-100,4,2,1,80,0,0
115434,-83.3333333333333,4,2,1,80,0,0
115822,-55.5555555555556,4,2,1,80,0,0
118057,-50,4,2,1,20,0,0
121278,-50,4,2,1,5,0,0

[Colours]
Combo1 : 223,223,223
Combo2 : 255,47,47
Combo3 : 255,148,40
Combo4 : 254,228,82
Combo5 : 0,255,128
Combo6 : 101,206,233
Combo7 : 210,0,210
Combo8 : 161,161,161

[HitObjects]
285,189,2157,101,0,0:0:0:0:
291,196,2222,1,0,0:0:0:0:
296,204,2286,1,0,0:0:0:0:
301,209,2351,2,0,B|328:37,1,150,2|0,0:0|0:0,0:0:0:0:
498,159,2934,5,0,0:0:0:0:
498,159,3031,1,0,0:0:0:0:
498,159,3128,2,0,P|451:177|401:167,1,75.0000000000001,0|0,0:0|0:0,0:0:0:0:
359,254,3323,2,0,P|306:217|290:180,1,75.0000000000001,0|0,0:0|0:0,0:0:0:0:
201,180,3517,2,0,P|206:116|227:87,1,67.4999979400636,0|0,0:0|0:0,0:0:0:0:
172,38,3711,2,0,P|229:10|246:10,1,60
311,46,3906,38,0,L|304:131,1,75
389,163,4197,1,0,0:0:0:0:
402,205,4294,1,0,0:0:0:0:
396,249,4392,1,0,0:0:0:0:
365,281,4489,1,0,0:0:0:0:
349,323,4586,1,0,0:0:0:0:
356,367,4683,2,0,P|398:352|464:371,2,112.500004291535,2|0|0,0:0|0:0|0:0,0:0:0:0:
72,379,5266,1,0,0:0:0:0:
131,295,5460,6,0,B|158:260|158:260|140:195,1,112.500004291535,0|0,0:0|0:0,0:0:0:0:
73,122,5752,1,0,0:0:0:0:
73,122,5849,2,0,L|7:140,1,56.2500021457673,0|0,0:0|0:0,0:0:0:0:
139,194,6043,2,0,L|203:179,1,56.2500021457673,0|0,0:0|0:0,0:0:0:0:
235,38,6238,2,0,P|163:85|52:72,2,168.750006437302,2|0|0,0:0|0:0|0:0,0:0:0:0:
355,20,6918,1,0,0:0:0:0:
355,20,7015,102,0,P|363:88|338:168,1,134.999995880127
347,151,7404,2,0,B|389:123|446:142,1,89.9999972534181
190,262,7792,6,0,P|253:281|328:257,1,134.999995880127,2|0,0:0|0:0,0:0:0:0:
318,264,8181,2,0,P|271:229|248:168,1,89.9999972534181,0|0,0:0|0:0,0:0:0:0:
364,379,8570,102,0,P|423:348|464:295,1,134.999995880127
464,296,8958,1,0,0:0:0:0:
206,348,9152,5,0,0:0:0:0:
206,348,9250,1,0,0:0:0:0:
206,348,9347,1,2,0:0:0:0:
80,256,9541,2,0,P|119:251|153:242,1,56.2500021457673
212,147,9735,2,0,P|175:152|145:161,1,56.2500021457673
80,256,9930,2,0,L|102:327,1,56.2500021457673
194,365,10124,102,0,P|220:300|194:217,1,112.500004291535
284,193,10416,1,0,0:0:0:0:
320,165,10513,1,0,0:0:0:0:
364,167,10610,1,0,0:0:0:0:
402,189,10707,1,0,0:0:0:0:
446,192,10804,1,0,0:0:0:0:
481,164,10901,2,0,P|492:102|466:39,2,112.500004291535,2|0|0,0:0|0:0|0:0,0:0:0:0:
325,279,11484,2,0,L|337:346,1,56.2500021457673
252,374,11679,6,0,P|194:376|137:322,1,112.500004291535,0|0,0:0|0:0,0:0:0:0:
170,256,11970,1,0,0:0:0:0:
170,256,12067,2,0,L|240:240,1,56.2500021457673,0|0,0:0|0:0,0:0:0:0:
37,208,12262,2,0,L|92:196,1,56.2500021457673,0|0,0:0|0:0,0:0:0:0:
189,127,12456,1,2,0:0:0:0:
202,102,12553,1,0,0:0:0:0:
215,80,12650,2,0,P|203:-2|140:59,1,168.750006437302
304,191,13039,101,0,0:0:0:0:
304,191,13136,1,0,0:0:0:0:
304,191,13233,2,0,B|412:229|392:136|496:195,1,168.750006437302
466,181,13622,2,0,P|455:238|487:283,1,112.500004291535
336,110,14011,6,0,P|271:119|197:50,1,168.750006437302,2|0,0:0|0:0,0:0:0:0:
198,55,14399,2,0,P|168:109|117:126,1,112.500004291535,0|0,0:0|0:0,0:0:0:0:
1,21,14788,101,0,0:0:0:0:
107,29,14982,1,0,0:0:0:0:
42,120,15177,1,0,0:0:0:0:
312,143,15371,5,0,0:0:0:0:
312,143,15468,1,0,0:0:0:0:
312,143,15565,1,2,0:0:0:0:
180,319,15760,2,0,L|251:301,1,56.2500021457673,0|0,0:0|0:0,0:0:0:0:
304,230,15954,2,0,L|365:253,1,56.2500021457673,0|0,0:0|0:0,0:0:0:0:
488,323,16148,2,0,L|433:335,1,56.2500021457673,0|0,0:0|0:0,0:0:0:0:
342,384,16343,38,0,L|357:244,1,134.999995880127,0|0,3:0|0:0,0:0:0:0:
360,218,16731,1,8,0:0:0:0:
282,144,16926,1,0,0:0:0:0:
282,144,17023,1,0,3:0:0:0:
431,132,17217,1,0,0:0:0:0:
431,132,17314,1,0,3:0:0:0:
468,336,17508,2,0,P|440:315|392:303,1,44.999998626709,8|0,0:0|0:0,0:0:0:0:
311,313,17703,2,0,P|292:326|278:343,1,44.999998626709
379,378,17897,6,0,L|365:241,1,134.999995880127,0|0,3:0|0:0,0:0:0:0:
363,217,18286,1,8,0:0:0:0:
231,274,18480,1,0,0:0:0:0:
231,274,18577,1,0,3:0:0:0:
129,171,18772,1,0,0:0:0:0:
129,171,18869,1,0,3:0:0:0:
32,307,19063,2,0,L|46:359,1,44.9999986267091,8|0,0:0|0:0,0:0:0:0:
117,249,19257,2,0,L|128:193,1,44.9999986267091
39,140,19452,101,0,3:0:0:0:
138,21,19646,1,0,0:0:0:0:
138,21,19743,1,0,0:0:0:0:
138,21,19840,1,8,0:0:0:0:
311,102,20035,1,0,0:0:0:0:
311,102,20132,2,0,L|207:93,1,89.9999972534181,0|0,3:0|0:0,0:0:0:0:
202,91,20423,1,0,3:0:0:0:
117,249,20618,2,0,L|126:205,1,44.9999986267091,8|0,0:0|0:0,0:0:0:0:
43,350,20812,2,0,L|28:286,1,44.999998626709
47,164,21006,5,0,3:0:0:0:
226,287,21201,102,0,L|222:226,1,44.999998626709
268,125,21395,1,8,0:0:0:0:
389,341,21589,5,0,0:0:0:0:
389,341,21686,2,0,L|406:271,1,44.999998626709,0|0,3:0|0:0,0:0:0:0:
356,171,21881,2,0,L|395:213,1,44.999998626709,0|0,3:0|0:0,0:0:0:0:
512,229,22075,1,0,3:0:0:0:
512,229,22172,2,0,L|433:238,1,44.999998626709,8|0,0:0|0:0,0:0:0:0:
278,319,22464,1,0,0:0:0:0:
278,319,22561,102,0,P|280:232|245:200,1,120,0|0,3:0|0:0,0:0:0:0:
236,190,22852,2,0,P|211:215|185:229,1,60,0|8,0:0|0:0,0:0:0:0:
23,166,23144,2,0,P|41:200|60:223,1,60,0|0,0:0|3:0,0:0:0:0:
96,382,23435,1,0,0:0:0:0:
96,382,23533,2,0,P|117:322|118:244,1,120,0|8,3:0|0:0,0:0:0:0:
114,47,23921,1,0,0:0:0:0:
114,47,24018,1,0,0:0:0:0:
114,47,24116,6,0,P|149:64|189:71,1,60,0|0,3:0|0:0,0:0:0:0:
359,76,24310,2,0,P|320:94|272:98,1,60
222,167,24504,2,0,P|217:232|235:295,1,120,8|0,0:0|0:0,0:0:0:0:
231,285,24796,1,0,3:0:0:0:
231,285,24893,2,0,P|267:251|313:254,1,67.4999979400635
439,356,25087,2,0,P|386:341|359:312,1,67.4999979400635,0|0,3:0|0:0,0:0:0:0:
357,180,25282,2,0,P|355:152|403:227,1,314.999990386963,8|0,0:0|0:0,0:0:0:0:
340,354,25670,102,0,L|320:263,1,75,0|0,3:0|0:0,0:0:0:0:
202,122,25864,6,0,L|217:212,1,86.2500016450882,0|0,3:0|0:0,0:0:0:0:
130,378,26059,6,0,L|106:272,1,97.4999955368044,0|0,3:0|0:0,0:0:0:0:
0,36,26253,6,0,L|15:146,1,108.750003318787,0|0,3:0|0:0,0:0:0:0:
150,292,26447,5,0,3:0:0:0:
189,209,26545,1,0,0:0:0:0:
260,260,26642,5,0,3:0:0:0:
266,175,26739,1,0,0:0:0:0:
353,203,26836,5,0,3:0:0:0:
311,109,26933,1,0,0:0:0:0:
407,95,27030,5,0,3:0:0:0:
312,29,27128,1,0,0:0:0:0:
256,192,27225,12,0,28003,0:0:0:0:
342,252,28196,6,0,L|344:223,3,28.1250010728836
415,183,28391,2,0,P|348:190|309:76,1,168.750006437302
376,116,28779,22,0,B|309:141|309:141|302:209|302:209|223:105|223:105|208:165|208:165|123:198,1,404.999987640381,4|0,3:2|0:0,0:0:0:0:
141,191,29168,1,8,0:0:0:0:
174,377,29362,6,0,P|229:382|285:319,1,131.250001251698,2|0,0:0|3:0,0:0:0:0:
478,215,29557,1,0,0:0:0:0:
478,215,29654,2,0,B|451:207|400:243|400:243|414:226|420:182,1,131.250001251698,2|0,0:0|3:0,0:0:0:0:
290,159,29848,1,0,0:0:0:0:
290,159,29945,2,0,B|310:139|304:77|304:77|312:98|347:125,1,131.250001251698,10|0,0:0|0:0,0:0:0:0:
431,30,30140,2,0,B|437:57|494:83|494:83|472:79|431:96,1,131.250001251698,2|0,0:0|0:0,0:0:0:0:
157,55,30334,102,0,B|79:59|74:112|74:112|150:129|140:218,2,225.000008583069,0|0|8,3:0|0:0|0:0,0:0:0:0:
260,126,30820,1,0,0:0:0:0:
375,127,30917,6,0,B|400:81|400:81|375:18,1,112.500004291535,2|0,0:0|3:0,0:0:0:0:
277,229,31111,1,0,0:0:0:0:
277,229,31208,2,0,B|246:168|246:168|262:117,1,112.500004291535,2|0,0:0|3:0,0:0:0:0:
378,224,31403,1,0,0:0:0:0:
279,335,31500,102,0,P|231:351|148:322,1,112.500004291535,8|0,0:0|0:0,0:0:0:0:
113,141,31694,2,0,B|161:174|161:174|147:230,1,112.500004291535
26,304,31889,2,0,B|47:222|47:222|86:361,1,225.000008583069,0|0,3:0|0:0,0:0:0:0:
84,356,32180,1,0,0:0:0:0:
85,357,32277,2,0,P|114:336|211:345,1,112.500004291535,8|0,0:0|0:0,0:0:0:0:
403,332,32472,6,0,P|331:311|298:271,1,112.500004291535,2|0,0:0|3:0,0:0:0:0:
342,105,32666,1,0,0:0:0:0:
399,225,32763,2,0,B|430:215|430:215|454:186|454:186|518:173,1,112.500004291535,2|0,0:0|3:0,0:0:0:0:
346,87,32957,1,0,0:0:0:0:
238,197,33055,2,0,B|210:179|210:179|194:145|194:145|136:115,1,112.500004291535,8|0,0:0|0:0,0:0:0:0:
351,62,33249,2,0,L|364:6,2,50,2|0|0,0:0|0:0|0:0,0:0:0:0:
324,185,33443,101,0,3:0:0:0:
261,3,33638,1,0,0:0:0:0:
261,3,33735,1,0,0:0:0:0:
261,3,33832,1,0,0:0:0:0:
0,28,34026,86,0,L|13:112,1,75,2|0,0:0|3:0,0:0:0:0:
121,135,34220,1,0,0:0:0:0:
119,168,34318,1,0,3:0:0:0:
117,194,34415,1,0,0:0:0:0:
115,220,34512,1,0,3:0:0:0:
31,276,34609,5,8,0:0:0:0:
38,290,34706,1,0,3:0:0:0:
45,303,34803,1,0,0:0:0:0:
52,316,34901,1,8,0:0:0:0:
150,343,34998,6,0,B|191:378|261:371|261:371|226:175|226:175|223:235|170:284,1,404.999987640381,4|0,3:2|0:0,0:0:0:0:
196,256,35386,6,0,P|273:286|363:242,1,112.500004291535,8|0,0:0|0:0,0:0:0:0:
379,185,35581,2,0,P|336:149|310:100,1,112.500004291535,2|0,0:0|3:0,0:0:0:0:
477,269,35775,2,0,B|485:357|485:357|440:327,2,112.500004291535,0|2|0,0:0|0:0|3:0,0:0:0:0:
452,99,36067,1,0,0:0:0:0:
392,196,36164,2,0,B|332:212|332:212|246:182,1,112.500004291535,8|0,0:0|0:0,0:0:0:0:
25,84,36358,2,0,B|84:58|84:58|153:74,1,112.500004291535,2|0,0:0|0:0,0:0:0:0:
187,152,36552,102,0,B|196:211|196:211|172:250|172:250|188:350|188:350|220:272,1,269.999991760254,0|0,3:0|0:0,0:0:0:0:
211,292,36844,1,0,0:0:0:0:
212,292,36941,2,0,L|54:311,1,112.500004291535,8|0,0:0|0:0,0:0:0:0:
289,369,37135,6,0,B|416:351,1,112.500004291535,2|0,0:0|3:0,0:0:0:0:
344,121,37330,2,0,B|364:189|364:189|330:255,2,112.500004291535,0|2|0,0:0|0:0|3:0,0:0:0:0:
319,26,37621,1,0,0:0:0:0:
259,169,37718,2,0,B|210:131|210:131|151:120,1,112.500004291535,8|0,0:0|0:0,0:0:0:0:
442,122,37913,2,0,B|469:65|469:65|512:41,1,112.500004291535
483,264,38107,70,0,B|495:295|495:295|395:303|395:303|353:320|309:352|309:352|295:318,1,269.999991760254,0|0,3:0|0:0,0:0:0:0:
175,207,38496,2,0,P|154:243|157:285,1,56.2500021457673
67,315,38690,6,0,P|39:304|-3:321,1,56.2500021457673,0|0,0:0|3:0,0:0:0:0:
8,315,38836,1,0,3:0:0:0:
1,322,38884,2,0,B|36:344|45:378|45:378|56:320|-32:253|52:165,1,269.999991760254,8|0,0:0|0:0,0:0:0:0:
193,118,39273,102,0,P|133:160|106:153,1,89.9999972534181
1,34,39467,2,0,P|44:45|76:106,1,89.9999972534181,0|0,0:0|3:0,0:0:0:0:
36,174,39662,5,0,3:0:0:0:
327,212,39856,102,0,P|366:255|375:298,1,75,0|0,0:0|3:0,0:0:0:0:
322,88,40050,2,0,P|353:56|365:20,1,75
495,135,40245,6,0,L|389:149,1,75,0|0,3:0|3:0,0:0:0:0:
409,147,40390,1,0,3:0:0:0:
399,149,40439,1,8,0:0:0:0:
191,217,40633,102,0,P|219:220|185:202,2,112.500004291535
110,136,40925,22,0,B|191:93|191:93|349:134,1,225.000008583069,0|2,3:0|0:0,0:0:0:0:
489,116,41216,38,0,B|408:152|408:152|307:123,1,179.999994506836,4|0,3:2|0:0,0:0:0:0:
285,33,41508,1,0,0:0:0:0:
285,33,41605,2,0,L|306:149,1,112.500004291535,8|0,0:0|0:0,0:0:0:0:
225,228,41799,2,0,L|112:247,1,112.500004291535,0|0,0:0|3:0,0:0:0:0:
294,334,41994,2,0,B|366:320|366:320|435:347|435:347|529:328,1,225.000008583069,2|0,0:0|3:0,0:0:0:0:
511,332,42285,1,0,0:0:0:0:
511,332,42382,2,0,P|426:267|418:208,1,112.500004291535,8|0,0:0|0:0,0:0:0:0:
482,174,42576,2,0,P|466:227|426:266,1,112.500004291535,2|0,0:0|0:0,0:0:0:0:
397,10,42771,102,0,B|425:66|425:66|399:180|399:180|377:114,1,225.000008583069,0|0,3:0|0:0,0:0:0:0:
291,106,43062,1,0,0:0:0:0:
180,125,43159,2,0,L|291:106,1,112.500004291535,8|0,0:0|0:0,0:0:0:0:
158,29,43354,2,0,L|20:54,1,112.500004291535,0|0,0:0|3:0,0:0:0:0:
10,206,43548,1,2,0:0:0:0:
73,273,43645,1,0,0:0:0:0:
112,193,43742,2,0,B|65:176|65:176|9:205,1,112.500004291535,0|0,3:0|0:0,0:0:0:0:
170,276,43937,2,0,B|224:302|224:302|290:287,1,112.500004291535,8|0,0:0|0:0,0:0:0:0:
450,364,44131,5,0,0:0:0:0:
450,364,44228,1,0,0:0:0:0:
450,364,44325,2,0,P|383:322|506:327,1,337.500012874604,0|0,3:0|0:0,0:0:0:0:
512,310,44714,2,0,P|432:328|287:297,1,225.000008583069,8|0,0:0|0:0,0:0:0:0:
112,193,45103,2,0,P|178:151|55:156,1,337.500012874604,2|0,0:0|0:0,0:0:0:0:
49,140,45491,2,0,P|172:140|267:104,1,225.000008583069,8|0,0:0|0:0,0:0:0:0:
450,18,45783,1,0,0:0:0:0:
450,18,45880,102,0,B|429:186|429:186|475:109,1,225.000008583069,0|0,3:0|0:0,0:0:0:0:
457,138,46172,1,0,0:0:0:0:
457,138,46269,2,0,P|383:136|344:179,1,112.500004291535,8|0,0:0|0:0,0:0:0:0:
240,142,46463,2,0,P|224:211|242:254,1,112.500004291535,0|0,0:0|3:0,0:0:0:0:
385,376,46657,1,0,0:0:0:0:
474,354,46754,1,0,3:0:0:0:
408,294,46852,1,0,0:0:0:0:
403,373,46949,5,0,0:0:0:0:
457,343,47046,1,8,0:0:0:0:
405,315,47143,1,0,3:0:0:0:
416,339,47240,2,0,L|300:354,1,112.500004291535
45,321,47435,102,0,B|-3:272|-3:272|83:218|162:267,1,225.000008583069,0|0,3:0|0:0,0:0:0:0:
214,315,47726,1,0,0:0:0:0:
214,315,47823,2,0,P|261:279|286:205,1,112.500004291535,8|0,0:0|0:0,0:0:0:0:
155,90,48018,2,0,P|102:110|66:152,1,112.500004291535,0|0,0:0|3:0,0:0:0:0:
170,206,48212,2,0,B|236:162|236:162|265:93|265:93|340:43|340:43,1,225.000008583069,2|0,0:0|3:0,0:0:0:0:
347,42,48503,1,0,0:0:0:0:
347,42,48601,2,0,P|286:27|232:-14,1,112.500004291535,8|0,0:0|0:0,0:0:0:0:
419,153,48795,2,0,P|493:121|523:82,1,112.500004291535,2|0,0:0|0:0,0:0:0:0:
311,220,48989,6,0,B|347:265|347:265|325:393,1,168.750006437302,0|0,3:0|0:0,0:0:0:0:
322,384,49184,2,0,L|209:373,1,112.500004291535
81,234,49378,2,0,P|48:188|44:133,1,112.500004291535,8|0,0:0|0:0,0:0:0:0:
196,92,49572,2,0,P|219:128|210:205,1,112.500004291535,0|0,0:0|3:0,0:0:0:0:
93,286,49767,102,0,P|41:270|-17:188,1,112.500004291535,2|0,0:0|0:0,0:0:0:0:
276,142,49961,2,0,P|257:216|212:262,1,112.500004291535,0|0,3:0|0:0,0:0:0:0:
130,137,50155,1,8,0:0:0:0:
148,151,50252,1,0,0:0:0:0:
136,168,50350,1,2,0:0:0:0:
119,157,50447,1,0,0:0:0:0:
20,103,50544,6,0,B|82:96|102:31|102:31|158:77|231:48,1,225.000008583069,0|0,3:0|0:0,0:0:0:0:
266,0,50835,1,0,0:0:0:0:
266,0,50932,2,0,B|296:40|296:40|284:127,1,112.500004291535,8|0,0:0|0:0,0:0:0:0:
276,299,51127,101,0,0:0:0:0:
324,269,51224,1,0,3:0:0:0:
381,265,51321,1,0,0:0:0:0:
430,292,51418,1,0,0:0:0:0:
465,333,51515,5,0,3:0:0:0:
426,264,51613,1,0,0:0:0:0:
454,190,51710,1,8,0:0:0:0:
350,40,51904,102,0,L|321:159,1,112.500004291535,0|0,0:0|3:0,0:0:0:0:
319,160,52050,1,0,3:0:0:0:
318,171,52098,6,0,P|262:137|186:155,1,112.500004291535,8|0,0:0|0:0,0:0:0:0:
47,235,52293,1,0,3:0:0:0:
47,235,52390,1,0,3:0:0:0:
47,235,52487,2,0,B|98:272|98:272|170:264,1,112.500004291535
316,380,52681,102,0,L|291:269,1,112.500004291535,8|0,0:0|0:0,0:0:0:0:
362,202,52876,1,0,3:0:0:0:
362,202,52973,2,0,B|437:246|515:182|515:182|452:161,1,194.999991073609,0|0,3:0|3:0,0:0:0:0:
477,167,53216,1,0,3:0:0:0:
466,162,53264,6,0,P|453:232|496:281,1,112.500004291535,8|0,0:0|0:0,0:0:0:0:
312,118,53459,2,0,P|331:66|314:13,1,112.500004291535,8|0,0:0|0:0,0:0:0:0:
89,10,53653,5,4,3:2:0:0:
92,34,54430,2,0,L|106:138,1,75,8|0,0:0|0:0,0:0:0:0:
96,199,54722,2,0,B|156:192|156:192|198:151|198:151|280:141,1,187.5
429,177,55305,54,0,L|463:183,2,18.75
350,226,55499,69,0,3:0:0:0:
285,38,55693,1,0,3:0:0:0:
157,193,55888,1,0,3:0:0:0:
266,143,55985,1,8,0:0:0:0:
266,143,56179,2,0,P|349:182|409:165,1,150,0|0,3:0|0:0,0:0:0:0:
487,26,56762,101,0,3:0:0:0:
464,254,57345,1,0,3:0:0:0:
464,254,57442,1,0,3:0:0:0:
464,254,57540,2,0,L|448:367,1,112.5,8|0,0:0|0:0,0:0:0:0:
466,359,58317,2,0,L|304:337,1,146.249993305207,0|0,3:0|3:0,0:0:0:0:
253,245,58706,54,0,L|265:203,1,37.5
136,296,58900,6,0,L|152:251,1,37.5,0|0,3:0|0:0,0:0:0:0:
192,144,59094,6,0,L|204:102,1,37.5,8|0,0:0|3:0,0:0:0:0:
77,199,59288,6,0,L|94:152,1,37.5,0|0,3:0|0:0,0:0:0:0:
141,43,59483,22,0,P|191:17|250:31,1,112.5,8|0,0:0|0:0,0:0:0:0:
338,133,59871,2,0,L|363:267,1,112.5,2|0,0:0|0:0,0:0:0:0:
381,252,60260,102,0,L|353:97,1,146.249993305207,0|0,3:0|0:0,0:0:0:0:
270,47,60649,2,0,P|197:49|270:122,1,225,8|0,0:0|0:0,0:0:0:0:
479,114,61523,54,0,L|473:148,2,18.75,0|0|0,3:0|0:0|0:0,0:0:0:0:
492,31,61718,69,0,0:0:0:0:
335,127,61912,1,0,0:0:0:0:
492,230,62106,1,0,0:0:0:0:
404,297,62203,2,0,L|408:206,1,75,8|0,0:0|3:0,0:0:0:0:
407,223,62495,2,0,L|280:211,1,112.5
18,187,62981,101,0,0:0:0:0:
30,52,63564,1,0,3:0:0:0:
30,52,63661,1,0,3:0:0:0:
30,52,63758,2,0,B|16:201,2,134.999995880127,8|0|0,0:0|0:0|0:0,0:0:0:0:
113,284,64535,6,0,L|126:200,1,75,0|0,3:0|0:0,0:0:0:0:
204,158,64827,2,0,L|253:162,1,37.5,0|0,3:0|0:0,0:0:0:0:
306,90,65021,2,0,L|338:92,2,18.75
205,35,65215,1,0,3:0:0:0:
205,35,65313,102,0,B|139:98|139:98|181:240,1,225.000008583069,8|0,0:0|3:0,0:0:0:0:
241,384,65604,2,0,B|307:321|307:321|265:179,1,225.000008583069,8|0,0:0|3:0,0:0:0:0:
269,194,65896,2,0,L|400:168,1,112.500004291535,8|8,0:0|0:0,0:0:0:0:
512,148,66090,1,0,3:0:0:0:
22,162,72308,22,0,P|123:158|20:258,1,314.999990386963
46,277,73086,2,0,B|234:129|276:397|436:245,1,420
451,164,73863,2,0,B|457:110|430:45|430:45|414:72|398:85|398:85|370:85|337:63|337:63|338:151|394:201,1,367.49998878479
430,251,74640,6,0,P|432:288|416:320,1,56.2500021457673,0|0,0:0|0:0,0:0:0:0:
395,286,74835,2,0,P|374:313|331:336,1,56.2500021457673,0|0,0:0|0:0,0:0:0:0:
278,234,75029,102,0,P|219:185|193:185,1,75
209,202,75223,2,0,P|144:209|124:224,1,75
7,319,75417,22,0,P|36:269|31:217,1,89.9999972534181,0|0,3:0|3:0,0:0:0:0:
126,328,75612,2,0,P|183:306|238:316,1,89.9999972534181,0|0,3:0|3:0,0:0:0:0:
121,204,75806,6,0,P|154:149|143:87,1,97.4999955368044,0|0,3:0|3:0,0:0:0:0:
290,243,76000,2,0,P|366:257|396:291,1,97.4999955368044,0|0,3:0|3:0,0:0:0:0:
277,104,76195,6,0,P|323:57|335:19,1,104.999996795654,0|0,3:0|3:0,0:0:0:0:
450,175,76389,2,0,P|495:228|505:288,1,104.999996795654,0|0,3:0|3:0,0:0:0:0:
308,381,76583,6,0,P|253:382|183:358,1,112.500004291535,0|0,3:0|3:0,0:0:0:0:
35,192,76778,2,0,P|103:218|157:225,1,112.500004291535,0|0,3:0|3:0,0:0:0:0:
348,149,76972,5,0,3:0:0:0:
367,95,77069,1,0,3:0:0:0:
356,39,77166,1,0,3:0:0:0:
320,0,77264,1,0,3:0:0:0:
296,59,77361,5,0,3:0:0:0:
318,123,77458,1,0,3:0:0:0:
372,162,77555,1,0,3:0:0:0:
439,166,77652,1,0,3:0:0:0:
496,129,77749,37,0,3:0:0:0:
426,92,77847,1,0,3:0:0:0:
349,110,77944,1,0,3:0:0:0:
302,173,78041,1,0,3:0:0:0:
243,255,78138,5,0,3:0:0:0:
144,279,78235,1,0,3:0:0:0:
45,224,78332,1,0,3:0:0:0:
15,114,78430,1,0,3:0:0:0:
101,25,78527,5,0,3:0:0:0:
256,192,78624,12,2,80081,0:0:0:0:
251,178,80470,54,0,B|280:257|199:275|272:367,1,168.750006437302
255,363,80859,6,0,B|317:283|181:212|274:115,1,225.000008583069,0|0,0:0|0:0,0:0:0:0:
338,198,81247,2,0,P|418:196|448:169,1,89.9999972534181,2|2,0:0|0:0,0:0:0:0:
403,26,81442,2,0,P|394:77|366:111,1,89.9999972534181,2|0,0:0|0:0,0:0:0:0:
184,10,81636,6,0,P|95:19|-4:66,2,134.999995880127,4|0|0,3:2|0:0|0:0,0:0:0:0:
142,144,81927,1,0,0:0:0:0:
283,192,82025,2,0,P|305:133|308:31,1,134.999995880127,8|0,0:0|0:0,0:0:0:0:
118,157,82219,2,0,P|120:226|146:294,1,134.999995880127,2|0,0:0|3:0,0:0:0:0:
288,336,82413,6,0,P|387:324|455:364,2,134.999995880127,2|0|0,0:0|0:0|3:0,0:0:0:0:
265,175,82705,1,0,0:0:0:0:
408,223,82802,2,0,P|455:176|470:111,1,134.999995880127,8|0,0:0|0:0,0:0:0:0:
229,13,82996,2,0,P|290:39|325:96,1,134.999995880127,2|0,0:0|0:0,0:0:0:0:
156,118,83191,6,0,P|89:119|37:161,2,134.999995880127,2|0|0,3:2|0:0|0:0,0:0:0:0:
259,382,83482,1,0,0:0:0:0:
355,308,83579,2,0,P|350:239|366:165,1,134.999995880127,8|0,0:0|0:0,0:0:0:0:
179,272,83773,2,0,P|173:201|133:111,1,134.999995880127,2|0,0:0|3:0,0:0:0:0:
21,22,83968,5,2,0:0:0:0:
117,23,84065,1,0,0:0:0:0:
47,129,84162,5,0,3:0:0:0:
131,112,84259,1,2,0:0:0:0:
113,217,84356,5,8,0:0:0:0:
191,175,84454,1,0,0:0:0:0:
214,279,84551,37,2,0:0:0:0:
268,203,84648,1,0,0:0:0:0:
325,282,84745,6,0,B|362:343|428:362|428:362|468:311|461:274|461:274|441:257|416:210,2,269.999991760254,2|0|8,3:2|0:0|0:0,0:0:0:0:
15,351,85328,2,0,P|19:294|78:192,1,134.999995880127,2|0,0:0|3:0,0:0:0:0:
138,122,85522,2,0,P|72:110|9:131,1,134.999995880127,2|0,0:0|0:0,0:0:0:0:
191,18,85717,2,0,P|275:102|281:167,1,134.999995880127,0|2,3:0|0:0,0:0:0:0:
171,372,85911,5,8,0:0:0:0:
110,276,86008,1,0,0:0:0:0:
215,216,86105,1,2,0:0:0:0:
269,313,86203,1,0,0:0:0:0:
190,293,86300,2,0,L|39:260,1,134.999995880127,2|0,3:2|0:0,0:0:0:0:
161,145,86494,6,0,L|132:253,2,89.999997253418,0|0|0,0:0|0:0|0:0,0:0:0:0:
248,213,86688,2,0,P|396:248|493:184,1,269.999991760254,8|2,0:0|0:0,0:0:0:0:
474,98,86980,1,0,3:0:0:0:
474,98,87077,2,0,P|406:51|380:6,1,134.999995880127,2|0,0:0|3:0,0:0:0:0:
185,21,87271,2,0,P|226:22|301:74,1,134.999995880127,0|0,0:0|3:0,0:0:0:0:
161,250,87466,1,10,0:0:0:0:
222,132,87563,1,0,3:0:0:0:
101,92,87660,2,0,P|42:78|-25:23,1,134.999995880127,2|0,0:0|0:0,0:0:0:0:
19,269,87854,6,0,P|85:223|120:140,2,134.999995880127,4|0|0,3:2|0:0|0:0,0:0:0:0:
131,364,88146,1,0,0:0:0:0:
197,295,88243,2,0,L|347:307,1,134.999995880127,8|0,0:0|0:0,0:0:0:0:
505,213,88437,2,0,L|362:194,1,134.999995880127,2|0,0:0|3:0,0:0:0:0:
291,125,88632,6,0,P|378:141|461:115,2,134.999995880127,2|0|0,0:0|0:0|3:0,0:0:0:0:
178,19,88923,1,0,0:0:0:0:
138,173,89020,2,0,P|125:256|159:322,1,134.999995880127,8|0,0:0|0:0,0:0:0:0:
334,255,89215,2,0,P|307:162|271:128,1,134.999995880127,2|0,0:0|0:0,0:0:0:0:
125,87,89409,38,0,P|10:118|-22:155,2,134.999995880127,2|0|0,3:2|0:0|0:0,0:0:0:0:
225,198,89700,1,0,0:0:0:0:
258,57,89798,2,0,P|346:21|405:28,1,134.999995880127,8|0,0:0|0:0,0:0:0:0:
418,222,89992,2,0,P|336:193|291:145,1,134.999995880127,2|0,0:0|3:0,0:0:0:0:
474,7,90186,6,0,P|476:93|448:153,1,134.999995880127,2|0,0:0|0:0,0:0:0:0:
402,380,90381,2,0,P|340:326|331:253,1,134.999995880127,0|0,3:0|0:0,0:0:0:0:
38,7,90575,2,0,P|35:93|64:153,1,134.999995880127,8|0,0:0|0:0,0:0:0:0:
110,380,90769,2,0,P|172:326|181:253,1,134.999995880127,2|0,0:0|0:0,0:0:0:0:
293,49,90964,6,0,B|281:6|208:5|191:44|186:94|190:131|260:143|260:143|216:170|216:170|266:183|266:183|235:213|235:213|256:241|256:241|250:311,1,404.999987640381,0|0,3:0|0:0,0:0:0:0:
256,305,91352,2,0,P|196:322|126:287,1,134.999995880127,8|0,0:0|0:0,0:0:0:0:
56,103,91547,5,2,0:0:0:0:
19,175,91644,1,0,3:0:0:0:
91,210,91741,1,2,0:0:0:0:
129,138,91838,1,0,0:0:0:0:
280,80,91935,5,0,3:0:0:0:
364,122,92032,1,0,0:0:0:0:
321,206,92129,1,10,0:0:0:0:
234,168,92227,1,0,0:0:0:0:
160,288,92324,5,0,0:0:0:0:
252,380,92421,1,2,0:0:0:0:
326,282,92518,1,0,3:0:0:0:
326,282,92615,2,0,B|308:217|339:156|339:156|401:159|448:191|448:191|424:226,1,269.999991760254,8|0,0:0|0:0,0:0:0:0:
182,153,92907,2,0,B|200:88|169:27|169:27|107:30|59:62|59:62|84:97,1,269.999991760254,8|0,0:0|3:0,0:0:0:0:
149,279,93198,37,8,0:0:0:0:
50,185,93295,2,0,L|261:133,1,134.999995880127,8|0,0:0|3:0,0:0:0:0:
345,361,93490,5,0,3:0:0:0:
452,260,93587,2,0,L|316:223,1,134.999995880127,8|0,0:0|3:0,0:0:0:0:
255,75,93781,5,0,3:0:0:0:
227,265,93878,1,8,0:0:0:0:
336,141,93976,1,0,3:0:0:0:
164,114,94073,6,0,P|71:230|124:339,1,269.999991760254,4|0,3:2|0:0,0:0:0:0:
284,354,94364,1,0,0:0:0:0:
168,267,94461,2,0,P|38:282|-12:298,1,134.999995880127,8|0,0:0|0:0,0:0:0:0:
328,189,94656,2,0,P|442:169|499:142,1,134.999995880127,2|0,0:0|3:0,0:0:0:0:
196,7,94850,6,0,L|214:153,2,134.999995880127,2|0|0,0:0|0:0|3:0,0:0:0:0:
229,256,95142,1,0,0:0:0:0:
353,159,95239,2,0,B|389:71|353:-2,1,134.999995880127,8|0,0:0|0:0,0:0:0:0:
84,161,95433,2,0,P|89:243|131:342,1,134.999995880127,2|0,0:0|0:0,0:0:0:0:
279,360,95627,6,0,L|133:374,2,134.999995880127,2|0|0,3:2|0:0|0:0,0:0:0:0:
458,214,95919,1,0,0:0:0:0:
458,214,96016,2,0,P|373:213|303:193,1,134.999995880127,8|0,0:0|0:0,0:0:0:0:
55,154,96210,2,0,P|131:135|207:97,1,134.999995880127,2|0,0:0|3:0,0:0:0:0:
343,17,96405,37,2,0:0:0:0:
335,121,96502,1,0,0:0:0:0:
444,87,96599,5,0,3:0:0:0:
395,177,96696,1,2,0:0:0:0:
493,217,96793,5,8,0:0:0:0:
381,260,96890,1,0,0:0:0:0:
415,356,96988,5,2,0:0:0:0:
307,290,97085,1,0,0:0:0:0:
195,331,97182,6,0,B|169:381|169:381|128:305|148:199|148:199|162:238,2,269.999991760254,0|0|8,3:0|0:0|0:0,0:0:0:0:
208,14,97765,2,0,P|243:70|246:143,1,134.999995880127,2|0,0:0|3:0,0:0:0:0:
164,252,97959,2,0,P|113:208|87:146,1,134.999995880127,2|0,0:0|0:0,0:0:0:0:
398,61,98154,2,0,P|385:125|346:184,1,134.999995880127,0|2,3:0|0:0,0:0:0:0:
338,335,98348,6,0,P|465:323|491:332,1,134.999995880127,8|0,0:0|0:0,0:0:0:0:
124,384,98542,2,0,P|14:334|-12:302,1,134.999995880127,2|0,0:0|0:0,0:0:0:0:
18,68,98737,37,2,3:2:0:0:
233,287,98931,2,0,L|247:393,2,89.999997253418
123,257,99125,2,0,P|156:228|190:140,1,134.999995880127,8|0,0:0|0:0,0:0:0:0:
388,23,99320,5,2,0:0:0:0:
398,117,99417,1,0,3:0:0:0:
314,165,99514,2,0,P|259:97|251:16,1,134.999995880127,2|0,0:0|3:0,0:0:0:0:
363,257,99708,2,0,L|517:243,1,134.999995880127,0|0,0:0|3:0,0:0:0:0:
204,357,99903,1,10,0:0:0:0:
169,278,100000,1,0,3:0:0:0:
81,265,100097,1,2,0:0:0:0:
8,217,100194,1,0,0:0:0:0:
34,134,100291,70,0,L|275:117,1,225.000008583069,0|8,3:0|0:0,0:0:0:0:
258,119,100971,2,0,P|239:59|258:-1,1,112.500004291535,0|0,3:0|0:0,0:0:0:0:
250,12,101263,1,0,3:0:0:0:
346,176,101457,2,0,L|470:167,1,112.500004291535,8|0,0:0|0:0,0:0:0:0:
143,48,101846,6,0,B|88:113|88:113|118:258,1,225.000008583069,0|8,3:0|0:0,0:0:0:0:
116,249,102526,2,0,L|238:234,1,112.500004291535,0|0,3:0|0:0,0:0:0:0:
227,236,102817,1,0,0:0:0:0:
375,124,103012,2,0,L|282:116,1,56.2500021457673,8|0,0:0|0:0,0:0:0:0:
253,36,103206,2,0,L|174:28,1,56.2500021457673,0|0,0:0|0:0,0:0:0:0:
40,36,103400,5,0,3:0:0:0:
1,69,103498,1,0,0:0:0:0:
84,84,103595,5,0,3:0:0:0:
45,140,103692,1,0,0:0:0:0:
140,106,103789,5,0,3:0:0:0:
110,184,103886,1,0,0:0:0:0:
206,106,103983,5,0,3:0:0:0:
193,201,104081,1,0,0:0:0:0:
287,76,104178,5,0,3:0:0:0:
273,185,104275,1,0,0:0:0:0:
386,91,104372,5,0,3:0:0:0:
351,218,104469,1,0,0:0:0:0:
470,177,104566,5,0,3:0:0:0:
379,296,104663,1,0,0:0:0:0:
510,312,104761,6,0,L|487:369,4,37.5,0|0|0|0|0,3:0|3:0|3:0|3:0|3:0,0:0:0:0:
256,192,105004,12,0,105732,0:0:0:0:
336,270,105927,102,0,L|363:277,3,18.75
279,322,106121,2,0,L|285:210,1,112.500004291535
387,229,106510,6,0,B|320:210|293:136|293:136|249:210|145:215,1,269.999991760254,4|0,3:2|0:0,0:0:0:0:
53,37,106898,6,0,L|3:27,2,50,2|0|0,0:0|0:0|0:0,0:0:0:0:
141,99,107093,2,0,L|191:90,2,50,2|0|0,0:0|0:0|0:0,0:0:0:0:
48,154,107287,2,0,P|31:193|47:259,1,75,8|0,0:0|0:0,0:0:0:0:
108,325,107481,6,0,L|112:380,2,50,2|0|0,0:0|0:0|0:0,0:0:0:0:
161,249,107676,2,0,L|271:230,1,75,0|2,0:0|0:0,0:0:0:0:
308,152,107870,1,0,0:0:0:0:
256,259,107967,1,0,3:0:0:0:
182,164,108064,86,0,B|138:108|166:22|166:22|172:65|225:93,1,194.999991073609,0|0,3:0|0:0,0:0:0:0:
44,227,108356,5,0,3:0:0:0:
44,227,108453,2,0,P|19:260|-6:273,2,50,2|0|0,0:0|0:0|0:0,0:0:0:0:
79,128,108647,1,0,3:0:0:0:
140,263,108744,1,0,3:0:0:0:
182,164,108841,2,0,P|226:149|270:159,1,75,8|0,0:0|0:0,0:0:0:0:
264,308,109036,6,0,P|255:260|215:224,1,75
356,70,109230,2,0,P|364:101|411:153,1,75,8|0,0:0|0:0,0:0:0:0:
508,229,109424,102,0,B|462:238|472:267|533:295|565:252|576:230|536:125|488:198|442:238|396:258|311:201,1,337.500012874604,4|0,3:0|0:0,0:0:0:0:
224,32,109813,6,0,L|240:148,1,75,0|0,3:0|0:0,0:0:0:0:
254,225,110007,1,0,0:0:0:0:
314,131,110105,1,0,3:0:0:0:
152,105,110202,2,0,L|164:192,1,75,0|0,0:0|3:0,0:0:0:0:
150,281,110396,102,0,L|121:102,1,150,10|0,0:0|0:0,0:0:0:0:
126,134,110785,2,0,P|63:157|30:153,1,89.9999972534181
172,36,110979,2,0,P|235:53|263:82,1,89.9999972534181,2|2,0:0|0:0,0:0:0:0:
368,176,111173,6,0,L|482:173,1,75,0|0,3:0|0:0,0:0:0:0:
277,103,111368,1,0,0:0:0:0:
291,258,111465,102,0,L|373:257,1,75,0|0,3:0|0:0,0:0:0:0:
209,184,111659,1,0,0:0:0:0:
164,321,111756,6,0,P|187:369|225:383,1,75,0|0,3:0|0:0,0:0:0:0:
300,381,111951,102,0,P|322:276|285:198,1,150,8|0,0:0|3:0,0:0:0:0:
150,23,112242,2,0,L|157:120,1,89.9999972534181,8|0,0:0|3:0,0:0:0:0:
156,112,112437,2,0,L|310:103,1,150,8|0,0:0|0:0,0:0:0:0:
406,19,112728,6,0,B|367:7|367:7|295:41,1,75,0|0,3:0|0:0,0:0:0:0:
432,177,112922,2,0,B|469:185|469:185|526:161,1,75
366,96,113117,86,0,B|296:118|296:118|229:86|229:86|153:114,1,225.000008583069,4|0,3:0|0:0,0:0:0:0:
101,211,113408,5,0,0:0:0:0:
157,112,113505,2,0,P|164:47|136:13,1,75,8|0,0:0|0:0,0:0:0:0:
18,121,113700,2,0,P|9:137|1:174,2,50,2|0|0,0:0|0:0|0:0,0:0:0:0:
72,32,113894,1,0,0:0:0:0:
93,170,113991,2,0,L|113:288,1,75,2|0,0:0|0:0,0:0:0:0:
134,370,114185,1,0,3:0:0:0:
61,312,114283,102,0,B|37:295|37:295|184:258|184:258|153:318,1,209.999993591309,0|0,3:0|0:0,0:0:0:0:
244,356,114574,22,0,P|336:367|396:294,1,150,0|0,3:0|0:0,0:0:0:0:
370,200,114866,1,0,3:0:0:0:
260,256,114963,1,0,3:0:0:0:
157,194,115060,102,0,B|146:78,1,75,8|0,0:0|0:0,0:0:0:0:
362,77,115254,2,0,L|354:-3,1,75,8|0,0:0|0:0,0:0:0:0:
249,66,115449,2,0,B|258:136|258:136|296:174|296:174|298:276|298:276|266:234,1,269.999991760254,0|0,3:0|0:0,0:0:0:0:
179,192,115837,6,0,B|122:156|27:195|15:274|15:274|34:237|65:232,1,269.999991760254,4|0,3:2|0:0,0:0:0:0:
144,301,116129,2,0,L|106:33,1,269.999991760254,0|8,3:0|0:0,0:0:0:0:
231,114,116420,5,8,0:0:0:0:
37,195,116517,1,0,0:0:0:0:
246,262,116615,6,0,B|353:300|450:231|450:231|373:196,1,269.999991760254,4|0,3:2|0:0,0:0:0:0:
249,345,116906,2,0,B|336:289|308:146|308:146|252:221,1,269.999991760254,0|8,3:0|0:0,0:0:0:0:
124,301,117197,5,8,0:0:0:0:
66,80,117295,1,0,0:0:0:0:
14,210,117392,6,0,B|118:236|187:148|187:148|166:201|194:247,1,269.999991760254,4|0,3:2|0:0,0:0:0:0:
257,371,117683,37,8,0:0:0:0:
209,252,117780,2,0,P|200:166|242:99,1,134.999995880127,8|0,0:0|0:0,0:0:0:0:
382,15,117975,85,4,3:1:0:0:
256,192,118072,12,0,121278,0:0:0:0:
