osu file format v14

[General]
AudioFilename: audio.mp3
AudioLeadIn: 0
PreviewTime: 80470
Countdown: 0
SampleSet: Soft
StackLeniency: 1
Mode: 0
LetterboxInBreaks: 0
WidescreenStoryboard: 1

[Editor]
DistanceSpacing: 1.1
BeatDivisor: 4
GridSize: 32
TimelineZoom: 2.799999

[Metadata]
Title:Towards The Horizon
TitleUnicode:Towards The Horizon
Artist:Camellia
ArtistUnicode:かめりあ
Creator:Pho
Version:Underdogs' Hard
Source:REFLEC BEAT 悠久のリフレシア
Tags:RB Illusiya イルシヤ 6th KONAMI Arcade Championship KAC bemani The Reflesia of Eternity asaiga underdogs yauxo sahuang chaoslitz chaoz
BeatmapID:1484934
BeatmapSetID:636393

[Difficulty]
HPDrainRate:5
CircleSize:4
OverallDifficulty:5
ApproachRate:7.7
SliderMultiplier:1.3
SliderTickRate:1

[Events]
//Background and Video events
0,0,"kaitan.jpg",0,0
//Break Periods
//Storyboard Layer 0 (Background)
//Storyboard Layer 1 (Fail)
//Storyboard Layer 2 (Pass)
//Storyboard Layer 3 (Foreground)
//Storyboard Sound Samples

[TimingPoints]
797,388.65103626943,4,2,1,40,1,0
2351,-100,4,2,1,40,0,0
2740,-100,4,2,1,5,0,0
2934,-100,4,2,1,40,0,0
3517,-100,4,2,1,40,0,0
3711,-100,4,2,1,40,0,0
3905,-100,4,2,1,40,0,0
4197,-100,4,2,1,40,0,0
6383,-100,4,2,1,5,0,0
6431,-100,4,2,1,40,0,0
7014,-100,4,2,1,40,0,0
9540,-100,4,2,1,40,0,0
16341,-133.333333333333,4,2,1,60,0,0
19449,-117.647058823529,4,2,1,60,0,0
22558,-100,4,2,1,60,0,0
24890,-100,4,2,1,60,0,0
25667,-100,4,2,1,60,0,0
26056,-100,4,2,1,60,0,0
28779,-90.9090909090909,4,2,1,80,0,1
28877,-90.9090909090909,4,2,1,80,0,0
33245,-90.9090909090909,4,2,1,80,0,0
33439,-90.9090909090909,4,2,1,80,0,0
34022,-90.9090909090909,4,2,1,80,0,0
34993,-90.9090909090909,4,2,1,80,0,0
35285,-90.9090909090909,4,2,1,80,0,0
36548,-90.9090909090909,4,2,1,80,0,0
36742,-90.9090909090909,4,2,1,80,0,0
38102,-125,4,2,1,80,0,0
38491,-125,4,2,1,80,0,0
38879,-100,4,2,1,80,0,0
39657,-100,4,2,1,80,0,0
40920,-100,4,2,1,80,0,0
41211,-100,4,2,1,80,0,0
41600,-100,4,2,1,80,0,0
46020,-100,4,2,1,5,0,0
46069,-100,4,2,1,80,0,0
47040,-100,4,2,1,80,0,0
47234,-100,4,2,1,80,0,0
49129,-100,4,2,1,5,0,0
49177,-100,4,2,1,80,0,0
50149,-100,4,2,1,80,0,0
50537,-100,4,2,1,80,0,0
53646,-100,4,2,1,50,0,0
59767,-100,4,2,1,5,0,0
59864,-100,4,2,1,50,0,0
60155,-100,4,2,1,5,0,0
60252,-100,4,2,1,50,0,0
61613,-100,4,2,1,50,0,0
61710,-100,4,2,1,50,0,0
63750,-100,4,2,1,50,0,0
64527,-100,4,2,1,50,0,0
65110,-100,4,2,1,60,0,0
66081,-133.333333333333,4,2,1,60,0,0
72299,-133.333333333333,4,2,1,40,0,0
73756,-133.333333333333,4,2,1,5,0,0
73853,-133.333333333333,4,2,1,20,0,0
74534,-133.333333333333,4,2,1,5,0,0
74631,-133.333333333333,4,2,1,30,0,0
75408,-111.111111111111,4,2,1,30,0,0
75796,-111.111111111111,4,2,1,40,0,0
76185,-111.111111111111,4,2,1,50,0,0
76574,-111.111111111111,4,2,1,60,0,0
80460,-100,4,2,1,70,0,0
80751,-100,4,2,1,5,0,0
80848,-100,4,2,1,70,0,0
81140,-100,4,2,1,5,0,0
81237,-100,4,2,1,80,0,0
81636,-100,4,2,1,90,0,1
100291,-100,4,2,1,50,0,0
103387,-100,4,2,1,60,0,0
103581,-100,4,2,1,65,0,0
103776,-100,4,2,1,70,0,0
103970,-100,4,2,1,75,0,0
104164,-100,4,2,1,80,0,0
104359,-100,4,2,1,85,0,0
104553,-100,4,2,1,90,0,0
104747,-100,4,2,1,95,0,0
105039,-100,4,2,1,5,0,0
106107,-100,4,2,1,40,0,0
106510,-100,4,2,1,80,0,1
106607,-100,4,2,1,80,0,0
108050,-83.3333333333333,4,2,1,80,0,0
108439,-100,4,2,1,80,0,0
109410,-100,4,2,1,80,0,0
109799,-100,4,2,1,80,0,0
110771,-100,4,2,1,80,0,0
111159,-100,4,2,1,80,0,0
113102,-100,4,2,1,80,0,0
113394,-100,4,2,1,80,0,0
114268,-100,4,2,1,80,0,0
114462,-100,4,2,1,80,0,0
115434,-100,4,2,1,80,0,0
115822,-100,4,2,1,80,0,0
118072,-100,4,2,1,20,0,0
121278,-100,4,2,1,5,0,0

[Colours]
Combo1 : 223,223,223
Combo2 : 255,47,47
Combo3 : 255,148,40
Combo4 : 254,228,82
Combo5 : 0,255,128
Combo6 : 101,206,233
Combo7 : 210,0,210
Combo8 : 161,161,161

[HitObjects]
134,58,3906,6,0,P|168:81|152:175,1,130,0|0,0:0|0:0,0:0:0:0:
72,278,4683,2,0,L|66:361,1,65,2|0,0:0|0:0,0:0:0:0:
153,366,5072,2,0,L|159:283,1,65,0|0,0:0|0:0,0:0:0:0:
217,230,5460,6,0,P|255:261|353:231,1,130,0|0,0:0|0:0,0:0:0:0:
270,44,6238,2,0,L|262:120,1,65,2|0,0:0|0:0,0:0:0:0:
347,150,6626,2,0,L|355:74,1,65,0|0,0:0|0:0,0:0:0:0:
188,109,7015,6,0,B|271:119|271:119|258:103,1,97.5,0|0,0:0|0:0,0:0:0:0:
262,108,7404,2,0,L|256:184,1,65,0|0,0:0|0:0,0:0:0:0:
335,260,7792,2,0,B|252:270|252:270|265:254,1,97.5,2|0,0:0|0:0,0:0:0:0:
260,259,8181,2,0,L|253:334,1,65,0|0,0:0|0:0,0:0:0:0:
156,351,8570,6,0,L|167:208,1,130,0|0,0:0|0:0,0:0:0:0:
105,133,9152,1,0,0:0:0:0:
183,57,9347,2,0,L|275:64,1,65,2|0,0:0|0:0,0:0:0:0:
314,148,9735,2,0,L|222:155,1,65,0|0,0:0|0:0,0:0:0:0:
348,65,10124,6,0,L|481:56,1,130,0|0,0:0|0:0,0:0:0:0:
387,273,10901,2,0,P|373:238|385:201,1,65,2|0,0:0|0:0,0:0:0:0:
445,171,11290,2,0,P|459:206|447:243,1,65,0|0,0:0|0:0,0:0:0:0:
387,273,11679,6,0,L|254:266,1,130,0|0,0:0|0:0,0:0:0:0:
177,309,12262,1,0,0:0:0:0:
114,237,12456,1,2,0:0:0:0:
182,166,12650,2,0,B|194:128|194:128|183:29,1,130,0|0,0:0|0:0,0:0:0:0:
277,33,13233,6,0,L|285:155,1,97.5,0|0,0:0|0:0,0:0:0:0:
283,130,13622,2,0,B|306:114|306:114|359:108,1,65,0|0,0:0|0:0,0:0:0:0:
428,189,14011,2,0,L|420:311,1,97.5,2|0,0:0|0:0,0:0:0:0:
421,286,14399,2,0,B|398:269|398:269|345:263,1,65,0|0,0:0|0:0,0:0:0:0:
277,324,14788,6,0,L|199:329,1,65,0|0,0:0|0:0,0:0:0:0:
146,271,15177,1,0,0:0:0:0:
182,193,15371,1,0,0:0:0:0:
186,181,15468,1,0,0:0:0:0:
188,171,15565,6,0,L|177:98,1,65,2|0,0:0|0:0,0:0:0:0:
249,33,15954,1,0,0:0:0:0:
299,111,16148,1,0,0:0:0:0:
149,34,16343,6,0,P|107:67|101:123,1,97.50000371933,0|8,3:0|0:0,0:0:0:0:
154,197,16926,2,0,L|159:238,2,24.3750009298325,0|0|0,0:0|3:0|0:0,0:0:0:0:
174,105,17314,1,0,3:0:0:0:
245,167,17508,2,0,L|239:228,1,48.750001859665,8|0,0:0|0:0,0:0:0:0:
274,301,17897,5,0,3:0:0:0:
365,274,18091,1,0,0:0:0:0:
373,270,18189,1,0,0:0:0:0:
379,267,18286,2,0,L|383:207,1,48.750001859665,8|0,0:0|0:0,0:0:0:0:
367,140,18674,2,0,L|363:80,1,48.750001859665,0|0,0:0|3:0,0:0:0:0:
377,60,18966,1,0,0:0:0:0:
377,60,19063,2,0,P|342:73|310:63,1,48.750001859665,8|0,0:0|0:0,0:0:0:0:
234,39,19452,6,0,L|119:45,1,110.50000210762,0|8,3:0|0:0,0:0:0:0:
99,134,20035,1,0,0:0:0:0:
99,134,20132,1,0,3:0:0:0:
99,134,20229,2,0,L|214:128,1,110.50000210762,0|8,0:0|0:0,0:0:0:0:
284,177,20812,1,0,0:0:0:0:
241,253,21006,6,0,L|161:248,1,55.2500010538101,0|0,3:0|0:0,0:0:0:0:
284,177,21395,2,0,L|364:172,1,55.2500010538101,8|0,0:0|0:0,0:0:0:0:
383,262,21784,2,0,L|303:257,1,55.2500010538101,0|0,3:0|0:0,0:0:0:0:
415,181,22172,2,0,L|495:176,1,55.2500010538101,8|0,0:0|0:0,0:0:0:0:
442,86,22561,6,0,L|304:97,1,130,0|8,3:0|0:0,0:0:0:0:
255,29,23144,1,0,0:0:0:0:
255,29,23241,1,0,3:0:0:0:
255,29,23338,2,0,P|230:59|237:146,1,130,0|8,0:0|0:0,0:0:0:0:
324,184,23921,1,0,0:0:0:0:
266,261,24116,6,0,L|258:343,1,65,0|0,3:0|0:0,0:0:0:0:
177,344,24504,2,0,L|185:262,1,65,8|0,0:0|0:0,0:0:0:0:
168,191,24893,2,0,B|134:168|134:168|43:182,1,130,0|8,0:0|0:0,0:0:0:0:
86,263,25476,1,0,0:0:0:0:
168,191,25670,6,0,L|244:180,1,65,0|0,3:0|3:0,0:0:0:0:
298,101,26059,2,0,L|222:90,1,65,0|0,3:0|3:0,0:0:0:0:
326,188,26447,2,0,L|366:180,3,32.5,0|0|0|0,3:0|0:0|3:0|0:0,0:0:0:0:
373,150,26836,2,0,L|404:156,4,32.5,0|0|0|0|0,3:0|0:0|3:0|0:0|0:0,0:0:0:0:
406,156,28779,6,0,B|414:211|414:211|403:240|403:240|417:311,1,143.000004364014,4|8,3:2|0:0,0:0:0:0:
332,360,29362,1,2,0:0:0:0:
287,255,29557,1,0,0:0:0:0:
287,255,29654,2,0,L|193:250,1,71.5000021820069,2|0,0:0|0:0,0:0:0:0:
159,201,29945,2,0,L|115:211,2,35.7500010910034,8|0|2,0:0|0:0|0:0,0:0:0:0:
300,135,30334,6,0,P|322:85|281:9,1,143.000004364014,0|8,3:0|0:0,0:0:0:0:
232,80,30917,1,2,0:0:0:0:
235,180,31111,1,0,0:0:0:0:
235,180,31208,2,0,P|264:209|319:209,1,71.5000021820069,2|0,0:0|0:0,0:0:0:0:
363,186,31500,2,0,L|403:178,2,35.7500010910034,8|0|0,0:0|0:0|0:0,0:0:0:0:
292,215,31889,6,0,L|137:238,1,143.000004364014,0|8,3:0|0:0,0:0:0:0:
65,282,32472,1,2,0:0:0:0:
84,192,32666,1,0,0:0:0:0:
84,192,32763,2,0,B|100:169|100:169|84:84,1,107.25000327301,2|8,0:0|0:0,0:0:0:0:
180,38,33249,1,2,0:0:0:0:
180,38,33346,1,0,0:0:0:0:
180,38,33443,6,0,L|196:149,1,107.25000327301,0|0,3:0|0:0,0:0:0:0:
187,162,33832,2,0,L|277:149,1,71.5000021820069,0|2,0:0|0:0,0:0:0:0:
277,137,34123,1,0,3:0:0:0:
277,137,34220,2,0,L|356:143,1,71.5000021820069,0|0,0:0|0:0,0:0:0:0:
425,184,34609,1,8,0:0:0:0:
359,237,34803,1,0,0:0:0:0:
443,289,34998,6,0,P|416:339|312:323,1,143.000004364014,4|8,3:2|0:0,0:0:0:0:
257,270,35581,1,2,0:0:0:0:
171,349,35775,1,0,0:0:0:0:
171,349,35872,2,0,B|175:308|175:308|159:260,1,71.5000021820069,2|0,0:0|0:0,0:0:0:0:
109,225,36164,2,0,L|58:230,2,35.7500010910034,8|0|2,0:0|0:0|0:0,0:0:0:0:
210,165,36552,6,0,B|269:164|269:164|290:151|290:151|359:157,1,143.000004364014,0|8,3:0|0:0,0:0:0:0:
414,223,37135,1,2,0:0:0:0:
481,145,37330,1,0,0:0:0:0:
481,145,37427,2,0,P|495:107|485:71,1,71.5000021820069,2|0,0:0|0:0,0:0:0:0:
426,23,37718,1,8,0:0:0:0:
350,71,37913,1,0,0:0:0:0:
262,25,38107,6,0,P|245:57|268:127,1,104,0|0,3:0|0:0,0:0:0:0:
334,171,38690,1,0,0:0:0:0:
334,171,38787,1,0,0:0:0:0:
334,171,38884,2,0,L|328:249,1,65,8|0,0:0|0:0,0:0:0:0:
233,268,39273,2,0,L|228:203,1,65,0|0,0:0|0:0,0:0:0:0:
168,138,39662,6,0,B|142:164|142:164|63:157,2,97.5,0|0|0,3:0|3:0|3:0,0:0:0:0:
205,49,40439,1,8,0:0:0:0:
205,49,40925,2,0,P|246:47|289:74,1,65,0|2,3:0|0:0,0:0:0:0:
267,55,41216,6,0,B|308:80|308:80|401:64,1,130,4|8,3:2|0:0,0:0:0:0:
466,117,41799,1,0,0:0:0:0:
466,117,41896,2,0,P|477:164|457:212,1,97.5,0|0,3:0|3:0,0:0:0:0:
383,252,42382,1,8,0:0:0:0:
324,189,42576,1,2,0:0:0:0:
254,247,42771,6,0,L|248:318,1,65,0|0,3:0|0:0,0:0:0:0:
164,323,43159,2,0,L|170:252,1,65,8|0,0:0|0:0,0:0:0:0:
146,186,43548,2,0,B|113:199|105:222|105:222|66:193|9:218,1,130,2|8,0:0|0:0,0:0:0:0:
56,295,44131,1,0,0:0:0:0:
34,209,44325,6,0,L|31:107,1,97.5,0|0,3:0|0:0,0:0:0:0:
45,38,44714,2,0,P|84:53|101:87,1,65,8|0,0:0|0:0,0:0:0:0:
181,107,45103,1,2,0:0:0:0:
181,107,45200,2,0,B|214:128|214:128|288:111,1,97.5,0|8,0:0|0:0,0:0:0:0:
357,61,45686,1,0,0:0:0:0:
366,71,45783,1,0,0:0:0:0:
376,80,45880,6,0,L|374:168,1,65,0|0,3:0|0:0,0:0:0:0:
381,162,46172,1,0,0:0:0:0:
387,172,46269,2,0,L|390:254,1,65,8|0,0:0|0:0,0:0:0:0:
383,258,46560,1,0,3:0:0:0:
374,271,46657,2,0,L|286:264,1,65,0|0,0:0|0:0,0:0:0:0:
248,206,47046,2,0,L|252:162,2,32.5,8|0|0,0:0|0:0|0:0,0:0:0:0:
233,316,47435,6,0,B|180:309|180:309|159:320|159:320|101:318,1,130,0|8,3:0|0:0,0:0:0:0:
32,277,48018,1,0,0:0:0:0:
114,221,48212,2,0,L|121:150,1,65,2|0,0:0|3:0,0:0:0:0:
22,114,48601,2,0,L|29:179,1,65,8|2,0:0|0:0,0:0:0:0:
18,24,48989,6,0,B|59:23|90:59|90:59|104:44|144:38,1,130,0|8,3:0|0:0,0:0:0:0:
208,88,49572,1,0,0:0:0:0:
290,37,49767,2,0,L|369:29,1,65,2|0,0:0|3:0,0:0:0:0:
387,109,50155,2,0,L|308:117,1,65,8|2,0:0|0:0,0:0:0:0:
239,170,50544,6,0,P|220:209|243:272,1,97.5,0|0,3:0|0:0,0:0:0:0:
232,259,50932,2,0,B|257:248|257:248|306:256,1,65,8|0,0:0|0:0,0:0:0:0:
228,348,51321,1,0,0:0:0:0:
228,348,51418,2,0,L|136:338,1,65,0|0,0:0|0:0,0:0:0:0:
92,364,51710,2,0,P|88:329|108:291,1,65,8|0,0:0|0:0,0:0:0:0:
139,221,52098,6,0,L|132:142,1,65,8|0,0:0|3:0,0:0:0:0:
130,137,52390,1,0,3:0:0:0:
128,122,52487,1,0,0:0:0:0:
239,93,52681,2,0,L|232:172,1,65,8|0,0:0|3:0,0:0:0:0:
230,177,52973,1,0,3:0:0:0:
228,192,53070,1,0,0:0:0:0:
278,269,53264,1,8,0:0:0:0:
332,204,53459,1,8,0:0:0:0:
397,289,53653,6,0,P|435:292|474:207,1,130,4|0,3:2|0:0,0:0:0:0:
434,144,54236,1,0,0:0:0:0:
434,144,54333,1,0,0:0:0:0:
434,144,54430,2,0,L|426:73,1,65,8|0,0:0|0:0,0:0:0:0:
355,30,54819,2,0,L|347:94,1,65,0|0,0:0|0:0,0:0:0:0:
280,146,55208,6,0,P|230:122|147:138,1,130,0|0,0:0|0:0,0:0:0:0:
81,184,55791,1,0,0:0:0:0:
81,184,55888,1,0,3:0:0:0:
81,184,55985,2,0,L|77:264,1,65,8|0,0:0|3:0,0:0:0:0:
93,267,56276,1,0,0:0:0:0:
115,280,56374,2,0,P|146:268|190:274,1,65,0|0,0:0|0:0,0:0:0:0:
256,322,56762,6,0,B|301:315|301:315|330:325|330:325|400:316,1,130,0|0,3:0|0:0,0:0:0:0:
448,240,57345,1,0,3:0:0:0:
453,224,57442,1,0,3:0:0:0:
458,209,57540,2,0,B|439:166|439:166|446:112,2,97.5,8|0|0,0:0|0:0|0:0,0:0:0:0:
347,204,58317,6,0,B|308:213|308:213|243:195,2,97.5,0|0|0,3:0|3:0|3:0,0:0:0:0:
354,114,59094,2,0,L|363:75,3,32.5,8|0|0|0,0:0|3:0|3:0|0:0,0:0:0:0:
373,44,59483,2,0,L|263:55,1,97.5,8|0,0:0|0:0,0:0:0:0:
257,33,59871,1,2,0:0:0:0:
257,33,60260,6,0,L|248:106,1,65,0|0,3:0|0:0,0:0:0:0:
174,114,60552,1,0,0:0:0:0:
174,114,60649,2,0,L|183:41,1,65,8|0,0:0|0:0,0:0:0:0:
89,90,61037,1,0,0:0:0:0:
101,169,61232,1,0,0:0:0:0:
180,200,61426,6,0,L|334:178,1,130,0|0,0:0|0:0,0:0:0:0:
395,205,62009,1,0,0:0:0:0:
402,215,62106,1,0,3:0:0:0:
409,222,62203,2,0,B|413:260|413:260|400:308,1,65,8|0,0:0|3:0,0:0:0:0:
315,326,62592,2,0,B|311:288|311:288|324:240,1,65,0|0,0:0|0:0,0:0:0:0:
375,134,62981,6,0,P|340:105|251:118,1,130,0|0,0:0|0:0,0:0:0:0:
202,180,63564,1,0,3:0:0:0:
199,192,63661,1,0,3:0:0:0:
196,204,63758,2,0,B|203:255|203:255|188:308,2,97.5,8|0|0,0:0|0:0|0:0,0:0:0:0:
136,133,64535,2,0,B|123:91|123:91|132:33,2,97.5,0|0|0,3:0|3:0|3:0,0:0:0:0:
235,119,65313,6,0,P|268:104|321:116,1,65,8|0,0:0|3:0,0:0:0:0:
343,168,65604,6,0,P|310:183|257:171,1,65,8|0,0:0|3:0,0:0:0:0:
368,96,65896,6,0,L|415:100,1,32.5,8|8,0:0|0:0,0:0:0:0:
456,146,66090,5,0,3:0:0:0:
464,152,66673,1,0,0:0:0:0:
464,152,66770,1,0,0:0:0:0:
464,152,66867,2,0,B|475:201|475:201|462:254,1,97.50000371933,0|0,0:0|0:0,0:0:0:0:
330,274,67644,6,0,L|219:266,1,97.50000371933,0|0,0:0|0:0,0:0:0:0:
93,188,68422,2,0,L|85:127,1,48.750001859665,0|0,0:0|0:0,0:0:0:0:
161,95,68810,2,0,L|169:156,1,48.750001859665,0|0,0:0|0:0,0:0:0:0:
230,189,69199,6,0,L|341:197,1,97.50000371933,0|0,0:0|0:0,0:0:0:0:
403,160,69782,1,0,0:0:0:0:
403,160,69879,1,0,0:0:0:0:
403,160,69976,2,0,P|375:120|315:105,1,97.50000371933,0|0,0:0|0:0,0:0:0:0:
299,297,70754,2,0,L|359:289,2,48.750001859665,0|0|0,0:0|0:0|0:0,0:0:0:0:
217,329,71337,2,0,B|179:318|179:318|164:305|164:305|119:303,1,97.50000371933,0|0,0:0|0:0,0:0:0:0:
45,254,71920,2,0,L|40:214,3,24.3750009298325,0|0|0|0,0:0|0:0|0:0|0:0,0:0:0:0:
30,204,72308,6,0,L|41:90,1,97.50000371933,0|0,0:0|0:0,0:0:0:0:
118,42,72891,1,0,0:0:0:0:
118,42,72988,1,0,0:0:0:0:
118,42,73086,2,0,P|148:33|200:69,1,97.50000371933,0|0,0:0|0:0,0:0:0:0:
220,272,73863,6,0,P|197:250|202:187,1,97.50000371933
400,62,74640,1,0,0:0:0:0:
333,158,74835,1,0,0:0:0:0:
323,81,75029,1,0,0:0:0:0:
408,141,75223,1,0,0:0:0:0:
357,237,75417,6,0,L|353:305,1,58.4999982147217,0|0,3:0|3:0,0:0:0:0:
271,300,75806,2,0,L|275:232,1,58.4999982147217,0|0,3:0|3:0,0:0:0:0:
196,213,76195,2,0,L|192:281,1,58.4999982147217,0|0,3:0|3:0,0:0:0:0:
112,295,76583,2,0,L|116:227,1,58.4999982147217,0|0,3:0|3:0,0:0:0:0:
54,157,76972,6,0,P|52:142|45:118,3,29.2499991073609,0|0|0|0,3:0|3:0|3:0|3:0,0:0:0:0:
24,115,77361,2,0,P|30:93|33:76,3,29.2499991073609,0|0|0|0,3:0|3:0|3:0|3:0,0:0:0:0:
28,48,77749,2,0,B|43:53|43:53|68:52,3,29.2499991073609,0|0|0|0,3:0|3:0|3:0|3:0,0:0:0:0:
97,41,78138,2,0,B|112:40|112:40|124:46,3,29.2499991073609,0|0|0|0,3:0|3:0|3:0|3:0,0:0:0:0:
152,80,78527,6,0,B|193:91|193:91|261:70,1,87.7499973220826,0|0,3:0|0:0,0:0:0:0:
269,64,78915,2,0,P|266:94|284:124,1,58.4999982147217,0|0,0:0|0:0,0:0:0:0:
359,158,79304,2,0,L|403:153,2,29.2499991073609,0|0|0,0:0|0:0|0:0,0:0:0:0:
291,214,79693,2,0,L|212:209,1,58.4999982147217,0|0,0:0|0:0,0:0:0:0:
136,154,80081,5,2,0:0:0:0:
136,154,80470,2,0,L|120:271,1,97.5,0|0,0:0|0:0,0:0:0:0:
102,281,80859,2,0,P|145:268|201:318,1,97.5,0|0,0:0|0:0,0:0:0:0:
205,322,81247,6,0,L|260:318,1,32.5,2|2,0:0|0:0,0:0:0:0:
316,296,81442,6,0,L|348:298,1,32.5,2|0,0:0|0:0,0:0:0:0:
399,356,81636,6,0,P|422:318|393:237,1,130,4|8,3:2|0:0,0:0:0:0:
317,201,82219,1,2,0:0:0:0:
317,201,82316,2,0,B|303:168|303:168|310:103,1,97.5,0|0,3:0|3:0,0:0:0:0:
414,60,82802,2,0,L|403:130,1,65,8|2,0:0|0:0,0:0:0:0:
309,106,83191,6,0,L|298:41,1,65,2|0,3:2|0:0,0:0:0:0:
224,32,83482,1,0,0:0:0:0:
224,32,83579,2,0,L|234:96,1,65,8|2,0:0|0:0,0:0:0:0:
219,134,83871,2,0,P|176:126|121:157,1,97.5,0|0,3:0|3:0,0:0:0:0:
88,219,84356,1,8,0:0:0:0:
163,262,84551,1,2,0:0:0:0:
94,319,84745,6,0,P|126:348|219:333,1,130,2|8,3:2|0:0,0:0:0:0:
327,275,85328,1,2,0:0:0:0:
331,307,85425,1,0,3:0:0:0:
336,339,85522,1,2,0:0:0:0:
412,271,85717,1,0,3:0:0:0:
412,271,85911,2,0,L|407:313,3,32.5,8|0|2|0,0:0|0:0|0:0|0:0,0:0:0:0:
412,271,86300,6,0,P|420:242|405:188,1,65,2|0,3:2|0:0,0:0:0:0:
414,176,86591,1,0,0:0:0:0:
407,143,86688,2,0,P|398:110|400:70,1,65,8|2,0:0|0:0,0:0:0:0:
400,46,86980,1,0,3:0:0:0:
389,35,87077,2,0,P|355:29|313:39,1,65,2|0,0:0|0:0,0:0:0:0:
261,106,87466,2,0,P|229:110|197:104,1,65,10|0,0:0|3:0,0:0:0:0:
103,18,87854,6,0,L|91:158,1,130,4|8,3:2|0:0,0:0:0:0:
137,246,88437,1,2,0:0:0:0:
137,246,88534,2,0,B|163:221|163:221|237:235,1,97.5,0|0,3:0|3:0,0:0:0:0:
293,302,89020,2,0,L|364:296,1,65,8|2,0:0|0:0,0:0:0:0:
406,218,89409,6,0,L|314:225,1,65,2|0,3:2|0:0,0:0:0:0:
301,153,89700,1,0,0:0:0:0:
301,153,89798,6,0,L|393:146,1,65,8|2,0:0|0:0,0:0:0:0:
393,136,90089,2,0,B|410:98|410:98|390:32,1,97.5,0|0,3:0|3:0,0:0:0:0:
305,22,90575,1,8,0:0:0:0:
246,90,90769,1,2,0:0:0:0:
167,26,90964,6,0,L|154:186,1,130,0|8,3:0|0:0,0:0:0:0:
183,238,91547,1,2,0:0:0:0:
189,250,91644,1,0,3:0:0:0:
195,259,91741,2,0,L|192:320,3,32.5,2|0|0|0,0:0|0:0|3:0|0:0,0:0:0:0:
275,222,92129,2,0,L|273:189,3,32.5,10|0|0|2,0:0|0:0|0:0|0:0,0:0:0:0:
245,148,92518,5,0,3:0:0:0:
245,148,92615,2,0,B|286:169|286:169|353:149,1,97.5,8|8,0:0|0:0,0:0:0:0:
431,239,93101,1,0,3:0:0:0:
431,239,93198,1,8,0:0:0:0:
431,239,93295,2,0,B|390:218|390:218|323:238,2,97.5,8|8|8,0:0|0:0|0:0,0:0:0:0:
337,324,94073,6,0,L|245:311,1,65,4|0,3:2|0:0,0:0:0:0:
219,254,94364,1,0,0:0:0:0:
219,254,94461,2,0,L|154:263,1,65,8|2,0:0|0:0,0:0:0:0:
115,298,94753,2,0,B|129:260|129:260|106:177,1,97.5,0|0,3:0|3:0,0:0:0:0:
36,151,95239,2,0,L|47:68,1,65,8|2,0:0|0:0,0:0:0:0:
133,43,95627,6,0,P|164:64|253:37,1,130,2|8,3:2|0:0,0:0:0:0:
347,26,96210,1,2,0:0:0:0:
347,26,96307,2,0,B|364:49|364:49|358:117,1,97.5,0|0,3:0|3:0,0:0:0:0:
295,186,96793,2,0,P|283:222|295:260,1,65,8|2,0:0|0:0,0:0:0:0:
422,276,97182,6,0,B|452:244|452:244|353:226,1,130,0|8,3:0|0:0,0:0:0:0:
345,317,97765,1,2,0:0:0:0:
345,317,97862,1,0,3:0:0:0:
345,317,97959,2,0,L|252:334,1,65,2|0,0:0|3:0,0:0:0:0:
183,319,98348,2,0,L|139:316,3,32.5,8|0|2|0,0:0|0:0|0:0|0:0,0:0:0:0:
119,328,98737,6,0,P|130:277|114:245,1,65,2|0,3:2|0:0,0:0:0:0:
125,240,99028,1,0,0:0:0:0:
114,217,99125,2,0,P|101:178|111:140,1,65,8|2,0:0|0:0,0:0:0:0:
127,129,99417,1,0,3:0:0:0:
150,118,99514,2,0,L|224:124,1,65,2|0,0:0|3:0,0:0:0:0:
288,65,99903,2,0,L|336:62,1,32.5,10|0,0:0|0:0,0:0:0:0:
394,36,100097,2,0,L|430:67,1,32.5,2|0,0:0|0:0,0:0:0:0:
492,103,100291,6,0,P|464:135|371:129,1,130,0|8,3:0|0:0,0:0:0:0:
320,62,100874,1,0,0:0:0:0:
320,62,100971,1,0,3:0:0:0:
320,62,101068,2,0,L|236:60,1,65,0|0,0:0|3:0,0:0:0:0:
164,142,101457,1,8,0:0:0:0:
155,56,101651,1,0,0:0:0:0:
242,153,101846,6,0,P|225:195|130:209,1,130,0|8,3:0|0:0,0:0:0:0:
58,180,102429,1,0,0:0:0:0:
61,167,102526,1,0,3:0:0:0:
64,157,102623,2,0,L|84:78,1,65,0|0,0:0|0:0,0:0:0:0:
179,78,103012,2,0,L|159:157,1,65,8|0,0:0|0:0,0:0:0:0:
150,219,103400,6,0,L|154:266,3,32.5,0|0|0|0,3:0|0:0|3:0|0:0,0:0:0:0:
228,276,103789,2,0,L|230:243,3,32.5,0|0|0|0,3:0|0:0|3:0|0:0,0:0:0:0:
310,290,104178,2,0,L|307:257,3,32.5,0|0|0|0,3:0|0:0|3:0|0:0,0:0:0:0:
390,313,104566,2,0,L|443:306,1,32.5,0|0,3:0|0:0,0:0:0:0:
460,236,104761,1,0,3:0:0:0:
443,229,104858,1,0,3:0:0:0:
456,212,104955,6,0,B|468:185|468:185|431:149|451:81,1,130,0|0,3:0|0:0,0:0:0:0:
448,91,106510,6,0,P|415:108|350:80,1,97.5,4|0,3:2|0:0,0:0:0:0:
284,54,106898,2,0,L|290:13,4,21.6666666666667,2|0|0|2|0,0:0|0:0|0:0|0:0|0:0,0:0:0:0:
240,127,107287,2,0,B|234:157|234:157|246:197,1,65,8|2,0:0|0:0,0:0:0:0:
259,209,107578,1,0,0:0:0:0:
280,225,107676,2,0,L|348:217,1,65,0|0,0:0|0:0,0:0:0:0:
272,312,108064,6,0,B|183:293|183:293|195:328,1,116.999996429443,0|0,3:0|0:0,0:0:0:0:
191,317,108453,2,0,L|138:329,2,32.5,2|0|0,0:0|0:0|3:0,0:0:0:0:
178,214,108841,2,0,L|167:136,1,65,8|0,0:0|0:0,0:0:0:0:
107,74,109230,1,8,0:0:0:0:
168,149,109424,6,0,B|208:148|208:148|224:142|224:142|269:148,1,97.5,4|0,3:2|0:0,0:0:0:0:
322,204,109813,2,0,L|314:247,2,32.5,0|0|0,3:0|0:0|0:0,0:0:0:0:
375,136,110202,1,0,0:0:0:0:
372,121,110299,1,0,3:0:0:0:
373,106,110396,2,0,L|376:33,1,65,10|0,0:0|0:0,0:0:0:0:
476,101,110785,2,0,L|468:157,3,32.5,0|0|2|2,0:0|0:0|0:0|0:0,0:0:0:0:
461,160,111173,6,0,B|445:197|445:197|459:245,1,65,0|0,3:0|0:0,0:0:0:0:
431,315,111465,6,0,B|406:282|406:282|358:270,1,65,0|0,3:0|0:0,0:0:0:0:
330,203,111756,6,0,L|378:196,1,32.5,0|0,3:0|0:0,0:0:0:0:
304,283,111951,6,0,L|189:275,1,97.5,8|8,0:0|0:0,0:0:0:0:
128,320,112437,6,0,P|115:276|132:240,1,65,8|0,0:0|0:0,0:0:0:0:
125,237,112728,2,0,L|117:177,2,32.5,0|0|0,3:0|0:0|0:0,0:0:0:0:
183,148,113117,6,0,B|201:78|201:78|168:93,1,97.5,4|0,3:2|0:0,0:0:0:0:
158,80,113505,1,8,0:0:0:0:
273,94,113700,2,0,B|325:89|325:89|351:99|351:99|418:89,1,130,2|0,0:0|0:0,0:0:0:0:
358,252,114283,6,0,B|343:252|328:263|328:263|348:197|310:159,1,130,0|0,3:0|0:0,0:0:0:0:
249,225,114866,1,0,3:0:0:0:
256,316,115060,2,0,P|290:347|328:342,1,65,8|8,0:0|0:0,0:0:0:0:
182,280,115449,2,0,B|169:289|146:283|146:283|137:296|137:296|117:279|80:296,1,97.5,0|0,3:0|0:0,0:0:0:0:
70,300,115837,6,0,B|89:266|89:266|76:181,1,97.5,4|0,3:2|3:0,0:0:0:0:
25,52,116420,1,8,0:0:0:0:
28,64,116517,1,0,0:0:0:0:
34,76,116615,2,0,L|140:65,1,97.5,4|0,3:2|3:0,0:0:0:0:
276,136,117197,1,8,0:0:0:0:
273,148,117295,1,0,0:0:0:0:
267,160,117392,2,0,L|161:149,1,97.5,4|0,3:2|0:0,0:0:0:0:
161,177,117780,1,8,0:0:0:0:
210,277,117975,5,4,3:1:0:0:
256,192,118072,12,0,121278,0:0:0:0:
