osu file format v14

[General]
AudioFilename: audio.mp3
AudioLeadIn: 0
PreviewTime: 80470
Countdown: 0
SampleSet: Soft
StackLeniency: 0.2
Mode: 0
LetterboxInBreaks: 0
WidescreenStoryboard: 1

[Editor]
Bookmarks: 3905,16341,28776,41211,53646,66081,77740,78517,81626,94061,104942,106496,117960
DistanceSpacing: 0.3
BeatDivisor: 8
GridSize: 4
TimelineZoom: 2.3

[Metadata]
Title:Towards The Horizon
TitleUnicode:Towards The Horizon
Artist:Camellia
ArtistUnicode:かめりあ
Creator:Pho
Version:Chaoz's Extra
Source:REFLEC BEAT 悠久のリフレシア
Tags:RB Illusiya イルシヤ 6th KONAMI Arcade Championship KAC bemani The Reflesia of Eternity asaiga underdogs yauxo sahuang chaoslitz chaoz
BeatmapID:1501737
BeatmapSetID:636393

[Difficulty]
HPDrainRate:5
CircleSize:3.8
OverallDifficulty:8
ApproachRate:9.5
SliderMultiplier:3
SliderTickRate:1

[Events]
//Background and Video events
0,0,"kaitan.jpg",0,0
//Break Periods
//Storyboard Layer 0 (Background)
//Storyboard Layer 1 (Fail)
//Storyboard Layer 2 (Pass)
//Storyboard Layer 3 (Foreground)
//Storyboard Sound Samples

[TimingPoints]
797,388.65103626943,4,2,2,40,1,0
2157,-133.333333333333,4,2,2,40,0,0
2351,-166.666666666667,4,2,2,40,0,0
2837,-166.666666666667,4,2,2,10,0,0
2934,-166.666666666667,4,2,2,40,0,0
3517,-100,4,2,2,40,0,0
3711,-100,4,2,2,40,0,0
3905,-133.333333333333,4,2,2,40,0,0
4925,-133.333333333333,4,2,2,10,0,0
5071,-133.333333333333,4,2,2,40,0,0
5120,-133.333333333333,4,2,2,10,0,0
5265,-133.333333333333,4,2,2,40,0,0
5412,-133.333333333333,4,2,2,10,0,0
5460,-133.333333333333,4,2,2,40,0,0
6237,-166.666666666667,4,2,2,40,0,0
6528,-111.111111111111,4,2,2,40,0,0
7014,-133.333333333333,4,2,2,40,0,0
8374,-166.666666666667,4,2,2,40,0,0
8569,-133.333333333333,4,2,2,40,0,0
9929,-166.666666666667,4,2,2,40,0,0
10076,-166.666666666667,4,2,2,10,0,0
10123,-133.333333333333,4,2,2,40,0,0
11143,-133.333333333333,4,2,2,10,0,0
11289,-133.333333333333,4,2,2,40,0,0
11337,-133.333333333333,4,2,2,10,0,0
11483,-133.333333333333,4,2,2,40,0,0
12455,-111.111111111111,4,2,2,40,0,0
12649,-125,4,2,2,40,0,0
13232,-133.333333333333,4,2,2,40,0,0
14592,-166.666666666667,4,2,2,40,0,0
14786,-133.333333333333,4,2,2,40,0,0
16341,-153.846153846154,4,2,2,60,0,0
17506,-300,4,2,2,60,0,0
17895,-153.846153846154,4,2,2,60,0,0
18284,-200,4,2,2,60,0,0
18672,-153.846153846154,4,2,2,60,0,0
20615,-250,4,2,2,60,0,0
21004,-153.846153846154,4,2,2,60,0,0
22558,-153.846153846154,4,2,2,60,0,0
23724,-300,4,2,2,60,0,0
24113,-153.846153846154,4,2,2,60,0,0
24501,-133.333333333333,4,2,2,60,0,0
25278,-117.647058823529,4,2,2,60,0,0
26056,-117.647058823529,4,2,2,70,0,0
26444,-117.647058823529,4,2,2,80,0,0
26833,-117.647058823529,4,2,2,85,0,0
28779,-55.5555555555556,4,2,2,90,0,1
28877,-100,4,2,2,90,0,1
29164,-66.6666666666667,4,2,2,90,0,1
31496,-83.3333333333333,4,2,2,90,0,1
31885,-66.6666666666667,4,2,2,90,0,1
33245,-90.9090909090909,4,2,2,90,0,1
33439,-83.3333333333333,4,2,2,90,0,1
34022,-100,4,2,2,90,0,1
34799,-200,4,2,2,90,0,1
34993,-66.6666666666667,4,2,2,90,0,1
37714,-83.3333333333333,4,2,2,90,0,1
38491,-100,4,2,2,90,0,1
38685,-133.333333333333,4,2,0,90,0,1
38734,-133.333333333333,4,2,2,90,0,1
38879,-100,4,2,2,90,0,1
39268,-66.6666666666667,4,2,2,90,0,1
39657,-133.333333333333,4,2,2,90,0,1
39851,-83.3333333333333,4,2,2,90,0,1
40434,-66.6666666666667,4,2,2,90,0,1
40920,-100,4,2,2,90,0,1
41017,-133.333333333333,4,2,2,90,0,1
41216,-83.3333333333333,4,2,2,80,0,0
42571,-133.333333333333,4,2,2,80,0,0
42765,-83.3333333333333,4,2,2,80,0,0
43543,-133.333333333333,4,2,2,80,0,0
43931,-83.3333333333333,4,2,2,80,0,0
44708,-66.6666666666667,4,2,2,80,0,0
44903,-133.333333333333,4,2,0,80,0,0
44951,-133.333333333333,4,2,2,80,0,0
45486,-100,4,2,2,80,0,0
45680,-133.333333333333,4,2,2,80,0,0
45874,-83.3333333333333,4,2,2,80,0,0
46457,-200,4,2,2,80,0,0
46846,-133.333333333333,4,2,2,80,0,0
47234,-200,4,2,2,80,0,0
47429,-83.3333333333333,4,2,2,80,0,0
48789,-133.333333333333,4,2,2,80,0,0
48983,-133.333333333333,4,2,2,80,0,0
50149,-83.3333333333333,4,2,2,80,0,0
50926,-66.6666666666667,4,2,2,80,0,0
51120,-133.333333333333,4,2,0,80,0,0
51169,-133.333333333333,4,2,2,80,0,0
51703,-100,4,2,2,80,0,0
52092,-83.3333333333333,4,2,2,80,0,0
52480,-133.333333333333,4,2,2,80,0,0
52675,-83.3333333333333,4,2,2,80,0,0
52869,-133.333333333333,4,2,2,80,0,0
53258,-83.3333333333333,4,2,2,80,0,0
53646,-200,4,2,2,60,0,0
54423,-133.333333333333,4,2,2,60,0,0
55201,-100,4,2,2,60,0,0
55978,-83.3333333333333,4,2,2,60,0,0
56366,-133.333333333333,4,2,2,60,0,0
56561,-100,4,2,2,60,0,0
57921,-133.333333333333,4,2,2,60,0,0
59281,-200,4,2,2,60,0,0
59475,-133.333333333333,4,2,2,60,0,0
59864,-200,4,2,2,60,0,0
60252,-133.333333333333,4,2,2,60,0,0
60641,-133.333333333333,4,2,2,60,0,0
61613,-100,4,2,2,60,0,0
61710,-100,4,2,2,60,0,0
62195,-83.3333333333333,4,2,2,60,0,0
62584,-133.333333333333,4,2,2,60,0,0
62778,-83.3333333333333,4,2,2,60,0,0
63750,-100,4,2,2,60,0,0
64138,-133.333333333333,4,2,2,60,0,0
64527,-100,4,2,2,60,0,0
64916,-133.333333333333,4,2,2,60,0,0
65110,-133.333333333333,4,2,2,60,0,0
65304,-83.3333333333333,4,2,2,60,0,0
66081,-200,4,2,2,50,0,0
66567,-200,4,2,2,10,0,0
66664,-200,4,2,2,50,0,0
75408,-133.333333333333,4,2,2,40,0,0
76962,-133.333333333333,4,2,2,60,0,0
78517,-166.666666666667,4,2,2,50,0,0
79488,-133.333333333333,4,2,2,60,0,0
80071,-100,4,2,2,60,0,0
80460,-166.666666666667,4,2,2,70,0,0
80848,-100,4,2,2,70,0,0
81237,-100,4,2,2,80,0,0
81636,-83.3333333333333,4,2,2,90,0,1
82403,-76.9230769230769,4,2,2,90,0,1
83180,-66.6666666666667,4,2,2,90,0,1
84346,-76.9230769230769,4,2,2,90,0,1
84540,-100,4,2,2,90,0,1
84734,-83.3333333333333,4,2,2,90,0,1
85512,-76.9230769230769,4,2,2,90,0,1
87066,-100,4,2,2,90,0,1
87455,-166.666666666667,4,2,2,90,0,1
87843,-83.3333333333333,4,2,2,90,0,1
88620,-76.9230769230769,4,2,2,90,0,1
89398,-66.6666666666667,4,2,2,90,0,1
90952,-50,4,2,2,90,0,1
91341,-50,4,2,2,90,0,1
92118,-40,4,2,2,90,0,1
92895,-66.6666666666667,4,2,2,90,0,1
93575,-83.3333333333333,4,2,2,90,0,1
93976,-83.3333333333333,4,2,2,90,0,0
94073,-83.3333333333333,4,2,2,90,0,1
94838,-76.9230769230769,4,2,2,90,0,1
95615,-66.6666666666667,4,2,2,90,0,1
96781,-76.9230769230769,4,2,2,90,0,1
96975,-100,4,2,2,90,0,1
97558,-83.3333333333333,4,2,2,90,0,1
97947,-76.9230769230769,4,2,2,90,0,1
99598,-100,4,2,2,90,0,1
100278,-181.818181818182,4,2,2,60,0,1
102999,-153.846153846154,4,2,2,60,0,1
103387,-100,4,2,2,60,0,1
103581,-100,4,2,2,65,0,1
103776,-100,4,2,2,70,0,1
103970,-100,4,2,2,75,0,1
104164,-100,4,2,2,80,0,1
104359,-100,4,2,2,85,0,1
104553,-100,4,2,2,90,0,1
104747,-100,4,2,2,95,0,1
105052,-100,4,2,2,70,0,0
106107,-166.666666666667,4,2,2,40,0,0
106496,-66.6666666666667,4,2,2,80,0,0
106593,-100,4,2,2,80,0,0
106885,-83.3333333333333,4,2,2,80,0,0
108050,-66.6666666666667,4,2,2,80,0,0
108342,-83.3333333333333,4,2,2,80,0,0
108633,-133.333333333333,4,2,2,80,0,0
108828,-83.3333333333333,4,2,2,80,0,0
109022,-133.333333333333,4,2,0,80,0,0
109070,-133.333333333333,4,2,2,80,0,0
109410,-66.6666666666667,4,2,2,80,0,0
109799,-166.666666666667,4,2,2,80,0,0
109993,-100,4,2,0,80,0,0
110042,-100,4,2,2,80,0,0
110188,-83.3333333333333,4,2,2,80,0,0
110771,-100,4,2,0,80,0,0
111159,-100,4,2,2,80,0,0
112131,-133.333333333333,4,2,2,80,0,0
112325,-200,4,2,2,80,0,0
112811,-200,4,2,0,80,0,0
112908,-133.333333333333,4,2,0,80,0,0
112956,-133.333333333333,4,2,2,80,0,0
113102,-66.6666666666667,4,2,2,80,0,0
113394,-83.3333333333333,4,2,2,80,0,0
114268,-66.6666666666667,4,2,2,80,0,0
114462,-100,4,2,2,80,0,0
114657,-83.3333333333333,4,2,2,80,0,0
114851,-133.333333333333,4,2,2,80,0,0
115045,-83.3333333333333,4,2,2,80,0,0
115434,-66.6666666666667,4,2,2,80,0,0
116114,-100,4,2,2,80,0,0
116308,-83.3333333333333,4,2,2,80,0,0
116600,-83.3333333333333,4,2,2,80,0,0
117960,-83.3333333333333,4,2,0,80,0,0
118057,-100,4,2,2,20,0,0

[Colours]
Combo1 : 223,223,223
Combo2 : 255,47,47
Combo3 : 255,148,40
Combo4 : 254,228,82
Combo5 : 0,255,128
Combo6 : 101,206,233
Combo7 : 210,0,210
Combo8 : 161,161,161

[HitObjects]
81,38,2157,6,0,L|86:92,2,37.5000014305115,2|0|0,0:0|0:0|0:0,0:0:0:0:
81,38,2351,6,0,P|184:49|166:151,1,224.999993133545,2|0,0:3|0:0,0:0:0:0:
159,150,2934,2,0,L|114:154,1,44.999998626709,0|0,0:0|0:0,0:0:0:0:
25,169,3128,5,2,0:0:0:0:
3,197,3226,1,0,0:0:0:0:
0,232,3323,1,0,0:0:0:0:
12,265,3420,1,0,0:0:0:0:
39,288,3517,5,0,0:0:0:0:
52,286,3614,1,0,0:0:0:0:
65,285,3711,1,0,0:0:0:0:
79,284,3809,1,0,0:0:0:0:
143,234,3906,6,0,L|132:352,1,112.500004291535,2|0,0:0|0:0,0:0:0:0:
129,357,4197,1,0,0:0:0:0:
126,368,4294,5,0,0:0:0:0:
157,336,4392,1,2,0:0:0:0:
199,321,4489,1,0,0:0:0:0:
243,326,4586,1,0,0:0:0:0:
280,351,4683,6,0,L|336:345,1,56.2500021457673,2|0,0:3|0:0,0:0:0:0:
482,251,4877,2,0,L|455:255,1,28.1250010728836,0|0,0:0|0:0,0:0:0:0:
439,360,5072,2,0,L|423:336,1,28.1250010728836,0|0,0:0|0:0,0:0:0:0:
377,177,5266,6,0,L|366:260,1,84.3750032186509,2|0,0:0|0:0,0:0:0:0:
361,255,5460,2,0,L|376:134,1,112.500004291535
382,135,5752,1,0,0:0:0:0:
389,126,5849,5,2,0:0:0:0:
353,152,5946,1,0,0:0:0:0:
308,153,6043,1,0,0:0:0:0:
272,128,6140,1,0,0:0:0:0:
256,87,6238,6,0,L|166:97,1,89.9999972534181,2|0,0:3|0:0,0:0:0:0:
102,52,6529,6,0,B|83:85|92:120|92:120|70:129|70:129|80:148|80:148|51:190|69:231,1,202.499993820191
121,293,6918,1,0,0:0:0:0:
80,222,7015,6,0,P|26:221|-4:264,1,112.500004291535,0|0,0:0|0:0,0:0:0:0:
3,280,7306,1,2,0:0:0:0:
3,280,7404,2,0,L|8:344,1,56.2500021457673,2|0,0:0|0:0,0:0:0:0:
83,366,7598,1,0,0:0:0:0:
198,178,7792,2,0,L|206:291,1,112.500004291535,2|0,0:3|0:0,0:0:0:0:
201,306,8084,1,0,0:0:0:0:
201,305,8181,2,0,P|225:293|253:292,1,56.2500021457673,2|0,0:0|0:0,0:0:0:0:
335,330,8375,6,0,L|330:374,1,44.999998626709,0|0,0:0|0:0,0:0:0:0:
499,292,8570,6,0,P|457:258|402:264,1,112.500004291535,2|0,0:3|0:0,0:0:0:0:
330,374,8958,1,0,0:0:0:0:
299,178,9152,1,0,0:0:0:0:
299,178,9250,1,0,0:0:0:0:
299,178,9347,2,0,L|412:170,1,112.500004291535,2|2,0:3|0:0,0:0:0:0:
503,162,9638,1,0,0:0:0:0:
493,147,9735,6,0,L|487:198,2,37.5000014305115,0|2|0,0:0|0:0|0:0,0:0:0:0:
512,65,9930,6,0,P|484:46|450:42,1,67.4999979400635,0|0,0:0|0:0,0:0:0:0:
446,52,10124,6,0,P|400:80|344:68,1,112.500004291535,2|0,0:0|0:0,0:0:0:0:
336,60,10416,1,0,0:0:0:0:
330,50,10513,5,0,0:0:0:0:
299,17,10610,1,2,0:0:0:0:
256,5,10707,1,0,0:0:0:0:
213,18,10804,1,0,0:0:0:0:
184,51,10901,2,0,P|186:78|188:107,1,56.2500021457673,2|0,0:3|0:0,0:0:0:0:
133,211,11096,2,0,L|156:195,1,28.1250010728836,0|0,0:0|0:0,0:0:0:0:
272,190,11290,2,0,L|247:179,1,28.1250010728836,0|0,0:0|0:0,0:0:0:0:
95,125,11484,2,0,P|68:128|40:131,1,56.2500021457673,2|0,0:0|0:0,0:0:0:0:
24,307,11679,5,0,0:0:0:0:
35,287,11776,1,0,0:0:0:0:
40,265,11873,1,0,0:0:0:0:
40,243,11970,1,0,0:0:0:0:
35,222,12067,5,2,0:0:0:0:
5,254,12165,1,0,0:0:0:0:
0,298,12262,1,0,0:0:0:0:
22,336,12359,1,0,0:0:0:0:
62,354,12456,6,0,P|96:349|130:346,1,67.4999979400635,2|0,0:3|0:0,0:0:0:0:
223,148,12650,6,0,B|226:182|212:207|212:207|234:223|234:223|195:248|188:282|188:282|223:315|213:365,1,240,0|0,0:0|0:0,0:0:0:0:
128,346,13136,1,0,0:0:0:0:
212,368,13233,6,0,P|251:331|305:338,1,112.500004291535,0|0,0:0|0:0,0:0:0:0:
316,352,13525,1,2,0:0:0:0:
316,352,13622,2,0,P|343:349|371:346,1,56.2500021457673,2|0,0:0|0:0,0:0:0:0:
451,366,13816,1,0,0:0:0:0:
443,176,14011,2,0,P|436:232|429:288,1,112.500004291535,2|0,0:3|0:0,0:0:0:0:
353,252,14302,1,0,0:0:0:0:
353,252,14399,2,0,P|356:224|360:196,1,56.2500021457673,2|0,0:0|0:0,0:0:0:0:
383,112,14594,6,0,P|365:98|347:85,1,44.999998626709,0|0,0:0|0:0,0:0:0:0:
177,22,14788,6,0,P|155:73|166:128,1,112.500004291535,2|0,0:3|0:0,0:0:0:0:
255,84,15177,1,0,0:0:0:0:
140,224,15371,1,0,0:0:0:0:
145,234,15468,1,0,0:0:0:0:
149,244,15565,2,0,P|141:299|134:355,1,112.500004291535,2|0,0:3|0:0,0:0:0:0:
139,365,15857,5,0,0:0:0:0:
150,346,15954,1,0,0:0:0:0:
168,332,16051,1,0,0:0:0:0:
189,324,16148,1,2,0:0:0:0:
211,325,16245,1,0,0:0:0:0:
232,334,16343,6,0,L|332:326,1,97.4999955368044,2|0,3:2|0:0,0:0:0:0:
410,313,16634,1,0,0:0:0:0:
410,313,16731,2,0,L|399:388,1,48.7499977684022,8|0,0:0|0:0,0:0:0:0:
461,242,16926,2,0,L|508:238,2,32.4999985122681,2|0|0,0:0|0:0|0:0,0:0:0:0:
448,240,17120,5,2,0:3:0:0:
418,202,17217,1,0,0:0:0:0:
423,155,17314,1,0,3:0:0:0:
256,43,17508,6,0,L|263:127,1,75,8|0,0:0|0:0,0:0:0:0:
268,201,17897,5,2,3:0:0:0:
70,237,18091,1,0,0:0:0:0:
79,239,18189,1,0,0:0:0:0:
88,241,18286,2,0,L|128:250,1,37.5,10|0,0:0|0:0,0:0:0:0:
192,164,18480,2,0,L|155:169,1,37.5,0|0,0:0|3:0,0:0:0:0:
93,328,18674,6,0,P|102:350|118:369,1,48.7499977684022,2|0,0:3|0:0,0:0:0:0:
202,283,18869,2,0,L|195:325,2,32.4999985122681,0|0|0,3:0|0:0|0:0,0:0:0:0:
201,270,19063,5,10,0:0:0:0:
347,222,19257,1,0,0:0:0:0:
337,214,19355,1,0,0:0:0:0:
327,206,19452,6,0,L|337:302,1,97.4999955368044,2|0,3:2|0:0,0:0:0:0:
419,328,19743,1,0,0:0:0:0:
419,328,19840,2,0,P|410:350|394:368,1,48.7499977684022,8|0,0:0|0:0,0:0:0:0:
201,270,20035,2,0,L|254:265,1,48.7499977684022,0|0,0:0|3:0,0:0:0:0:
383,139,20229,5,2,0:3:0:0:
339,118,20326,1,0,0:0:0:0:
291,125,20423,1,0,3:0:0:0:
118,232,20618,6,0,P|75:242|34:226,1,90,8|0,0:0|0:0,0:0:0:0:
81,160,21006,5,2,3:0:0:0:
152,368,21201,1,0,0:0:0:0:
160,363,21298,1,0,0:0:0:0:
168,358,21395,2,0,L|264:347,1,97.4999955368044,8|0,0:0|0:0,0:0:0:0:
339,310,21686,2,0,P|347:332|346:357,1,48.7499977684022,0|2,3:0|3:0,0:0:0:0:
201,270,21881,2,0,L|208:208,1,48.7499977684022,0|0,3:0|0:0,0:0:0:0:
92,74,22075,1,0,3:0:0:0:
36,139,22172,2,0,P|59:148|81:160,1,48.7499977684022,8|0,0:0|0:0,0:0:0:0:
176,68,22367,6,0,L|171:35,2,32.4999985122681,0|0|0,0:0|0:0|0:0,0:0:0:0:
175,82,22561,5,2,3:2:0:0:
200,123,22658,1,0,0:0:0:0:
242,144,22755,1,0,0:0:0:0:
290,141,22852,1,0,0:0:0:0:
329,112,22950,2,0,P|354:110|378:107,1,48.7499977684022,8|0,0:0|0:0,0:0:0:0:
499,213,23144,6,0,L|492:251,2,32.4999985122681,2|0|0,0:0|0:0|0:0,0:0:0:0:
495,204,23338,5,2,0:3:0:0:
451,180,23435,1,0,0:0:0:0:
405,187,23533,1,0,3:0:0:0:
214,231,23727,6,0,P|251:231|283:248,1,75,8|0,0:0|0:0,0:0:0:0:
253,324,24116,6,0,P|228:322|206:313,1,48.7499977684022,2|0,3:0|0:0,0:0:0:0:
332,347,24310,5,0,0:0:0:0:
326,361,24407,1,0,0:0:0:0:
319,372,24504,2,0,P|361:337|416:340,1,112.500004291535,10|0,0:0|0:0,0:0:0:0:
491,378,24796,1,0,3:0:0:0:
491,378,24893,2,0,P|495:350|499:322,1,56.2500021457673,2|0,0:3|0:0,0:0:0:0:
495,204,25087,2,0,P|473:186|451:168,1,56.2500021457673,0|0,3:0|0:0,0:0:0:0:
227,151,25282,6,0,P|258:145|289:140,1,63.7500012159348,10|0,0:0|0:0,0:0:0:0:
493,53,25476,2,0,L|485:97,2,42.5000008106232,2|0|0,0:0|0:0|0:0,0:0:0:0:
485,43,25670,5,2,3:2:0:0:
442,17,25767,1,2,0:2:0:0:
394,31,25864,1,2,3:2:0:0:
372,76,25962,1,2,0:2:0:0:
318,140,26059,5,2,3:2:0:0:
275,165,26156,1,2,0:2:0:0:
227,151,26253,1,2,3:2:0:0:
205,106,26350,1,2,0:2:0:0:
219,23,26447,5,2,3:2:0:0:
199,97,26545,1,2,0:2:0:0:
124,77,26642,5,2,3:2:0:0:
144,151,26739,1,2,0:2:0:0:
70,170,26836,5,2,3:2:0:0:
124,224,26933,1,2,0:2:0:0:
69,279,27030,5,2,3:2:0:0:
143,298,27128,1,2,0:2:0:0:
256,192,27225,12,0,28391,0:0:0:0:
381,352,28779,6,0,B|440:323|488:351|488:351|472:306|397:286|359:307|373:397|241:379|215:306,1,404.999987640381,4|0,3:2|0:0,0:0:0:0:
107,265,29168,6,0,B|121:297|121:297|109:394,1,112.500004291535,8|0,0:0|0:0,0:0:0:0:
297,273,29362,2,0,P|251:242|194:249,1,112.500004291535,2|0,0:0|3:0,0:0:0:0:
35,216,29557,1,0,0:0:0:0:
35,216,29654,2,0,P|77:181|132:181,1,112.500004291535,2|0,0:0|3:0,0:0:0:0:
197,248,29848,1,0,0:0:0:0:
290,120,29945,1,8,0:0:0:0:
310,129,30042,1,0,0:0:0:0:
328,143,30140,1,2,0:0:0:0:
341,162,30237,1,0,0:0:0:0:
270,200,30334,6,0,B|191:243|133:181|133:181|151:55|151:55|149:105|176:125,1,337.500012874604,0|0,3:0|0:0,0:0:0:0:
290,29,30723,2,0,P|231:53|255:101,1,112.500004291535,8|0,0:0|0:0,0:0:0:0:
341,162,30917,2,0,B|389:156|389:156|405:162|405:162|451:157,1,112.500004291535,2|0,0:0|3:0,0:0:0:0:
381,352,31111,1,0,0:0:0:0:
381,352,31208,2,0,B|354:301|354:301|366:247,1,112.500004291535,2|0,0:0|3:0,0:0:0:0:
425,70,31403,1,0,0:0:0:0:
425,70,31500,6,0,B|413:57|414:27|414:27|405:56|389:65,1,89.9999972534181,8|0,0:0|0:0,0:0:0:0:
512,9,31694,2,0,B|521:37|500:49|500:49|484:32|498:8,1,89.9999972534181
193,95,31889,6,0,B|268:19|268:19|255:120|255:120|261:138|261:138|251:153|251:153|257:169|257:169|248:183|248:183|240:246,1,337.500012874604,0|0,3:0|0:0,0:0:0:0:
230,323,32277,2,0,B|223:378|223:378|275:354,1,112.500004291535,8|0,0:0|0:0,0:0:0:0:
424,233,32472,2,0,P|377:203|324:215,1,112.500004291535,2|0,0:0|3:0,0:0:0:0:
66,212,32666,1,0,0:0:0:0:
66,212,32763,2,0,P|112:182|165:194,1,112.500004291535,2|0,0:0|3:0,0:0:0:0:
241,241,32957,1,0,0:0:0:0:
265,48,33055,2,0,L|251:159,1,112.500004291535,8|0,0:0|0:0,0:0:0:0:
224,378,33249,6,0,L|230:324,2,55.0000016784668,2|0|0,0:0|0:0|0:0,0:0:0:0:
442,326,33443,6,0,B|446:285|446:285|386:292|386:292|373:282|373:282|311:290,1,179.999994506836,0|2,3:0|0:0,0:0:0:0:
241,241,33735,1,0,0:0:0:0:
58,356,33832,2,0,B|83:353|83:353|95:348|95:348|105:355|105:355|117:349|117:349|143:345,1,89.9999972534181,8|0,0:0|0:0,0:0:0:0:
311,289,34026,5,0,0:0:0:0:
308,312,34123,1,0,3:0:0:0:
306,334,34220,5,2,0:0:0:0:
339,363,34318,1,0,3:0:0:0:
382,371,34415,1,0,0:0:0:0:
423,355,34512,1,0,3:0:0:0:
488,304,34609,5,10,0:0:0:0:
468,273,34706,1,0,3:0:0:0:
465,251,34803,6,0,L|472:187,1,37.5,0|8,0:0|0:0,0:0:0:0:
442,25,34998,6,0,B|442:47|437:68|437:68|451:110|488:121|488:121|399:105|376:217|259:134,1,337.500012874604,4|0,3:2|0:0,0:0:0:0:
195,71,35386,2,0,B|226:68|226:68|235:74|235:74|242:66|242:66|304:59,1,112.500004291535,8|0,0:0|0:0,0:0:0:0:
116,208,35581,2,0,P|63:217|17:186,1,112.500004291535,2|0,0:0|3:0,0:0:0:0:
146,7,35775,5,0,0:0:0:0:
146,7,35872,2,0,L|131:118,1,112.500004291535,2|0,0:0|3:0,0:0:0:0:
116,208,36067,1,0,0:0:0:0:
254,256,36164,1,8,0:0:0:0:
232,259,36261,1,0,0:0:0:0:
210,262,36358,1,2,0:0:0:0:
188,265,36455,1,0,0:0:0:0:
103,298,36552,6,0,B|166:289|166:289|207:361|207:361|222:339|222:339|294:328|294:328|311:309|311:309|331:322|331:322|372:316,1,337.500012874604,0|0,3:0|0:0,0:0:0:0:
474,381,36941,2,0,B|455:353|455:353|472:276,1,112.500004291535,8|0,0:0|0:0,0:0:0:0:
505,178,37135,2,0,P|467:139|413:145,1,112.500004291535,2|0,0:0|3:0,0:0:0:0:
287,230,37330,1,0,0:0:0:0:
287,230,37427,2,0,B|333:223|333:223|348:238|348:238|393:231,1,112.500004291535,2|0,0:0|3:0,0:0:0:0:
432,59,37621,1,0,0:0:0:0:
432,59,37718,6,0,B|399:29|399:29|358:48,1,89.9999972534181,8|0,0:0|0:0,0:0:0:0:
216,114,37913,1,0,0:0:0:0:
220,132,38010,1,0,0:0:0:0:
297,104,38107,6,0,P|185:145|162:28,1,269.999991760254,0|0,1:0|0:0,0:0:0:0:
168,22,38496,6,0,L|249:11,1,75,0|0,1:0|0:0,0:0:0:0:
0,142,38690,6,0,L|55:134,1,56.2500021457673,0|0,3:0|3:0,0:0:0:0:
65,138,38836,1,0,3:0:0:0:
74,141,38884,6,0,B|94:174|94:174|85:210,2,75,8|0|0,0:0|0:0|0:0,0:0:0:0:
58,375,39273,6,0,P|49:273|150:263,1,225.000008583069,0|2,1:0|0:0,0:0:0:0:
212,319,39564,1,0,0:0:0:0:
284,228,39662,6,0,P|257:233|229:238,1,56.2500021457673,0|0,3:0|0:0,0:0:0:0:
287,370,39856,6,0,P|324:315|386:318,1,134.999995880127,4|0,2:3|0:0,0:0:0:0:
395,323,40050,2,0,P|438:329|478:310,1,89.9999972534181,4|0,2:3|0:0,0:0:0:0:
423,233,40245,1,0,3:0:0:0:
426,251,40342,1,0,0:0:0:0:
497,201,40439,5,10,0:0:0:0:
458,161,40536,1,0,0:0:0:0:
403,157,40633,1,0,0:0:0:0:
358,189,40730,1,0,0:0:0:0:
284,228,40828,5,2,0:0:0:0:
278,218,40925,1,0,3:0:0:0:
271,207,41022,2,0,P|275:179|278:151,1,56.2500021457673,0|2,0:0|0:0,0:0:0:0:
162,32,41216,6,0,P|78:25|45:103,1,179.999994506836,4|0,3:2|0:0,0:0:0:0:
78,180,41508,1,0,0:0:0:0:
78,180,41605,2,0,L|167:166,1,89.9999972534181,8|2,0:0|0:0,0:0:0:0:
224,286,41799,5,0,0:0:0:0:
230,297,41896,1,0,3:0:0:0:
236,306,41994,2,0,P|178:369|96:343,1,179.999994506836,2|0,0:0|3:0,0:0:0:0:
23,377,42285,1,0,0:0:0:0:
23,377,42382,2,0,P|16:333|36:291,1,89.9999972534181,8|0,0:0|0:0,0:0:0:0:
167,166,42576,6,0,L|157:225,1,56.2500021457673,2|0,0:0|0:0,0:0:0:0:
351,351,42771,6,0,P|435:358|468:278,1,179.999994506836,0|0,3:0|0:0,0:0:0:0:
400,229,43062,1,0,0:0:0:0:
478,196,43159,5,10,0:0:0:0:
475,179,43257,1,0,0:0:0:0:
495,136,43354,5,0,0:0:0:0:
492,119,43451,1,0,3:0:0:0:
512,76,43548,6,0,L|453:66,2,56.2500021457673,2|0|0,0:0|0:0|3:0,0:0:0:0:
382,107,43840,1,0,0:0:0:0:
448,56,43937,6,0,P|367:25|303:83,1,179.999994506836,8|0,0:0|0:0,0:0:0:0:
188,220,44228,1,0,0:0:0:0:
158,140,44325,6,0,B|222:132|222:132|251:167|251:167|320:160,1,179.999994506836,0|0,1:0|0:0,0:0:0:0:
435,253,44617,1,2,0:0:0:0:
498,208,44714,6,0,P|453:176|399:184,1,112.500004291535,10|0,0:0|0:0,0:0:0:0:
256,319,44908,6,0,L|264:377,1,56.2500021457673,0|0,3:0|0:0,0:0:0:0:
188,220,45103,5,2,0:0:0:0:
188,220,45200,2,0,L|130:228,1,56.2500021457673,0|0,0:0|0:0,0:0:0:0:
256,319,45394,5,2,0:0:0:0:
335,307,45491,2,0,L|419:296,1,75,10|0,0:0|0:0,0:0:0:0:
469,95,45686,6,0,P|466:113|463:132,2,37.5,2|0|0,0:0|0:0|0:0,0:0:0:0:
493,76,45880,6,0,B|401:101|409:26|321:51,1,179.999994506836,2|0,3:2|0:0,0:0:0:0:
257,0,46172,1,0,0:0:0:0:
257,0,46269,2,0,P|238:40|245:84,1,89.9999972534181,8|0,0:0|0:0,0:0:0:0:
352,185,46463,5,2,0:0:0:0:
348,176,46560,1,0,3:0:0:0:
344,166,46657,2,0,P|347:148|350:130,1,37.5
188,220,46852,6,0,L|243:212,1,56.2500021457673,2|0,3:2|0:0,0:0:0:0:
409,297,47046,6,0,L|446:302,2,37.5000014305115,8|2|0,0:0|0:0|0:0,0:0:0:0:
415,312,47240,6,0,L|452:317,1,37.5,0|0,0:0|0:0,0:0:0:0:
327,333,47435,6,0,P|248:303|196:370,1,179.999994506836,0|0,3:0|0:0,0:0:0:0:
116,330,47726,1,0,0:0:0:0:
116,330,47823,2,0,L|26:342,1,89.9999972534181,8|2,0:0|0:0,0:0:0:0:
173,200,48018,5,0,0:0:0:0:
180,210,48115,1,0,3:0:0:0:
188,220,48212,2,0,B|75:235|75:235|98:173,1,179.999994506836,2|0,0:0|3:0,0:0:0:0:
65,98,48503,1,0,0:0:0:0:
65,98,48601,2,0,P|109:91|151:110,1,89.9999972534181,8|0,0:0|0:0,0:0:0:0:
256,19,48795,6,0,P|228:23|200:26,1,56.2500021457673,2|0,0:0|0:0,0:0:0:0:
256,178,48989,5,0,3:0:0:0:
273,175,49086,1,0,0:0:0:0:
316,195,49184,5,0,0:0:0:0:
333,192,49281,1,2,0:0:0:0:
409,216,49378,5,8,0:0:0:0:
436,168,49475,1,0,0:0:0:0:
420,116,49572,1,0,0:0:0:0:
371,92,49669,1,0,3:0:0:0:
323,110,49767,6,0,L|331:54,1,56.2500021457673,2|0,0:0|0:0,0:0:0:0:
415,227,49961,6,0,L|471:219,1,56.2500021457673,0|0,3:0|0:0,0:0:0:0:
365,334,50155,6,0,B|273:309|281:384|193:359,1,179.999994506836,8|2,0:0|0:0,0:0:0:0:
92,229,50447,1,0,0:0:0:0:
39,291,50544,6,0,B|73:288|73:288|93:268|93:268|129:302|129:302|149:281|149:281|195:277,1,179.999994506836,0|0,1:0|0:0,0:0:0:0:
301,163,50835,1,2,0:0:0:0:
244,220,50932,6,0,B|212:188|212:188|226:121,1,112.500004291535,10|0,0:0|0:0,0:0:0:0:
51,154,51127,6,0,P|76:143|104:144,1,56.2500021457673,0|0,3:0|0:0,0:0:0:0:
243,39,51321,5,2,0:0:0:0:
243,39,51418,2,0,L|185:47,1,56.2500021457673,2|0,0:0|0:0,0:0:0:0:
301,163,51613,5,2,0:0:0:0:
362,108,51710,2,0,L|436:97,1,75,10|0,0:0|0:0,0:0:0:0:
477,296,51904,2,0,P|440:302|406:288,1,75,2|0,0:0|0:0,0:0:0:0:
401,283,52050,1,0,3:0:0:0:
398,276,52098,6,0,L|410:186,1,89.9999972534181,8|0,0:0|0:0,0:0:0:0:
299,317,52293,1,0,3:0:0:0:
382,382,52390,1,0,3:0:0:0:
308,323,52487,6,0,L|252:330,1,56.2500021457673,0|0,1:0|0:0,0:0:0:0:
12,206,52681,2,0,P|56:196|96:213,1,89.9999972534181,10|0,1:2|0:0,0:0:0:0:
182,373,52876,5,2,3:2:0:0:
182,373,52973,2,0,L|70:359,1,112.500004291535,0|0,3:0|3:0,0:0:0:0:
63,364,53216,1,0,3:0:0:0:
56,369,53264,6,0,B|39:343|39:343|47:284,1,89.9999972534181,8|0,0:0|0:0,0:0:0:0:
211,145,53459,2,0,B|219:203|219:203|202:229,1,89.9999972534181,10|0,0:0|0:0,0:0:0:0:
17,45,53653,6,0,L|91:35,2,75,4|0|0,3:2|0:0|0:0,0:0:0:0:
167,69,54236,5,0,0:0:0:0:
167,69,54333,1,0,0:0:0:0:
167,68,54430,2,0,P|220:56|270:81,1,112.500004291535,10|0,0:0|0:0,0:0:0:0:
348,62,54722,1,0,0:0:0:0:
352,73,54819,2,0,P|351:100|340:126,1,56.2500021457673,0|0,0:0|0:0,0:0:0:0:
201,229,55013,2,0,L|256:222,1,56.2500021457673,0|0,0:0|0:0,0:0:0:0:
406,228,55208,5,2,0:0:0:0:
409,210,55305,2,0,L|417:153,2,37.5,0|0|0,0:0|0:0|0:0,0:0:0:0:
461,303,55499,5,0,3:0:0:0:
386,358,55693,1,0,3:0:0:0:
331,283,55888,1,0,3:0:0:0:
256,338,55985,6,0,B|232:315|232:315|173:323,1,89.9999972534181,10|0,0:0|0:0,0:0:0:0:
42,353,56179,5,0,3:0:0:0:
42,353,56276,1,0,0:0:0:0:
42,353,56374,2,0,P|69:357|97:363,1,56.2500021457673,0|0,0:0|0:0,0:0:0:0:
200,229,56568,6,0,P|206:192|193:157,1,75,2|0,0:0|0:0,0:0:0:0:
31,19,56762,5,0,3:0:0:0:
19,108,56957,1,0,0:0:0:0:
7,197,57151,1,0,0:0:0:0:
51,35,57345,5,0,3:0:0:0:
41,111,57442,1,0,3:0:0:0:
30,186,57540,2,0,P|71:141|163:161,1,150,10|0,0:0|0:0,0:0:0:0:
214,218,57831,1,0,0:0:0:0:
200,229,57928,1,2,0:0:0:0:
219,89,58123,1,0,0:0:0:0:
19,261,58317,6,0,B|89:251|89:251|112:285,1,112.500004291535,2|0,3:0|0:0,0:0:0:0:
159,353,58608,1,0,3:0:0:0:
159,353,58706,2,0,L|214:345,1,56.2500021457673,0|0,0:0|0:0,0:0:0:0:
374,315,58900,2,0,L|366:370,1,56.2500021457673,0|0,3:0|0:0,0:0:0:0:
282,191,59094,5,2,0:3:0:0:
328,253,59191,1,0,3:0:0:0:
250,263,59288,2,0,L|200:270,1,37.5,0|0,3:0|0:0,0:0:0:0:
478,190,59483,5,8,0:0:0:0:
448,205,59580,1,0,0:0:0:0:
414,205,59677,1,0,0:0:0:0:
384,190,59774,1,2,0:0:0:0:
365,162,59871,6,0,L|376:83,1,75,2|0,0:3|0:0,0:0:0:0:
402,11,60163,1,0,0:0:0:0:
387,7,60260,2,0,L|331:14,1,56.2500021457673,0|0,3:0|0:0,0:0:0:0:
103,122,60454,5,0,0:0:0:0:
103,122,60552,1,0,0:0:0:0:
103,122,60649,2,0,P|151:147|205:136,1,112.500004291535,10|0,0:0|0:0,0:0:0:0:
273,184,60940,1,0,0:0:0:0:
279,175,61037,2,0,P|287:149|285:121,1,56.2500021457673
171,8,61232,2,0,L|163:63,1,56.2500021457673,0|0,0:0|0:0,0:0:0:0:
25,164,61426,5,2,0:0:0:0:
21,149,61523,2,0,P|16:135|11:122,2,28.1250010728836,0|0|0,3:0|0:0|3:0,0:0:0:0:
73,242,61718,37,0,3:0:0:0:
0,298,61912,1,0,3:0:0:0:
48,376,62106,1,0,3:0:0:0:
121,320,62203,6,0,B|150:316|150:316|163:322|163:322|175:313|175:313|206:309,1,89.9999972534181,8|0,0:0|0:0,0:0:0:0:
371,342,62398,5,0,3:0:0:0:
371,342,62495,1,0,0:0:0:0:
371,342,62592,2,0,P|349:359|332:382,1,56.2500021457673
285,197,62786,6,0,P|277:243|296:285,1,89.9999972534181,2|0,0:0|0:0,0:0:0:0:
481,365,62981,5,2,3:2:0:0:
493,276,63175,1,0,0:0:0:0:
505,187,63369,1,0,0:0:0:0:
461,349,63564,5,0,3:0:0:0:
471,273,63661,1,0,3:0:0:0:
482,198,63758,2,0,P|441:243|349:223,1,150,2|0,0:3|0:0,0:0:0:0:
285,197,64049,1,0,0:0:0:0:
285,197,64147,2,0,L|292:141,1,56.2500021457673,0|0,0:0|0:0,0:0:0:0:
95,139,64341,5,2,0:0:0:0:
95,139,64438,1,0,0:0:0:0:
95,139,64535,2,0,P|148:90|219:105,1,150,2|0,3:0|0:0,0:0:0:0:
408,92,64827,2,0,P|355:43|285:58,1,150,0|0,3:0|3:0,0:0:0:0:
284,58,65070,1,0,3:0:0:0:
284,58,65118,6,0,P|293:32|297:4,1,56.2500021457673,0|0,3:0|3:0,0:0:0:0:
163,235,65313,6,0,P|118:242|73:247,1,89.9999972534181,2|0,0:3|0:0,0:0:0:0:
270,367,65507,1,0,3:0:0:0:
347,323,65604,2,0,P|391:315|436:310,1,89.9999972534181,8|0,0:0|0:0,0:0:0:0:
256,181,65798,5,0,3:0:0:0:
241,191,65896,5,8,0:0:0:0:
256,279,65993,1,8,0:0:0:0:
270,367,66090,6,0,B|358:391|346:283|439:311,1,187.5,2|0,3:2|0:0,0:0:0:0:
504,269,66673,2,0,P|511:279|514:291,2,25,2|0|0,0:0|0:0|0:0,0:0:0:0:
499,259,66867,2,0,P|515:225|512:188,1,75,2|0,0:0|0:0,0:0:0:0:
509,181,67159,1,0,0:0:0:0:
505,174,67256,1,0,0:0:0:0:
438,110,67450,2,0,L|363:119,1,75,0|0,0:0|0:0,0:0:0:0:
193,171,67839,5,2,0:0:0:0:
273,127,68033,2,0,L|275:102,2,25,2|0|0,0:0|0:0|0:0,0:0:0:0:
278,145,68227,1,0,0:0:0:0:
288,286,68422,2,0,P|254:272|217:275,1,75,0|0,0:0|0:0,0:0:0:0:
201,269,68713,1,0,0:0:0:0:
201,269,68810,2,0,P|167:284|130:283,1,75,0|2,0:0|0:0,0:0:0:0:
33,205,69199,6,0,L|108:196,2,75,2|0|0,0:0|0:0|0:0,0:0:0:0:
158,365,69782,1,0,0:0:0:0:
158,365,69879,1,0,0:0:0:0:
158,365,69976,2,0,P|114:331|60:339,1,112.5,2|0,0:0|0:0,0:0:0:0:
46,352,70365,1,0,0:0:0:0:
107,196,70559,1,2,0:0:0:0:
207,291,70754,6,0,L|244:286,2,37.5,0|0|0,0:0|0:0|0:0,0:0:0:0:
313,240,71142,1,0,0:0:0:0:
313,240,71337,1,2,0:0:0:0:
249,374,71531,6,0,L|286:369,1,37.5,0|0,0:0|0:0,0:0:0:0:
355,323,71725,1,0,0:0:0:0:
355,323,71822,1,0,0:0:0:0:
355,323,71920,5,0,0:0:0:0:
373,325,72017,1,0,0:0:0:0:
392,327,72114,1,0,0:0:0:0:
410,330,72211,1,2,0:0:0:0:
428,332,72308,6,0,P|463:327|491:300,1,75,2|0,0:0|0:0,0:0:0:0:
379,117,72697,1,0,0:0:0:0:
431,225,72891,2,0,L|426:250,2,25,2|0|0,0:0|0:0|0:0,0:0:0:0:
429,211,73086,2,0,B|410:194|410:194|360:200,1,75,0|0,0:0|0:0,0:0:0:0:
352,201,73377,1,0,0:0:0:0:
344,202,73474,1,0,0:0:0:0:
272,255,73669,2,0,L|196:248,1,75,0|0,0:0|0:0,0:0:0:0:
24,158,74057,5,2,0:0:0:0:
99,205,74252,2,0,L|141:201,2,25,2|0|0,0:0|0:0|0:0,0:0:0:0:
89,219,74446,1,0,0:0:0:0:
10,365,74640,6,0,P|37:332|97:336,1,75,0|0,0:0|0:0,0:0:0:0:
82,335,74932,1,0,0:0:0:0:
82,335,75029,2,0,L|158:328,1,75,0|2,0:0|0:0,0:0:0:0:
232,293,75320,1,0,0:0:0:0:
238,305,75417,6,0,P|248:330|254:358,1,56.2500021457673,2|0,3:0|3:0,0:0:0:0:
338,218,75612,1,0,3:0:0:0:
338,218,75709,1,0,3:0:0:0:
338,218,75806,2,0,L|265:226,1,56.25,0|0,3:0|3:0,0:0:0:0:
501,317,76000,5,0,3:0:0:0:
472,280,76098,1,0,3:0:0:0:
437,269,76195,2,0,P|409:275|387:292,1,56.2500021457673,2|0,3:0|3:0,0:0:0:0:
244,147,76389,1,0,3:0:0:0:
244,147,76486,1,0,3:0:0:0:
244,147,76583,2,0,L|299:140,1,56.2500021457673,0|0,3:0|3:0,0:0:0:0:
432,86,76778,1,0,3:0:0:0:
431,98,76875,1,0,3:0:0:0:
512,79,76972,5,2,3:0:0:0:
498,37,77069,1,0,3:0:0:0:
463,9,77166,1,0,3:0:0:0:
419,4,77264,1,0,3:0:0:0:
379,23,77361,5,0,3:0:0:0:
373,12,77458,1,0,3:0:0:0:
309,62,77555,5,0,3:0:0:0:
307,49,77652,1,0,3:0:0:0:
230,45,77749,5,2,3:0:0:0:
187,33,77847,1,0,3:0:0:0:
148,53,77944,1,0,3:0:0:0:
133,94,78041,1,0,3:0:0:0:
149,135,78138,5,0,3:0:0:0:
137,130,78235,1,0,3:0:0:0:
121,209,78332,5,0,3:0:0:0:
114,201,78430,1,0,3:0:0:0:
48,239,78527,5,2,3:0:0:0:
41,226,78624,1,0,0:0:0:0:
34,213,78721,2,0,L|41:158,1,44.999998626709,2|0,0:0|0:0,0:0:0:0:
148,365,78915,1,0,0:0:0:0:
155,351,79013,2,0,L|210:344,2,44.999998626709,2|0|0,0:0|0:0|0:0,0:0:0:0:
77,318,79304,2,0,L|32:323,1,44.999998626709,2|0,0:0|0:0,0:0:0:0:
149,135,79498,5,0,0:0:0:0:
201,197,79595,2,0,L|194:252,1,56.2500021457673,2|0,0:0|0:0,0:0:0:0:
302,87,79790,2,0,B|314:64|314:64|309:34,2,56.2500021457673,2|0|0,0:0|0:0|0:0,0:0:0:0:
281,183,80081,5,0,3:0:0:0:
229,121,80178,2,0,P|281:101|360:173,1,150,4|0,0:3|0:0,0:0:0:0:
494,65,80470,6,0,L|404:76,1,89.9999972534181,0|4,1:0|0:3,0:0:0:0:
396,68,80713,2,0,L|392:45,2,22.4999993133545
459,155,80859,5,0,1:0:0:0:
448,236,80956,1,0,1:0:0:0:
438,318,81053,2,0,L|432:355,3,37.5,4|0|0|0,3:0|0:0|0:0|0:0,0:0:0:0:
422,361,81247,5,2,0:0:0:0:
348,384,81344,1,2,0:0:0:0:
278,352,81442,1,2,0:0:0:0:
248,281,81539,1,0,0:0:0:0:
271,208,81636,6,0,P|279:164|262:123,2,89.9999972534181,6|0|0,3:2|0:0|0:0,0:0:0:0:
226,287,81927,2,0,B|188:291|188:291|178:285|178:285|138:290,1,89.9999972534181,2|8,0:0|0:0,0:0:0:0:
49,157,82122,1,2,0:0:0:0:
0,220,82219,2,0,P|40:237|83:230,1,89.9999972534181,2|0,0:0|3:0,0:0:0:0:
190,0,82413,6,0,B|184:41|184:41|190:54|190:54|184:97,2,97.4999955368044,2|0|0,0:0|0:0|3:0,0:0:0:0:
14,77,82705,2,0,B|55:72|55:72|61:77|61:77|65:71|65:71|105:66,1,97.4999955368044,2|8,0:0|0:0,0:0:0:0:
317,176,82899,1,2,0:0:0:0:
262,123,82996,2,0,B|257:164|257:164|262:170|262:170|256:174|256:174|251:214,1,97.4999955368044,2|0,0:0|0:0,0:0:0:0:
503,279,83191,6,0,B|459:283|459:283|441:263|441:263|398:268,2,112.500004291535,2|0|0,3:2|0:0|0:0,0:0:0:0:
494,199,83482,1,2,0:0:0:0:
409,348,83579,5,10,0:0:0:0:
335,316,83676,1,0,0:0:0:0:
331,231,83773,5,2,0:0:0:0:
339,310,83871,1,0,3:0:0:0:
271,365,83968,2,0,B|240:354|210:373|210:373|159:411|105:368|138:285|204:307|183:367,1,225.000008583069,2|0,0:0|3:0,0:0:0:0:
63,378,84259,1,2,0:0:0:0:
63,378,84356,2,0,P|60:330|78:286,1,97.4999955368044,8|0,0:0|0:0,0:0:0:0:
251,215,84551,6,0,B|247:248|247:248|252:256|252:256|247:288,1,75,2|0,0:0|0:0,0:0:0:0:
0,217,84745,6,0,B|84:185|76:275|169:239,1,179.999994506836,2|0,3:2|0:0,0:0:0:0:
195,112,85037,1,0,0:0:0:0:
119,78,85134,2,0,P|111:121|128:162,1,89.9999972534181,8|0,0:0|0:0,0:0:0:0:
344,347,85328,5,2,0:0:0:0:
462,265,85425,1,2,3:2:0:0:
353,256,85522,6,0,B|333:297|333:297|344:347,1,97.4999955368044,2|0,0:0|0:0,0:0:0:0:
454,357,85717,2,0,B|474:316|474:316|462:265,1,97.4999955368044,2|0,3:2|0:0,0:0:0:0:
384,42,85911,1,8,0:0:0:0:
302,32,86008,1,0,0:0:0:0:
256,102,86105,1,2,0:0:0:0:
210,172,86203,1,0,0:0:0:0:
128,162,86300,6,0,B|88:156|88:156|84:150|84:150|78:155|78:155|37:149,1,97.4999955368044,2|0,3:2|0:0,0:0:0:0:
147,323,86494,2,0,B|161:296|161:296|148:255,2,64.9999970245363,0|2|0,0:0|0:0|0:0,0:0:0:0:
4,236,86688,2,0,B|65:246|65:246|87:315|87:315|148:324,1,194.999991073609,10|2,0:0|0:0,0:0:0:0:
230,334,86980,1,2,3:2:0:0:
276,264,87077,5,2,0:3:0:0:
283,270,87174,2,0,P|354:263|392:323,1,150,0|0,3:0|3:0,0:0:0:0:
481,307,87466,5,10,0:0:0:0:
478,318,87563,1,0,3:0:0:0:
476,329,87660,2,0,P|469:361|465:382,1,44.999998626709,0|0,3:0|0:0,0:0:0:0:
387,190,87854,6,0,P|420:162|464:160,2,89.9999972534181,6|0|0,3:2|0:0|0:0,0:0:0:0:
298,248,88146,2,0,B|302:214|302:214|308:210|308:210|303:204|303:204|308:163,1,89.9999972534181,2|8,0:0|0:0,0:0:0:0:
326,0,88340,1,2,0:0:0:0:
405,79,88437,2,0,B|365:84|365:84|355:78|355:78|317:82,1,89.9999972534181,2|0,0:0|3:0,0:0:0:0:
65,153,88632,6,0,P|42:194|49:242,2,97.4999955368044,2|0|0,0:0|0:0|3:0,0:0:0:0:
218,220,88923,2,0,B|190:217|190:217|181:220|181:220|162:210|162:210|150:212|150:212|124:210,1,97.4999955368044,2|8,0:0|0:0,0:0:0:0:
54,47,89117,1,2,0:0:0:0:
135,36,89215,2,0,B|150:67|150:67|143:129,1,97.4999955368044,2|0,0:0|0:0,0:0:0:0:
75,361,89409,6,0,P|128:371|175:341,2,112.500004291535,2|0|0,3:2|0:0|0:0,0:0:0:0:
113,290,89700,1,2,0:0:0:0:
252,370,89798,5,10,0:0:0:0:
315,321,89895,1,0,0:0:0:0:
301,236,89992,5,2,0:0:0:0:
309,317,90089,1,0,3:0:0:0:
389,354,90186,2,0,B|413:395|513:420|572:273|460:254|429:300|436:324,1,225.000008583069,2|0,0:0|3:0,0:0:0:0:
507,248,90478,1,0,0:0:0:0:
507,248,90575,2,0,P|461:218|407:228,1,112.500004291535,8|0,0:0|0:0,0:0:0:0:
200,216,90769,2,0,P|246:246|301:236,1,112.500004291535,2|0,0:0|0:0,0:0:0:0:
454,77,90964,6,0,B|436:-52|602:-2|584:93|455:166|412:131|376:100|367:81,1,300,2|0,3:2|0:0,0:0:0:0:
332,84,91255,1,0,0:0:0:0:
256,53,91352,6,0,P|196:35|133:105,1,150,8|0,0:0|0:0,0:0:0:0:
123,254,91547,1,2,0:0:0:0:
125,271,91644,1,2,3:2:0:0:
72,183,91741,5,2,0:0:0:0:
72,183,91838,2,0,P|143:169|199:215,1,150,0|0,0:0|3:0,0:0:0:0:
256,371,92032,1,2,0:0:0:0:
404,229,92129,6,0,B|421:188|380:158|342:165|319:200|309:243|354:290,1,187.5,8|0,0:0|0:0,0:0:0:0:
404,361,92324,1,0,0:0:0:0:
499,294,92421,1,2,0:0:0:0:
456,77,92518,5,2,3:2:0:0:
377,133,92615,2,0,B|347:200|266:204|213:117|308:41|375:44|386:213|501:143,1,375,8|0,0:0|0:0,0:0:0:0:
502,10,92907,2,0,P|448:-3|398:19,1,112.500004291535,10|0,0:0|0:0,0:0:0:0:
256,284,93101,1,0,3:0:0:0:
256,284,93198,1,8,0:0:0:0:
198,214,93295,6,0,P|152:184|97:191,2,112.500004291535,10|0|0,0:0|3:0|3:0,0:0:0:0:
377,133,93587,6,0,P|349:167|305:169,1,89.9999972534181,10|0,0:0|3:0,0:0:0:0:
208,101,93781,1,0,3:0:0:0:
199,66,93878,1,10,0:0:0:0:
205,39,93976,1,0,3:0:0:0:
215,24,94073,6,0,P|251:1|298:8,2,89.9999972534181,6|0|0,3:2|0:0|0:0,0:0:0:0:
174,93,94364,2,0,B|138:97|138:97|130:102|130:102|122:99|122:99|85:103,1,89.9999972534181,2|8,0:0|0:0,0:0:0:0:
49,266,94559,1,2,0:0:0:0:
24,186,94656,2,0,B|64:181|64:181|74:187|74:187|112:183,1,89.9999972534181,2|0,0:0|3:0,0:0:0:0:
337,267,94850,6,0,B|350:295|350:295|338:377,2,97.4999955368044,2|0|0,0:0|0:0|3:0,0:0:0:0:
178,321,95142,2,0,B|217:316|217:316|222:320|222:320|221:312|221:312|225:315|225:315|263:311,1,97.4999955368044,2|8,0:0|0:0,0:0:0:0:
464,161,95336,1,2,0:0:0:0:
499,234,95433,2,0,P|451:242|409:221,1,97.4999955368044,2|0,0:0|0:0,0:0:0:0:
170,38,95627,6,0,B|166:79|166:79|186:100|186:100|181:142,2,112.500004291535,2|0|0,3:2|0:0|0:0,0:0:0:0:
252,49,95919,1,2,0:0:0:0:
102,131,96016,5,10,0:0:0:0:
133,205,96113,1,0,0:0:0:0:
208,223,96210,5,2,0:0:0:0:
128,212,96307,1,0,3:0:0:0:
79,276,96405,2,0,B|48:312|54:415|169:429|195:320|149:305|132:319,1,225.000008583069,2|0,0:0|3:0,0:0:0:0:
205,367,96696,1,2,0:0:0:0:
205,367,96793,2,0,P|252:377|295:356,1,97.4999955368044,8|0,0:0|0:0,0:0:0:0:
337,156,96988,6,0,B|304:160|304:160|296:155|296:155|264:160,1,75,2|0,0:0|0:0,0:0:0:0:
240,293,97182,5,2,3:2:0:0:
283,274,97279,1,0,0:0:0:0:
329,282,97376,1,0,0:0:0:0:
363,312,97473,1,0,0:0:0:0:
407,376,97571,6,0,B|414:338|414:338|408:331|408:331|415:290,1,89.9999972534181,8|0,0:0|0:0,0:0:0:0:
512,21,97765,5,2,0:0:0:0:
410,122,97862,1,2,3:2:0:0:
419,12,97959,6,0,P|467:3|512:21,1,97.4999955368044,2|0,0:0|0:0,0:0:0:0:
502,130,98154,2,0,P|454:139|410:122,1,97.4999955368044,2|0,3:2|0:0,0:0:0:0:
255,44,98348,1,8,0:0:0:0:
178,20,98445,1,0,0:0:0:0:
104,52,98542,1,2,0:0:0:0:
69,124,98639,1,0,0:0:0:0:
88,202,98737,6,0,B|128:196|128:196|132:190|132:190|138:195|138:195|179:189,1,97.4999955368044,2|0,3:2|0:0,0:0:0:0:
33,269,98931,2,0,P|60:286|92:288,2,64.9999970245363,0|2|0,0:0|0:0|0:0,0:0:0:0:
139,354,99125,2,0,P|49:357|33:269,1,194.999991073609,10|2,0:0|0:0,0:0:0:0:
88,202,99417,1,2,3:2:0:0:
173,177,99514,5,2,0:3:0:0:
179,188,99611,2,0,P|248:212|307:170,1,150,0|0,0:0|0:0,0:0:0:0:
256,23,99903,5,10,0:0:0:0:
336,14,100000,1,0,0:0:0:0:
401,62,100097,5,2,0:0:0:0:
440,57,100194,1,0,0:0:0:0:
505,105,100291,6,0,B|499:152|499:152|494:165|494:165|497:178|497:178|491:226,1,123.75000377655,2|0,3:2|0:0,0:0:0:0:
504,308,100680,1,8,0:0:0:0:
344,260,100874,1,0,0:0:0:0:
344,260,100971,1,2,3:2:0:0:
344,260,101068,2,0,B|384:250|384:250|421:267,1,82.5000025177003,0|0,0:0|3:0,0:0:0:0:
412,367,101457,2,0,B|371:376|371:376|334:359,1,82.5000025177003,8|0,0:0|0:0,0:0:0:0:
264,305,101749,1,0,0:0:0:0:
264,305,101846,6,0,P|195:299|153:359,1,123.75000377655,2|0,3:2|0:0,0:0:0:0:
153,356,102234,2,0,P|150:316|126:282,1,82.5000025177003,8|0,0:0|0:0,0:0:0:0:
58,229,102526,1,2,3:2:0:0:
58,229,102623,2,0,P|38:235|18:241,1,41.2500012588501,2|0,0:0|0:0,0:0:0:0:
180,133,102817,2,0,P|184:113|189:93,1,41.2500012588501
235,206,103012,6,0,P|258:211|282:218,1,48.7499977684022,8|0,0:0|0:0,0:0:0:0:
90,142,103206,2,0,P|80:120|68:99,1,48.7499977684022,2|0,0:0|0:0,0:0:0:0:
221,18,103400,5,0,3:2:0:0:
266,0,103498,1,0,0:2:0:0:
314,15,103595,1,0,3:2:0:0:
343,55,103692,1,0,0:2:0:0:
322,132,103789,5,0,3:2:0:0:
352,171,103886,1,0,0:2:0:0:
399,186,103983,1,0,3:2:0:0:
445,169,104081,1,0,0:2:0:0:
481,96,104178,5,0,3:2:0:0:
453,128,104275,1,0,0:2:0:0:
445,169,104372,1,0,3:2:0:0:
458,210,104469,1,0,0:2:0:0:
510,284,104566,5,0,3:2:0:0:
472,366,104663,1,0,0:2:0:0:
382,373,104761,2,0,L|402:330,1,37.5,0|0,3:2|3:2,0:2:0:0:
330,300,104858,2,0,L|377:295,1,37.5,0|0,3:2|3:2,0:2:0:0:
368,218,104955,5,0,3:2:0:0:
256,192,105052,12,0,105926,0:0:0:0:
182,312,106121,6,0,L|72:322,1,89.9999972534181,0|0,3:0|0:0,0:0:0:0:
85,327,106412,1,0,0:0:0:0:
0,243,106510,6,0,B|7:247|47:258|100:272|187:151|166:55|-6:84|60:188,1,337.500012874604,4|0,3:2|0:0,0:0:0:0:
138,226,106898,2,0,P|167:229|195:217,3,59.9999981689454,2|2|2|2,0:0|0:0|0:0|0:0,0:0:0:0:
288,164,107190,6,0,L|282:208,1,44.999998626709,2|0,3:2|3:0,0:0:0:0:
279,219,107287,2,0,P|316:268|396:235,1,119.999996337891,8|0,0:0|0:0,0:0:0:0:
441,225,107481,6,0,P|470:221|498:233,2,59.9999981689454,2|2|2,0:0|0:0|0:0,0:0:0:0:
371,183,107676,6,0,L|376:138,1,44.999998626709,2|0,0:0|0:0,0:0:0:0:
380,128,107773,2,0,P|359:89|318:75,1,89.9999972534181,2|0,0:0|0:0,0:0:0:0:
156,146,107967,1,2,3:2:0:0:
17,65,108064,6,0,B|-3:53|-3:53|117:32|117:32|85:108,1,225.000008583069,0|0,3:0|0:0,0:0:0:0:
33,270,108356,1,0,3:0:0:0:
82,204,108453,2,2,P|57:187|28:186,2,59.9999981689454
113,278,108647,6,0,L|104:341,1,56.2500021457673,0|0,3:0|3:0,0:0:0:0:
104,342,108793,1,0,3:0:0:0:
103,349,108841,6,0,P|139:325|183:328,1,89.9999972534181,8|0,0:0|0:0,0:0:0:0:
345,366,109036,2,0,L|372:362,2,28.1250010728836,0|0|0,3:0|0:0|0:0,0:0:0:0:
255,276,109230,6,0,B|282:270|282:270|304:287,1,56.2500021457673,8|0,0:0|0:0,0:0:0:0:
512,258,109424,6,0,B|505:252|468:235|418:212|311:316|315:414|490:415|443:301,1,337.500012874604,4|0,3:2|0:0,0:0:0:0:
392,227,109813,6,0,P|372:218|350:220,1,44.999998626709,0|0,3:0|0:0,0:0:0:0:
194,113,110007,6,0,B|198:144|198:144|203:151|203:151|200:159|200:159|202:185,1,75,0|0,3:0|3:0,0:0:0:0:
11,243,110202,6,0,P|46:218|90:223,1,89.9999972534181,0|0,1:0|3:0,0:0:0:0:
97,227,110348,1,0,3:0:0:0:
104,232,110396,2,0,P|122:280|105:319,2,89.9999972534181,10|0|0,0:0|0:0|0:0,0:0:0:0:
11,57,110785,5,0,3:0:0:0:
21,70,110882,1,0,3:0:0:0:
89,41,110979,1,2,3:2:0:0:
99,54,111076,1,2,3:2:0:0:
166,25,111173,6,0,P|233:0|287:46,1,150,0|0,3:0|0:0,0:0:0:0:
362,24,111465,1,0,3:0:0:0:
362,24,111562,2,0,P|365:60|349:94,1,75,0|0,0:0|0:0,0:0:0:0:
202,185,111756,2,0,L|121:173,1,75,0|0,3:0|3:0,0:0:0:0:
120,173,111902,1,0,3:0:0:0:
112,172,111951,2,0,P|87:220|87:268,1,75,10|0,0:0|0:0,0:0:0:0:
6,267,112145,6,0,P|19:291|40:310,1,56.2500021457673,0|8,3:0|0:0,0:0:0:0:
101,369,112339,5,2,3:2:0:0:
112,367,112437,1,8,0:0:0:0:
123,365,112534,2,0,L|170:357,1,37.5,0|0,0:0|0:0,0:0:0:0:
256,255,112728,5,0,3:0:0:0:
238,338,112825,1,0,3:0:0:0:
243,349,112922,2,0,L|236:386,2,28.1250010728836,0|0|0,3:0|0:0|0:0,0:0:0:0:
319,313,113117,6,0,B|395:302|395:302|419:364|419:364|500:354,1,225.000008583069,4|0,3:2|0:0,0:0:0:0:
462,258,113408,2,0,B|470:278|470:278|494:276,1,44.999998626709,0|0,0:0|0:0,0:0:0:0:
506,267,113505,6,0,P|516:210|479:165,1,119.999996337891,8|0,0:0|0:0,0:0:0:0:
401,174,113700,2,0,P|382:198|377:227,2,59.9999981689454,2|2|2,0:0|0:0|0:0,0:0:0:0:
432,101,113894,6,0,L|439:56,1,44.999998626709,2|0,0:0|0:0,0:0:0:0:
448,45,113991,2,0,P|415:73|371:72,1,89.9999972534181,2|0,0:0|0:0,0:0:0:0:
204,13,114185,1,2,3:2:0:0:
90,140,114283,6,0,B|57:169|15:141|8:103|33:70|70:45|111:59|139:81,1,225.000008583069,0|0,3:0|0:0,0:0:0:0:
207,230,114574,1,0,3:0:0:0:
139,274,114671,2,0,P|126:246|127:217,2,59.9999981689454,2|2|2,0:0|0:0|0:0,0:0:0:0:
212,310,114866,6,0,L|275:301,1,56.2500021457673,0|0,3:0|3:0,0:0:0:0:
277,298,115011,1,0,3:0:0:0:
285,294,115060,6,0,P|280:338|298:378,1,89.9999972534181,8|0,0:0|0:0,0:0:0:0:
505,350,115254,2,0,P|510:305|492:265,1,89.9999972534181,8|0,0:0|0:0,0:0:0:0:
283,203,115449,6,0,B|316:199|355:222|367:256|367:256|354:193|354:193|382:206|399:225|399:225|415:206|403:189|403:189|444:197|478:176,1,337.500012874604,0|0,3:0|0:0,0:0:0:0:
496,103,115837,6,0,P|446:28|425:114,1,225.000008583069,4|0,3:2|0:0,0:0:0:0:
496,103,116129,6,0,P|459:98|425:113,1,75,0|0,3:0|0:0,0:0:0:0:
248,276,116323,5,8,0:0:0:0:
198,212,116420,2,0,P|239:194|283:203,1,89.9999972534181,8|0,0:0|0:0,0:0:0:0:
474,288,116615,6,0,L|460:384,2,89.9999972534181,6|0|0,3:2|0:0|0:0,0:0:0:0:
428,211,116906,1,0,3:0:0:0:
477,274,117003,2,0,P|436:291|392:283,1,89.9999972534181,2|8,0:0|0:0,0:0:0:0:
233,139,117197,1,8,0:0:0:0:
235,121,117295,1,0,0:0:0:0:
288,45,117392,6,0,B|247:50|247:50|234:73|234:73|210:35|210:35|198:57|198:57|157:63,1,179.999994506836,6|0,3:2|0:0,0:0:0:0:
21,82,117683,1,8,0:0:0:0:
86,32,117780,2,0,B|105:60|105:60|95:116,1,89.9999972534181,8|0,0:0|0:0,0:0:0:0:
61,337,117975,5,4,0:2:0:0:
256,192,118072,12,0,121278,0:0:0:0:
