osu file format v14

[General]
AudioFilename: audio.mp3
AudioLeadIn: 0
PreviewTime: 80460
Countdown: 0
SampleSet: Soft
StackLeniency: 0.3
Mode: 0
LetterboxInBreaks: 0
WidescreenStoryboard: 1

[Editor]
Bookmarks: 3905,16341,28776,41211,53646,66081,78517,81626,94061,104942,106496,117960
DistanceSpacing: 0.5
BeatDivisor: 4
GridSize: 4
TimelineZoom: 2

[Metadata]
Title:Towards The Horizon
TitleUnicode:Towards The Horizon
Artist:Camellia
ArtistUnicode:かめりあ
Creator:Nerova Riuz GX
Version:Zexous' Insane
Source:REFLEC BEAT 悠久のリフレシア
Tags:RB Illusiya イルシヤ 6th KONAMI Arcade Championship KAC bemani The Reflesia of Eternity drumstep folk Zexous Sinnoh Lavender [Teichan]
BeatmapID:1325051
BeatmapSetID:578445

[Difficulty]
HPDrainRate:6
CircleSize:3.8
OverallDifficulty:7.5
ApproachRate:8.7
SliderMultiplier:1.6
SliderTickRate:1

[Events]
//Background and Video events
0,0,"TowardsTheHorizonBG.png",0,0
//Break Periods
2,66281,74763
//Storyboard Layer 0 (Background)
//Storyboard Layer 1 (Fail)
//Storyboard Layer 2 (Pass)
//Storyboard Layer 3 (Foreground)
//Storyboard Sound Samples

[TimingPoints]
797,388.60103626943,4,2,1,40,1,0
3905,-125,4,2,1,20,0,0
8569,-125,4,2,1,30,0,0
10123,-125,4,2,1,20,0,0
14786,-125,4,2,1,30,0,0
16341,-125,4,2,1,30,0,0
19449,-125,4,2,1,35,0,0
22558,-125,4,2,1,40,0,0
24113,-125,4,2,1,45,0,0
25667,-100,4,3,1,50,0,0
25861,-95.2380952380952,4,3,1,55,0,0
26056,-90.9090909090909,4,3,1,60,0,0
26250,-86.9565217391304,4,3,1,65,0,0
26444,-83.3333333333333,4,3,1,60,0,0
28776,-76.9230769230769,4,2,0,70,0,1
28873,-76.9230769230769,4,2,1,70,0,1
29553,-90.9090909090909,4,2,1,70,0,1
29942,-76.9230769230769,4,2,1,70,0,1
30330,-76.9230769230769,4,2,0,70,0,1
30427,-76.9230769230769,4,2,1,70,0,1
31107,-90.9090909090909,4,2,1,70,0,1
31885,-76.9230769230769,4,2,0,70,0,1
31982,-76.9230769230769,4,2,1,70,0,1
32662,-90.9090909090909,4,2,1,70,0,1
33439,-76.9230769230769,4,2,0,70,0,1
33536,-76.9230769230769,4,2,1,70,0,1
34022,-90.9090909090909,4,2,1,70,0,1
34993,-76.9230769230769,4,2,0,70,0,1
35091,-76.9230769230769,4,2,1,70,0,1
35771,-90.9090909090909,4,2,1,70,0,1
36159,-76.9230769230769,4,2,1,70,0,1
36548,-76.9230769230769,4,2,0,70,0,1
36645,-76.9230769230769,4,2,1,70,0,1
37325,-90.9090909090909,4,2,1,70,0,1
38102,-76.9230769230769,4,2,0,70,0,1
38199,-76.9230769230769,4,2,1,70,0,1
40240,-76.9230769230769,4,2,1,70,0,0
40920,-76.9230769230769,4,2,0,70,0,1
41211,-100,4,2,0,70,0,1
41308,-100,4,2,1,70,0,0
52092,-83.3333333333333,4,2,1,70,0,0
53646,-111.111111111111,4,3,1,55,0,0
59572,-111.111111111111,4,2,1,35,0,0
60252,-111.111111111111,4,3,1,55,0,0
75408,-100,4,2,1,70,0,0
81626,-83.3333333333333,4,2,1,70,0,1
86872,-100,4,2,1,70,0,1
87843,-83.3333333333333,4,2,1,70,0,1
92506,-71.4285714285714,4,2,1,70,0,1
93284,-71.4285714285714,4,3,1,70,0,1
93866,-71.4285714285714,4,3,1,70,0,0
94061,-76.9230769230769,4,2,1,80,0,1
99307,-100,4,2,1,80,0,1
99890,-76.9230769230769,4,2,1,80,0,1
100278,-111.111111111111,4,2,1,55,0,0
103387,-95.2380952380952,4,3,1,60,0,0
103581,-90.9090909090909,4,3,1,65,0,0
103776,-86.9565217391304,4,3,1,70,0,0
103970,-83.3333333333333,4,3,1,75,0,0
104164,-83.3333333333333,4,3,1,80,0,0
105039,-100,4,2,1,40,0,0
106496,-76.9230769230769,4,2,0,70,0,1
106593,-76.9230769230769,4,2,1,70,0,0
106885,-90.9090909090909,4,2,1,70,0,0
108050,-76.9230769230769,4,2,1,70,0,0
108342,-90.9090909090909,4,2,1,70,0,0
109410,-76.9230769230769,4,2,1,70,0,0
109799,-90.9090909090909,4,2,1,70,0,0
111159,-76.9230769230769,4,2,1,70,0,0
111451,-90.9090909090909,4,2,1,70,0,0
113102,-76.9230769230769,4,2,0,70,0,1
113199,-76.9230769230769,4,2,1,70,0,0
113491,-90.9090909090909,4,2,1,70,0,0
114268,-76.9230769230769,4,2,1,70,0,0
114559,-90.9090909090909,4,2,1,70,0,0
115434,-83.3333333333333,4,2,1,70,0,0
115822,-76.9230769230769,4,2,1,70,0,1
116405,-90.9090909090909,4,2,1,70,0,0
116600,-76.9230769230769,4,2,1,70,0,1
117183,-90.9090909090909,4,2,1,70,0,0
118057,-90.9090909090909,4,2,1,35,0,0

[Colours]
Combo1 : 167,167,167
Combo2 : 255,47,47
Combo3 : 255,148,40
Combo4 : 254,228,82
Combo5 : 180,104,255

[HitObjects]
40,285,3905,6,0,P|81:305|178:298,1,128,2|0,0:0|0:0,0:0:0:0:
232,274,4488,1,0,0:0:0:0:
279,213,4683,2,0,L|207:189,1,64,2|0,0:0|0:0,0:0:0:0:
309,285,5071,2,0,L|381:261,1,64
470,341,5460,6,0,P|486:289|472:202,1,128
445,146,6043,1,0,0:0:0:0:
330,48,6237,1,0,0:0:0:0:
309,121,6431,2,0,P|374:110|406:48,1,128
404,54,6917,1,0,0:0:0:0:
402,47,7014,5,0,0:0:0:0:
168,52,7306,1,0,0:0:0:0:
163,56,7403,2,0,B|127:136|163:216|163:216|199:296|163:380,1,320
61,296,8569,21,2,0:0:0:0:
46,289,9346,1,2,0:0:0:0:
55,38,10123,5,2,0:0:0:0:
116,83,10317,2,0,L|186:73,1,64
251,101,10706,1,0,0:0:0:0:
315,59,10900,2,0,P|288:35|245:25,1,64,2|0,0:0|0:0,0:0:0:0:
320,136,11289,2,0,L|404:125,1,64
472,75,11677,6,0,L|478:36,3,32
464,164,12066,2,0,L|458:203,3,32
457,201,12455,1,0,0:0:0:0:
455,207,12552,1,0,0:0:0:0:
454,213,12649,2,0,P|431:253|346:252,1,128
350,254,13135,1,0,0:0:0:0:
345,249,13232,5,0,0:0:0:0:
139,213,13523,1,0,0:0:0:0:
143,214,13620,2,0,B|230:205|281:133|281:133|332:62|423:51,1,320
399,185,14786,21,2,0:0:0:0:
401,201,15563,1,2,0:0:0:0:
74,49,16341,6,0,L|196:61,1,96
169,58,16729,1,8,0:0:0:0:
419,147,17021,1,0,0:0:0:0:
450,139,17118,2,0,L|426:65,1,64
283,244,17506,2,0,P|332:224|384:219,1,96,8|0,0:0|0:0,0:0:0:0:
406,225,17895,5,0,0:0:0:0:
185,338,18284,2,0,L|75:321,1,96,8|0,0:0|0:0,0:0:0:0:
53,163,18769,1,0,0:0:0:0:
53,163,18866,2,0,L|51:240,1,64,0|8,0:0|0:0,0:0:0:0:
67,60,19255,1,0,0:0:0:0:
151,124,19449,6,0,P|195:123|251:99,1,96
243,104,19838,1,8,0:0:0:0:
467,102,20032,1,0,0:0:0:0:
435,104,20129,2,0,P|396:88|365:39,1,96
334,279,20615,2,0,L|349:175,1,96,8|0,0:0|0:0,0:0:0:0:
338,153,21004,37,0,0:0:0:0:
424,302,21198,1,0,0:0:0:0:
255,334,21392,1,8,0:0:0:0:
194,154,21587,1,0,0:0:0:0:
194,154,21684,2,0,L|181:244,1,64
99,72,22072,1,0,0:0:0:0:
124,51,22170,2,0,L|163:48,2,32,8|0|0,0:0|0:0|0:0,0:0:0:0:
404,51,22558,6,0,P|368:66|308:107,1,96,0|0,1:0|0:0,0:0:0:0:
320,96,22947,1,8,0:0:0:0:
441,293,23238,2,0,L|428:214,1,64,0|0,1:0|0:0,0:0:0:0:
410,204,23530,1,0,1:0:0:0:
330,310,23724,2,0,P|297:278|243:252,1,96,8|0,0:0|0:0,0:0:0:0:
190,308,24113,6,0,P|153:292|116:239,1,96,0|0,1:0|0:0,0:0:0:0:
119,248,24501,1,8,0:0:0:0:
169,78,24695,1,0,0:0:0:0:
169,78,24793,2,0,L|97:89,1,64,0|0,1:0|0:0,0:0:0:0:
74,80,25084,1,0,1:0:0:0:
216,177,25278,2,0,P|252:171|319:190,1,96,8|0,0:0|0:0,0:0:0:0:
346,200,25667,38,0,L|359:143,1,40
428,213,25861,2,0,L|493:228,1,41.9999987182618
416,295,26056,2,0,L|400:362,1,44.0000013427735
333,283,26250,2,0,L|261:267,1,46.0000008773804
233,170,26444,5,0,0:0:0:0:
238,146,26541,1,0,0:0:0:0:
244,123,26638,1,0,0:0:0:0:
250,100,26735,1,0,0:0:0:0:
256,76,26832,1,0,0:0:0:0:
262,53,26929,1,0,0:0:0:0:
268,30,27027,2,0,L|275:5,4,23.9999992675781
410,299,28776,6,0,P|428:238|329:193,1,155.999992858887,4|0,0:0|0:0,0:0:0:0:
343,199,29164,1,8,0:0:0:0:
442,106,29359,1,2,0:0:0:0:
261,255,29553,37,2,0:0:0:0:
261,255,29650,2,0,P|213:249|165:230,1,88.000002685547,2|0,0:0|0:0,0:0:0:0:
93,226,29942,6,0,L|85:171,1,51.999997619629,10|2,0:0|0:0,0:0:0:0:
164,83,30136,2,0,L|154:140,1,51.999997619629,2|2,0:0|0:0,0:0:0:0:
39,69,30330,6,0,B|80:38|80:38|216:51,1,155.999992858887,4|0,0:0|0:0,0:0:0:0:
210,51,30719,1,8,0:0:0:0:
332,194,30913,1,2,0:0:0:0:
430,70,31107,37,2,0:0:0:0:
430,70,31205,2,0,P|387:51|339:50,1,88.000002685547,2|0,0:0|0:0,0:0:0:0:
504,101,31496,6,0,P|509:66|504:39,1,44.0000013427735,8|0,0:0|3:0,0:0:0:0:
461,144,31690,2,0,P|489:122|504:100,1,44.0000013427735,0|0,3:0|3:0,0:0:0:0:
400,144,31885,6,0,B|431:151|461:144|461:144|512:242,1,155.999992858887,4|0,0:0|0:0,0:0:0:0:
488,248,32273,1,8,0:0:0:0:
307,141,32467,1,0,0:0:0:0:
358,339,32662,5,0,0:0:0:0:
358,339,32759,2,0,L|342:241,1,88.000002685547
276,306,33050,2,0,P|254:290|234:284,1,44.0000013427735,8|0,0:0|0:0,0:0:0:0:
162,291,33245,1,0,0:0:0:0:
148,284,33309,1,0,0:0:0:0:
140,271,33374,1,0,0:0:0:0:
137,256,33439,22,0,L|173:129,1,103.999995239258,4|0,0:0|0:0,0:0:0:0:
165,155,33730,1,0,0:0:0:0:
165,155,33828,1,8,0:0:0:0:
87,23,34022,5,0,3:0:0:0:
87,23,34119,2,0,B|68:66|68:66|81:117,1,88.000002685547,0|0,3:0|3:0,0:0:0:0:
269,73,34508,1,0,3:0:0:0:
269,73,34605,2,0,L|253:15,2,44.0000013427735,8|0|0,0:0|0:0|0:0,0:0:0:0:
477,189,34993,6,0,P|401:178|351:231,1,155.999992858887,4|0,0:0|0:0,0:0:0:0:
365,253,35382,1,8,0:0:0:0:
414,89,35576,1,2,0:0:0:0:
293,324,35771,37,2,0:0:0:0:
293,324,35868,2,0,P|276:279|246:238,1,88.000002685547,2|0,0:0|0:0,0:0:0:0:
188,186,36159,6,0,L|173:243,1,51.999997619629,10|2,0:0|0:0,0:0:0:0:
257,143,36353,2,0,L|244:93,1,51.999997619629,2|2,0:0|0:0,0:0:0:0:
138,34,36548,6,0,B|121:116|121:116|173:177,1,155.999992858887,4|0,0:0|0:0,0:0:0:0:
188,186,36936,1,8,0:0:0:0:
269,68,37131,1,2,0:0:0:0:
112,273,37325,37,2,0:0:0:0:
112,273,37423,2,0,P|67:257|23:252,1,88.000002685547,2|0,0:0|0:0,0:0:0:0:
189,288,37714,6,0,P|173:319|153:338,1,44.0000013427735,8|0,0:0|3:0,0:0:0:0:
179,229,37908,2,0,P|189:263|188:289,1,44.0000013427735,0|0,3:0|3:0,0:0:0:0:
128,193,38102,22,0,B|157:205|177:227|177:227|222:230|269:257,1,155.999992858887,4|0,0:0|0:0,0:0:0:0:
280,278,38490,1,0,0:0:0:0:
426,344,38685,1,0,0:0:0:0:
434,319,38782,2,0,L|401:287,1,25.9999988098145
443,293,38879,2,0,B|458:243|458:243|436:186,1,103.999995239258,8|0,0:0|0:0,0:0:0:0:
370,34,39268,2,0,L|338:136,1,103.999995239258
291,206,39559,5,0,3:0:0:0:
266,214,39657,2,0,B|230:226|194:213|194:213|155:197|108:208,2,155.999992858887,0|0|0,3:0|3:0|3:0,0:0:0:0:
291,206,40337,5,0,0:0:0:0:
305,184,40434,1,8,0:0:0:0:
302,158,40531,1,0,0:0:0:0:
287,136,40628,1,0,0:0:0:0:
283,110,40725,1,0,0:0:0:0:
293,86,40822,1,0,0:0:0:0:
313,70,40920,6,0,L|439:56,1,103.999995239258,4|0,0:0|0:0,0:0:0:0:
499,113,41211,5,4,0:0:0:0:
473,283,41405,1,0,0:0:0:0:
438,303,41502,1,0,0:0:0:0:
398,293,41600,2,0,L|340:283,1,40,8|0,0:0|0:0,0:0:0:0:
269,259,41794,1,0,0:0:0:0:
233,241,41891,1,0,1:0:0:0:
193,245,41988,2,0,P|170:285|169:336,1,80,0|0,0:0|1:0,0:0:0:0:
61,175,42377,1,8,0:0:0:0:
237,152,42571,1,0,0:0:0:0:
61,175,42765,38,0,P|89:138|103:98,1,80,0|0,1:0|0:0,0:0:0:0:
104,66,43057,1,0,0:0:0:0:
90,28,43154,2,0,L|41:39,1,40,8|0,0:0|0:0,0:0:0:0:
191,54,43348,1,0,0:1:0:0:
230,58,43445,1,0,1:1:0:0:
270,63,43543,2,0,L|369:44,2,80,0|0|8,0:0|1:0|0:0,0:0:0:0:
216,207,44126,5,0,0:0:0:0:
216,207,44223,1,0,0:0:0:0:
216,207,44320,2,0,P|227:248|230:292,1,80,0|0,1:0|0:0,0:0:0:0:
283,162,44708,2,0,P|241:130|168:142,2,120,8|0|0,0:0|1:0|1:0,0:0:0:0:
353,201,45486,2,0,L|452:193,1,80,8|0,0:0|0:0,0:0:0:0:
476,339,45874,6,0,P|423:355|358:321,1,120,0|0,1:0|1:0,0:0:0:0:
344,296,46263,1,8,0:0:0:0:
241,327,46457,1,0,0:0:0:0:
241,327,46554,2,0,P|200:308|156:303,2,80,0|0|0,1:0|1:0|1:0,0:0:0:0:
269,355,47040,2,0,L|266:283,1,40,8|0,0:0|1:0,0:0:0:0:
21,130,47429,37,0,1:0:0:0:
183,176,47623,1,0,0:0:0:0:
222,177,47720,1,0,0:0:0:0:
250,148,47817,2,0,L|237:83,1,40,8|0,0:0|0:0,0:0:0:0:
308,28,48012,1,0,0:0:0:0:
347,23,48109,1,0,1:0:0:0:
386,18,48206,2,0,P|426:33|459:61,1,80,0|0,0:0|1:0,0:0:0:0:
424,214,48594,2,0,L|388:128,1,80,8|0,0:0|0:0,0:0:0:0:
455,329,48983,5,0,1:0:0:0:
416,337,49080,1,0,0:0:0:0:
377,328,49177,1,0,0:0:0:0:
346,304,49274,1,0,0:0:0:0:
299,240,49372,5,8,0:0:0:0:
255,221,49469,1,0,0:0:0:0:
209,229,49566,1,0,0:0:0:0:
175,262,49663,1,0,1:0:0:0:
165,309,49760,38,0,L|187:355,1,40
94,340,49955,2,0,P|80:298|44:255,1,80,0|8,1:0|0:0,0:0:0:0:
11,133,50343,5,0,1:0:0:0:
11,133,50440,1,0,1:0:0:0:
11,133,50537,2,0,L|85:97,1,80,0|0,1:0|0:0,0:0:0:0:
161,60,50829,1,0,0:0:0:0:
161,60,50926,2,0,B|192:63|219:49|219:49|244:35|278:39,2,120,8|0|0,0:0|1:0|1:0,0:0:0:0:
250,190,51703,1,8,0:0:0:0:
384,102,51898,1,0,0:0:0:0:
472,238,52092,6,0,P|434:272|374:280,1,95.9999970703126,0|0,1:0|0:0,0:0:0:0:
343,274,52383,1,0,3:0:0:0:
343,274,52480,1,0,3:0:0:0:
213,351,52675,38,0,P|164:335|127:287,1,95.9999970703126,0|0,1:0|0:0,0:0:0:0:
117,257,52966,1,0,3:0:0:0:
117,257,53063,1,0,3:0:0:0:
58,92,53258,6,0,L|114:74,1,47.9999985351563,8|0,0:0|0:0,0:0:0:0:
163,20,53452,2,0,L|206:59,1,47.9999985351563,8|0,0:0|0:0,0:0:0:0:
256,112,53646,5,4,0:0:0:0:
477,348,54423,1,8,3:2:0:0:
60,271,55298,38,0,L|46:288,2,17.9999994506836,0|0|0,3:0|3:0|3:0,3:0:0:0:
70,256,55492,2,0,P|81:225|82:169,1,71.9999978027344
71,58,55881,1,0,0:0:0:0:
71,58,55978,2,0,L|149:72,1,71.9999978027344,8|0,0:2|0:0,0:0:0:0:
441,58,56755,5,0,0:0:0:0:
443,321,57338,1,0,0:0:0:0:
427,330,57435,1,0,0:0:0:0:
411,339,57532,2,0,L|341:323,1,71.9999978027344,8|0,0:2|0:0,0:0:0:0:
157,219,58309,6,0,P|111:204|87:208,1,71.9999978027344
75,220,58601,2,0,L|42:345,1,107.999996704102
245,253,59087,1,8,0:2:0:0:
250,236,59184,1,0,0:0:0:0:
252,218,59281,1,0,0:0:0:0:
251,200,59378,1,0,0:0:0:0:
244,183,59475,38,0,L|199:172,4,35.9999989013672,8|2|2|2|2,0:2|0:0|0:0|0:0|0:0,0:0:0:0:
428,41,60252,5,0,0:0:0:0:
84,41,60641,1,8,0:2:0:0:
452,271,61515,6,0,L|466:288,2,17.9999994506836,0|0|0,3:0|3:0|3:0,3:0:0:0:
442,256,61709,2,0,P|431:225|430:169,1,71.9999978027344
441,58,62098,1,0,0:0:0:0:
441,58,62195,2,0,L|363:72,1,71.9999978027344,8|0,0:2|0:0,0:0:0:0:
71,58,62973,37,0,0:0:0:0:
69,321,63556,1,0,0:0:0:0:
85,330,63653,1,0,0:0:0:0:
101,339,63750,2,0,L|171:323,1,71.9999978027344,8|0,0:2|0:0,0:0:0:0:
438,253,64527,6,0,P|449:213|438:174,1,71.9999978027344
433,168,64819,2,0,L|358:138,1,71.9999978027344
349,135,65110,1,0,0:0:0:0:
331,129,65207,1,0,0:0:0:0:
313,123,65304,6,0,P|292:91|286:52,1,71.9999978027344,8|0,0:2|0:0,0:0:0:0:
219,18,65596,2,0,L|181:86,1,71.9999978027344,8|0,0:2|0:0,0:0:0:0:
116,137,65887,1,8,0:2:0:0:
98,137,65984,1,0,0:0:0:0:
80,137,66081,1,0,0:0:0:0:
256,192,75408,12,2,78517,0:0:0:0:
256,192,78614,12,0,80071,0:0:0:0:
446,360,80460,22,0,P|419:311|351:324,1,120
357,333,80848,2,0,B|379:289|379:289|376:247|376:247|395:200,1,120
413,143,81237,1,0,0:0:0:0:
419,123,81334,1,0,0:0:0:0:
425,104,81431,1,0,0:0:0:0:
431,85,81528,1,0,0:0:0:0:
446,37,81625,5,4,0:0:0:0:
446,37,81723,2,0,L|346:58,1,95.9999970703126,2|0,0:0|0:0,0:0:0:0:
263,109,82014,1,10,0:0:0:0:
217,122,82111,1,0,0:0:0:0:
170,108,82208,1,2,0:0:0:0:
132,77,82306,1,0,0:0:0:0:
62,15,82403,5,2,0:0:0:0:
62,15,82500,2,0,L|45:112,1,95.9999970703126,2|0,0:0|0:0,0:0:0:0:
108,183,82791,1,10,0:0:0:0:
117,229,82888,1,0,0:0:0:0:
95,271,82986,1,2,0:0:0:0:
52,290,83082,1,0,0:0:0:0:
3,369,83180,5,2,0:0:0:0:
3,369,83277,2,0,L|109:364,1,95.9999970703126,2|0,0:0|0:0,0:0:0:0:
196,326,83569,1,10,0:0:0:0:
242,339,83666,1,0,0:0:0:0:
284,316,83763,1,2,0:0:0:0:
330,329,83860,1,0,0:0:0:0:
373,307,83957,38,0,P|425:312|470:335,1,95.9999970703126,2|0,0:0|0:0,0:0:0:0:
389,99,84346,2,0,P|361:137|356:185,1,95.9999970703126,8|0,0:0|0:0,0:0:0:0:
345,27,84734,2,2,P|293:86|274:202,1,191.999994140625,2|8,0:0|0:0,0:0:0:0:
141,58,85317,5,2,0:0:0:0:
141,58,85414,1,2,0:0:0:0:
141,58,85512,2,0,L|36:38,1,95.9999970703126,2|0,0:0|0:0,0:0:0:0:
143,156,85900,1,10,0:0:0:0:
184,177,85997,1,0,0:0:0:0:
200,221,86094,1,2,0:0:0:0:
182,264,86191,1,0,0:0:0:0:
118,333,86289,22,0,P|58:321|38:272,1,95.9999970703126,2|0,0:0|0:0,0:0:0:0:
39,278,86548,1,0,0:0:0:0:
37,262,86613,1,0,0:0:0:0:
35,246,86677,2,0,L|78:128,1,95.9999970703126,8|0,0:0|0:0,0:0:0:0:
61,115,86969,1,0,0:0:0:0:
58,75,87066,22,0,L|92:45,3,40
166,75,87455,1,8,0:0:0:0:
166,75,87552,2,0,P|214:68|258:50,1,80
336,31,87843,5,2,0:0:0:0:
336,31,87940,2,0,L|441:71,1,95.9999970703126,2|0,0:0|0:0,0:0:0:0:
491,144,88232,1,10,0:0:0:0:
502,190,88329,1,0,0:0:0:0:
487,234,88426,1,2,0:0:0:0:
450,264,88523,1,0,0:0:0:0:
358,288,88620,5,0,0:0:0:0:
358,288,88717,2,0,L|253:248,1,95.9999970703126,2|0,0:0|0:0,0:0:0:0:
182,220,89009,1,10,0:0:0:0:
134,219,89106,1,0,0:0:0:0:
92,241,89203,1,2,0:0:0:0:
67,281,89300,1,0,0:0:0:0:
71,377,89398,37,2,0:0:0:0:
71,377,89495,2,0,L|67:271,1,95.9999970703126,2|0,0:0|0:0,0:0:0:0:
64,175,89786,1,10,0:0:0:0:
38,134,89883,1,0,0:0:0:0:
65,93,89980,1,2,0:0:0:0:
39,52,90077,1,0,0:0:0:0:
65,10,90175,6,0,P|125:6|170:38,1,95.9999970703126,2|0,0:0|0:0,0:0:0:0:
233,232,90563,2,0,P|199:182|204:127,1,95.9999970703126,8|0,0:0|0:0,0:0:0:0:
464,112,90952,2,2,B|413:111|370:81|370:81|325:50|273:45,1,191.999994140625,2|8,0:0|0:0,0:0:0:0:
364,304,91535,5,2,0:0:0:0:
364,304,91632,1,2,0:0:0:0:
364,304,91729,2,0,P|370:254|387:201,1,95.9999970703126,2|0,0:0|0:0,0:0:0:0:
270,255,92118,1,10,0:0:0:0:
218,279,92215,1,0,0:0:0:0:
162,265,92312,1,2,0:0:0:0:
110,289,92409,1,0,0:0:0:0:
55,272,92506,37,10,0:0:0:0:
55,272,92603,2,0,P|47:217|94:166,1,111.999996582031,8|0,0:0|0:0,0:0:0:0:
164,170,92895,2,0,L|128:40,1,111.999996582031,8|0,0:0|0:0,0:0:0:0:
124,35,93186,1,0,0:0:0:0:
114,8,93284,6,0,P|87:19|56:33,1,55.9999982910157,8|0,0:2|0:0,0:0:0:0:
45,117,93478,1,0,0:0:0:0:
40,144,93575,1,8,0:2:0:0:
49,170,93672,6,0,P|76:159|107:145,1,55.9999982910157
224,93,93866,1,8,0:2:0:0:
248,78,93964,1,0,0:0:0:0:
300,26,94061,37,6,0:0:0:0:
300,26,94158,2,0,P|353:45|402:79,1,103.999995239258,2|0,0:0|0:0,0:0:0:0:
477,138,94449,1,10,0:0:0:0:
436,170,94546,1,0,0:0:0:0:
386,179,94643,1,2,0:0:0:0:
336,164,94740,1,0,0:0:0:0:
236,128,94838,5,2,0:0:0:0:
236,128,94935,2,0,P|195:153|162:203,1,103.999995239258,2|0,0:0|0:0,0:0:0:0:
117,293,95227,1,10,0:0:0:0:
168,300,95324,1,0,0:0:0:0:
216,283,95421,1,2,0:0:0:0:
252,245,95518,1,0,0:0:0:0:
361,240,95615,5,2,0:0:0:0:
361,240,95712,2,0,P|403:213|474:196,1,103.999995239258,2|0,0:0|0:0,0:0:0:0:
328,322,96004,1,10,0:0:0:0:
288,289,96101,1,0,0:0:0:0:
272,240,96198,1,2,0:0:0:0:
286,191,96295,1,0,0:0:0:0:
320,151,96392,38,0,P|343:109|328:37,1,103.999995239258,2|0,0:0|0:0,0:0:0:0:
128,207,96781,2,0,L|99:324,1,103.999995239258,8|0,0:0|0:0,0:0:0:0:
209,155,97170,2,2,P|120:113|38:176,1,207.999990478516,2|8,0:0|0:0,0:0:0:0:
223,273,97752,5,2,0:0:0:0:
223,273,97850,1,2,0:0:0:0:
223,273,97947,2,0,L|331:256,1,103.999995239258,2|0,0:0|0:0,0:0:0:0:
468,150,98335,1,10,0:0:0:0:
416,152,98432,1,0,0:0:0:0:
370,129,98529,1,2,0:0:0:0:
342,86,98626,1,0,0:0:0:0:
251,28,98724,22,0,L|137:41,1,103.999995239258,2|0,0:0|0:0,0:0:0:0:
130,34,98983,1,0,0:0:0:0:
113,29,99048,1,0,0:0:0:0:
96,24,99113,2,0,P|65:59|55:120,1,103.999995239258,8|0,0:0|0:0,0:0:0:0:
75,148,99404,1,0,0:0:0:0:
95,182,99501,2,0,L|74:228,3,40
156,244,99890,38,0,L|147:309,1,51.999997619629,10|0,0:0|0:0,0:0:0:0:
237,269,100084,2,0,L|276:321,1,51.999997619629,2|0,0:0|0:0,0:0:0:0:
311,229,100278,6,0,P|361:234|451:178,1,143.999995605469,0|8,1:0|0:0,0:0:0:0:
399,35,100861,1,0,0:0:0:0:
382,42,100958,1,0,1:0:0:0:
365,49,101056,2,0,P|351:88|350:127,1,71.9999978027344,0|0,0:0|1:0,0:0:0:0:
253,63,101444,2,0,L|165:43,1,71.9999978027344,8|0,0:0|0:0,0:0:0:0:
43,182,101833,38,0,P|102:143|173:144,1,143.999995605469,0|8,1:0|0:0,0:0:0:0:
244,253,102416,1,0,0:0:0:0:
235,268,102513,1,0,1:0:0:0:
226,283,102610,2,0,L|149:288,1,71.9999978027344,0|0,0:0|1:0,0:0:0:0:
307,193,102999,2,0,P|351:198|395:220,1,71.9999978027344,8|0,0:0|0:0,0:0:0:0:
461,278,103387,6,0,L|446:328,1,41.9999987182618
375,359,103581,2,0,L|322:344,1,44.0000013427735
293,272,103776,2,0,L|309:221,1,46.0000008773804
379,191,103970,2,0,L|431:207,1,47.9999985351563
486,107,104164,5,0,0:0:0:0:
462,100,104261,1,0,0:0:0:0:
439,93,104358,1,0,0:0:0:0:
416,86,104455,1,0,0:0:0:0:
393,80,104552,1,0,0:0:0:0:
370,73,104649,1,0,0:0:0:0:
347,66,104747,2,0,L|317:58,4,23.9999992675781
256,192,105039,12,0,106107,0:0:0:0:
431,230,106496,38,0,L|446:117,1,103.999995239258,4|0,3:2|0:0,0:0:0:0:
367,301,106885,38,0,L|343:280,3,29.3333342285157
328,267,107176,1,0,3:0:0:0:
328,267,107273,2,0,L|224:220,1,88.000002685547,8|0,0:0|0:0,0:0:0:0:
156,293,107662,1,0,0:0:0:0:
134,298,107759,2,0,P|90:287|54:256,1,88.000002685547
41,180,108050,22,0,L|71:73,1,103.999995239258,0|0,3:0|0:0,0:0:0:0:
139,114,108342,6,0,P|181:85|277:79,1,132.00000402832,0|0,3:0|3:0,0:0:0:0:
280,83,108730,1,0,3:0:0:0:
298,95,108828,1,8,0:0:0:0:
480,163,109022,2,0,L|373:154,1,88.000002685547
325,309,109410,6,0,L|297:193,1,103.999995239258,4|0,0:1|0:0,0:0:0:0:
412,346,109799,37,0,3:0:0:0:
230,278,109993,1,0,0:0:0:0:
208,273,110091,2,0,P|164:278|126:304,1,88.000002685547,0|0,3:0|3:0,0:0:0:0:
112,317,110382,2,0,L|16:278,1,88.000002685547,8|0,0:0|0:0,0:0:0:0:
100,197,110771,1,0,0:0:0:0:
43,102,110965,2,0,L|91:93,1,44.0000013427735
145,31,111159,6,0,L|256:60,1,103.999995239258,0|0,3:2|0:0,0:0:0:0:
237,133,111451,6,0,P|295:136|374:104,1,132.00000402832,0|0,3:0|3:0,0:0:0:0:
380,97,111839,1,0,3:0:0:0:
393,79,111936,2,0,L|491:67,1,88.000002685547,8|0,0:0|0:0,0:0:0:0:
474,89,112228,1,8,0:0:0:0:
458,200,112422,2,0,B|452:248|452:248|482:337,1,132.00000402832,0|0,3:0|3:0,0:0:0:0:
174,322,113102,38,0,L|61:295,1,103.999995239258,4|0,3:2|0:0,0:0:0:0:
279,306,113491,37,8,0:0:0:0:
211,227,113620,2,0,L|191:199,3,29.3333342285157
182,193,113879,1,0,0:0:0:0:
182,193,113977,2,0,L|162:89,1,88.000002685547,0|0,0:0|3:0,0:0:0:0:
155,22,114268,38,0,L|269:39,1,103.999995239258,0|0,3:0|0:0,0:0:0:0:
314,97,114559,6,0,P|376:85|450:91,1,132.00000402832,0|0,3:0|3:0,0:0:0:0:
458,107,114948,1,0,3:0:0:0:
471,124,115045,2,0,L|464:182,1,44.0000013427735,8|0,0:0|0:0,0:0:0:0:
476,187,115240,2,0,L|469:245,1,44.0000013427735,8|0,0:0|0:0,0:0:0:0:
461,301,115434,22,0,P|413:285|479:246,1,143.999995605469
461,301,115822,6,0,L|340:317,1,103.999995239258,4|0,3:1|0:0,0:0:0:0:
278,265,116114,2,0,L|157:281,1,103.999995239258,4|0,3:1|0:0,0:0:0:0:
100,321,116405,1,8,0:0:0:0:
61,302,116502,1,8,0:0:0:0:
52,261,116600,6,0,L|76:148,1,103.999995239258,4|0,3:1|0:0,0:0:0:0:
164,156,116891,2,0,L|187:42,1,103.999995239258,4|0,3:1|0:0,0:0:0:0:
287,51,117183,1,8,0:0:0:0:
329,41,117280,1,8,0:0:0:0:
371,52,117377,6,0,B|396:89|396:89|373:193,1,132.00000402832,4|8,3:1|0:0,0:0:0:0:
360,254,117765,1,8,0:0:0:0:
172,176,117960,1,4,3:2:0:0:
256,192,118057,12,0,121263,0:0:0:0:
