osu file format v14

[General]
AudioFilename: audio.mp3
AudioLeadIn: 0
PreviewTime: 80460
Countdown: 0
SampleSet: Soft
StackLeniency: 0.3
Mode: 0
LetterboxInBreaks: 0
WidescreenStoryboard: 1

[Editor]
Bookmarks: 3905,16341,28776,41211,53646,66081,78517,81626,94061,104942,106496,117960
DistanceSpacing: 1
BeatDivisor: 4
GridSize: 32
TimelineZoom: 2

[Metadata]
Title:Towards The Horizon
TitleUnicode:Towards The Horizon
Artist:Camellia
ArtistUnicode:かめりあ
Creator:Nerova Riuz GX
Version:Sinnoh's Normal
Source:REFLEC BEAT 悠久のリフレシア
Tags:RB Illusiya イルシヤ 6th KONAMI Arcade Championship KAC bemani The Reflesia of Eternity drumstep folk Zexous Sinnoh Lavender [Teichan]
BeatmapID:1369750
BeatmapSetID:578445

[Difficulty]
HPDrainRate:4
CircleSize:3.5
OverallDifficulty:4
ApproachRate:5
SliderMultiplier:1.2
SliderTickRate:1

[Events]
//Background and Video events
0,0,"TowardsTheHorizonBG.png",0,0
//Break Periods
2,66281,71099
//Storyboard Layer 0 (Background)
//Storyboard Layer 1 (Fail)
//Storyboard Layer 2 (Pass)
//Storyboard Layer 3 (Foreground)
//Storyboard Sound Samples

[TimingPoints]
797,388.60103626943,4,2,1,40,1,0
2351,-111.111111111111,4,2,1,40,0,0
16341,-111.111111111111,4,2,1,60,0,0
28776,-90.9090909090909,4,2,1,80,0,1
38102,-111.111111111111,4,2,1,80,0,0
41211,-90.9090909090909,4,2,1,80,0,1
53646,-111.111111111111,4,2,1,80,0,0
74631,-111.111111111111,4,2,1,40,0,0
75408,-111.111111111111,4,2,1,40,0,0
76962,-111.111111111111,4,2,1,55,0,0
78517,-111.111111111111,4,2,1,70,0,0
81237,-111.111111111111,4,2,1,40,0,0
81626,-90.9090909090909,4,2,1,80,0,1
100278,-111.111111111111,4,2,1,50,0,0
104942,-111.111111111111,4,2,1,60,0,0
106496,-90.9090909090909,4,2,1,80,0,0
117960,-111.111111111111,4,2,1,80,0,0
121263,-111.111111111111,4,2,1,5,0,0

[Colours]
Combo1 : 167,167,167
Combo2 : 255,47,47
Combo3 : 255,148,40

[HitObjects]
249,163,2351,5,0,0:0:0:0:
25,47,3905,6,0,L|156:38,1,107.999996704102
224,97,4683,2,0,P|233:125|238:161,2,53.9999983520508,2|0|0,0:0|0:0|0:0,0:0:0:0:
130,151,5460,2,0,P|124:201|137:275,1,107.999996704102
231,299,6237,2,0,L|357:307,1,107.999996704102,2|0,0:0|0:0,0:0:0:0:
412,227,7014,5,0,0:0:0:0:
364,130,7403,2,0,P|355:59|357:9,2,107.999996704102,0|2|0,0:0|0:0|0:0,0:0:0:0:
277,194,8569,2,0,P|195:203|156:201,1,107.999996704102
69,162,9346,2,0,P|54:119|54:88,2,53.9999983520508,2|0|0,0:0|0:0|0:0,0:0:0:0:
157,100,10123,22,0,P|239:91|279:91,1,107.999996704102
371,107,10900,2,0,P|427:106|447:102,2,53.9999983520508,2|0|0,0:0|0:0|0:0,0:0:0:0:
297,186,11677,2,0,P|287:236|311:308,1,107.999996704102
373,370,12455,2,0,L|242:364,1,107.999996704102,2|0,0:0|0:0,0:0:0:0:
185,292,13232,5,0,0:0:0:0:
82,258,13620,2,0,P|81:326|118:376,2,107.999996704102,0|2|0,0:0|0:0|0:0,0:0:0:0:
123,158,14786,2,0,P|124:90|92:39,1,107.999996704102
214,51,15563,2,0,P|244:48|284:40,2,53.9999983520508,2|0|0,0:0|0:0|0:0,0:0:0:0:
229,158,16341,6,0,L|240:289,1,107.999996704102,0|8,3:0|0:0,0:0:0:0:
333,316,17118,2,0,L|406:320,2,53.9999983520508,0|0|8,3:0|3:0|0:0,0:0:0:0:
243,376,17895,2,0,L|110:364,1,107.999996704102,0|8,3:0|0:0,0:0:0:0:
59,288,18672,2,0,P|29:287|2:290,2,53.9999983520508,0|0|8,3:0|3:0|0:0,0:0:0:0:
144,222,19449,22,0,P|165:144|144:99,1,107.999996704102,0|8,3:0|0:0,0:0:0:0:
101,28,20227,2,0,L|26:22,2,53.9999983520508,0|0|8,3:0|3:0|0:0,0:0:0:0:
208,19,21004,2,0,L|326:28,1,107.999996704102,0|8,3:0|0:0,0:0:0:0:
391,104,21781,1,0,3:0:0:0:
333,195,22170,1,8,0:0:0:0:
380,291,22558,6,0,P|319:283|254:287,1,107.999996704102,0|8,3:0|0:0,0:0:0:0:
176,334,23335,2,0,P|130:339|100:336,2,53.9999983520508,0|0|8,3:0|3:0|0:0,0:0:0:0:
184,225,24113,2,0,P|182:168|160:101,1,107.999996704102,0|8,3:0|0:0,0:0:0:0:
272,70,24890,2,0,P|274:127|296:196,1,107.999996704102,0|8,3:0|0:0,0:0:0:0:
256,192,25667,12,0,27221,3:0:0:0:
384,242,28776,6,0,B|343:246|343:246|289:240|289:240|242:247,2,132.00000402832,4|8|0,3:2|0:0|3:0,0:0:0:0:
442,136,29942,2,0,P|440:104|428:71,1,66.0000020141602,8|0,0:0|0:0,0:0:0:0:
378,30,30330,2,0,B|312:24|312:24|245:54,1,132.00000402832,0|8,3:0|0:0,0:0:0:0:
140,121,31107,1,0,3:0:0:0:
63,20,31496,2,0,L|49:100,1,66.0000020141602,8|0,0:0|0:0,0:0:0:0:
46,151,31885,22,0,P|66:199|35:282,1,132.00000402832,0|8,3:0|0:0,0:0:0:0:
11,310,32467,2,0,P|0:340|5:389,2,66.0000020141602,0|0|0,3:0|0:0|3:0,0:0:0:0:
74,329,33050,1,8,0:0:0:0:
202,297,33439,6,0,B|264:315|264:281|332:301,1,132.00000402832,0|8,3:0|0:0,0:0:0:0:
445,368,34216,2,0,P|437:308|440:292,1,66.0000020141602,0|0,3:0|3:0,0:0:0:0:
486,258,34605,2,0,P|494:198|488:178,1,66.0000020141602,8|0,0:0|0:0,0:0:0:0:
442,151,34993,6,0,B|401:126|353:138|353:138|301:130,2,132.00000402832,0|8|0,3:0|0:0|3:0,0:0:0:0:
383,260,36159,2,0,P|325:258|299:245,1,66.0000020141602,8|0,0:0|0:0,0:0:0:0:
257,228,36548,2,0,B|193:214|193:214|118:235,1,132.00000402832,0|8,3:0|0:0,0:0:0:0:
11,271,37325,1,0,3:0:0:0:
36,147,37714,2,0,L|106:126,1,66.0000020141602,8|0,0:0|0:0,0:0:0:0:
150,110,38102,6,0,P|196:67|196:7,1,107.999996704102,0|0,3:0|0:0,0:0:0:0:
301,64,38879,2,0,P|306:128|322:186,1,107.999996704102,8|0,0:0|0:0,0:0:0:0:
421,198,39657,2,0,P|416:134|402:78,1,107.999996704102,0|0,3:0|0:0,0:0:0:0:
301,64,40434,1,8,0:0:0:0:
136,266,41211,6,0,P|65:275|7:254,2,132.00000402832,4|8|0,3:2|0:0|3:0,0:0:0:0:
245,208,42377,2,0,P|257:248|257:282,1,66.0000020141602,8|0,0:0|0:0,0:0:0:0:
256,337,42765,2,0,P|319:349|386:338,1,132.00000402832,0|8,3:0|0:0,0:0:0:0:
446,220,43543,2,0,P|481:213|511:212,2,66.0000020141602,0|0|8,3:0|3:0|0:0,0:0:0:0:
349,132,44320,5,0,3:0:0:0:
403,11,44708,2,0,P|345:0|273:24,1,132.00000402832,8|0,0:0|3:0,0:0:0:0:
234,147,45486,1,8,0:0:0:0:
137,56,45874,2,0,B|140:88|140:88|120:116|116:156|134:194,1,132.00000402832,0|8,3:0|0:0,0:0:0:0:
242,259,46651,2,0,P|244:297|234:340,1,66.0000020141602,0|0,3:0|3:0,0:0:0:0:
183,359,47040,2,0,L|107:365,1,66.0000020141602,8|0,0:0|0:0,0:0:0:0:
76,312,47429,22,0,P|84:265|36:196,1,132.00000402832,0|8,3:0|0:0,0:0:0:0:
97,79,48206,2,0,P|130:48|166:36,2,66.0000020141602,0|0|8,3:0|3:0|0:0,0:0:0:0:
198,163,48983,2,0,P|258:175|344:158,1,132.00000402832,0|8,3:0|0:0,0:0:0:0:
446,107,49760,1,0,3:0:0:0:
432,238,50149,2,0,L|424:316,1,66.0000020141602,8|0,0:0|0:0,0:0:0:0:
416,368,50537,5,0,3:0:0:0:
284,358,50926,2,0,L|139:348,1,132.00000402832,8|0,0:0|3:0,0:0:0:0:
82,236,51703,1,8,0:0:0:0:
214,230,52092,2,0,B|266:189|266:189|270:121,1,132.00000402832,8|0,0:0|3:0,0:0:0:0:
208,6,52869,1,8,0:0:0:0:
339,12,53258,2,0,L|407:15,1,66.0000020141602,8|8,0:0|0:0,0:0:0:0:
425,70,53646,5,4,0:0:0:0:
296,270,54423,2,0,B|245:268|245:268|197:251,2,80.9999975280763,8|0|0,3:2|0:0|0:0,0:0:0:0:
391,218,55395,2,0,P|436:210|476:218,2,80.9999975280763,0|0|8,3:0|3:0|0:2,0:0:0:0:
249,54,56755,21,0,3:0:0:0:
96,218,57532,2,0,B|99:268|99:268|80:317,2,80.9999975280763,8|0|0,0:2|0:0|0:0,0:0:0:0:
72,163,58309,2,0,P|70:107|94:69,2,80.9999975280763,0|0|0,3:0|3:0|3:0,0:0:0:0:
130,176,59087,2,0,L|206:172,1,53.9999983520508,8|0,0:2|3:0,0:0:0:0:
231,196,59475,1,8,0:2:0:0:
324,250,59864,6,0,L|329:121,1,107.999996704102,2|0,0:0|3:0,0:0:0:0:
274,48,60641,2,0,B|219:46|219:46|175:57,2,80.9999975280763,8|0|0,0:2|0:0|0:0,0:0:0:0:
382,53,61613,2,0,P|427:51|480:34,2,80.9999975280763,0|0|8,3:0|3:0|0:2,0:0:0:0:
214,189,62973,5,0,3:0:0:0:
384,322,63750,2,0,B|442:320|442:320|480:329,2,80.9999975280763,8|0|0,0:2|0:0|0:0,0:0:0:0:
324,326,64527,2,0,P|263:321|232:305,2,80.9999975280763,0|0|0,3:0|3:0|3:0,0:0:0:0:
350,272,65304,2,0,P|360:215|384:181,2,80.9999975280763,8|8|8,0:2|0:2|0:2,0:0:0:0:
384,322,66081,1,0,3:0:0:0:
256,192,72299,12,0,74631,0:0:0:0:
354,76,75408,6,0,P|419:64|484:69,1,107.999996704102,0|0,3:0|3:0,3:0:0:0:
428,168,76185,2,0,P|364:179|297:176,1,107.999996704102,0|0,3:0|3:0,3:0:0:0:
245,101,76962,2,0,L|166:99,1,53.9999983520508,0|0,3:0|3:0,3:0:0:0:
146,131,77351,2,0,L|85:133,1,53.9999983520508,0|0,3:0|3:0,3:0:0:0:
55,174,77740,2,0,L|51:240,1,53.9999983520508,0|0,3:0|3:0,3:0:0:0:
90,266,78128,2,0,L|93:330,1,53.9999983520508,0|0,3:0|3:0,3:0:0:0:
153,343,78517,5,2,0:0:0:0:
455,150,80460,6,0,B|474:100|467:58|451:30,2,107.999996704102,0|0|6,0:0|0:0|0:0,0:0:0:0:
359,223,81626,6,0,B|297:241|297:241|225:234,1,132.00000402832,4|8,3:2|0:0,0:0:0:0:
168,117,82403,2,0,L|163:32,2,66.0000020141602,0|0|8,3:0|3:0|0:0,0:0:0:0:
92,225,83180,2,0,L|82:358,1,132.00000402832,0|8,3:0|0:0,0:0:0:0:
208,318,83957,2,0,P|240:314|289:327,1,66.0000020141602,0|0,3:0|3:0,0:0:0:0:
325,360,84346,2,0,P|354:364|390:359,1,66.0000020141602,8|0,0:0|0:0,0:0:0:0:
445,323,84734,22,0,P|472:276|440:202,1,132.00000402832,0|8,3:0|0:0,0:0:0:0:
349,117,85512,2,0,P|342:76|346:31,2,66.0000020141602,0|0|8,3:0|3:0|0:0,0:0:0:0:
273,225,86289,2,0,P|214:231|139:222,1,132.00000402832,0|8,3:0|0:0,0:0:0:0:
73,109,87066,2,0,L|70:23,1,66.0000020141602,0|0,3:0|3:0,0:0:0:0:
132,20,87455,2,0,L|221:17,1,66.0000020141602,8|0,0:0|0:0,0:0:0:0:
262,30,87843,6,0,B|331:32|331:32|392:63,1,132.00000402832,0|8,3:0|0:0,0:0:0:0:
406,190,88620,2,0,L|415:274,2,66.0000020141602,0|0|8,3:0|3:0|0:0,0:0:0:0:
280,232,89398,2,0,L|273:372,1,132.00000402832,0|8,3:0|0:0,0:0:0:0:
150,314,90175,2,0,L|74:321,1,66.0000020141602,0|0,3:0|3:0,0:0:0:0:
81,254,90563,2,0,L|6:260,1,66.0000020141602,8|0,0:0|0:0,0:0:0:0:
4,193,90952,6,0,P|-3:142|42:79,1,132.00000402832,0|8,3:0|0:0,0:0:0:0:
172,58,91729,2,0,L|258:47,2,66.0000020141602,0|0|8,3:0|3:0|0:0,0:0:0:0:
185,189,92506,1,8,0:0:0:0:
317,194,92895,1,8,0:0:0:0:
424,113,93284,2,0,B|439:137|439:137|446:217,2,99.0000030212403,8|8|8,0:2|0:2|0:2,0:0:0:0:
371,73,94061,22,0,B|332:66|332:66|276:75|276:75|229:64,1,132.00000402832,4|8,3:2|0:0,0:0:0:0:
108,50,94838,2,0,L|29:55,2,66.0000020141602,0|0|8,3:0|3:0|0:0,0:0:0:0:
158,172,95615,2,0,P|170:238|143:303,1,132.00000402832,0|8,3:0|0:0,0:0:0:0:
249,382,96393,2,0,L|320:378,1,66.0000020141602,0|0,3:0|3:0,0:0:0:0:
347,320,96781,2,0,L|419:316,1,66.0000020141602,8|0,0:0|0:0,0:0:0:0:
447,259,97170,6,0,P|457:217|420:138,1,132.00000402832,0|8,3:0|0:0,0:0:0:0:
290,154,97947,2,0,L|215:162,2,66.0000020141602,0|0|8,3:0|3:0|0:0,0:0:0:0:
334,29,98724,2,0,B|282:11|236:35|236:35|189:35,1,132.00000402832,0|8,3:0|0:0,0:0:0:0:
92,103,99501,2,0,L|85:183,1,66.0000020141602,0|0,3:0|3:0,0:0:0:0:
136,212,99890,2,0,P|143:252|133:293,1,66.0000020141602,8|0,0:0|0:0,0:0:0:0:
123,339,100278,22,0,L|252:332,1,107.999996704102,0|8,3:0|0:0,0:0:0:0:
339,326,101056,1,0,3:0:0:0:
281,234,101444,1,8,0:0:0:0:
338,142,101833,2,0,P|282:126|219:148,1,107.999996704102,0|8,3:0|0:0,0:0:0:0:
171,226,102610,1,0,3:0:0:0:
124,128,102999,1,8,0:0:0:0:
256,192,103387,12,0,104942,0:0:0:0:
80,57,106496,6,0,B|86:91|86:91|80:150|80:150|88:190,1,132.00000402832,4|0,3:2|0:0,0:0:0:0:
209,136,107273,2,0,P|260:129|282:132,2,66.0000020141602,8|0|0,0:0|0:0|0:0,0:0:0:0:
180,265,108050,2,0,B|183:330|183:330|200:374,2,99.0000030212403,0|0|0,3:0|3:0|3:0,0:0:0:0:
240,237,108828,2,0,B|274:231|296:242|296:242|338:233|339:182,1,132.00000402832,8|0,0:0|0:0,0:0:0:0:
311,128,109410,5,0,3:0:0:0:
404,34,109799,2,0,B|438:31|438:31|501:41,2,99.0000030212403,0|0|8,3:0|3:0|0:0,0:0:0:0:
448,158,110771,1,0,0:0:0:0:
412,284,111159,2,0,B|420:345|420:345|436:378,2,99.0000030212403,0|0|0,3:2|3:0|3:0,0:0:0:0:
365,237,111936,2,0,B|301:231|301:231|259:243,1,99.0000030212403,8|8,0:0|0:0,0:0:0:0:
233,297,112422,2,0,B|169:303|169:303|128:288,1,99.0000030212403,0|0,3:0|3:0,0:0:0:0:
35,376,113102,6,0,B|38:342|38:342|23:316|16:277|39:243,1,132.00000402832,4|8,3:2|0:0,0:0:0:0:
89,210,113685,2,0,P|131:177|149:101,1,132.00000402832
137,41,114268,2,0,B|164:27|164:27|241:23,2,99.0000030212403,0|0|0,3:0|3:0|3:0,0:0:0:0:
90,87,115045,2,0,P|71:118|68:155,1,66.0000020141602,8|8,0:0|0:0,0:0:0:0:
89,210,115434,1,0,3:0:0:0:
217,231,115822,22,0,B|251:235|251:235|327:217,1,99.0000030212403,0|0,3:0|3:0,0:0:0:0:
347,162,116308,2,0,B|381:158|381:158|456:174,2,99.0000030212403,8|0|0,0:0|3:0|3:0,0:0:0:0:
285,135,117086,2,0,B|281:101|281:101|298:27,2,99.0000030212403,8|0|8,0:0|3:0|0:0,0:0:0:0:
314,220,117960,1,4,3:2:0:0:
256,192,118057,12,0,121263,0:0:0:0:
