osu file format v14

[General]
AudioFilename: audio.mp3
AudioLeadIn: 0
PreviewTime: 80460
Countdown: 0
SampleSet: Soft
StackLeniency: 0.2
Mode: 0
LetterboxInBreaks: 0
WidescreenStoryboard: 1

[Editor]
Bookmarks: 3905,16341,28776,41211,53646,66081,78517,81626,87649,94061,104942,106496,109410,117960
DistanceSpacing: 1.7
BeatDivisor: 8
GridSize: 4
TimelineZoom: 3.399999

[Metadata]
Title:Towards The Horizon
TitleUnicode:Towards The Horizon
Artist:Camellia
ArtistUnicode:かめりあ
Creator:Nerova Riuz GX
Version:Lavender's Extra
Source:REFLEC BEAT 悠久のリフレシア
Tags:RB Illusiya イルシヤ 6th KONAMI Arcade Championship KAC bemani The Reflesia of Eternity drumstep folk Zexous Sinnoh Lavender [Teichan]
BeatmapID:1372489
BeatmapSetID:578445

[Difficulty]
HPDrainRate:6
CircleSize:4.3
OverallDifficulty:8
ApproachRate:9
SliderMultiplier:1.86
SliderTickRate:1

[Events]
//Background and Video events
0,0,"TowardsTheHorizonBG.png",0,0
//Break Periods
2,66281,74808
//Storyboard Layer 0 (Background)
//Storyboard Layer 1 (Fail)
//Storyboard Layer 2 (Pass)
//Storyboard Layer 3 (Foreground)
//Storyboard Sound Samples

[TimingPoints]
797,388.60103626943,4,2,1,40,1,0
2157,-133.333333333333,4,2,1,40,0,0
16341,-133.333333333333,4,2,1,60,0,0
19449,-111.111111111111,4,2,1,60,0,0
22558,-95.2380952380952,4,2,1,60,0,0
28776,-76.9230769230769,4,2,1,80,0,0
38102,-100,4,2,1,80,0,0
41211,-76.9230769230769,4,2,1,80,0,0
45097,-55.5555555555556,4,2,1,80,0,0
45874,-76.9230769230769,4,2,1,80,0,0
51315,-55.5555555555556,4,2,1,80,0,0
52092,-76.9230769230769,4,2,1,80,0,0
53646,-103.092783505155,4,2,1,80,0,0
75408,-103.092783505155,4,2,1,40,0,0
76185,-103.092783505155,4,2,1,55,0,0
78517,-133.333333333333,4,2,1,70,0,0
80071,-133.333333333333,4,2,1,50,0,0
81626,-76.9230769230769,4,2,1,80,0,1
100278,-133.333333333333,4,2,1,40,0,0
103387,-76.9230769230769,4,2,1,60,0,0
104942,-200,4,2,1,40,0,0
105913,-76.9230769230769,4,2,1,60,0,0
106496,-50,4,2,1,80,0,0
106885,-66.6666666666667,4,2,1,80,0,0
112714,-100,4,2,1,80,0,0
113102,-50,4,2,1,80,0,0
113491,-66.6666666666667,4,2,1,80,0,0
121263,-66.6666666666667,4,2,1,5,0,0

[Colours]
Combo1 : 167,167,167
Combo2 : 255,47,47
Combo3 : 255,148,40
Combo4 : 254,228,82
Combo5 : 180,104,255

[HitObjects]
300,148,2157,54,0,L|293:125,2,23.2500008869172
318,163,2351,2,0,B|411:142|411:142|383:176,1,139.500005321503,2|0,0:0|0:0,0:0:0:0:
354,266,2934,1,0,0:0:0:0:
354,266,3031,1,0,0:0:0:0:
354,266,3128,6,0,P|343:252|334:237,1,34.8750013303757
256,308,3322,2,0,L|256:274,1,34.8750013303757,0|0,0:0|0:0,0:0:0:0:
158,266,3517,2,0,P|169:252|178:237,1,34.8750013303757,0|0,0:0|0:0,0:0:0:0:
256,192,3711,1,0,0:0:0:0:
256,192,3808,1,0,0:0:0:0:
256,192,3905,6,0,P|290:194|323:182,1,69.7500026607514,0|0,0:0|0:0,0:0:0:0:
387,139,4197,1,0,0:0:0:0:
387,139,4294,2,0,L|392:173,1,34.8750013303757,0|0,0:0|0:0,0:0:0:0:
242,264,4488,2,0,L|236:298,1,34.8750013303757,0|0,0:0|0:0,0:0:0:0:
373,322,4683,5,2,0:0:0:0:
276,121,4877,1,0,0:0:0:0:
151,306,5071,1,0,0:0:0:0:
322,265,5265,1,0,0:0:0:0:
186,133,5460,6,0,P|195:167|196:201,1,69.7500026607514,0|0,0:0|0:0,0:0:0:0:
242,264,5751,1,0,0:0:0:0:
242,263,5848,2,0,P|258:258|275:255,1,34.8750013303757,0|0,0:0|0:0,0:0:0:0:
440,276,6043,2,0,P|457:275|474:272,1,34.8750013303757,0|0,0:0|0:0,0:0:0:0:
342,179,6237,37,2,0:0:0:0:
367,317,6431,2,0,L|342:179,1,139.5,0|0,0:0|0:0,0:0:0:0:
198,124,7014,6,0,P|248:133|294:111,1,104.625003991127,0|0,0:0|0:0,0:0:0:0:
308,90,7403,1,0,0:0:0:0:
195,207,7597,1,0,0:0:0:0:
308,90,7791,6,0,P|257:99|211:77,1,104.625003991127,2|0,0:0|0:0,0:0:0:0:
198,56,8180,1,0,0:0:0:0:
311,173,8374,1,0,0:0:0:0:
379,11,8569,38,0,P|379:46|390:79,1,69.7500026607514
475,244,8957,2,0,P|453:216|425:195,1,69.7500026607514,0|0,0:0|0:0,0:0:0:0:
260,110,9249,1,0,0:0:0:0:
260,110,9346,2,0,P|293:119|328:120,1,69.7500026607514,2|0,0:0|0:0,0:0:0:0:
450,125,9734,2,0,L|470:112,2,23.2500008869172
349,193,9929,1,0,0:0:0:0:
475,244,10123,6,0,L|405:251,1,69.7500026607514
335,284,10414,1,0,0:0:0:0:
335,284,10512,2,0,P|342:299|350:315,1,34.8750013303757,0|0,0:0|0:0,0:0:0:0:
176,346,10706,2,0,P|178:328|179:311,1,34.8750013303757,0|0,0:0|0:0,0:0:0:0:
252,263,10900,6,0,L|264:331,1,69.7500026607514,2|0,0:0|0:0,0:0:0:0:
131,168,11289,2,0,L|118:236,1,69.7500026607514,0|0,0:0|0:0,0:0:0:0:
251,72,11677,37,0,0:0:0:0:
255,81,11774,1,0,0:0:0:0:
256,89,11871,1,0,0:0:0:0:
256,98,11968,1,0,0:0:0:0:
255,106,12066,5,0,0:0:0:0:
283,86,12163,1,0,0:0:0:0:
317,81,12260,1,0,0:0:0:0:
350,91,12357,1,0,0:0:0:0:
375,115,12455,2,0,L|377:80,1,34.8750013303757,2|0,0:0|0:0,0:0:0:0:
308,263,12649,2,0,B|319:222|312:165|312:165|324:183|338:196,1,139.500005321503,0|0,0:0|0:0,0:0:0:0:
381,291,13135,1,0,0:0:0:0:
373,306,13232,6,0,P|320:302|268:299,1,104.625003991127,0|0,0:0|0:0,0:0:0:0:
256,286,13620,2,0,P|262:320|260:354,1,69.7500026607514,0|0,0:0|0:0,0:0:0:0:
144,237,14009,38,0,P|196:233|248:230,1,104.625003991127,2|0,0:0|0:0,0:0:0:0:
260,217,14397,2,0,P|253:251|255:285,1,69.7500026607514,0|0,0:0|0:0,0:0:0:0:
217,134,14786,6,0,P|187:152|153:153,1,69.7500026607514
104,52,15175,2,0,P|138:56|165:77,1,69.7500026607514,0|0,0:0|0:0,0:0:0:0:
295,134,15466,1,0,0:0:0:0:
295,134,15563,2,0,P|324:152|358:153,1,69.7500026607514,2|0,0:0|0:0,0:0:0:0:
408,52,15952,2,0,P|373:56|346:77,1,69.7500026607514,0|0,0:0|0:0,0:0:0:0:
256,204,16341,6,0,L|256:343,1,139.500005321503,0|8,3:0|0:0,0:0:0:0:
113,233,16923,2,0,L|110:209,2,23.2500008869172,0|0|0,0:0|0:0|0:0,0:0:0:0:
109,248,17118,2,0,P|142:239|177:242,1,69.7500026607514,0|0,0:0|3:0,0:0:0:0:
403,299,17506,2,0,P|369:307|334:304,1,69.7500026607514,8|0,0:0|0:0,0:0:0:0:
256,126,17895,37,0,3:0:0:0:
256,203,18089,1,0,0:0:0:0:
256,213,18186,1,0,0:0:0:0:
256,223,18284,1,8,0:0:0:0:
190,88,18478,1,0,0:0:0:0:
322,87,18672,2,0,P|357:93|390:82,1,69.7500026607514,0|0,0:0|3:0,0:0:0:0:
410,67,18931,2,0,L|412:43,2,23.2500008869172,0|0|8,0:0|0:0|0:0,0:0:0:0:
323,208,19255,1,0,0:0:0:0:
447,145,19449,6,0,B|360:174|372:103|285:135,1,167.399994891358,0|8,3:0|0:0,0:0:0:0:
221,262,20032,1,0,0:0:0:0:
221,262,20129,1,0,3:0:0:0:
220,262,20227,2,0,B|208:218|208:218|219:181,1,83.6999974456788,0|0,0:0|3:0,0:0:0:0:
136,88,20615,2,0,B|148:132|148:132|137:169,1,83.6999974456788,8|0,0:0|0:0,0:0:0:0:
0,340,21004,6,0,P|54:310|114:322,1,125.549996168518,0|0,3:0|0:0,0:0:0:0:
150,344,21392,2,0,L|136:261,1,83.6999974456788,8|0,0:0|0:0,0:0:0:0:
136,261,21684,2,0,P|177:259|218:248,2,83.6999974456788,0|0|0,3:0|3:0|3:0,0:0:0:0:
65,237,22170,1,8,0:0:0:0:
46,228,22267,1,0,3:0:0:0:
255,93,22558,38,0,P|348:111|421:50,1,195.299994039917,0|8,3:0|0:0,0:0:0:0:
480,246,23141,2,0,L|484:213,2,32.5499990066529,0|0|0,0:0|0:0|0:0,0:0:0:0:
476,271,23335,2,0,P|427:263|379:259,1,97.6499970199586,0|0,0:0|0:0,0:0:0:0:
202,213,23724,2,0,P|250:209|299:202,1,97.6499970199586,8|0,0:0|0:0,0:0:0:0:
372,149,24113,5,0,3:0:0:0:
312,361,24307,1,0,0:0:0:0:
312,361,24404,1,0,0:0:0:0:
312,361,24501,2,0,L|305:312,1,48.8249985099793,8|0,0:0|0:0,0:0:0:0:
280,117,24695,1,0,0:0:0:0:
162,313,24890,6,0,P|186:309|208:300,1,48.8249985099793,0|0,0:0|0:0,0:0:0:0:
422,247,25084,2,0,P|397:247|373:242,1,48.8249985099793,0|0,3:0|0:0,0:0:0:0:
188,85,25278,1,8,0:0:0:0:
280,233,25473,2,0,L|283:200,2,32.5499990066529,0|0|0,0:0|0:0|0:0,0:0:0:0:
207,298,25667,37,0,3:0:0:0:
158,265,25764,1,0,0:0:0:0:
98,265,25861,1,0,3:0:0:0:
48,300,25958,1,0,0:0:0:0:
28,356,26056,5,0,3:0:0:0:
71,334,26153,1,0,0:0:0:0:
94,293,26250,1,0,3:0:0:0:
90,245,26347,1,0,0:0:0:0:
59,208,26444,5,0,3:0:0:0:
56,243,26541,1,0,0:0:0:0:
74,275,26638,1,0,3:0:0:0:
107,290,26735,1,0,0:0:0:0:
143,284,26833,37,0,3:0:0:0:
123,270,26930,1,0,0:0:0:0:
98,270,27027,1,0,3:0:0:0:
79,284,27124,1,0,0:0:0:0:
71,307,27221,1,0,3:0:0:0:
256,192,27319,12,0,28387,0:0:0:0:
199,250,28776,6,0,B|173:231|161:210|161:210|133:247|133:247|97:204|97:204|85:260|62:278,1,241.799988931275,4|8,3:2|0:0,0:0:0:0:
275,348,29359,2,0,L|283:289,1,60.4499972328187,2|0,0:0|3:0,0:0:0:0:
293,198,29553,1,0,0:0:0:0:
305,210,29650,1,2,0:0:0:0:
305,210,29844,21,0,0:0:0:0:
293,198,29942,1,8,0:0:0:0:
395,207,30039,1,0,0:0:0:0:
391,188,30136,1,2,0:0:0:0:
480,179,30233,1,0,0:0:0:0:
355,286,30330,54,0,B|388:255|395:206|395:206|417:250|461:267,1,181.349991698456,0|0,3:0|0:0,0:0:0:0:
459,266,30719,2,0,P|469:237|483:211,1,60.4499972328187,8|0,0:0|0:0,0:0:0:0:
313,242,30913,2,0,P|335:262|355:286,1,60.4499972328187,2|0,0:0|3:0,0:0:0:0:
420,348,31107,5,0,0:0:0:0:
422,358,31205,1,2,0:0:0:0:
395,205,31399,5,0,0:0:0:0:
394,195,31496,2,0,L|334:186,1,60.4499972328187,8|0,0:0|0:0,0:0:0:0:
291,328,31690,2,0,L|231:336,1,60.4499972328187
149,214,31885,6,0,B|126:86|126:86|144:108|165:121,1,181.349991698456,0|0,3:0|0:0,0:0:0:0:
235,214,32273,2,0,P|230:243|214:269,1,60.4499972328187,8|0,0:0|0:0,0:0:0:0:
105,288,32467,2,0,P|81:269|67:242,1,60.4499972328187,2|0,0:0|3:0,0:0:0:0:
126,86,32662,5,0,0:0:0:0:
133,115,32759,1,2,0:0:0:0:
256,49,32953,5,0,0:0:0:0:
256,79,33050,1,8,0:0:0:0:
378,115,33245,6,0,L|384:75,2,40.2999981552125,2|0|0,0:0|0:0|0:0,0:0:0:0:
375,131,33439,2,0,P|368:189|401:239,1,120.899994465637,0|0,3:0|0:0,0:0:0:0:
463,305,33730,1,0,0:0:0:0:
472,315,33828,2,0,L|342:336,1,120.899994465637,8|2,0:0|0:0,0:0:0:0:
200,280,34119,1,0,3:0:0:0:
255,338,34216,21,0,0:0:0:0:
277,304,34313,1,0,3:0:0:0:
279,265,34410,1,0,0:0:0:0:
261,229,34507,1,0,3:0:0:0:
200,160,34605,5,8,0:0:0:0:
214,157,34702,1,0,3:0:0:0:
229,154,34799,1,0,0:0:0:0:
244,152,34896,1,8,0:0:0:0:
259,149,34993,6,0,B|318:137|343:99|343:99|326:149|334:179,1,181.349991698456,4|0,3:2|0:0,0:0:0:0:
420,131,35382,2,0,P|413:160|418:189,1,60.4499972328187,8|0,0:0|0:0,0:0:0:0:
471,304,35576,2,0,P|479:275|474:246,1,60.4499972328187,2|0,0:0|3:0,0:0:0:0:
362,251,35771,37,0,0:0:0:0:
338,276,35868,1,2,0:0:0:0:
338,276,36062,37,0,0:0:0:0:
362,251,36160,1,8,0:0:0:0:
285,207,36256,1,0,0:0:0:0:
297,195,36354,1,2,0:0:0:0:
232,138,36451,1,0,0:0:0:0:
209,226,36548,38,0,B|273:221|273:221|310:178|310:178|371:174,1,181.349991698456,0|0,3:0|0:0,0:0:0:0:
386,183,36936,2,0,L|382:122,1,60.4499972328187,8|0,0:0|0:0,0:0:0:0:
193,217,37131,2,0,L|196:277,1,60.4499972328187,2|0,0:0|3:0,0:0:0:0:
333,305,37325,21,0,0:0:0:0:
338,276,37422,1,2,0:0:0:0:
237,109,37616,5,0,0:0:0:0:
232,138,37714,2,0,P|262:135|290:126,1,60.4499972328187,8|0,0:0|0:0,0:0:0:0:
444,194,37908,2,0,P|414:192|386:183,1,60.4499972328187,0|0,0:0|0:0,0:0:0:0:
182,43,38102,54,0,B|138:8|138:8|150:137,1,186,0|0,3:0|0:0,0:0:0:0:
169,304,38782,2,0,L|172:328,2,23.25,0|0|8,3:0|3:0|0:0,0:0:0:0:
329,73,39462,1,0,0:0:0:0:
329,73,39559,1,0,3:0:0:0:
328,73,39657,6,0,P|368:49|413:54,1,93,0|0,3:0|0:0,0:0:0:0:
444,183,39948,2,0,P|404:206|359:201,1,93,0|0,3:0|0:0,0:0:0:0:
386,128,40239,1,0,3:0:0:0:
386,128,40337,1,0,0:0:0:0:
386,128,40434,6,0,L|379:174,1,46.5,8|2,0:0|0:0,0:0:0:0:
133,174,40628,2,0,L|126:128,1,46.5
234,154,40822,2,0,L|280:147,1,46.5,2|0,0:0|3:0,0:0:0:0:
280,239,41017,2,0,L|234:232,1,46.5,0|2,0:0|0:0,0:0:0:0:
200,51,41211,6,0,P|255:70|311:51,1,120.899994465637,4|0,3:2|0:0,0:0:0:0:
388,0,41502,1,0,0:0:0:0:
388,0,41600,2,0,L|384:60,1,60.4499972328187,8|0,0:0|0:0,0:0:0:0:
305,251,41794,2,0,L|302:191,1,60.4499972328187,0|0,0:0|3:0,0:0:0:0:
343,126,41988,5,2,0:0:0:0:
198,336,42183,1,0,3:0:0:0:
239,147,42377,1,8,0:0:0:0:
383,277,42571,1,2,0:0:0:0:
98,245,42765,38,0,P|156:252|206:220,1,120.899994465637,0|0,3:0|0:0,0:0:0:0:
239,147,43057,1,0,0:0:0:0:
239,147,43154,2,0,L|248:206,1,60.4499972328187,8|0,0:0|0:0,0:0:0:0:
384,302,43348,2,0,L|374:361,1,60.4499972328187,0|0,0:0|3:0,0:0:0:0:
212,298,43543,5,2,0:0:0:0:
420,230,43737,1,0,3:0:0:0:
236,288,43931,2,0,B|333:285|295:218|395:219,1,181.349991698456,8|0,0:0|0:0,0:0:0:0:
419,229,44320,6,0,P|418:158|470:207,1,181.349991698456,0|0,3:0|0:0,0:0:0:0:
475,278,44708,1,8,0:0:0:0:
246,210,45097,38,0,P|244:111|315:179,1,251.099992337036,2|0,0:0|0:0,0:0:0:0:
305,253,45486,1,8,0:0:0:0:
30,315,45874,6,0,P|-7:269|3:203,1,120.899994465637,0|0,3:0|0:0,0:0:0:0:
109,178,46166,1,0,0:0:0:0:
109,178,46263,2,0,P|146:223|135:289,1,120.899994465637,8|0,0:0|0:0,0:0:0:0:
69,246,46554,1,0,3:0:0:0:
69,246,46651,5,0,0:0:0:0:
210,171,46846,1,0,3:0:0:0:
149,110,47040,2,0,L|140:70,2,40.2999981552125,8|0|0,0:0|0:0|0:0,0:0:0:0:
223,184,47234,1,0,0:0:0:0:
315,10,47429,38,0,L|302:130,1,120.899994465637,0|0,3:0|0:0,0:0:0:0:
366,257,47720,1,0,0:0:0:0:
366,257,47817,2,0,P|374:228|368:199,1,60.4499972328187,8|0,0:0|0:0,0:0:0:0:
223,184,48011,2,0,P|210:211|212:241,1,60.4499972328187,0|0,0:0|3:0,0:0:0:0:
319,349,48206,2,0,P|378:339|438:334,1,120.899994465637,2|0,0:0|3:0,0:0:0:0:
212,241,48594,2,0,P|152:231|92:226,1,120.899994465637,8|2,0:0|0:0,0:0:0:0:
336,164,48983,5,0,3:0:0:0:
340,149,49080,1,0,0:0:0:0:
341,134,49177,1,0,0:0:0:0:
340,119,49274,1,0,0:0:0:0:
336,105,49372,5,8,0:0:0:0:
375,126,49469,1,0,0:0:0:0:
420,130,49566,1,0,0:0:0:0:
461,114,49663,1,0,3:0:0:0:
493,82,49760,38,0,P|480:109|474:138,1,60.4499972328187,2|0,0:0|0:0,0:0:0:0:
417,271,49955,2,0,P|416:239|409:211,1,60.4499972328187,0|0,3:0|0:0,0:0:0:0:
276,45,50149,1,8,0:0:0:0:
420,130,50343,1,2,0:0:0:0:
263,235,50537,6,0,B|203:238|139:249|139:249|163:233|180:210,1,181.349991698456,0|0,3:0|0:0,0:0:0:0:
335,190,50926,2,0,P|345:218|346:248,1,60.4499972328187,8|0,0:0|0:0,0:0:0:0:
293,314,51120,1,0,0:0:0:0:
349,104,51315,6,0,B|431:108|519:123|519:123|486:101|463:69,1,251.099992337036,2|0,0:0|0:0,0:0:0:0:
275,56,51704,2,0,P|260:94|265:135,1,83.6999974456788,8|0,0:0|0:0,0:0:0:0:
335,190,51898,1,2,0:0:0:0:
216,260,52092,38,0,L|276:251,1,60.4499972328187,8|0,0:0|0:0,0:0:0:0:
417,208,52286,1,0,3:0:0:0:
421,237,52383,1,0,3:0:0:0:
276,251,52675,6,0,L|216:241,1,60.4499972328187,8|0,0:0|0:0,0:0:0:0:
75,198,52869,1,0,3:0:0:0:
71,227,52966,1,0,3:0:0:0:
183,106,53160,1,0,3:0:0:0:
183,106,53258,2,0,L|174:165,1,60.4499972328187,8|0,0:0|0:0,0:0:0:0:
329,106,53452,2,0,L|337:165,1,60.4499972328187,8|0,0:0|0:0,0:0:0:0:
204,265,53646,6,0,B|240:241|256:194|256:194|270:241|310:264,1,180.420004267136,4|0,3:2|0:0,0:0:0:0:
457,83,54423,2,0,P|371:97|307:37,1,180.420004267136,8|0,0:0|0:0,0:0:0:0:
62,73,55201,38,0,P|40:79|18:80,2,45.1050010667839,0|0|0,0:0|3:0|3:0,0:0:0:0:
149,45,55492,2,0,L|133:133,2,90.2100021335679,0|0|0,3:0|3:0|3:0,0:0:0:0:
222,102,55978,2,0,P|239:115|260:124,1,45.1050010667839,8|0,0:0|0:0,0:0:0:0:
127,162,56172,1,0,3:0:0:0:
307,346,56755,6,0,P|370:287|457:301,1,180.420004267136,0|0,3:0|0:0,0:0:0:0:
327,134,57338,1,0,3:0:0:0:
327,134,57435,1,0,3:0:0:0:
327,134,57532,2,0,L|316:230,1,90.2100021335679,8|2,0:0|0:0,0:0:0:0:
115,72,57921,2,0,L|137:165,1,90.2100021335679,0|0,0:0|0:0,0:0:0:0:
221,48,58309,6,0,L|229:184,2,135.315003200352,0|0|0,3:0|3:0|3:0,0:0:0:0:
314,55,59087,2,0,P|337:50|359:50,2,45.1050010667839,8|0|0,0:0|3:0|3:0,0:0:0:0:
135,158,59475,2,0,P|107:227|179:211,1,180.420004267136,8|2,0:0|0:0,0:0:0:0:
178,211,60252,38,0,P|172:256|172:301,1,90.2100021335679,0|0,3:0|0:0,0:0:0:0:
343,344,60641,2,0,P|342:253|331:164,1,180.420004267136,8|0,0:0|0:0,0:0:0:0:
429,316,61418,6,0,P|451:310|473:309,2,45.1050010667839,0|0|0,0:0|3:0|3:0,0:0:0:0:
342,344,61709,2,0,L|358:256,2,90.2100021335679,0|0|0,3:0|3:0|3:0,0:0:0:0:
269,287,62195,2,0,P|252:274|231:265,1,45.1050010667839,8|0,0:0|0:0,0:0:0:0:
364,227,62389,1,0,0:0:0:0:
134,103,62973,6,0,P|61:116|90:48,1,180.420004267136,0|0,3:0|0:0,0:0:0:0:
219,79,63556,1,0,3:0:0:0:
219,79,63653,1,0,3:0:0:0:
219,79,63750,2,0,P|212:146|208:213,2,135.315003200352,8|0|0,0:0|0:0|0:0,0:0:0:0:
448,191,64527,2,0,P|454:123|458:56,2,135.315003200352,0|0|0,3:0|3:0|3:0,0:0:0:0:
386,258,65207,1,0,3:0:0:0:
369,270,65304,38,0,P|324:267|279:265,1,90.2100021335679,8|0,0:0|3:0,0:0:0:0:
287,110,65596,2,0,P|332:112|377:114,1,90.2100021335679,8|0,0:0|3:0,0:0:0:0:
328,195,65887,1,8,0:0:0:0:
328,195,65984,1,8,0:0:0:0:
328,195,66081,1,0,3:0:0:0:
34,105,75408,6,0,L|27:149,7,45.1050010667839,0|0|0|0|0|0|0|0,3:0|3:0|3:0|3:0|3:0|3:0|3:0|3:0,0:0:0:0:
99,150,76185,2,0,L|105:194,7,45.1050010667839,0|0|0|0|0|0|0|0,3:0|3:0|3:0|3:0|3:0|3:0|3:0|3:0,0:0:0:0:
162,240,76962,5,0,3:0:0:0:
182,245,77059,1,0,3:0:0:0:
203,247,77156,1,0,3:0:0:0:
223,243,77253,1,0,3:0:0:0:
242,234,77350,1,0,3:0:0:0:
261,225,77447,1,0,3:0:0:0:
281,221,77544,1,0,3:0:0:0:
302,223,77642,1,0,3:0:0:0:
322,229,77740,37,0,3:0:0:0:
367,251,77837,1,0,3:0:0:0:
417,248,77934,1,0,3:0:0:0:
459,221,78031,1,0,3:0:0:0:
481,176,78128,1,0,3:0:0:0:
478,126,78225,1,0,3:0:0:0:
450,84,78322,1,0,3:0:0:0:
405,62,78420,1,0,3:0:0:0:
355,65,78517,54,0,L|344:204,1,139.500005321503,0|0,3:0|0:0,0:0:0:0:
30,275,79100,2,0,P|26:257|21:241,1,34.8750013303757,0|0,0:0|0:0,0:0:0:0:
179,213,79294,2,0,P|179:230|182:247,1,34.8750013303757,0|0,0:0|0:0,0:0:0:0:
68,160,79488,2,0,L|102:154,1,34.8750013303757,0|0,0:0|0:0,0:0:0:0:
102,248,79683,2,0,L|99:230,6,17.4375006651879,0|0|0|0|0|0|0,0:0|0:0|0:0|0:0|0:0|0:0|0:0,0:0:0:0:
119,319,80071,21,0,3:0:0:0:
116,343,80168,1,8,0:0:0:0:
256,298,80363,5,0,3:0:0:0:
256,322,80460,1,8,0:0:0:0:
393,319,80654,37,0,3:0:0:0:
394,330,80751,1,0,3:0:0:0:
396,343,80848,2,0,L|400:377,2,34.8750013303757,8|8|0,0:0|0:0|3:0,0:0:0:0:
489,156,81237,2,0,L|485:122,3,34.8750013303757,2|2|2|0,0:0|0:0|0:0|0:0,0:0:0:0:
444,45,81626,5,4,3:2:0:0:
432,56,81723,1,0,0:0:0:0:
420,64,81820,1,0,0:0:0:0:
406,70,81917,1,0,0:0:0:0:
334,26,82014,2,0,P|303:25|274:19,1,60.4499972328187,8|0,0:0|0:0,0:0:0:0:
286,102,82208,2,0,P|255:102|226:108,1,60.4499972328187,2|0,0:0|3:0,0:0:0:0:
0,207,82403,5,2,0:0:0:0:
13,219,82500,1,0,0:0:0:0:
28,228,82597,1,0,3:0:0:0:
45,236,82694,1,0,0:0:0:0:
93,166,82791,2,0,P|124:166|153:162,1,60.4499972328187,8|0,0:0|0:0,0:0:0:0:
159,246,82985,2,0,P|190:246|219:250,1,60.4499972328187,2|0,0:0|0:0,0:0:0:0:
501,266,83180,37,0,3:0:0:0:
484,280,83277,1,0,0:0:0:0:
467,291,83374,1,0,0:0:0:0:
448,299,83471,1,0,0:0:0:0:
375,254,83568,2,0,P|344:254|314:250,1,60.4499972328187,8|0,0:0|0:0,0:0:0:0:
309,334,83762,2,0,P|278:333|248:337,1,60.4499972328187,2|0,0:0|3:0,0:0:0:0:
175,108,83957,5,2,0:0:0:0:
219,250,84151,1,0,3:0:0:0:
267,93,84346,5,8,0:0:0:0:
214,264,84540,1,2,0:0:0:0:
338,161,84734,38,0,P|424:175|493:119,1,181.349991698456,0|0,3:0|0:0,0:0:0:0:
493,119,85123,2,0,P|483:179|479:239,1,120.899994465637,8|2,0:0|0:0,0:0:0:0:
432,310,85414,1,0,3:0:0:0:
431,310,85512,2,0,P|401:312|372:317,1,60.4499972328187,2|0,0:0|0:0,0:0:0:0:
214,264,85706,2,0,P|184:258|154:256,1,60.4499972328187,0|0,3:0|0:0,0:0:0:0:
236,345,85900,5,8,0:0:0:0:
275,321,85997,1,0,0:0:0:0:
295,281,86094,1,2,0:0:0:0:
292,236,86191,1,0,0:0:0:0:
267,200,86288,1,0,3:0:0:0:
457,161,86483,2,0,P|476:157|496:154,2,40.2999981552125,0|0|0,0:0|0:0|0:0,0:0:0:0:
378,232,86677,6,0,P|373:171|364:112,1,120.899994465637,8|2,0:0|0:0,0:0:0:0:
345,28,86969,1,0,3:0:0:0:
338,11,87066,2,0,P|307:14|278:20,1,60.4499972328187,2|0,0:0|3:0,0:0:0:0:
267,200,87260,2,0,P|279:172|289:143,1,60.4499972328187,0|0,0:0|3:0,0:0:0:0:
138,44,87455,2,0,P|155:68|175:91,1,60.4499972328187,8|0,0:0|3:0,0:0:0:0:
425,56,87649,2,0,P|438:29|449:1,1,60.4499972328187,0|0,3:0|0:0,0:0:0:0:
303,92,87843,37,4,3:2:0:0:
306,127,87940,1,0,0:0:0:0:
309,162,88037,1,0,0:0:0:0:
312,197,88135,1,0,0:0:0:0:
319,280,88232,6,0,P|349:277|379:271,1,60.4499972328187,8|0,0:0|0:0,0:0:0:0:
326,363,88426,2,0,P|296:359|266:353,1,60.4499972328187,2|0,0:0|3:0,0:0:0:0:
206,293,88620,5,2,0:0:0:0:
209,251,88717,1,0,0:0:0:0:
213,208,88814,1,0,3:0:0:0:
216,166,88912,1,0,0:0:0:0:
223,82,89009,38,0,P|252:85|282:91,1,60.4499972328187,8|0,0:0|0:0,0:0:0:0:
230,1,89203,2,0,P|200:4|170:10,1,60.4499972328187,2|0,0:0|0:0,0:0:0:0:
103,63,89398,5,0,3:0:0:0:
107,111,89495,1,0,0:0:0:0:
111,160,89592,1,0,0:0:0:0:
115,209,89690,1,0,0:0:0:0:
122,292,89786,6,0,P|151:288|181:282,1,60.4499972328187,8|0,0:0|0:0,0:0:0:0:
129,375,89981,2,0,P|99:371|69:365,1,60.4499972328187,2|0,0:0|3:0,0:0:0:0:
8,306,90175,37,2,0:0:0:0:
174,153,90369,1,0,3:0:0:0:
129,375,90563,1,8,0:0:0:0:
34,168,90758,1,2,0:0:0:0:
231,281,90952,6,0,P|315:254|386:305,1,181.349991698456,0|0,3:0|0:0,0:0:0:0:
386,305,91341,2,0,P|392:244|400:185,1,120.899994465637,8|2,0:0|0:0,0:0:0:0:
368,106,91632,1,0,3:0:0:0:
368,106,91729,6,0,P|339:114|309:118,1,60.4499972328187,2|0,0:0|0:0,0:0:0:0:
224,116,91923,1,0,3:0:0:0:
194,111,92021,1,0,0:0:0:0:
82,56,92118,38,0,P|111:47|141:44,1,60.4499972328187,8|0,0:0|0:0,0:0:0:0:
186,195,92312,1,0,0:0:0:0:
216,200,92410,1,2,0:0:0:0:
386,306,92506,5,0,3:0:0:0:
386,306,92603,2,0,B|410:218|410:218|383:233,1,120.899994465637,8|0,0:0|0:0,0:0:0:0:
226,289,92895,2,0,B|217:199|217:199|240:218,1,120.899994465637,8|0,0:0|3:0,0:0:0:0:
307,270,93186,1,8,0:0:0:0:
307,270,93284,6,0,L|312:209,1,60.4499972328187,8|0,0:0|3:0,0:0:0:0:
318,125,93478,2,0,L|323:64,1,60.4499972328187,0|8,3:0|0:0,0:0:0:0:
121,4,93672,38,0,L|125:64,1,60.4499972328187,0|0,3:0|3:0,0:0:0:0:
134,178,93866,2,0,L|138:238,1,60.4499972328187,8|0,0:0|3:0,0:0:0:0:
195,340,94061,5,4,3:2:0:0:
235,330,94158,1,0,0:0:0:0:
226,289,94255,1,0,0:0:0:0:
185,299,94352,1,0,0:0:0:0:
110,339,94449,2,0,P|80:335|49:333,1,60.4499972328187,8|0,0:0|0:0,0:0:0:0:
310,288,94644,2,0,P|339:283|370:281,1,60.4499972328187,2|0,0:0|3:0,0:0:0:0:
275,209,94838,5,2,0:0:0:0:
287,159,94935,1,0,0:0:0:0:
237,147,95032,1,0,3:0:0:0:
227,197,95129,1,0,0:0:0:0:
359,202,95227,2,0,P|388:197|419:195,1,60.4499972328187,8|0,0:0|0:0,0:0:0:0:
149,161,95421,2,0,P|119:155|89:152,1,60.4499972328187,2|0,0:0|0:0,0:0:0:0:
290,82,95615,37,0,3:0:0:0:
347,67,95712,1,0,0:0:0:0:
335,7,95809,1,0,0:0:0:0:
275,22,95906,1,0,0:0:0:0:
427,95,96004,2,0,P|428:64|426:34,1,60.4499972328187,8|0,0:0|0:0,0:0:0:0:
226,136,96198,2,0,P|224:166|226:196,1,60.4499972328187,2|0,0:0|3:0,0:0:0:0:
402,322,96392,5,2,0:0:0:0:
308,181,96587,1,0,3:0:0:0:
225,347,96781,5,8,0:0:0:0:
315,165,96975,1,2,0:0:0:0:
139,190,97170,38,0,P|63:185|102:121,1,181.349991698456,0|0,3:0|0:0,0:0:0:0:
226,136,97558,2,0,P|224:196|227:256,1,120.899994465637,8|2,0:0|0:0,0:0:0:0:
189,333,97850,1,0,3:0:0:0:
190,333,97948,2,0,P|220:335|249:340,1,60.4499972328187,2|0,0:0|0:0,0:0:0:0:
407,287,98142,2,0,P|437:281|467:279,1,60.4499972328187,0|0,3:0|0:0,0:0:0:0:
385,368,98336,5,8,0:0:0:0:
346,344,98433,1,0,0:0:0:0:
326,304,98530,1,2,0:0:0:0:
329,259,98627,1,0,0:0:0:0:
354,223,98724,1,0,3:0:0:0:
421,66,98919,2,0,P|417:47|414:27,2,40.2999981552125,0|0|0,0:0|0:0|0:0,0:0:0:0:
473,154,99113,6,0,P|412:149|353:140,1,120.899994465637,8|2,0:0|0:0,0:0:0:0:
292,80,99404,1,0,3:0:0:0:
292,80,99501,2,0,P|262:85|232:89,1,60.4499972328187,2|0,0:0|0:0,0:0:0:0:
107,117,99695,2,0,P|76:113|47:108,1,60.4499972328187,0|0,3:0|0:0,0:0:0:0:
196,171,99890,1,8,0:0:0:0:
196,171,99987,1,0,0:0:0:0:
196,171,100084,1,2,0:0:0:0:
196,171,100181,1,0,0:0:0:0:
195,170,100278,38,0,P|202:240|197:309,1,139.500005321503,0|8,3:0|0:0,0:0:0:0:
46,287,100861,1,0,0:0:0:0:
46,287,100958,1,0,3:0:0:0:
46,287,101056,2,0,P|80:286|114:277,1,69.7500026607514,0|0,0:0|3:0,0:0:0:0:
222,107,101444,2,0,P|205:137|195:170,1,69.7500026607514,8|0,0:0|0:0,0:0:0:0:
289,349,101833,6,0,B|360:322|350:381|422:357,1,139.500005321503,0|8,3:0|0:0,0:0:0:0:
300,177,102416,1,0,0:0:0:0:
300,177,102513,1,0,3:0:0:0:
300,176,102610,2,0,P|296:210|293:245,1,69.7500026607514,0|0,0:0|3:0,0:0:0:0:
481,73,102999,2,0,P|484:107|487:142,1,69.7500026607514,8|0,0:0|0:0,0:0:0:0:
301,29,103387,6,0,P|271:36|241:41,1,60.4499972328187,0|0,3:0|0:0,0:0:0:0:
114,63,103581,2,0,P|142:72|170:85,1,60.4499972328187,0|0,3:0|0:0,0:0:0:0:
321,131,103776,38,0,P|291:138|261:143,1,60.4499972328187,0|0,3:0|0:0,0:0:0:0:
83,149,103970,2,0,P|111:158|139:171,1,60.4499972328187,0|0,3:0|0:0,0:0:0:0:
340,233,104164,6,0,P|310:240|280:245,1,60.4499972328187,0|0,3:0|0:0,0:0:0:0:
51,233,104359,2,0,P|79:242|107:255,1,60.4499972328187,0|0,3:0|0:0,0:0:0:0:
198,325,104553,37,0,3:0:0:0:
197,330,104650,1,0,0:0:0:0:
197,335,104747,1,0,3:0:0:0:
196,339,104844,1,0,0:0:0:0:
195,343,104942,2,0,P|222:272|267:333,1,186,0|0,3:0|0:0,0:0:0:0:
267,333,105913,54,0,L|278:274,1,60.4499972328187,0|0,3:0|0:0,0:0:0:0:
332,104,106107,2,0,B|350:232|350:232|332:208|313:197,1,181.349991698456,8|0,0:0|0:0,0:0:0:0:
251,138,106496,22,0,B|225:119|213:98|213:98|182:141|182:141|137:92|137:92|131:153|102:188,1,279,0|0,3:0|0:0,0:0:0:0:
105,315,106885,2,0,L|112:269,5,46.5000017738343,2|0|0|2|0|0,0:0|0:0|0:0|0:0|0:0|0:0,0:0:0:0:
175,219,107273,1,8,0:0:0:0:
409,151,107467,6,0,L|417:106,2,46.5000017738343,2|0|0,0:0|0:0|0:0,0:0:0:0:
428,230,107662,1,0,0:0:0:0:
421,254,107759,2,0,P|351:256|282:266,1,139.500005321503,2|0,0:0|3:0,0:0:0:0:
175,219,108050,6,0,B|157:73|157:73|198:119,1,209.250007982254,0|0,3:0|3:0,0:0:0:0:
258,180,108439,2,0,L|303:172,2,46.5000017738343,2|0|0,0:0|0:0|0:0,0:0:0:0:
89,211,108633,1,0,3:0:0:0:
89,211,108730,1,0,3:0:0:0:
89,211,108828,38,0,L|97:280,1,69.7500026607514,8|0,0:0|0:0,0:0:0:0:
258,249,109022,2,0,L|258:180,1,69.7500026607514,0|0,3:0|0:0,0:0:0:0:
426,210,109216,2,0,L|418:280,1,69.7500026607514,8|0,0:0|0:0,0:0:0:0:
196,118,109410,6,0,B|237:90|256:35|256:35|272:90|318:116,1,209.250007982254,4|0,3:2|0:0,0:0:0:0:
318,116,109799,1,0,3:0:0:0:
297,242,109993,5,0,0:0:0:0:
297,242,110091,2,0,B|266:259|256:296|256:296|243:259|216:241,1,139.500005321503,0|0,3:0|3:0,0:0:0:0:
127,195,110382,2,0,P|134:230|137:265,1,69.7500026607514,10|0,0:0|0:0,0:0:0:0:
374,265,110576,2,0,P|377:230|384:195,1,69.7500026607514,0|0,0:0|0:0,0:0:0:0:
256,100,110771,37,0,0:0:0:0:
256,65,110868,1,0,0:0:0:0:
256,295,111062,5,2,0:0:0:0:
255,330,111159,2,0,P|304:284|370:299,1,139.500005321503,0|0,3:0|0:0,0:0:0:0:
484,268,111451,2,0,P|435:313|369:298,1,139.500005321503,0|0,3:0|0:0,0:0:0:0:
267,88,111742,1,0,3:0:0:0:
261,76,111839,1,0,0:0:0:0:
256,65,111936,5,8,0:0:0:0:
231,77,112033,1,0,3:0:0:0:
203,82,112130,1,0,3:0:0:0:
176,77,112227,1,8,0:0:0:0:
152,64,112324,1,0,3:0:0:0:
133,43,112422,2,0,P|123:112|113:181,1,139.500005321503,8|0,0:0|0:0,0:0:0:0:
62,332,112714,22,0,P|7:358|0:298,1,139.5,0|0,3:0|0:0,0:0:0:0:
51,238,113102,6,0,B|175:320|172:157|310:235,1,279,4|0,3:2|0:0,0:0:0:0:
370,294,113491,5,8,0:0:0:0:
425,107,113685,2,0,P|448:103|470:97,2,46.5000017738343,2|0|0,0:0|0:0|0:0,0:0:0:0:
338,114,113879,1,0,0:0:0:0:
341,79,113977,1,2,0:0:0:0:
171,79,114171,1,0,3:0:0:0:
174,113,114268,6,0,P|147:175|82:192,1,139.500005321503,0|0,3:0|0:0,0:0:0:0:
174,270,114559,2,0,P|147:208|82:191,1,139.500005321503,0|0,3:0|0:0,0:0:0:0:
12,191,114851,2,0,L|81:191,1,69.7500026607514,0|0,3:0|3:0,0:0:0:0:
242,192,115045,37,8,0:0:0:0:
93,273,115240,1,8,0:0:0:0:
266,276,115434,2,0,B|323:266|336:190|336:190|339:246|370:270,1,209.250007982254,0|0,3:0|0:0,0:0:0:0:
508,250,115822,6,0,L|369:269,1,139.500005321503,4|0,3:2|0:0,0:0:0:0:
242,192,116114,2,0,L|172:182,1,69.7500026607514,0|0,3:0|0:0,0:0:0:0:
93,273,116308,1,8,0:0:0:0:
60,283,116405,1,8,0:0:0:0:
34,162,116600,6,0,L|172:181,1,139.500005321503,4|0,3:2|0:0,0:0:0:0:
300,104,116892,2,0,L|369:94,1,69.7500026607514,0|0,3:0|0:0,0:0:0:0:
449,185,117086,1,8,0:0:0:0:
482,195,117183,1,8,0:0:0:0:
297,242,117377,38,0,B|266:259|256:296|256:296|243:259|216:241,1,139.500005321503,4|0,3:2|0:0,0:0:0:0:
256,171,117668,1,8,0:0:0:0:
256,171,117765,1,8,0:0:0:0:
256,384,117960,1,0,3:0:0:0:
256,192,118057,12,0,121263,0:0:0:0:
