osu file format v14

[General]
AudioFilename: audio.mp3
AudioLeadIn: 0
PreviewTime: 80460
Countdown: 0
SampleSet: Soft
StackLeniency: 0.3
Mode: 0
LetterboxInBreaks: 0
WidescreenStoryboard: 1

[Editor]
Bookmarks: 3905,16341,28776,41211,53646,66081,78517,81626,94061,104942,106496,117960
DistanceSpacing: 0.3
BeatDivisor: 4
GridSize: 32
TimelineZoom: 2

[Metadata]
Title:Towards The Horizon
TitleUnicode:Towards The Horizon
Artist:Camellia
ArtistUnicode:かめりあ
Creator:Nerova Riuz GX
Version:Hard
Source:REFLEC BEAT 悠久のリフレシア
Tags:RB Illusiya イルシヤ 6th KONAMI Arcade Championship KAC bemani The Reflesia of Eternity drumstep folk Zexous Sinnoh Lavender [Teichan]
BeatmapID:1350903
BeatmapSetID:578445

[Difficulty]
HPDrainRate:5.1
CircleSize:4.1
OverallDifficulty:6.3
ApproachRate:7.5
SliderMultiplier:1.46
SliderTickRate:1

[Events]
//Background and Video events
0,0,"TowardsTheHorizonBG.png",0,0
//Break Periods
2,66281,71399
//Storyboard Layer 0 (Background)
//Storyboard Layer 1 (Fail)
//Storyboard Layer 2 (Pass)
//Storyboard Layer 3 (Foreground)
//Storyboard Sound Samples

[TimingPoints]
797,388.60103626943,4,2,1,40,1,0
3905,-100,4,2,1,40,0,0
16341,-100,4,2,1,60,0,0
22558,-100,4,2,1,60,0,0
28776,-100,4,2,1,80,0,1
28873,-100,4,2,1,80,0,0
33245,-100,4,2,1,80,0,0
33439,-100,4,2,1,80,0,0
41211,-100,4,2,1,80,0,0
41600,-100,4,2,1,80,0,0
47040,-100,4,2,1,80,0,0
47234,-100,4,2,1,80,0,0
50149,-100,4,2,1,80,0,0
50537,-100,4,2,1,80,0,0
53646,-100,4,2,1,60,0,0
75214,-100,4,2,1,5,0,0
75408,-100,4,2,1,60,0,0
80460,-100,4,2,1,80,0,0
80848,-100,4,2,1,80,0,0
81626,-83.3333333333333,4,2,1,80,0,1
100278,-100,4,2,1,40,0,0
103387,-100,4,2,1,60,0,0
104942,-100,4,2,1,40,0,0
106107,-100,4,2,1,40,0,0
106496,-100,4,2,1,80,0,1
106593,-100,4,2,1,80,0,0
109410,-83.3333333333333,4,2,1,80,0,0
109799,-100,4,2,1,80,0,0
113102,-100,4,2,1,80,0,1
113296,-100,4,2,1,80,0,0
114268,-83.3333333333333,4,2,1,80,0,0
114657,-100,4,2,1,80,0,0
115822,-83.3333333333333,4,2,1,80,0,0
117377,-100,4,2,1,80,0,0
118057,-100,4,2,1,5,0,0

[Colours]
Combo1 : 167,167,167
Combo2 : 255,47,47
Combo3 : 255,148,40
Combo4 : 254,228,82
Combo5 : 180,104,255

[HitObjects]
319,73,2157,54,0,L|347:77,3,24.3333333333333,0|0|0|2,0:0|0:0|0:0|0:0,0:0:0:0:
123,356,3905,22,0,P|108:271|105:205,1,146,2|0,0:0|0:0,0:0:0:0:
145,133,4488,1,0,0:0:0:0:
107,53,4683,2,0,P|70:40|22:35,2,73,2|0|0,0:0|0:0|0:0,0:0:0:0:
317,114,5460,6,0,P|387:125|443:82,1,146,0|0,0:0|0:0,0:0:0:0:
365,38,6043,1,0,0:0:0:0:
276,35,6237,1,2,0:0:0:0:
228,111,6431,2,0,P|239:185|238:258,1,146,0|0,0:0|0:0,0:0:0:0:
331,327,7014,6,0,P|373:310|448:297,1,109.5,0|0,0:0|0:0,0:0:0:0:
465,302,7403,1,0,0:0:0:0:
226,261,7791,2,0,P|184:244|109:231,1,109.5,2|0,0:0|0:0,0:0:0:0:
92,236,8180,1,0,0:0:0:0:
316,169,8569,37,0,0:0:0:0:
316,169,9346,2,0,P|379:163|365:92,1,146,2|0,0:0|0:0,0:0:0:0:
203,43,10123,6,0,P|148:55|38:51,1,146,0|0,0:0|0:0,0:0:0:0:
10,128,10706,1,0,0:0:0:0:
37,210,10900,2,0,P|26:255|29:290,2,73,2|0|0,0:0|0:0|0:0,0:0:0:0:
255,189,11677,6,0,P|289:179|320:158,1,73,0|0,0:0|0:0,0:0:0:0:
390,254,12066,2,0,P|381:289|383:325,1,73,0|0,0:0|0:0,0:0:0:0:
304,262,12455,1,2,0:0:0:0:
266,339,12649,2,0,P|207:296|135:292,1,146,0|0,0:0|0:0,0:0:0:0:
37,357,13232,38,0,P|29:302|26:248,1,109.5,0|0,0:0|0:0,0:0:0:0:
30,219,13620,1,0,0:0:0:0:
184,43,14009,2,0,P|191:97|194:151,1,109.5,2|0,0:0|0:0,0:0:0:0:
191,181,14397,1,0,0:0:0:0:
348,355,14786,6,0,P|363:284|386:215,2,146,0|0|2,0:0|0:0|0:0,0:0:0:0:
348,355,15758,1,0,0:0:0:0:
270,314,15952,2,0,P|234:307|197:302,1,73,0|0,0:0|0:0,0:0:0:0:
84,236,16341,6,0,P|158:223|234:220,1,146,0|8,3:0|0:0,0:0:0:0:
216,119,16923,1,0,0:0:0:0:
209,127,17021,1,0,3:0:0:0:
203,136,17118,2,0,P|130:140|58:151,2,146,0|8|0,0:0|0:0|3:0,0:0:0:0:
273,83,18089,37,0,0:0:0:0:
350,41,18284,2,0,P|388:44|438:42,1,73,8|0,0:0|0:0,0:0:0:0:
486,103,18672,2,0,L|476:185,1,73,0|0,0:0|3:0,0:0:0:0:
511,256,19061,1,8,0:0:0:0:
511,256,19255,1,0,0:0:0:0:
414,344,19449,6,0,P|339:331|264:328,1,146,0|8,3:0|0:0,0:0:0:0:
284,226,20031,1,0,0:0:0:0:
289,235,20129,1,0,3:0:0:0:
295,244,20227,2,0,P|367:248|439:259,2,146,0|8|0,0:0|0:0|3:0,0:0:0:0:
119,113,21392,6,0,P|120:76|130:31,1,73,8|0,0:0|0:0,0:0:0:0:
203,83,21781,2,0,P|202:148|191:237,1,146,0|8,3:0|0:0,0:0:0:0:
163,315,22364,1,0,0:0:0:0:
70,336,22558,38,0,P|61:263|59:190,2,146,0|8|0,3:0|0:0|0:0,0:0:0:0:
163,315,23530,1,0,3:0:0:0:
249,356,23724,2,0,P|283:352|322:351,1,73,8|0,0:0|0:0,0:0:0:0:
435,281,24113,6,0,P|363:269|285:264,1,146,0|8,3:0|0:0,0:0:0:0:
211,195,24695,1,0,0:0:0:0:
288,118,24890,2,0,P|323:112|360:109,1,73,0|0,0:0|3:0,0:0:0:0:
224,37,25278,2,0,P|188:30|151:27,1,73,8|0,0:0|0:0,0:0:0:0:
256,192,25667,12,0,27221,3:0:0:0:
348,58,28776,6,0,L|355:140,1,73,4|0,3:2|0:0,0:0:0:0:
422,226,29164,1,8,0:0:0:0:
359,338,29359,2,0,P|298:314|274:311,1,73,2|0,0:0|0:0,0:0:0:0:
229,353,29650,2,0,P|194:362|158:363,1,73,2|0,0:0|0:0,0:0:0:0:
94,326,29942,2,0,L|84:285,2,36.5,8|0|2,0:0|0:0|0:0,0:0:0:0:
0,202,30330,38,0,P|-6:130|9:59,1,146,0|8,3:0|0:0,0:0:0:0:
113,12,30913,1,2,0:0:0:0:
194,93,31107,1,0,0:0:0:0:
202,101,31205,2,0,L|285:90,1,73,2|0,0:0|0:0,0:0:0:0:
338,56,31496,2,0,L|427:62,2,73,8|0|0,0:0|0:0|3:0,0:0:0:0:
239,246,32273,5,8,0:0:0:0:
289,353,32467,1,2,0:0:0:0:
411,309,32662,1,0,0:0:0:0:
409,298,32759,2,0,P|414:255|414:213,1,73,2|0,0:0|0:0,0:0:0:0:
472,181,33050,2,0,P|467:138|467:96,1,73,8|2,0:0|0:0,0:0:0:0:
339,54,33439,6,0,P|266:51|193:41,1,146,0|8,3:0|0:0,0:0:0:0:
90,20,34022,1,2,0:0:0:0:
0,119,34216,2,0,P|36:120|72:126,1,73,0|0,0:0|0:0,0:0:0:0:
114,241,34605,2,0,P|77:241|41:247,1,73,8|0,0:0|0:0,0:0:0:0:
136,359,34993,38,0,P|199:349|288:345,1,146,4|8,3:2|0:0,0:0:0:0:
394,303,35576,1,2,0:0:0:0:
342,192,35771,1,0,0:0:0:0:
347,182,35868,2,0,P|341:147|341:110,1,73,2|0,0:0|0:0,0:0:0:0:
390,57,36159,2,0,L|426:52,2,36.5,8|0|2,0:0|0:0|0:0,0:0:0:0:
233,73,36548,6,0,P|185:64|85:54,1,146,0|8,3:0|0:0,0:0:0:0:
0,133,37131,1,2,0:0:0:0:
67,241,37325,1,0,0:0:0:0:
63,251,37422,2,0,P|64:287|73:322,1,73,2|0,0:0|0:0,0:0:0:0:
141,295,37714,2,0,B|178:285|178:285|211:294,1,73,8|0,0:0|0:0,0:0:0:0:
324,352,38102,38,0,B|381:347|381:347|406:366|406:366|463:362,2,146,0|0|8,3:0|0:0|0:0,0:0:0:0:
134,163,39657,2,0,P|82:158|23:168,2,109.5,0|0|0,3:0|3:0|3:0,0:0:0:0:
226,74,40434,2,0,L|222:25,3,36.5,8|2|0|0,0:0|0:0|0:0|0:0,0:0:0:0:
295,55,40822,2,0,L|292:18,3,36.5,2|0|0|2,0:0|3:0|0:0|0:0,0:0:0:0:
368,69,41211,38,0,P|394:122|404:213,1,146,4|8,3:2|0:0,0:0:0:0:
388,319,41794,1,0,0:0:0:0:
393,328,41891,1,0,3:0:0:0:
399,336,41988,2,0,P|434:343|471:345,1,73,2|0,0:0|3:0,0:0:0:0:
389,209,42377,2,0,P|353:201|316:199,1,73,8|2,0:0|0:0,0:0:0:0:
213,76,42765,38,0,P|273:65|369:65,1,146,0|8,3:0|0:0,0:0:0:0:
495,96,43348,1,0,0:0:0:0:
512,190,43543,1,2,0:0:0:0:
449,261,43737,1,0,3:0:0:0:
449,261,43931,2,0,P|414:252|378:249,1,73,8|0,0:0|0:0,0:0:0:0:
291,356,44320,6,0,P|288:299|267:227,1,109.5,0|0,3:0|0:0,0:0:0:0:
204,264,44708,2,0,L|125:259,1,73,8|0,0:0|0:0,0:0:0:0:
61,130,45097,2,0,L|170:136,1,109.5,2|0,0:0|0:0,0:0:0:0:
230,94,45486,2,0,P|220:58|219:22,1,73,8|2,0:0|0:0,0:0:0:0:
350,37,45874,6,0,P|347:97|358:187,1,146,0|8,3:0|0:0,0:0:0:0:
362,293,46457,1,0,0:0:0:0:
354,301,46554,1,0,3:0:0:0:
346,309,46651,2,0,P|310:299|275:292,1,73,0|0,0:0|3:0,0:0:0:0:
154,292,47040,2,0,P|147:327|137:362,1,73,8|0,0:0|0:0,0:0:0:0:
48,226,47429,38,0,P|47:153|36:81,1,146,0|8,3:0|0:0,0:0:0:0:
143,15,48012,1,0,0:0:0:0:
148,24,48109,1,0,3:0:0:0:
154,33,48206,1,0,0:0:0:0:
250,67,48400,2,0,P|292:61|331:59,1,73,0|8,3:0|0:0,0:0:0:0:
144,124,48789,1,2,0:0:0:0:
203,203,48983,6,0,P|191:275|190:348,2,146,0|8|2,3:0|0:0|0:0,0:0:0:0:
242,58,49955,1,0,3:0:0:0:
338,132,50149,2,0,P|380:138|419:140,1,73,8|2,0:0|0:0,0:0:0:0:
501,256,50537,6,0,P|443:256|387:268,1,109.5,0|0,3:0|0:0,0:0:0:0:
333,310,50926,2,0,P|337:346|337:382,1,73,8|0,0:0|0:0,0:0:0:0:
204,321,51315,2,0,P|205:266|211:211,1,109.5,2|0,0:0|0:0,0:0:0:0:
144,184,51703,2,0,P|108:188|72:188,1,73,8|0,0:0|0:0,0:0:0:0:
151,53,52092,38,0,P|207:46|264:43,1,109.5,8|0,0:0|3:0,0:0:0:0:
289,49,52480,1,0,0:0:0:0:
373,170,52675,2,0,P|429:177|486:180,1,109.5,8|0,0:0|3:0,0:0:0:0:
511,174,53063,1,0,0:0:0:0:
440,286,53258,2,0,P|445:323|446:369,2,73,8|8|4,0:0|0:0|3:2,0:0:0:0:
236,56,54229,5,0,0:0:0:0:
231,65,54326,1,0,0:0:0:0:
225,74,54423,2,0,P|153:70|81:57,1,146,8|0,0:0|0:0,0:0:0:0:
3,105,55006,1,2,0:0:0:0:
3,194,55201,6,0,P|2:266|9:339,1,146
93,366,55784,1,0,0:0:0:0:
103,371,55881,1,0,3:0:0:0:
112,377,55978,2,0,P|147:370|184:367,1,73,8|0,0:0|3:0,0:0:0:0:
192,265,56366,2,0,P|155:261|119:255,1,73,0|0,0:0|0:0,0:0:0:0:
275,322,56755,38,0,P|349:322|424:331,1,146,0|0,3:0|0:0,0:0:0:0:
498,289,57338,1,0,3:0:0:0:
495,278,57435,1,0,3:0:0:0:
493,267,57532,1,8,0:0:0:0:
325,124,58309,6,0,P|304:74|315:21,2,109.5,0|0|0,3:0|3:0|3:0,0:0:0:0:
394,65,59087,1,8,0:0:0:0:
404,61,59184,1,0,3:0:0:0:
413,56,59281,2,0,L|485:62,2,73,0|8|0,3:0|0:0|0:0,0:0:0:0:
246,82,59864,6,0,P|240:154|240:227,1,146,2|0,0:0|3:0,0:0:0:0:
319,266,60447,1,0,0:0:0:0:
329,270,60544,1,0,0:0:0:0:
339,274,60641,2,0,P|374:267|411:264,1,73,8|0,0:0|0:0,0:0:0:0:
345,366,61029,2,0,P|309:359|272:356,1,73,0|2,0:0|0:0,0:0:0:0:
142,368,61418,38,0,P|141:295|136:222,1,146,0|0,0:0|0:0,0:0:0:0:
87,148,62001,1,0,0:0:0:0:
80,156,62098,1,0,3:0:0:0:
73,164,62195,2,0,P|36:162|0:155,2,73,8|0|0,0:0|3:0|0:0,0:0:0:0:
135,74,62778,1,0,0:0:0:0:
211,32,62973,6,0,P|284:37|357:37,1,146,0|0,3:0|0:0,0:0:0:0:
435,78,63556,1,0,3:0:0:0:
436,88,63653,1,0,3:0:0:0:
437,98,63750,1,8,0:0:0:0:
315,261,64527,6,0,P|329:305|336:369,2,109.5,0|0|0,3:0|3:0|3:0,0:0:0:0:
225,203,65304,2,0,P|239:159|246:95,2,109.5,8|8|8,0:0|0:0|0:0,0:0:0:0:
220,213,65984,1,8,0:0:0:0:
215,223,66081,1,0,3:0:0:0:
256,192,72299,12,0,75019,0:0:0:0:
312,96,75408,38,0,P|383:83|456:80,1,146,2|0,3:2|3:0,0:0:0:0:
418,191,75991,1,2,3:2:0:0:
407,194,76088,1,2,3:2:0:0:
397,198,76185,2,0,P|325:185|252:182,1,146,2|0,3:2|3:0,0:0:0:0:
308,280,76768,1,2,3:2:0:0:
310,290,76865,1,2,3:2:0:0:
312,300,76962,6,0,L|322:348,3,36.5,2|0|0|0,3:2|3:0|3:0|3:0,0:0:0:0:
240,319,77351,2,0,L|248:355,3,36.5,0|0|0|0,3:0|3:0|3:0|3:0,3:0:0:0:
166,319,77740,2,0,L|173:354,3,36.5,2|0|0|0,3:2|3:0|3:0|3:0,0:0:0:0:
91,318,78128,2,0,L|98:353,3,36.5,0|0|0|0,3:0|3:0|3:0|3:0,0:0:0:0:
37,260,78517,5,2,3:2:0:0:
323,271,80071,21,0,0:0:0:0:
323,271,80460,2,0,P|393:266|470:277,2,146,0|0|2,0:0|0:0|0:0,0:0:0:0:
314,277,81334,1,2,0:0:0:0:
305,284,81431,1,2,0:0:0:0:
233,202,81626,6,0,P|225:156|227:102,1,87.5999973266602,4|0,3:2|0:0,0:0:0:0:
267,52,81917,1,0,0:0:0:0:
279,57,82014,2,0,P|324:55|369:57,1,87.5999973266602,8|2,0:0|0:0,0:0:0:0:
468,168,82403,2,0,P|424:171|380:176,1,87.5999973266602,2|0,0:0|3:0,0:0:0:0:
366,253,82694,1,0,0:0:0:0:
379,255,82791,2,0,P|422:249|466:246,1,87.5999973266602,8|2,0:0|0:0,0:0:0:0:
357,358,83180,6,0,P|293:342|228:334,1,131.39999598999,0|0,3:0|0:0,0:0:0:0:
197,353,83569,1,8,0:0:0:0:
94,371,83763,1,2,0:0:0:0:
81,368,83860,1,0,0:0:0:0:
69,363,83957,2,0,P|70:315|74:272,1,87.5999973266602,2|0,0:0|3:0,0:0:0:0:
92,155,84346,2,0,P|48:155|-1:159,1,87.5999973266602,8|2,0:0|0:0,0:0:0:0:
160,47,84734,6,0,P|248:49|335:40,1,175.19999465332,0|8,3:0|0:0,0:0:0:0:
451,53,85317,1,2,0:0:0:0:
471,186,85512,2,0,P|420:187|370:182,1,87.5999973266602,2|0,0:0|3:0,0:0:0:0:
266,138,85900,2,0,L|220:143,3,43.7999986633301,8|0|2|0,0:0|0:0|0:0|0:0,0:0:0:0:
180,209,86289,38,0,P|181:297|168:384,1,175.19999465332,0|8,3:0|0:0,0:0:0:0:
72,341,86872,1,2,0:0:0:0:
67,329,86969,1,0,3:0:0:0:
65,317,87066,2,0,P|56:267|57:231,1,87.5999973266602,2|0,0:0|0:0,0:0:0:0:
106,131,87455,2,0,P|63:129|16:124,1,87.5999973266602,8|0,0:0|3:0,0:0:0:0:
179,51,87843,6,0,P|224:49|273:48,1,87.5999973266602,4|0,3:2|0:0,0:0:0:0:
346,71,88135,1,0,0:0:0:0:
338,81,88232,2,0,P|343:124|345:176,1,87.5999973266602,8|2,0:0|0:0,0:0:0:0:
235,244,88620,2,0,P|238:200|235:156,1,87.5999973266602,2|0,0:0|3:0,0:0:0:0:
162,143,88912,1,0,0:0:0:0:
158,156,89009,2,0,P|154:199|157:243,1,87.5999973266602,8|2,0:0|0:0,0:0:0:0:
234,349,89398,6,0,P|299:353|365:350,1,131.39999598999,0|0,3:0|0:0,0:0:0:0:
397,366,89786,1,8,0:0:0:0:
470,253,89980,1,2,0:0:0:0:
466,241,90078,1,0,0:0:0:0:
465,228,90175,2,0,P|466:184|473:140,2,87.5999973266602,2|0|8,0:0|3:0|0:0,0:0:0:0:
353,135,90758,1,2,0:0:0:0:
219,177,90952,38,0,P|131:182|44:172,1,175.19999465332,0|8,3:0|0:0,0:0:0:0:
119,87,91535,1,2,0:0:0:0:
132,91,91632,1,0,3:0:0:0:
145,95,91729,2,0,P|144:51|138:7,2,87.5999973266602,2|0|8,0:0|3:0|0:0,0:0:0:0:
115,223,92312,1,0,0:0:0:0:
171,351,92506,6,0,P|257:340|345:335,1,175.19999465332,0|8,3:0|0:0,0:0:0:0:
444,269,93089,1,0,3:0:0:0:
417,159,93284,2,0,L|470:154,3,43.7999986633301,8|0|0|8,0:0|3:0|3:0|0:0,0:0:0:0:
393,83,93672,2,0,L|437:79,3,43.7999986633301,0|0|8|0,3:0|3:0|0:0|3:0,0:0:0:0:
323,45,94061,6,0,P|281:49|225:40,1,87.5999973266602,4|0,3:2|0:0,0:0:0:0:
172,79,94352,1,0,0:0:0:0:
162,70,94449,2,0,P|120:66|64:75,1,87.5999973266602,8|2,0:0|0:0,0:0:0:0:
47,206,94838,2,0,P|89:210|145:201,1,87.5999973266602,2|0,0:0|3:0,0:0:0:0:
202,243,95129,1,0,0:0:0:0:
208,231,95226,2,0,P|250:227|306:236,1,87.5999973266602,8|2,0:0|0:0,0:0:0:0:
422,322,95615,38,0,P|418:256|432:192,1,131.39999598999,0|0,3:0|0:0,0:0:0:0:
459,169,96004,1,8,0:0:0:0:
354,100,96198,1,2,0:0:0:0:
342,96,96295,1,0,0:0:0:0:
330,93,96392,2,0,P|318:50|312:7,1,87.5999973266602,2|0,0:0|3:0,0:0:0:0:
170,57,96781,2,0,P|158:99|152:142,1,87.5999973266602,8|2,0:0|0:0,0:0:0:0:
200,260,97170,6,0,P|112:249|15:254,1,175.19999465332,0|8,3:0|0:0,0:0:0:0:
120,357,97752,1,2,0:0:0:0:
224,343,97947,2,0,P|267:343|311:347,1,87.5999973266602,2|0,0:0|3:0,0:0:0:0:
437,313,98335,2,0,L|426:268,3,43.7999986633301,8|0|2|0,0:0|0:0|0:0|0:0,0:0:0:0:
479,211,98724,6,0,P|391:222|294:217,1,175.19999465332,0|8,3:0|0:0,0:0:0:0:
215,137,99307,1,2,0:0:0:0:
206,126,99404,1,0,3:0:0:0:
201,113,99501,2,0,P|197:69|197:25,1,87.5999973266602,2|0,0:0|3:0,0:0:0:0:
88,117,99890,2,0,P|87:163|95:218,1,87.5999973266602,8|2,0:0|0:0,0:0:0:0:
80,313,100278,38,0,P|150:313|238:327,1,146,0|8,3:0|0:0,0:0:0:0:
328,264,100861,1,0,0:0:0:0:
332,274,100958,1,0,3:0:0:0:
337,284,101056,2,0,P|336:320|342:356,1,73,0|0,0:0|3:0,0:0:0:0:
444,299,101444,2,0,P|449:262|449:226,1,73,8|0,0:0|0:0,0:0:0:0:
426,97,101833,6,0,P|356:97|268:111,1,146,0|8,3:0|0:0,0:0:0:0:
182,52,102416,1,0,0:0:0:0:
175,60,102513,1,0,3:0:0:0:
169,68,102611,2,0,P|169:104|163:140,1,73,0|0,0:0|3:0,0:0:0:0:
62,83,102999,2,0,P|56:46|56:10,1,73,8|0,0:0|0:0,0:0:0:0:
256,192,103387,12,0,104942,3:0:0:0:
426,91,106496,6,0,P|351:87|280:67,1,146,0|2,3:0|0:0,0:0:0:0:
170,33,107079,1,2,0:0:0:0:
72,97,107273,2,0,P|68:134|58:169,1,73,8|2,0:0|0:0,0:0:0:0:
8,222,107565,1,0,0:0:0:0:
14,230,107662,2,0,L|26:323,1,73
155,222,108050,38,0,P|214:222|311:233,1,146,0|2,3:0|0:0,0:0:0:0:
377,311,108633,1,0,3:0:0:0:
388,311,108730,1,0,3:0:0:0:
398,312,108828,2,0,P|395:348|394:384,2,73,8|0|8,0:0|3:0|0:0,0:0:0:0:
494,197,109410,6,0,P|499:131|492:66,1,131.39999598999,4|0,3:2|0:0,0:0:0:0:
480,40,109799,1,0,3:0:0:0:
374,104,109993,2,0,P|372:141|377:183,1,73,0|0,0:0|0:0,0:0:0:0:
292,36,110382,2,0,B|264:26|230:32|230:32|210:26|210:26|182:37|148:26,1,146,10|0,0:0|0:0,0:0:0:0:
128,140,110965,1,2,0:0:0:0:
118,144,111062,1,2,0:0:0:0:
108,147,111159,6,0,P|53:144|0:150,2,109.5,0|0|0,3:0|3:0|3:0,0:0:0:0:
170,261,111936,2,0,P|224:258|262:265,1,73,8|0,0:0|3:0,0:0:0:0:
306,296,112228,2,0,L|297:369,2,73,8|8|0,0:0|0:0|0:0,0:0:0:0:
375,271,112714,1,0,3:0:0:0:
375,271,113102,38,0,P|380:214|359:127,1,146,4|8,3:2|0:0,0:0:0:0:
246,35,113685,2,0,P|242:71|238:107,1,73,2|0,0:0|0:0,0:0:0:0:
166,122,113977,2,0,P|162:85|158:49,1,73,2|0,0:0|3:0,0:0:0:0:
89,74,114268,6,0,P|68:132|55:204,1,131.39999598999,0|0,3:0|3:0,0:0:0:0:
61,229,114657,1,2,0:0:0:0:
132,347,114851,1,0,3:0:0:0:
143,345,114948,1,0,3:0:0:0:
154,344,115045,2,0,L|246:338,1,73,8|8,0:0|0:0,0:0:0:0:
331,334,115434,1,0,3:0:0:0:
491,171,115822,6,0,P|485:127|477:84,1,87.5999973266602,4|0,3:2|0:0,0:0:0:0:
409,43,116114,2,0,L|295:49,1,87.5999973266602,0|8,3:0|0:0,0:0:0:0:
243,54,116405,1,8,0:0:0:0:
168,193,116600,38,0,L|257:192,1,87.5999973266602,4|0,3:2|0:0,0:0:0:0:
328,221,116891,2,0,P|336:263|338:316,1,87.5999973266602,0|8,3:0|0:0,0:0:0:0:
317,384,117183,1,8,0:0:0:0:
190,337,117377,6,0,L|114:332,1,73,4|0,3:2|0:0,0:0:0:0:
106,331,117668,1,8,0:0:0:0:
95,330,117765,1,8,0:0:0:0:
45,211,117960,5,0,3:0:0:0:
256,192,118154,12,0,121263,0:0:0:0:
