osu file format v14

[General]
AudioFilename: audio.mp3
AudioLeadIn: 0
PreviewTime: 80460
Countdown: 0
SampleSet: Soft
StackLeniency: 0.3
Mode: 0
LetterboxInBreaks: 0
WidescreenStoryboard: 1

[Editor]
Bookmarks: 3905,16341,28776,41211,53646,66081,78517,81626,94061,104942,106496,117960
DistanceSpacing: 1
BeatDivisor: 2
GridSize: 32
TimelineZoom: 0.8

[Metadata]
Title:Towards The Horizon
TitleUnicode:Towards The Horizon
Artist:Camellia
ArtistUnicode:かめりあ
Creator:Nerova Riuz GX
Version:Easy
Source:REFLEC BEAT 悠久のリフレシア
Tags:RB Illusiya イルシヤ 6th KONAMI Arcade Championship KAC bemani The Reflesia of Eternity drumstep folk Zexous Sinnoh Lavender [Teichan]
BeatmapID:1347748
BeatmapSetID:578445

[Difficulty]
HPDrainRate:3
CircleSize:3
OverallDifficulty:2
ApproachRate:3
SliderMultiplier:1.06
SliderTickRate:1

[Events]
//Background and Video events
0,0,"TowardsTheHorizonBG.png",0,0
//Break Periods
2,66281,73968
//Storyboard Layer 0 (Background)
//Storyboard Layer 1 (Fail)
//Storyboard Layer 2 (Pass)
//Storyboard Layer 3 (Foreground)
//Storyboard Sound Samples

[TimingPoints]
797,388.60103626943,4,2,1,40,1,0
16341,-100,4,2,1,60,0,0
28776,-100,4,2,1,80,0,1
28873,-100,4,2,1,80,0,0
53646,-100,4,2,1,60,0,0
80460,-100,4,2,1,80,0,0
81626,-100,4,2,1,80,0,1
100278,-100,4,2,1,40,0,0
103387,-100,4,2,1,60,0,0
104942,-100,4,2,1,40,0,0
106496,-100,4,2,1,80,0,1
106593,-100,4,2,1,80,0,0
118154,-100,4,2,1,5,0,0

[Colours]
Combo1 : 167,167,167
Combo2 : 255,47,47
Combo3 : 255,148,40
Combo4 : 254,228,82

[HitObjects]
256,192,2351,5,2,0:0:0:0:
409,379,3905,6,0,P|408:275|473:194,1,212,2|2,0:0|0:0,0:0:0:0:
507,93,5071,1,0,0:0:0:0:
413,42,5460,2,0,B|357:14|301:42|329:69|273:97|218:69,1,212,0|2,0:0|0:0,0:0:0:0:
118,32,6626,1,0,0:0:0:0:
72,127,7014,6,0,B|55:176|29:195|29:195|40:240|40:240|14:262|0:313,2,212,0|2|0,0:0|0:0|0:0,0:0:0:0:
265,40,9346,2,0,P|280:76|273:150,1,106,2|0,0:0|0:0,0:0:0:0:
200,216,10123,22,0,P|179:308|270:295,1,212,0|2,0:0|0:0,0:0:0:0:
371,283,11289,1,0,0:0:0:0:
463,334,11677,2,0,B|469:258|469:258|448:204|448:204|455:126,1,212,0|2,0:0|0:0,0:0:0:0:
383,49,12843,1,0,0:0:0:0:
284,89,13232,6,0,L|264:312,2,212,0|2|0,0:0|0:0|0:0,0:0:0:0:
78,37,15563,2,0,B|52:82|52:82|67:147,1,106,2|0,0:0|0:0,0:0:0:0:
47,239,16341,6,0,P|143:216|236:284,1,212,0|0,3:0|0:0,0:0:0:0:
301,355,17506,1,8,0:0:0:0:
397,310,17895,2,0,P|427:319|488:364,2,106,0|8|0,3:0|0:0|0:0,0:0:0:0:
314,243,19061,1,8,0:0:0:0:
314,137,19449,22,0,P|364:94|508:74,1,212,0|0,3:0|0:0,0:0:0:0:
502,285,21004,2,0,P|452:328|308:348,1,212,0|0,3:0|3:0,0:0:0:0:
205,339,22170,1,8,0:0:0:0:
103,370,22558,6,0,P|55:317|43:174,1,212,0|0,3:0|0:0,0:0:0:0:
134,133,23724,1,8,0:0:0:0:
236,103,24113,2,0,P|247:52|248:0,2,106,0|8|0,3:0|0:0|0:0,0:0:0:0:
224,208,25278,1,8,0:0:0:0:
265,309,25667,38,0,P|438:328|359:174,1,424
294,17,28776,22,0,B|316:38|309:69|309:69|346:89|346:89|316:144|345:195,1,212,4|0,3:2|0:0,0:0:0:0:
321,299,29942,1,8,0:0:0:0:
413,350,30330,2,0,P|455:319|507:309,2,106,0|8|0,3:0|0:0|0:0,0:0:0:0:
321,299,31496,1,8,0:0:0:0:
233,359,31885,22,0,B|199:338|167:348|167:348|140:323|140:323|81:333|39:299,1,212,0|0,3:0|0:0,0:0:0:0:
0,202,33050,1,8,0:0:0:0:
50,108,33439,2,0,B|121:29|121:29|205:106,1,212,0|0,3:0|0:0,0:0:0:0:
212,312,34993,6,0,B|258:297|314:319|314:319|328:271|328:271|349:253|381:249,1,212,4|0,3:2|0:0,0:0:0:0:
446,165,36159,1,8,0:0:0:0:
376,84,36548,2,0,P|402:34|442:2,2,106,0|8|0,3:0|0:0|0:0,0:0:0:0:
284,137,37714,1,8,0:0:0:0:
190,87,38102,6,0,B|139:101|102:69|102:69|84:86|84:86|61:79|43:65|43:65|27:78|-1:78,2,212,0|8|0,3:0|0:0|3:0,0:0:0:0:
384,171,40434,1,8,0:0:0:0:
260,343,41211,22,0,B|203:331|156:351|156:351|123:310|70:288,1,212,4|2,3:2|0:0,0:0:0:0:
21,194,42377,1,8,0:0:0:0:
75,104,42765,2,0,P|128:105|179:120,1,106,0|8,3:0|0:0,0:0:0:0:
281,90,43543,2,0,P|333:88|384:73,1,106,2|8,0:0|0:0,0:0:0:0:
482,114,44320,6,0,B|475:192|475:192|496:246|496:246|490:322,1,212,0|2,3:0|0:0,0:0:0:0:
280,355,45874,2,0,B|286:279|286:279|265:225|265:225|272:147,1,212,0|0,3:0|0:0,0:0:0:0:
208,62,47040,1,8,0:0:0:0:
108,98,47429,6,0,B|78:144|21:157|21:157|60:192|63:249,1,212,0|2,3:0|0:0,0:0:0:0:
113,342,48594,1,8,0:0:0:0:
211,380,48983,2,0,L|316:368,1,106,0|8,3:0|0:0,0:0:0:0:
346,266,49760,2,0,L|240:277,1,106,2|8,0:0|0:0,0:0:0:0:
185,186,50537,22,0,L|395:163,1,212,0|2,3:0|0:0,0:0:0:0:
244,14,52092,2,0,L|33:36,1,212,8|0,0:0|3:0,0:0:0:0:
88,128,53258,1,8,0:0:0:0:
61,231,53646,6,0,B|37:251|10:321|73:373|153:347|123:288,2,212,4|8|0,3:2|0:0|0:0,0:0:0:0:
256,149,55978,1,8,0:0:0:0:
453,232,56755,6,0,B|474:251|501:321|438:373|358:347|386:292,2,212,0|8|0,3:0|0:0|3:0,0:0:0:0:
256,149,59087,1,8,0:0:0:0:
71,44,59864,22,0,B|50:84|63:121|63:121|28:147|28:147|42:180|24:234,1,212,2|8,0:0|0:0,0:0:0:0:
78,325,61030,1,0,0:0:0:0:
179,355,61418,2,0,P|250:279|352:259,1,212,0|8,0:0|0:0,0:0:0:0:
256,192,62973,12,0,66081,3:0:0:0:
256,192,75408,12,0,78517,3:0:0:0:
184,65,80460,38,0,L|74:78,2,106,0|0|2,0:0|0:0|0:0,0:0:0:0:
282,25,81626,6,0,P|281:70|315:130,1,106,4|8,3:2|0:0,0:0:0:0:
410,152,82403,2,0,P|450:133|489:76,1,106,2|8,0:0|0:0,0:0:0:0:
384,46,83180,2,0,P|362:103|400:261,1,212,0|2,3:0|0:0,0:0:0:0:
341,344,84346,1,8,0:0:0:0:
237,364,84734,6,0,B|200:367|178:378|178:378|154:364|154:364|116:373|116:373|92:342|48:324,2,212,0|2|0,3:0|0:0|3:0,0:0:0:0:
385,212,87066,2,0,P|410:166|453:135,1,106,2|8,0:0|0:0,0:0:0:0:
512,47,87843,6,0,P|459:47|411:26,1,106,4|8,3:2|0:0,0:0:0:0:
305,19,88620,2,0,P|331:64|337:116,1,106,2|8,0:0|0:0,0:0:0:0:
385,212,89398,2,0,P|290:224|215:324,1,212,0|2,3:0|0:0,0:0:0:0:
130,367,90563,1,8,0:0:0:0:
29,334,90952,22,0,B|10:257|10:257|39:210|39:210|21:134,1,212,0|2,3:0|0:0,0:0:0:0:
71,40,92118,1,8,0:0:0:0:
177,57,92506,2,0,B|226:29|230:84|277:52,2,106,0|8|8,3:0|0:0|0:0,0:0:0:0:
166,269,94061,6,0,L|271:281,1,106,4|8,3:2|0:0,0:0:0:0:
376,293,94838,2,0,L|481:305,1,106,2|8,0:0|0:0,0:0:0:0:
507,202,95615,2,0,L|296:177,1,212,0|2,3:0|0:0,0:0:0:0:
225,98,96781,1,8,0:0:0:0:
314,40,97170,6,0,B|360:-1|421:11|401:45|462:57|509:16,2,212,0|2|0,3:0|0:0|3:0,0:0:0:0:
102,29,99501,2,0,P|60:69|47:125,1,106,2|8,0:0|0:0,0:0:0:0:
89,211,100278,22,0,P|182:169|268:225,1,212,0|0,3:0|0:0,0:0:0:0:
174,277,101444,1,8,0:0:0:0:
80,329,101833,2,0,P|165:384|258:343,2,212,0|0|0,3:0|0:0|3:0,0:0:0:0:
383,33,104942,38,0,B|422:23|474:39|499:76|499:76|441:119|441:119|454:158|454:158|427:174|419:219,1,318,0|0,3:0|0:0,0:0:0:0:
440,323,106496,22,0,B|383:303|330:335|330:335|297:308|297:308|262:320|238:310,1,212,0|8,3:0|0:0,0:0:0:0:
119,140,108050,2,0,L|237:125,1,106,0|2,3:0|0:0,0:0:0:0:
299,51,108828,2,0,B|354:39|399:74|399:74|420:55|444:48,2,159,8|4|0,0:0|3:2|0:0,0:0:0:0:
194,31,110382,6,0,B|165:87|194:143|222:115|250:171|222:228,1,212,10|0,0:0|3:0,0:0:0:0:
181,324,111548,1,0,0:0:0:0:
77,302,111936,2,0,P|43:263|40:211,1,106,8|0,0:0|3:0,0:0:0:0:
107,128,112714,22,0,B|126:75|71:80|94:28,2,106,0|4|8,3:0|3:2|0:0,0:0:0:0:
178,328,114268,2,0,B|256:335|256:335|310:314|310:314|386:320,1,212,0|8,3:0|0:0,0:0:0:0:
481,274,115434,1,0,3:0:0:0:
493,168,115822,6,0,B|387:158,1,106,4|0,3:2|0:0,0:0:0:0:
300,220,116600,2,0,B|194:210,1,106,4|0,3:2|0:0,0:0:0:0:
160,110,117377,6,0,B|1:95,1,159,4|0,3:2|3:0,0:0:0:0:
256,192,118154,12,0,121263,0:0:0:0:
