osu file format v14

[General]
AudioFilename: audio.mp3
AudioLeadIn: 0
PreviewTime: 80460
Countdown: 0
SampleSet: Soft
StackLeniency: 0.3
Mode: 0
LetterboxInBreaks: 0
WidescreenStoryboard: 0

[Editor]
Bookmarks: 3905,16341,28776,41211,53646,66081,78517,81626,94061,104942,106496,117960
DistanceSpacing: 1.2
BeatDivisor: 8
GridSize: 32
TimelineZoom: 2.699999

[Metadata]
Title:Towards The Horizon
TitleUnicode:Towards The Horizon
Artist:Camellia
ArtistUnicode:かめりあ
Creator:Nerova Riuz GX
Version:A Tale from the Wayfarer
Source:REFLEC BEAT 悠久のリフレシア
Tags:RB Illusiya イルシヤ 6th KONAMI Arcade Championship KAC bemani The Reflesia of Eternity drumstep folk Zexous Sinnoh Lavender [Teichan]
BeatmapID:1224754
BeatmapSetID:578445

[Difficulty]
HPDrainRate:7.4
CircleSize:3
OverallDifficulty:8.6
ApproachRate:9.5
SliderMultiplier:1.86
SliderTickRate:1

[Events]
//Background and Video events
0,0,"TowardsTheHorizonBG.png",0,0
//Break Periods
2,66281,71745
//Storyboard Layer 0 (Background)
//Storyboard Layer 1 (Fail)
//Storyboard Layer 2 (Pass)
//Storyboard Layer 3 (Foreground)
//Storyboard Sound Samples

[TimingPoints]
797,388.60103626943,4,2,1,40,1,0
3905,-133.333333333333,4,2,1,40,0,0
16341,-133.333333333333,4,2,1,60,0,0
22558,-100,4,2,1,60,0,0
28776,-66.6666666666667,4,2,1,80,0,1
28873,-66.6666666666667,4,2,1,80,0,0
33245,-100,4,2,1,80,0,0
33439,-66.6666666666667,4,2,1,80,0,0
41211,-55.5555555555556,4,2,1,80,0,0
41600,-66.6666666666667,4,2,1,80,0,0
47040,-100,4,2,1,80,0,0
47234,-66.6666666666667,4,2,1,80,0,0
50149,-55.5555555555556,4,2,1,80,0,0
50537,-66.6666666666667,4,2,1,80,0,0
53646,-100,4,2,1,60,0,0
75214,-100,4,2,1,5,0,0
75408,-100,4,2,1,60,0,0
80460,-133.333333333333,4,2,1,80,0,0
80848,-66.6666666666667,4,2,1,80,0,0
81626,-55.5555555555556,4,2,1,80,0,1
100278,-100,4,2,1,40,0,0
103387,-66.6666666666667,4,2,1,60,0,0
104942,-200,4,2,1,40,0,0
106107,-66.6666666666667,4,2,1,40,0,0
106496,-55.5555555555556,4,2,1,80,0,1
106593,-55.5555555555556,4,2,1,80,0,0
113102,-55.5555555555556,4,2,1,80,0,1
113199,-55.5555555555556,4,2,1,80,0,0
117377,-50,4,2,1,80,0,0
118057,-50,4,2,1,5,0,0

[Colours]
Combo1 : 167,167,167
Combo2 : 255,47,47
Combo3 : 255,148,40
Combo4 : 254,228,82
Combo5 : 180,104,255

[HitObjects]
342,331,2157,54,0,L|372:328,3,31,0|0|0|2,0:0|0:0|0:0|0:0,0:0:0:0:
116,53,3905,22,0,L|255:63,1,139.500005321503,2|0,0:0|0:0,0:0:0:0:
203,154,4488,1,0,0:0:0:0:
99,147,4683,2,0,L|29:141,2,69.7500026607514,2|0|0,0:0|0:0|0:0,0:0:0:0:
332,240,5460,6,0,B|313:289|313:289|322:382,2,139.500005321503,0|0|2,0:0|0:0|0:0,0:0:0:0:
411,307,6431,2,0,B|430:258|430:258|421:165,1,139.500005321503
396,53,7014,6,0,L|256:63,2,139.500005321503,0|0|2,0:0|0:0|0:0,0:0:0:0:
263,189,8569,2,0,P|236:141|257:62,1,139.500005321503
396,53,9346,2,0,P|423:101|402:180,1,139.500005321503,2|0,0:0|0:0,0:0:0:0:
396,331,10123,38,0,L|256:320,1,139.500005321503
309,230,10706,1,0,0:0:0:0:
413,237,10901,2,0,L|482:242,2,69.7500026607514,2|0|0,0:0|0:0|0:0,0:0:0:0:
180,144,11678,6,0,B|199:95|199:95|190:2,2,139.500005321503,0|0|2,0:0|0:0|0:0,0:0:0:0:
101,77,12649,2,0,B|82:126|82:126|91:219,1,139.500005321503
116,331,13232,6,0,L|255:320,2,139.500005321503,0|0|2,0:0|0:0|0:0,0:0:0:0:
249,195,14786,2,0,P|276:243|255:322,1,139.500005321503
116,331,15564,2,0,P|89:283|110:204,1,139.500005321503,2|0,0:0|0:0,0:0:0:0:
183,263,16146,1,0,0:0:0:0:
172,112,16341,38,0,L|12:97,1,139.500005321503,0|8,3:0|0:0,0:0:0:0:
234,26,16923,1,0,0:0:0:0:
250,30,17021,1,0,3:0:0:0:
267,35,17118,2,0,P|274:65|269:118,1,69.7500026607514,0|0,0:0|3:0,0:0:0:0:
272,187,17506,2,0,P|265:157|270:104,1,69.7500026607514,8|0,0:0|0:0,0:0:0:0:
407,119,17895,6,0,L|415:284,1,139.500005321503,0|8,3:0|0:0,0:0:0:0:
362,350,18478,1,0,0:0:0:0:
426,271,18672,2,0,P|461:269|495:277,2,69.7500026607514,2|0|8,0:0|3:0|0:0,0:0:0:0:
237,340,19255,1,2,0:0:0:0:
237,340,19449,6,0,L|375:353,1,139.500005321503,0|8,3:0|0:0,0:0:0:0:
285,164,20032,1,0,0:0:0:0:
269,168,20129,1,0,3:0:0:0:
252,173,20227,2,0,P|245:203|250:256,1,69.7500026607514,0|0,0:0|3:0,0:0:0:0:
247,325,20615,2,0,P|254:295|249:242,1,69.7500026607514,8|0,0:0|0:0,0:0:0:0:
42,252,21004,38,0,P|44:321|89:373,1,139.500005321503,0|8,3:0|0:0,0:0:0:0:
143,282,21586,1,2,0:0:0:0:
45,155,21781,1,0,0:0:0:0:
62,156,21878,2,0,L|132:162,1,69.7500026607514,0|0,3:0|3:0,0:0:0:0:
146,152,22170,2,0,P|153:122|148:69,1,69.7500026607514,8|2,0:0|0:0,0:0:0:0:
275,19,22558,6,0,P|321:95|410:105,1,186,0|8,3:0|0:0,0:0:0:0:
503,173,23141,1,2,0:0:0:0:
507,150,23238,1,0,3:0:0:0:
512,127,23335,2,0,P|422:128|369:201,1,186,0|8,0:0|0:0,0:0:0:0:
299,278,23918,1,0,0:0:0:0:
299,278,24113,6,0,P|342:199|306:117,2,186,0|8|2,3:0|0:0|0:0,0:0:0:0:
281,262,24987,1,0,0:0:0:0:
264,248,25084,1,0,3:0:0:0:
41,360,25278,6,0,L|172:350,1,93,8|0,0:0|0:0,0:0:0:0:
144,341,25537,1,2,0:0:0:0:
154,329,25602,1,0,0:0:0:0:
164,318,25667,22,0,P|169:295|169:272,1,46.5,0|0,3:0|0:0,0:0:0:0:
77,68,25861,2,0,P|86:89|99:108,1,46.5,0|0,3:0|0:0,0:0:0:0:
294,219,26056,6,0,P|274:207|252:199,1,46.5,0|0,3:0|0:0,0:0:0:0:
30,225,26250,2,0,P|53:222|75:216,1,46.5,0|0,3:0|0:0,0:0:0:0:
240,64,26444,6,0,P|222:79|208:97,1,46.5,0|0,3:0|0:0,0:0:0:0:
308,320,26638,2,0,P|285:315|263:306,1,46.5,0|0,3:0|0:0,0:0:0:0:
344,92,26833,38,0,P|366:96|388:105,1,46.5,0|0,3:0|0:0,0:0:0:0:
390,252,27027,2,0,P|408:237|422:219,1,46.5,0|0,3:0|0:0,0:0:0:0:
479,140,27221,53,0,3:0:0:0:
474,150,27416,37,2,0:0:0:0:
474,131,27513,1,0,0:0:0:0:
490,140,27610,1,0,0:0:0:0:
457,140,27707,37,2,0:0:0:0:
490,122,27804,1,0,0:0:0:0:
490,159,27901,1,0,0:0:0:0:
463,112,27999,5,2,0:0:0:0:
511,140,28096,1,0,0:0:0:0:
463,168,28193,2,0,L|419:174,4,23.25,2|0|0|0|0,0:0|0:0|0:0|0:0|0:0,0:0:0:0:
272,32,28776,54,0,B|279:74|279:74|300:103|300:103|276:150|276:150|298:179|298:179|305:222,1,209.250007982254,4|0,3:2|0:0,0:0:0:0:
313,324,29164,1,8,0:0:0:0:
482,274,29359,6,0,P|443:269|401:276,1,69.7500026607514,2|0,0:0|3:0,0:0:0:0:
170,347,29553,1,0,0:0:0:0:
170,347,29650,2,0,P|193:315|208:275,1,69.7500026607514,2|0,0:0|3:0,0:0:0:0:
264,40,29844,1,0,0:0:0:0:
264,40,29942,6,0,P|279:76|306:109,1,69.7500026607514,8|0,0:0|0:0,0:0:0:0:
425,153,30136,2,0,P|463:147|502:130,1,69.7500026607514,2|0,0:0|0:0,0:0:0:0:
201,172,30330,38,0,B|165:174|141:193|141:193|121:170|121:170|88:177|88:177|63:144|19:134,1,209.250007982254,0|0,3:0|0:0,0:0:0:0:
3,239,30719,1,8,0:0:0:0:
162,75,30913,6,0,L|150:6,1,69.7500026607514,2|0,0:0|3:0,0:0:0:0:
232,274,31107,1,0,0:0:0:0:
232,274,31205,2,0,L|220:342,1,69.7500026607514,2|0,0:0|3:0,0:0:0:0:
319,110,31399,1,0,0:0:0:0:
319,110,31496,6,0,L|392:102,1,69.7500026607514,8|0,0:0|0:0,0:0:0:0:
471,82,31690,2,0,L|401:89,1,69.7500026607514
388,355,31885,38,0,B|403:337|418:325|418:325|435:317|466:316|466:316|435:310|412:307|412:307|388:299|358:276,1,209.250007982254,0|0,3:0|0:0,0:0:0:0:
265,173,32273,6,0,P|231:182|205:205,1,69.7500026607514,8|0,0:0|0:0,0:0:0:0:
248,360,32467,2,0,P|217:344|195:317,1,69.7500026607514,2|0,0:0|3:0,0:0:0:0:
111,253,32662,5,0,0:0:0:0:
111,253,32759,2,0,L|41:247,1,69.7500026607514,2|0,0:0|3:0,0:0:0:0:
288,269,32953,1,0,0:0:0:0:
288,269,33051,2,0,L|357:275,1,69.7500026607514,8|0,0:0|0:0,0:0:0:0:
168,97,33245,6,0,L|215:92,2,31,2|0|0,0:0|0:0|0:0,0:0:0:0:
80,154,33439,22,0,P|62:87|89:24,1,139.500005321503,0|0,3:0|0:0,0:0:0:0:
89,24,33730,1,0,0:0:0:0:
89,24,33828,1,8,0:0:0:0:
320,44,34022,2,0,L|314:113,1,69.7500026607514,2|0,0:0|3:0,0:0:0:0:
422,323,34216,5,0,0:0:0:0:
383,347,34313,1,0,3:0:0:0:
337,350,34410,1,0,0:0:0:0:
295,329,34507,1,0,3:0:0:0:
286,190,34605,5,8,0:0:0:0:
324,165,34702,1,0,3:0:0:0:
370,162,34799,1,0,0:0:0:0:
412,183,34896,1,8,0:0:0:0:
354,257,34993,38,0,B|306:251|298:237|298:237|282:251|257:256|257:256|214:221|155:242,1,209.250007982254,4|0,3:2|0:0,0:0:0:0:
193,340,35382,1,8,0:0:0:0:
144,99,35576,6,0,L|57:88,1,69.7500026607514,2|0,0:0|3:0,0:0:0:0:
90,318,35771,1,0,0:0:0:0:
90,318,35868,2,0,L|3:307,1,69.7500026607514,2|0,0:0|3:0,0:0:0:0:
310,184,36062,1,0,0:0:0:0:
310,184,36159,6,0,L|223:173,1,69.7500026607514,8|0,0:0|0:0,0:0:0:0:
196,284,36353,2,0,L|265:292,1,69.7500026607514,2|0,0:0|0:0,0:0:0:0:
480,320,36548,38,0,B|470:356|470:356|456:290|456:290|465:253|465:253|451:187,1,209.250007982254,0|0,3:0|0:0,0:0:0:0:
503,98,36936,1,8,0:0:0:0:
286,25,37131,6,0,B|322:20|322:20|354:29,1,69.7500026607514,2|0,0:0|3:0,0:0:0:0:
345,252,37325,1,0,0:0:0:0:
345,252,37422,2,0,B|309:257|309:257|276:247,1,69.7500026607514,2|0,0:0|3:0,0:0:0:0:
154,51,37616,1,0,0:0:0:0:
154,51,37714,6,0,L|150:126,1,69.7500026607514,8|0,0:0|0:0,0:0:0:0:
168,195,37909,2,0,L|164:120,1,69.7500026607514
315,140,38102,22,0,B|297:84|297:84|366:105|366:105|345:251,1,279.000010643006,0|0,3:0|0:0,0:0:0:0:
472,346,38782,2,0,L|481:305,1,34.8750013303757,0|0,3:0|3:0,0:0:0:0:
477,357,38879,6,0,B|382:340|382:340|303:375|303:375|208:358,1,279.000010643006,8|0,0:0|0:0,0:0:0:0:
56,369,39559,1,0,3:0:0:0:
56,368,39657,54,0,P|73:301|53:235,1,139.500005321503,0|0,3:0|0:0,0:0:0:0:
0,81,39948,2,0,P|49:129|116:145,1,139.500005321503,0|0,3:0|0:0,0:0:0:0:
280,189,40240,2,0,P|246:182|211:188,1,69.7500026607514,0|0,3:0|0:0,0:0:0:0:
168,283,40434,21,8,0:0:0:0:
170,300,40531,1,2,0:0:0:0:
173,318,40628,1,0,0:0:0:0:
176,335,40725,1,0,0:0:0:0:
178,352,40822,5,2,0:0:0:0:
247,346,40920,1,0,3:0:0:0:
316,340,41017,1,0,0:0:0:0:
386,334,41114,1,2,0:0:0:0:
455,328,41211,38,0,P|435:244|493:161,1,167.399994891358,4|0,3:2|0:0,0:0:0:0:
470,61,41502,1,0,0:0:0:0:
470,61,41600,6,0,P|435:54|401:50,1,69.7500026607514,8|0,0:0|0:0,0:0:0:0:
244,159,41794,1,0,0:0:0:0:
261,156,41891,1,0,3:0:0:0:
276,154,41988,6,0,P|287:120|288:86,1,69.7500026607514,2|0,0:0|0:0,0:0:0:0:
181,301,42183,2,0,P|192:335|193:369,1,69.7500026607514,0|0,3:0|0:0,0:0:0:0:
125,170,42377,38,0,P|93:161|50:170,1,69.7500026607514,8|0,0:0|0:0,0:0:0:0:
17,259,42571,2,0,P|49:268|92:259,1,69.7500026607514,2|0,0:0|0:0,0:0:0:0:
276,261,42765,6,0,P|344:266|430:310,1,139.500005321503,0|0,3:0|0:0,0:0:0:0:
489,374,43057,1,0,0:0:0:0:
489,374,43154,6,0,L|519:290,1,69.7500026607514,8|0,0:0|0:0,0:0:0:0:
428,126,43348,2,0,L|398:210,1,69.7500026607514,0|0,0:0|3:0,0:0:0:0:
512,46,43543,37,2,0:0:0:0:
303,129,43737,1,0,3:0:0:0:
44,36,43931,2,0,P|111:23|172:55,1,139.500005321503,8|0,0:0|0:0,0:0:0:0:
203,152,44223,1,0,0:0:0:0:
203,152,44320,6,0,B|50:168|50:168|94:135,1,209.250007982254,0|0,3:0|0:0,0:0:0:0:
216,243,44708,2,0,L|125:252,1,69.7500026607514,8|0,0:0|0:0,0:0:0:0:
41,259,44903,1,0,0:0:0:0:
306,248,45097,6,0,B|459:264|459:264|414:231,1,209.250007982254,2|0,0:0|0:0,0:0:0:0:
293,339,45485,2,0,L|362:345,1,69.7500026607514,8|0,0:0|0:0,0:0:0:0:
467,355,45680,1,2,0:0:0:0:
377,28,45874,38,0,P|347:57|351:157,1,139.500005321503,0|0,3:0|0:0,0:0:0:0:
493,99,46166,1,0,0:0:0:0:
493,99,46263,2,0,L|424:104,1,69.7500026607514,8|0,0:0|0:0,0:0:0:0:
244,67,46457,5,0,0:0:0:0:
244,67,46554,1,0,3:0:0:0:
244,67,46651,2,0,P|214:48|190:23,1,69.7500026607514,0|0,0:0|3:0,0:0:0:0:
226,167,46846,2,0,P|192:174|160:189,1,69.7500026607514,0|0,3:0|3:0,0:0:0:0:
59,93,47040,22,0,L|26:98,2,31,8|0|0,0:0|0:0|0:0,0:0:0:0:
148,101,47234,1,0,0:0:0:0:
43,360,47429,54,0,P|101:324|170:314,1,139.500005321503,0|0,3:0|0:0,0:0:0:0:
250,262,47720,1,0,0:0:0:0:
250,262,47817,38,0,P|286:264|337:248,1,69.7500026607514,8|0,0:0|0:0,0:0:0:0:
499,278,48012,1,0,0:0:0:0:
499,278,48109,1,0,3:0:0:0:
499,278,48206,6,0,L|517:366,1,69.7500026607514,2|0,0:0|0:0,0:0:0:0:
484,146,48400,2,0,L|486:56,1,69.7500026607514,0|0,3:0|0:0,0:0:0:0:
401,317,48594,6,0,L|378:404,1,69.7500026607514,8|0,0:0|0:0,0:0:0:0:
381,125,48789,2,0,L|343:43,1,69.7500026607514,2|0,0:0|0:0,0:0:0:0:
352,226,48983,37,0,3:0:0:0:
352,226,49080,1,0,0:0:0:0:
352,226,49177,2,0,P|318:218|283:220,1,69.7500026607514
35,348,49372,5,8,0:0:0:0:
69,350,49469,1,0,0:0:0:0:
105,354,49566,2,0,P|128:328|144:297,1,69.7500026607514,0|0,0:0|3:0,0:0:0:0:
117,76,49760,6,0,P|127:109|146:138,1,69.7500026607514,2|0,0:0|0:0,0:0:0:0:
192,218,49955,1,0,3:0:0:0:
505,29,50149,38,0,B|477:51|441:51|441:51|413:38|413:38|377:39|349:61,1,167.399994891358,8|2,0:0|0:0,0:0:0:0:
329,181,50440,1,0,0:0:0:0:
329,181,50537,6,0,P|331:280|420:324,1,209.250007982254,0|0,3:0|0:0,0:0:0:0:
506,205,50926,2,0,P|491:172|464:146,1,69.7500026607514,8|0,0:0|0:0,0:0:0:0:
412,228,51121,1,0,0:0:0:0:
183,181,51315,6,0,P|180:280|91:324,1,209.250007982254,2|0,0:0|0:0,0:0:0:0:
6,205,51704,2,0,P|20:172|47:146,1,69.7500026607514,8|0,0:0|0:0,0:0:0:0:
100,228,51899,1,2,0:0:0:0:
453,52,52092,38,0,L|284:61,1,139.500005321503,8|0,0:0|3:0,0:0:0:0:
224,64,52383,1,0,3:0:0:0:
59,332,52675,6,0,L|228:323,1,139.500005321503,8|0,0:0|3:0,0:0:0:0:
288,320,52966,1,0,3:0:0:0:
160,163,53160,5,0,3:0:0:0:
160,163,53258,2,0,P|156:199|166:236,1,69.7500026607514,8|0,0:0|0:0,0:0:0:0:
352,221,53451,2,0,P|356:185|346:148,1,69.7500026607514,8|0,0:0|0:0,0:0:0:0:
256,192,53646,37,4,3:2:0:0:
44,68,54423,6,0,P|137:89|217:33,1,186,8|0,0:0|0:0,0:0:0:0:
303,40,55006,2,0,L|396:48,1,93,2|0,0:0|0:0,0:0:0:0:
412,73,55298,1,0,3:0:0:0:
429,99,55395,1,0,3:0:0:0:
446,125,55492,6,0,L|353:117,2,93,0|0|0,3:0|3:0|3:0,0:0:0:0:
311,194,55978,2,0,L|404:202,1,93,8|0,0:0|3:0,3:0:0:0:
209,340,56755,38,0,P|132:294|44:316,1,186,0|0,3:0|0:0,0:0:0:0:
137,256,57338,1,0,3:0:0:0:
137,256,57435,1,0,3:0:0:0:
137,256,57532,2,0,L|126:154,2,93,8|2|0,0:0|0:0|0:0,0:0:0:0:
355,327,58309,6,0,L|502:343,2,139.5,0|0|0,3:0|3:0|3:0,0:0:0:0:
438,198,59087,2,8,L|434:254,2,46.5,8|0|0,0:0|3:0|3:0,0:0:0:0:
493,342,59475,1,8,0:0:0:0:
468,68,59864,37,2,0:0:0:0:
302,43,60252,1,0,3:0:0:0:
468,68,60641,6,0,P|375:89|295:33,1,186,8|0,0:0|0:0,0:0:0:0:
209,40,61224,2,0,L|116:48,1,93,2|0,0:0|0:0,0:0:0:0:
100,73,61516,1,0,3:0:0:0:
83,99,61613,1,0,3:0:0:0:
66,125,61710,6,0,L|159:117,2,93,0|0|0,3:0|3:0|3:0,0:0:0:0:
209,194,62196,2,0,L|116:202,1,93,8|0,0:0|3:0,0:0:0:0:
302,340,62973,6,0,P|379:294|468:316,1,186,0|0,3:0|0:0,0:0:0:0:
375,256,63556,1,0,3:0:0:0:
375,256,63653,1,0,3:0:0:0:
375,256,63750,2,0,L|386:154,2,93,8|2|0,0:0|0:0|0:0,0:0:0:0:
157,327,64527,38,0,L|10:343,2,139.5,0|0|0,3:0|3:0|3:0,0:0:0:0:
256,288,65207,1,0,3:0:0:0:
256,288,65304,6,0,L|380:300,1,93,8|0,0:0|3:0,0:0:0:0:
256,192,65596,2,0,L|132:180,1,93,8|0,0:0|3:0,0:0:0:0:
256,96,65887,6,0,L|302:100,2,46.5,8|8|0,0:0|0:0|3:0,0:0:0:0:
256,192,72299,12,0,75214,0:0:0:0:
236,312,75408,38,0,L|246:373,5,46.5,2|0|0|0|0|0,3:2|3:0|3:0|3:0|3:0|3:0,3:0:0:0:
318,279,75991,2,0,L|328:340,1,46.5,2|2,3:2|3:2,3:2:0:0:
400,246,76185,6,0,L|410:307,5,46.5,2|0|0|0|0|0,3:2|3:0|3:0|3:0|3:0|3:0,3:0:0:0:
482,213,76768,2,0,L|492:274,1,46.5,2|2,3:2|3:2,3:2:0:0:
465,120,76962,5,2,3:2:0:0:
449,77,77059,1,0,3:0:0:0:
419,45,77156,1,0,3:0:0:0:
381,25,77253,1,0,3:0:0:0:
338,24,77350,1,0,3:0:0:0:
296,37,77447,1,0,3:0:0:0:
263,66,77544,1,0,3:0:0:0:
245,105,77642,1,0,3:0:0:0:
212,195,77740,37,2,3:2:0:0:
183,253,77837,1,0,3:0:0:0:
124,279,77934,1,0,3:0:0:0:
62,259,78031,1,0,3:0:0:0:
28,203,78128,1,0,3:0:0:0:
40,139,78225,1,0,3:0:0:0:
90,98,78322,1,0,3:0:0:0:
155,101,78420,1,0,3:0:0:0:
119,186,78517,53,2,3:2:0:0:
256,192,78614,12,0,80071,0:0:0:0:
81,233,80460,22,0,L|91:354,1,104.625003991127
82,346,80848,6,0,L|64:137,1,209.250007982254
187,50,81237,21,2,0:0:0:0:
182,66,81334,1,2,0:0:0:0:
178,83,81431,1,2,0:0:0:0:
173,100,81528,1,0,0:0:0:0:
168,116,81626,6,0,P|251:127|329:98,1,167.399994891358,4|0,3:2|0:0,0:0:0:0:
442,36,81917,1,0,0:0:0:0:
442,36,82014,6,0,P|427:66|423:123,1,83.6999974456788,8|0,0:0|0:0,0:0:0:0:
374,296,82208,2,0,P|392:323|439:355,1,83.6999974456788,2|0,0:0|3:0,0:0:0:0:
485,215,82403,1,2,0:0:0:0:
251,343,82597,5,0,3:0:0:0:
251,343,82694,1,0,0:0:0:0:
251,343,82791,2,0,P|218:328|152:325,1,83.6999974456788,8|0,0:0|0:0,0:0:0:0:
0,187,82986,2,0,P|41:182|79:166,1,83.6999974456788,2|0,0:0|0:0,0:0:0:0:
273,29,83180,38,0,L|254:195,1,167.399994891358,0|0,3:0|0:0,0:0:0:0:
382,379,83471,1,0,0:0:0:0:
382,379,83569,6,0,L|372:283,1,83.6999974456788,8|0,0:0|0:0,0:0:0:0:
442,36,83763,2,0,L|450:119,1,83.6999974456788,2|0,0:0|3:0,0:0:0:0:
465,235,83957,1,2,0:0:0:0:
144,99,84151,6,0,P|171:126|226:143,1,83.6999974456788,0|0,3:0|0:0,0:0:0:0:
450,119,84346,2,0,P|410:130|378:157,1,83.6999974456788,8|0,0:0|0:0,0:0:0:0:
98,247,84540,2,0,P|136:247|187:220,1,83.6999974456788,2|0,0:0|0:0,0:0:0:0:
319,33,84734,38,0,P|294:154|344:267,1,251.099992337036,0|0,3:0|0:0,0:0:0:0:
415,338,85123,1,8,0:0:0:0:
171,381,85317,5,2,0:0:0:0:
104,333,85414,1,0,3:0:0:0:
22,336,85512,2,0,P|5:289|8:242,1,83.6999974456788,2|0,0:0|0:0,0:0:0:0:
212,142,85706,2,0,P|211:183|196:222,1,83.6999974456788,0|0,3:0|0:0,0:0:0:0:
70,33,85900,5,8,0:0:0:0:
153,37,85997,1,0,0:0:0:0:
237,41,86094,1,2,0:0:0:0:
320,45,86191,1,0,0:0:0:0:
404,49,86289,38,0,L|377:153,1,83.6999974456788,0|0,3:0|0:0,0:0:0:0:
314,349,86483,38,0,L|254:335,2,55.7999982971192
473,260,86677,1,8,0:0:0:0:
187,185,86872,21,2,0:0:0:0:
187,185,86969,1,0,3:0:0:0:
187,185,87066,6,0,P|151:186|105:207,1,83.6999974456788,2|0,0:0|3:0,0:0:0:0:
20,220,87260,2,0,P|55:215|103:227,1,83.6999974456788,0|0,0:0|3:0,0:0:0:0:
171,292,87455,6,0,P|145:316|122:361,1,83.6999974456788,8|0,0:0|3:0,0:0:0:0:
54,320,87649,2,0,P|83:339|113:379,1,83.6999974456788,0|0,3:0|0:0,0:0:0:0:
259,336,87843,37,4,3:2:0:0:
338,368,87940,2,0,L|361:155,1,167.399994891358
430,128,88232,6,0,L|512:114,1,83.6999974456788,8|0,0:0|0:0,0:0:0:0:
266,14,88426,2,0,L|158:-4,1,83.6999974456788,2|0,0:0|3:0,0:0:0:0:
33,65,88620,1,2,0:0:0:0:
234,184,88815,5,0,3:0:0:0:
234,184,88912,1,0,0:0:0:0:
234,184,89009,2,0,L|126:166,1,83.6999974456788,8|0,0:0|0:0,0:0:0:0:
370,41,89203,2,0,P|344:69|324:135,1,83.6999974456788,2|0,0:0|0:0,0:0:0:0:
484,335,89398,38,0,P|469:254|401:209,1,167.399994891358,0|0,3:0|0:0,0:0:0:0:
283,360,89689,1,0,0:0:0:0:
283,360,89786,6,0,P|300:321|306:280,1,83.6999974456788,8|0,0:0|0:0,0:0:0:0:
23,228,89980,2,0,P|29:269|46:308,1,83.6999974456788,2|0,0:0|3:0,0:0:0:0:
154,370,90175,1,2,0:0:0:0:
332,88,90369,6,0,L|252:150,1,83.6999974456788,0|0,3:0|0:0,0:0:0:0:
83,23,90563,2,0,L|177:60,1,83.6999974456788,8|0,0:0|0:0,0:0:0:0:
150,270,90758,2,0,L|135:169,1,83.6999974456788,2|0,0:0|0:0,0:0:0:0:
429,21,90952,38,0,B|428:55|444:84|444:84|437:106|425:119|425:119|438:144|435:172|435:172|402:198|400:252,1,251.099992337036,0|0,3:0|0:0,0:0:0:0:
441,342,91341,1,8,0:0:0:0:
234,316,91535,5,2,0:0:0:0:
234,316,91632,1,0,3:0:0:0:
234,316,91729,2,0,P|272:294|338:288,1,83.6999974456788,2|0,0:0|0:0,0:0:0:0:
76,119,91923,5,0,3:0:0:0:
76,119,92020,1,0,0:0:0:0:
76,119,92117,2,0,P|38:97|-28:91,1,83.6999974456788,8|0,0:0|0:0,0:0:0:0:
256,26,92312,2,0,L|243:127,1,83.6999974456788,0|2,0:0|0:0,0:0:0:0:
34,354,92506,37,0,3:0:0:0:
34,354,92603,2,0,P|86:282|179:244,1,167.399994891358,8|0,0:0|0:0,0:0:0:0:
428,74,92895,2,0,L|416:178,1,83.6999974456788,8|0,0:0|0:0,3:0:0:0:
320,369,93089,2,0,L|310:285,1,83.6999974456788,0|8,3:0|0:0,0:0:0:0:
196,57,93284,5,8,0:0:0:0:
268,14,93381,1,0,3:0:0:0:
311,86,93478,1,0,3:0:0:0:
237,128,93575,1,8,0:0:0:0:
253,70,93672,5,0,3:0:0:0:
253,70,93769,1,0,3:0:0:0:
253,70,93866,1,8,0:0:0:0:
253,70,93964,1,0,3:0:0:0:
253,70,94061,38,0,L|47:55,1,167.399994891358,4|0,3:2|0:0,0:0:0:0:
0,213,94352,1,0,0:0:0:0:
0,213,94449,6,0,P|34:189|62:159,1,83.6999974456788,8|0,0:0|0:0,0:0:0:0:
148,331,94644,2,0,P|182:354|210:384,1,83.6999974456788,2|0,0:0|3:0,0:0:0:0:
311,178,94838,1,2,0:0:0:0:
469,343,95032,5,0,3:0:0:0:
469,343,95129,1,0,0:0:0:0:
469,343,95227,2,0,L|452:260,1,83.6999974456788,8|0,0:0|0:0,0:0:0:0:
389,21,95421,2,0,L|372:103,1,83.6999974456788,2|0,0:0|0:0,0:0:0:0:
302,281,95615,38,0,P|221:266|166:204,1,167.399994891358,0|0,3:0|0:0,0:0:0:0:
6,77,95907,1,0,0:0:0:0:
6,77,96004,6,0,B|5:117|5:117|33:169,1,83.6999974456788,8|0,0:0|0:0,0:0:0:0:
247,98,96198,2,0,B|247:57|247:57|219:5,1,83.6999974456788,2|0,0:0|3:0,0:0:0:0:
121,83,96392,1,2,0:0:0:0:
46,270,96587,6,0,P|84:286|125:287,1,83.6999974456788,0|0,3:0|0:0,0:0:0:0:
389,342,96781,2,0,P|336:320|273:324,1,83.6999974456788,8|0,0:0|0:0,0:0:0:0:
149,384,96975,2,0,P|191:346|251:328,1,83.6999974456788,2|0,0:0|0:0,0:0:0:0:
446,198,97170,38,0,P|325:206|239:119,1,251.099992337036,0|0,3:0|0:0,0:0:0:0:
227,19,97558,1,8,0:0:0:0:
475,33,97752,5,2,0:0:0:0:
460,115,97849,1,0,3:0:0:0:
446,197,97947,2,0,P|461:233|517:288,1,83.6999974456788,2|0,0:0|0:0,0:0:0:0:
375,12,98141,2,0,P|352:43|331:94,1,83.6999974456788,0|0,3:0|0:0,0:0:0:0:
199,236,98335,5,8,0:0:0:0:
115,233,98432,1,0,0:0:0:0:
52,178,98529,1,2,0:0:0:0:
37,96,98626,1,0,0:0:0:0:
78,23,98724,38,0,P|117:31|166:73,1,83.6999974456788,0|0,3:0|0:0,0:0:0:0:
188,341,98918,38,0,L|245:346,2,55.7999982971192
10,269,99113,1,8,0:0:0:0:
291,163,99307,21,2,0:0:0:0:
291,163,99404,1,0,3:0:0:0:
291,163,99501,6,0,P|328:145|356:114,1,83.6999974456788,2|0,0:0|0:0,0:0:0:0:
322,33,99695,2,0,P|353:60|372:97,1,83.6999974456788,0|0,3:0|0:0,0:0:0:0:
471,100,99890,5,8,0:0:0:0:
469,120,99987,1,0,0:0:0:0:
467,141,100084,1,2,0:0:0:0:
465,162,100181,1,0,0:0:0:0:
463,183,100278,38,0,L|487:375,1,186,0|8,3:0|0:0,0:0:0:0:
252,337,100861,1,0,0:0:0:0:
252,337,100958,1,0,3:0:0:0:
252,337,101056,2,0,L|345:316,1,93,0|0,0:0|3:0,0:0:0:0:
158,289,101444,1,8,0:0:0:0:
361,337,101638,1,0,0:0:0:0:
69,376,101833,6,0,L|45:191,1,186,0|8,3:0|0:0,0:0:0:0:
164,37,102416,1,0,0:0:0:0:
164,37,102513,1,0,3:0:0:0:
164,37,102611,2,0,L|143:130,1,93,0|0,0:0|3:0,0:0:0:0:
260,89,102999,1,8,0:0:0:0:
57,41,103193,1,0,0:0:0:0:
324,24,103387,6,0,P|357:29|404:50,1,69.7500026607514,0|0,3:0|0:0,0:0:0:0:
455,104,103581,2,0,P|448:139|435:171,1,69.7500026607514,0|0,3:0|0:0,0:0:0:0:
372,238,103776,2,0,P|337:231|305:219,1,69.7500026607514,0|0,3:0|0:0,0:0:0:0:
241,155,103970,2,0,P|246:121|267:74,1,69.7500026607514,0|0,3:0|0:0,0:0:0:0:
324,24,104164,38,0,P|357:29|404:50,1,69.7500026607514,0|0,3:0|0:0,0:0:0:0:
455,104,104359,2,0,P|448:139|435:171,1,69.7500026607514,0|0,3:0|0:0,0:0:0:0:
372,238,104553,2,0,P|337:231|305:219,1,69.7500026607514,0|0,3:0|0:0,0:0:0:0:
241,155,104747,2,0,P|246:121|267:74,1,69.7500026607514,0|0,3:0|0:0,0:0:0:0:
348,130,104942,54,0,L|329:366,1,232.5,0|0,3:0|0:0,0:0:0:0:
317,372,106107,2,0,L|330:199,1,139.500005321503
96,384,106496,6,0,B|87:285|87:285|58:238|58:238|49:140,1,251.099992337036,0|0,3:0|0:0,0:0:0:0:
123,42,106885,38,0,L|63:35,2,55.7999982971192,2|0|0,0:0|0:0|0:0,0:0:0:0:
225,145,107079,2,0,L|169:151,2,55.7999982971192,2|0|0,0:0|0:0|0:0,0:0:0:0:
356,68,107273,1,8,0:0:0:0:
457,160,107467,2,0,L|517:153,2,55.7999982971192,2|0|0,0:0|0:0|0:0,0:0:0:0:
377,362,107662,37,0,0:0:0:0:
377,362,107759,2,0,P|372:272|327:186,1,167.399994891358,2|0,0:0|3:0,0:0:0:0:
75,288,108050,6,0,B|114:288|139:270|139:270|164:285|164:285|195:261|246:268,1,167.399994891358,0|0,3:0|0:0,0:0:0:0:
159,131,108342,1,0,3:0:0:0:
159,131,108439,6,0,L|165:187,2,55.7999982971192,2|0|0,0:0|0:0|0:0,0:0:0:0:
267,88,108633,21,0,3:0:0:0:
350,95,108730,1,0,3:0:0:0:
432,102,108828,6,0,P|458:68|467:28,1,83.6999974456788,8|0,0:0|0:0,0:0:0:0:
245,9,109022,2,0,P|248:51|267:88,1,83.6999974456788,0|0,3:0|0:0,0:0:0:0:
339,263,109216,2,0,L|346:154,1,83.6999974456788,8|0,0:0|0:0,0:0:0:0:
458,331,109410,6,0,P|343:300|212:366,1,251.099992337036,4|0,3:2|0:0,0:0:0:0:
128,371,109799,1,0,3:0:0:0:
0,181,109993,37,0,0:0:0:0:
88,210,110091,2,0,P|175:208|255:138,1,167.399994891358,0|0,3:0|3:0,3:0:0:0:
184,78,110382,6,0,L|90:67,2,83.6999974456788,10|0|0,0:0|0:0|0:0,0:0:0:0:
308,10,110771,1,0,0:0:0:0:
466,74,110965,5,2,0:0:0:0:
466,74,111062,1,2,0:0:0:0:
466,74,111159,2,0,B|486:33|486:33|486:114|486:114|466:154|466:154|466:235,2,251.099992337036,0|0|0,3:0|3:0|3:0,0:0:0:0:
289,157,111936,37,8,0:0:0:0:
297,197,112033,1,0,3:0:0:0:
305,238,112130,1,0,3:0:0:0:
374,288,112228,5,8,0:0:0:0:
366,328,112325,1,0,3:0:0:0:
358,369,112422,2,0,B|279:339|279:339|173:354,1,167.399994891358,8|0,0:0|0:0,0:0:0:0:
101,347,112714,38,0,L|60:354,4,41.8499987228394,0|0|0|0|0,3:0|0:0|0:0|0:0|0:0,0:0:0:0:
169,165,113102,38,0,B|125:170|90:192|90:192|60:162|21:145,1,167.399994891358,4|0,3:2|0:0,0:0:0:0:
108,59,113394,1,0,0:0:0:0:
108,59,113491,2,0,L|230:50,1,83.6999974456788,8|0,0:0|0:0,0:0:0:0:
334,146,113685,6,0,L|267:135,2,55.7999982971192,2|0|0,0:0|0:0|0:0,0:0:0:0:
474,37,113879,21,0,0:0:0:0:
474,37,113977,2,0,P|434:115|461:264,1,167.399994891358,2|0,0:0|3:0,0:0:0:0:
483,332,114268,6,0,B|444:332|419:314|419:314|394:329|394:329|363:305|312:312,1,167.399994891358,0|0,3:0|0:0,0:0:0:0:
210,362,114560,1,0,3:0:0:0:
210,362,114657,22,0,L|216:306,2,55.7999982971192,2|0|0,0:0|0:0|0:0,0:0:0:0:
35,233,114851,53,0,3:0:0:0:
35,233,114948,1,0,3:0:0:0:
35,233,115045,38,0,P|84:240|132:227,1,83.6999974456788,8|0,0:0|0:0,0:0:0:0:
319,179,115240,2,0,P|270:186|222:173,1,83.6999974456788,8|0,0:0|0:0,0:0:0:0:
132,112,115434,54,0,P|125:21|142:112,1,251.099992337036,0|0,3:0|0:0,0:0:0:0:
125,328,115822,22,0,P|201:278|298:273,1,167.399994891358,4|0,3:2|0:0,0:0:0:0:
500,164,116114,2,0,P|459:165|419:152,1,83.6999974456788,0|0,3:0|0:0,0:0:0:0:
319,179,116308,1,8,0:0:0:0:
319,179,116405,1,8,0:0:0:0:
78,32,116600,6,0,L|88:199,1,167.399994891358,4|0,3:2|0:0,0:0:0:0:
266,352,116891,2,0,L|278:242,1,83.6999974456788,0|0,3:0|0:0,0:0:0:0:
212,147,117085,1,8,0:0:0:0:
212,147,117183,1,8,0:0:0:0:
446,53,117377,38,0,P|355:40|262:44,1,186,4|0,3:2|0:0,0:0:0:0:
105,115,117668,1,8,0:0:0:0:
105,115,117766,1,8,0:0:0:0:
385,267,117960,53,0,3:0:0:0:
256,192,118057,12,0,121263,0:0:0:0:
